#TITLE:Getting Away With Murder;
#SUBTITLE:;
#ARTIST:Papa Roach;
#TITLETRANSLIT:;
#SUBTITLETRANSLIT:;
#ARTISTTRANSLIT:;
#GENRE:;
#CREDIT:;
#BANNER:Getting Away With Murder.png;
#BACKGROUND:Getting Away With Murder-bg.png;
#LYRICSPATH:;
#CDTITLE:;
#MUSIC:Getting Away With Murder.ogg;
#OFFSET:-9.260000;
#SAMPLESTART:46.198616;
#SAMPLELENGTH:15.000000;
#SELECTABLE:YES;
#BPMS:0.000000=103.900002
;
#STOPS:
;
#BGCHANGES:-0.500=Getting Away With Murder.avi=1.000=1=0=0=StretchNoLoop==CrossFade==,
99999=-nosongbg-=1.000=0=0=0 // don't automatically add -songbackground-
;
#KEYSOUNDS:;
#ATTACKS:;

//---------------dance-single - ----------------
#NOTES:
     dance-single:
     :
     Beginner:
     1:
     0.069640,0.097377,0.000000,0.000000,0.000000,51.000000,51.000000,0.000000,0.000000,0.000000,0.000000,0.069640,0.097377,0.000000,0.000000,0.000000,51.000000,51.000000,0.000000,0.000000,0.000000,0.000000:
1000
0000
0000
0000
,
0001
0000
0000
0000
,
0100
0000
0000
0000
,
0010
0000
0000
0000
,
0010
0000
0000
0000
,
0100
0000
0000
0000
,
0001
0000
0000
0000
,
1000
0000
0000
0000
,
0100
0000
0000
0000
,
0100
0000
0000
0000
,
0010
0000
0000
0000
,
0010
0000
0000
0000
,
0001
0000
0000
0000
,
0001
0000
0000
0000
,
1000
0000
0000
0000
,
1000
0000
0000
0000
,
0010
0000
0010
0000
,
0010
0000
0000
0000
,
0100
0000
0100
0000
,
0100
0000
0000
0000
,
0001
0000
0001
0000
,
0001
0000
0000
0000
,
1000
0000
1000
0000
,
1000
0000
0000
0000
,
0001
0000
0000
0000
,
0010
0000
0000
0000
,
0010
0000
0000
0000
,
0100
0000
0000
0000
,
0100
0000
0000
0000
,
1000
0000
0000
0000
,
1000
0000
0000
0000
,
0001
0000
0000
0000
,
0001
0000
0000
0000
,
0100
0000
0100
0000
,
0100
0000
0000
0000
,
0010
0000
0010
0000
,
0010
0000
0000
0000
,
1000
0000
1000
0000
,
1000
0000
0000
0000
,
0001
0000
0001
0000
,
0001
0000
0001
0001
;

//---------------dance-single - ----------------
#NOTES:
     dance-single:
     :
     Easy:
     4:
     0.195266,0.233705,0.114702,0.076468,0.000000,143.000000,131.000000,12.000000,8.000000,0.000000,0.000000,0.195266,0.233705,0.114702,0.076468,0.000000,143.000000,131.000000,12.000000,8.000000,0.000000,0.000000:
0010
0000
0010
0000
,
0100
0000
0100
0000
,
0001
0000
0001
0000
,
1000
0000
1000
0000
,
0001
0000
0010
0000
,
0001
0000
1000
0000
,
0010
0000
0100
0000
,
0001
0000
0100
0000
,
0010
0010
1000
1000
,
0001
0001
0000
0010
,
0100
0100
0000
1000
,
0001
0100
0010
0010
,
0100
0001
1000
1000
,
0100
0100
0000
1000
,
0010
0010
0000
0100
,
0001
0010
0100
1000
,
0001
0010
0100
0110
,
1000
0010
0100
1001
,
0001
1000
0100
0110
,
0002
0003
2000
3000
,
0010
0100
0001
1001
,
0100
0010
0001
1001
,
0010
1000
0001
0110
,
0200
0300
0020
0030
,
0001
0000
0000
1000
0000
0000
0001
0000
,
1000
0010
0100
0001
,
1000
1000
0000
0100
,
0010
0010
0000
0100
,
1000
0010
0100
0001
,
0010
0001
1000
0010
,
0100
0100
0000
0001
,
0010
0010
0000
0100
,
1000
0010
0100
0001
,
0010
0100
1000
1001
,
0010
0100
0001
1001
,
0001
1000
0010
0110
,
0200
0300
0020
0030
,
1000
0010
0100
1001
,
0001
0010
0100
1001
,
0001
1000
0010
0110
,
0002
0003
2000
3000
;

//---------------dance-single - ----------------
#NOTES:
     dance-single:
     :
     Medium:
     5:
     0.290851,0.253181,0.038234,0.000000,0.000000,213.000000,209.000000,4.000000,0.000000,0.000000,0.000000,0.290851,0.253181,0.038234,0.000000,0.000000,213.000000,209.000000,4.000000,0.000000,0.000000,0.000000:
0001
0000
0100
0000
0010
0000
1000
0010
,
1000
0000
0100
0000
0010
0000
0001
0100
,
0001
0000
0010
0000
0100
0000
1000
0001
,
1000
0010
0001
0100
,
1000
0100
0010
0000
0010
0000
0001
0000
,
1000
0010
0100
0000
0001
0000
0010
0000
,
0001
1000
0010
0000
0100
0000
0001
0000
,
0010
0100
1000
0000
0010
0000
0100
0000
,
0001
0100
0001
0000
1000
0100
1000
0000
,
0010
0010
0000
0100
,
0001
1000
0001
0000
0000
0010
0000
0001
,
1000
0001
0100
0110
,
0010
0000
1000
0000
0100
1000
0100
1000
,
0010
0000
0100
0000
0001
0010
0001
0010
,
0100
0000
0100
0000
1000
0000
0001
0100
,
0001
1000
0010
0100
,
0000
0001
0100
0001
0100
0001
0100
0000
,
0000
0010
1000
0010
1000
0010
1000
0000
,
0000
0100
0010
0100
0010
0100
0010
0000
,
0001
1000
0010
0100
,
0000
0001
0010
0001
0010
0001
0010
0000
,
0000
0100
1000
0100
1000
0100
1000
0000
,
0000
0001
1000
0001
1000
0001
1000
0000
,
0010
0100
0001
1000
,
1100
0000
0000
0011
0000
0000
1001
0000
,
1000
0000
0100
0000
0010
0001
0010
0001
,
1000
0000
0010
0000
0100
0000
0001
0100
,
0001
0000
0010
0000
0000
0100
0000
1000
,
0000
0010
0000
1000
0001
0000
1000
0000
,
0010
0000
0100
0000
0001
0010
0001
0010
,
0100
0000
1000
0000
0010
1000
0010
1000
,
0001
0000
0010
0000
0100
0000
1000
0001
,
0100
0010
1000
0001
,
0000
0010
0100
0010
0100
0010
0100
0000
,
0000
1000
0001
1000
0001
1000
0001
0000
,
0000
0100
0001
0100
0001
0100
0001
0000
,
0010
0100
1000
0010
,
0000
0100
0001
0100
0001
0100
0001
0000
,
0000
1000
0010
1000
0010
1000
0010
0000
,
0000
0100
0010
0100
0010
0100
0010
0000
,
1000
0001
0010
0100
;

//---------------dance-single - ----------------
#NOTES:
     dance-single:
     :
     Hard:
     8:
     0.503869,0.486886,0.621302,0.000000,0.152936,369.000000,304.000000,65.000000,0.000000,0.000000,0.000000,0.503869,0.486886,0.621302,0.000000,0.152936,369.000000,304.000000,65.000000,0.000000,0.000000,0.000000:
// measure 0
0001
0000
0100
0000
0000
0010
1000
0000
0010
0000
0100
0000
0001
0100
0001
0100
,  // measure 1
0010
0000
1000
0000
0100
0000
0010
0000
0001
0000
1000
0100
1000
0000
0010
0000
,  // measure 2
0100
0000
0001
0000
0010
0000
0001
0000
1000
0000
0010
1000
0010
0000
0100
0000
,  // measure 3
0001
0000
0010
0000
0100
0000
1000
0000
0001
0000
1000
0001
1000
0000
0010
0000
,  // measure 4
0010
0000
1000
0000
0100
0000
1000
0000
0010
0000
0100
0000
0001
0010
0001
0010
,  // measure 5
0100
0000
1000
0000
0010
0000
1000
0000
0001
0000
0010
0001
0010
0000
0100
0000
,  // measure 6
1000
0010
1000
0001
0100
0010
0100
0001
,  // measure 7
0010
0000
0100
0000
1000
0000
0001
0000
0100
0000
0010
1000
0010
0000
0100
0000
,  // measure 8
0001
0100
0010
0010
1000
0001
0010
0100
,  // measure 9
1100
0000
0011
0000
0100
1000
0010
0001
,  // measure 10
0010
1000
0001
0000
0010
0100
0000
1000
,  // measure 11
0010
0000
0000
0100
0000
0000
0001
0000
0011
0000
0000
0000
1100
0000
0000
0000
,  // measure 12
1000
0000
0100
0000
0001
0000
0100
0000
0010
0000
0000
0010
0001
0000
1000
0000
,  // measure 13
0010
0100
0101
0000
0010
1000
0100
0010
,  // measure 14
0011
0000
1100
0000
1000
0001
0100
0010
,  // measure 15
1000
0010
0001
0100
1100
0000
1001
0000
,  // measure 16
0001
0100
0010
1000
1010
0110
0101
0000
,  // measure 17
0001
0010
0100
1000
1100
0110
0011
0000
,  // measure 18
0001
1000
0010
0100
0101
1001
1100
0000
,  // measure 19
1000
0100
0000
1000
0100
0000
1000
0000
0010
0000
0000
0000
0100
0000
0000
0000
,  // measure 20
0001
0010
0100
1000
1010
0110
0101
0000
,  // measure 21
0001
0010
0100
1000
1100
0110
0011
0000
,  // measure 22
0001
0000
0010
0000
0100
0000
1000
0000
1010
0000
0110
0000
0101
0000
0000
0001
,  // measure 23
0100
0001
0000
0100
0001
0000
1000
0000
1100
0000
0000
0000
0011
0000
0000
0000
,  // measure 24
0001
0010
0001
0010
0000
0000
0100
1000
0100
1000
0000
0000
0001
0100
0001
0100
,  // measure 25
0010
1000
0100
1000
0001
0001
0010
0100
,  // measure 26
1100
0000
1001
0000
0001
0100
0010
1000
,  // measure 27
1010
0000
0101
0000
0001
0011
0000
0110
,  // measure 28
0000
1100
0000
1000
1001
0000
0110
0000
,  // measure 29
0010
0000
0100
0001
0100
0000
0010
0000
1000
0000
0100
0000
0010
0000
0001
1000
,  // measure 30
0001
0000
0101
0000
0100
0010
1000
0100
,  // measure 31
0110
0000
0011
0000
0100
1000
0010
0100
,  // measure 32
0001
0010
0000
0001
1000
0000
0010
0000
0110
0000
0000
0000
1001
0000
0000
0000
,  // measure 33
0001
0010
0100
1000
1010
0110
0101
0000
,  // measure 34
0001
0010
0100
1000
1100
1001
0101
0000
,  // measure 35
0001
0100
0010
1000
1100
0110
0011
0000
,  // measure 36
0001
1000
0000
0001
1000
0000
0010
0000
0110
0000
0000
0000
1001
0000
0000
0000
,  // measure 37
0001
0010
0100
1000
1010
1001
0101
0001
,  // measure 38
0000
0010
0100
1000
1100
1001
0101
0100
,  // measure 39
0000
0000
0010
0000
1000
0000
0100
0000
0110
0000
0011
0000
1001
0000
0001
1000
,  // measure 40
0010
1000
0000
0010
1000
0000
0001
0000
0011
0000
0000
0000
1100
0000
0000
0000
;

//---------------dance-double - ----------------
#NOTES:
     dance-double:
     :
     Hard:
     8:
     0.524352,0.468844,0.477925,0.057351,0.215066,384.000000,334.000000,50.000000,6.000000,0.000000,0.000000,0.524352,0.468844,0.477925,0.057351,0.215066,384.000000,334.000000,50.000000,6.000000,0.000000,0.000000:
10000000
01000000
10000000
00000000
00100000
00000000
00100000
00000000
01000000
00000000
01000000
00000000
00010000
00000000
10000000
00000000
,
00010000
01000000
00010000
00000000
00100000
00000000
00100000
00000000
00001000
00010000
00001000
00000000
00010000
00000000
00010000
00000000
,
00000100
00001000
00000100
00000000
00000010
00000000
00000010
00000000
00000001
00000000
00000001
00000000
00000100
00000000
00000100
00000000
,
00000010
00001000
00000010
00000000
00000100
00000000
00000100
00000000
00000001
00001000
00000001
00000000
00001000
00000000
00000100
00000000
,
00001000
00000010
00001000
00000000
00000100
00000000
00001000
00000000
00000100
00000000
00010000
00000000
00001000
00000000
01000000
00000000
,
00010000
01000000
00010000
00000000
10000000
00000000
01000000
00000000
00100000
01000000
00100000
00000000
00010000
00000000
10000000
00000000
,
00100000
01000000
00100000
00000000
01100000
00000000
01000000
00000000
00010000
00000000
10000000
00000000
10010000
00000000
10000000
00000000
,
01000000
10000000
00010000
00000000
00110000
00000000
00100000
00000000
00001000
00010000
00000100
00000000
00001100
00000000
00001000
00000000
,
00000010
00000100
00000001
00000100
00001000
00000100
00000010
00000100
,
00000002
00000000
00000010
00000000
00001003
00000000
00000000
00000000
00000100
00010000
00000100
00000000
00010000
00000000
00001000
00000000
,
01000000
00000000
00010000
00000000
01010000
00000000
00000000
00000000
00010000
10000000
01000000
00000000
11000000
00000000
01000000
00000000
,
20000000
00000000
00000000
00100000
00000000
00000000
30010000
00000000
01000000
00100000
00000000
00000000
10010000
00000000
00000000
00000000
,
10000000
01000000
00010000
01000000
00100000
01000000
10000000
00100000
,
20000000
00000000
01000000
00000000
30010000
00000000
00000000
00000000
01000000
00001000
01000000
00000000
00001000
00000000
00010000
00000000
,
00000100
00000000
00001000
00000000
00001100
00000000
00000000
00000000
00000010
00000001
00000100
00000000
00001000
00000000
00000100
00000000
,
00000001
00000000
00000010
00000000
00000100
00000000
00001000
00000000
00000100
00000001
00000000
00000000
00000110
00000000
00001000
00000000
,
00000001
00000100
00000010
00001000
00001010
00001001
00000101
00000000
,
00000010
00010000
00001000
00100000
00110000
01100000
11000000
00000000
,
10000000
01000000
00100000
00010000
01010000
00011000
00010100
00000000
,
00000100
00010000
00000000
00001000
01000000
00000000
00001000
00000000
00010000
00001000
00010000
00000000
00001000
00010000
00001000
00000000
,
00010000
00100000
01000000
00010000
01010000
00110000
01100000
00000000
,
00100000
01000000
10000000
00100000
10100000
01100000
11000000
00000000
,
01000000
00010000
00100000
00001000
00101000
00011000
00010010
00000000
,
00000010
00010000
00000000
00001000
00100000
00000000
00001000
00000000
00010000
00001000
00010000
00000000
00001000
00010000
00001000
00000000
,
00010000
00000000
00000000
00010000
00000000
00000000
00001000
00000000
00000000
00001000
00000000
00000000
00010000
00000000
00000000
00001000
,
01000000
00100000
10000000
00100000
00010000
00100000
01000000
00100000
,
20000000
00000000
01000000
00000000
30010000
00000000
00000000
00000000
00100000
00001000
00100000
00000000
00001000
00000000
00010000
00000000
,
00000010
00000000
00001000
00000000
00001010
00000000
00000000
00000000
00001000
00000001
00000010
00000000
00000011
00000000
00000010
00000000
,
00000002
00000000
00000000
00000100
00000000
00000000
00001003
00000000
00000010
00000100
00000000
00000000
00001001
00000000
00000000
00000000
,
00000001
00000010
00001000
00000010
00000100
00000010
00000001
00000100
,
00000002
00000000
00000010
00000000
00001003
00000000
00000000
00000000
00000010
00010000
00000010
00000000
00010000
00000000
00001000
00000000
,
00100000
00000000
00010000
00000000
00110000
00000000
00000000
00000000
01000000
10000000
00100000
00000000
00010000
00000000
00100000
00000000
,
10000000
00000000
01000000
00000000
00100000
00000000
00010000
00000000
00100000
10000000
00000000
00000000
01100000
00000000
00010000
00000000
,
10000000
00100000
01000000
00010000
01010000
10010000
10100000
00000000
,
01000000
00001000
00010000
00000100
00001100
00000110
00000011
00000000
,
00000001
00000010
00000100
00001000
00001010
00011000
00101000
00000000
,
00100000
00001000
00000000
00010000
00000010
00000000
00010000
00000000
00001000
00010000
00001000
00000000
00010000
00001000
00010000
00000000
,
00001000
00000100
00000010
00001000
00001010
00001100
00000110
00000000
,
00000100
00000010
00000001
00000100
00000101
00000110
00000011
00000000
,
00000010
00001000
00000100
00010000
00010100
00011000
01001000
00000000
,
01000000
00001000
00000000
00010000
00000100
00000000
00010000
00000000
00001000
00010000
00001000
00000000
00010000
00001000
00010000
00000000
;

//---------------dance-double - ----------------
#NOTES:
     dance-double:
     :
     Medium:
     6:
     0.323623,0.293028,0.028675,0.038234,0.028675,237.000000,234.000000,3.000000,4.000000,0.000000,0.000000,0.323623,0.293028,0.028675,0.038234,0.028675,237.000000,234.000000,3.000000,4.000000,0.000000,0.000000:
10000000
01000000
00010000
00000000
00001000
00010000
00001000
00000000
,
00010000
00001000
00000100
00000000
00000001
00001000
00000001
00000000
,
00000010
00001000
00010000
00000000
00001000
00010000
00001000
00000000
,
00010000
00100000
10000000
00000000
00010000
10000000
00010000
00000000
,
10000000
01000000
00100000
00010000
01000000
00000000
00001000
00000000
,
00010000
00000100
00001000
00000001
00000010
00000000
00000100
00000000
,
00000010
00000001
00000100
00000000
00000010
00000000
00000100
00000000
,
00000010
00001000
00000100
00000000
00000010
00000000
00000100
00000000
,
00010000
00001000
00010000
00000000
00001000
00000000
01000000
00000000
,
00010000
10000000
01000000
00000000
00100000
00000000
01000000
00000000
,
10000000
00010000
00100000
00000000
00001000
00000000
01000000
00000000
,
00001000
00010000
00000100
00010000
00001000
00000000
00011000
00000000
,
00010000
00000100
00010000
00000000
00000100
00000000
00000010
00000000
,
00000001
00000100
00001000
00000000
00000100
00000000
00000001
00000000
,
00000010
00000001
00001000
00000000
00000001
00000000
00001000
00000000
,
00001100
00000001
00000011
00000100
,
00001000
00000010
00001000
00000010
00010000
00001000
00100000
00000000
,
00010000
01000000
00010000
01000000
00001000
00010000
00000100
00000000
,
00000010
00000100
00001000
00000000
00000010
00010000
00001000
00000000
,
00100000
00000000
00000000
00001000
00000000
00000000
01000000
00000000
00100000
00000000
01000000
00000000
00010000
00000000
00100000
00000000
,
01000000
10000000
00010000
00000000
00100000
00000000
00001000
00000000
,
00010000
00000100
00001000
00000000
00000010
00000000
00010000
00000000
,
00001000
01000000
00010000
00000000
00100000
00000000
00001000
00000000
,
00010000
00000000
00000000
00010000
00000000
00000000
00010000
00000000
00001000
00000000
00010000
00000000
00000100
00000000
00000010
00000000
,
00000002
00000000
00000000
00001000
00000003
00000000
00002000
00000000
00000000
00000001
00003000
00000000
00000001
00000000
00000000
00000000
,
00000010
00000010
00000100
00000100
00000001
00001000
00000001
00001000
,
00000100
00001000
00000010
00000000
00010000
00000000
00001000
00000000
,
00100000
00010000
01000000
00000000
00100000
00000000
01000000
00000000
,
00100000
00000000
10000000
00010000
10000000
01000000
10000000
00000000
,
01000000
01000000
00100000
00000000
00020000
00000000
01030000
00000000
,
00001000
00010000
00001000
00000000
00020000
00000000
00030100
00000000
,
00000010
00000100
00001000
00000000
00000001
00000000
00000100
00000000
,
00000010
00000000
00000100
00000010
00001000
00000001
00000100
00000000
,
00001000
01000000
00010000
01000000
00001000
00010000
00000100
00000000
,
00001000
00000010
00001000
00000010
00010000
00001000
00100000
00000000
,
01000000
00100000
00010000
00000000
01000000
00001000
00010000
00000000
,
00000100
00000000
00000000
00010000
00000000
00000000
00000010
00000000
00000100
00000000
00000010
00000000
00001000
00000000
00000100
00000000
,
00000010
00000001
00001000
00000000
00000100
00000000
00010000
00000000
,
00001000
00100000
00010000
00000000
01000000
00000000
00001000
00000000
,
00010000
00000010
00001000
00000000
00000100
00000000
00010000
00000000
,
00001000
00000000
00000000
00001000
00000000
00000000
00001000
00000000
00010000
00000000
00001000
00000000
00100000
00000000
01000000
00000000
;

//---------------dance-double - ----------------
#NOTES:
     dance-double:
     :
     Easy:
     4:
     0.223942,0.214887,0.057351,0.095585,0.000000,164.000000,158.000000,6.000000,10.000000,0.000000,0.000000,0.223942,0.214887,0.057351,0.095585,0.000000,164.000000,158.000000,6.000000,10.000000,0.000000,0.000000:
10000000
01000000
10000000
10000000
,
00010000
01000000
00010000
00000000
,
00100000
00001000
00010000
00010000
,
00000010
00010000
00000100
00000000
,
00001000
00000100
00000010
00000000
,
00000001
00000100
00000010
00000000
,
00010000
00000100
00001000
00000100
,
00010000
00001000
01000000
00010000
,
00100000
00010000
01000000
01000000
,
00100000
00200000
00300000
01000000
,
00010000
00100000
00010000
01000000
,
10000000
01000000
00010000
10000000
,
01000000
01000000
10000000
10000000
,
00100000
20000000
30000000
01000000
,
00010000
00002000
00003000
00010000
,
00001000
00000100
00000001
00000020
,
00000030
00000000
00000100
00001000
00000100
00000000
00000010
00000000
,
00000000
00000000
00000100
00000001
00000100
00000000
00000010
00000000
,
00000000
00000000
00000001
00001000
00000001
00000000
00000100
00000000
,
00011000
00010000
00100000
00100000
,
01000000
00000000
00010000
00000000
10000000
01000000
10000000
00000000
,
00000000
00000000
00100000
00000000
01000000
00010000
01000000
00000000
,
00000000
00000000
00100000
00000000
10000000
00010000
10000000
00000000
,
01000000
01000000
00011000
00001000
,
00000010
00000000
00000000
00000000
,
00000001
00000100
00000001
00001000
,
00000001
00000120
00000030
00000100
,
00010000
00012000
00003000
00010000
,
00001000
01000000
10000000
01000000
,
00010000
00100000
01000000
10000000
,
00100000
20020000
30030000
00010000
,
01000000
20020000
30030000
10000000
,
01000000
00100000
01000000
00010000
,
00001000
00000000
00010000
00000000
00000100
00000010
00000100
00000000
,
00010000
00000000
00000001
00000000
00000100
00000010
00000100
00000000
,
00000001
00000000
00000010
00000000
00001000
00010000
00001000
00000000
,
00010000
00100000
01000000
00010000
,
10000000
00000000
01000000
00000000
00100000
01000000
00100000
00000000
,
00010000
00000000
10000000
00000000
01000000
00100000
01000000
00000000
,
10000000
00000000
00010000
00000000
00100000
01000000
00100000
00000000
,
00010000
00000000
00001000
00000000
00000100
00000000
00010000
00001000
;
