#TITLE:Funk Boogie;
#SUBTITLE:;
#ARTIST:Funk Kid feat. KOOL BOYS;
#TITLETRANSLIT:;
#SUBTITLETRANSLIT:;
#ARTISTTRANSLIT:;
#GENRE:;
#CREDIT:;
#BANNER:Funk Boogie.png;
#BACKGROUND:Funk Boogie-bg.png;
#LYRICSPATH:;
#CDTITLE:;
#MUSIC:Funk Boogie.ogg;
#OFFSET:-0.042449;
#SAMPLESTART:39.654243;
#SAMPLELENGTH:15.103600;
#SELECTABLE:YES;
#DISPLAYBPM:127.000000;
#BPMS:0.000000=127.546989
,16.000000=127.122002
;
#STOPS:
;
#BGCHANGES:;
#KEYSOUNDS:;
#ATTACKS:;

//---------------dance-single - ----------------
#NOTES:
     dance-single:
     :
     Beginner:
     1:
     0.151786,0.204167,0.083333,0.000000,0.000000,102.000000,94.000000,8.000000,0.000000,0.000000,0.000000,0.151786,0.204167,0.083333,0.000000,0.000000,102.000000,94.000000,8.000000,0.000000,0.000000,0.000000:
0000
0000
0000
0000
,
0000
0000
0000
0000
,
0000
0000
0000
0000
,
0000
0000
0000
0000
,
0000
0000
0000
0000
,
0010
0000
0010
0000
,
0100
0000
0100
0000
,
0001
0000
0000
0000
,
1000
0000
0000
0000
,
0100
0000
0001
0000
,
0001
0000
1000
0000
,
0001
0000
1000
0000
,
1000
0000
0100
0000
,
0010
0010
0010
0000
,
0100
0100
0100
0000
,
0001
0000
1000
0000
,
1000
1000
1000
0000
,
0100
0100
0100
0000
,
0010
0000
0100
0000
,
0001
0001
0001
0001
,
0001
0000
0100
0100
,
0000
0000
0000
0000
,
1000
0000
0001
0000
,
0100
0000
0010
0010
,
0010
0000
0000
0000
,
1001
0000
0000
0000
,
0110
0000
1001
0000
,
0001
0000
0100
0000
,
1000
1000
1000
0000
,
0010
0000
0000
0000
,
0000
0000
0000
0000
,
0010
0000
0000
0000
,
0000
0000
0000
0000
,
0001
0000
0100
0000
,
1000
1000
1000
0000
,
1000
0000
0100
0000
,
0001
0001
0001
0000
,
1000
0000
0001
0000
,
0010
0010
0010
0000
,
0001
0000
1000
0000
,
0100
0100
0100
0000
,
0000
0001
0000
1000
,
1000
1000
1000
1000
,
0000
1000
0000
0001
,
0000
0110
0000
0110
,
0000
1000
0000
0001
,
0001
0001
0001
0001
,
0000
0001
0000
1000
,
0000
0110
0000
0110
,
0110
0000
0000
0000
;

//---------------dance-single - ----------------
#NOTES:
     dance-single:
     :
     Easy:
     4:
     0.200893,0.256510,0.093750,0.260417,0.000000,135.000000,126.000000,9.000000,25.000000,0.000000,0.000000,0.200893,0.256510,0.093750,0.260417,0.000000,135.000000,126.000000,9.000000,25.000000,0.000000,0.000000:
0000
0000
0000
0000
,
0000
0000
0000
0000
,
0000
0000
0000
0000
,
0000
0000
0000
0000
,
0000
0000
0000
0000
,
0010
0000
0010
0000
,
0100
0000
0100
0000
,
0002
0003
0000
0000
,
2000
3000
0000
0000
,
0100
0000
0001
0000
,
0001
0000
1000
0000
,
0002
0003
1000
0000
,
2000
3000
0100
0000
,
0010
0001
0010
0000
,
0100
1000
0100
0000
,
0002
0003
1000
0000
,
0010
1000
1000
0001
,
0100
0100
0100
0000
,
0020
0030
0200
0300
,
0001
1000
0001
0001
,
0200
0300
0001
0100
,
0020
0030
1000
0100
,
0001
0001
1000
1000
,
0200
0300
0010
0010
,
2000
0000
3000
0100
,
1100
0000
1001
0000
,
0101
0000
1001
0000
,
0002
0000
0003
0100
,
0001
0001
1000
0100
,
0020
0030
0020
0030
,
1000
0100
0100
0001
,
0200
0300
2000
3000
,
0001
1000
0000
1001
,
0010
1000
1001
0000
,
0001
1000
0002
0103
,
1000
0100
1001
0000
,
1000
0100
0100
0001
,
2000
3000
0002
0003
,
0010
1000
0010
0001
,
0020
0030
0200
0300
,
1000
0100
0001
0010
,
1000
1000
0001
0001
,
0200
0300
0001
1000
,
0010
0001
0001
1000
,
0002
0003
0020
0030
,
1000
1001
0001
0000
,
1000
0100
0001
0100
,
0100
0110
0020
0030
,
1000
0001
1000
0100
,
0001
0100
0000
0000
;

//---------------dance-single - ----------------
#NOTES:
     dance-single:
     :
     Medium:
     5:
     0.196429,0.256510,0.093750,0.166667,0.000000,132.000000,123.000000,9.000000,16.000000,0.000000,0.000000,0.196429,0.256510,0.093750,0.166667,0.000000,132.000000,123.000000,9.000000,16.000000,0.000000,0.000000:
0000
0000
0000
0000
,
0000
0000
0000
0000
,
0000
0000
0000
0000
,
0000
0000
0000
0000
,
0000
0000
0000
0000
,
0002
0003
0001
0000
,
0100
0000
0100
0000
,
2000
3000
1000
0000
,
0100
0000
0100
0000
,
0001
0001
0001
0000
,
0100
0000
0100
0000
,
1000
1000
1000
0000
,
0100
0000
0100
0000
,
0010
0000
0000
0000
,
0100
1000
0100
0001
,
0100
0000
0000
0000
,
0100
0001
0100
1000
,
0100
0100
0100
0000
,
0020
0030
0200
0300
,
0001
1000
0001
1000
,
0100
0000
0000
0110
,
1001
0000
1000
0100
,
0001
0001
1000
1000
,
0001
0000
0001
0100
,
1000
1000
0001
0001
,
1001
0000
0001
0000
,
0110
0000
0010
0000
,
0002
0000
0003
0100
,
0001
0001
1000
0100
,
0000
0000
0000
0000
,
0000
0000
0000
0000
,
0200
0300
2000
3000
,
0001
1000
0000
1001
,
0010
1000
1001
0000
,
0001
1000
0002
0103
,
1000
0100
1001
0000
,
1000
0100
0100
0001
,
2000
3000
0002
0003
,
0010
1000
0010
0001
,
0020
0030
0200
0300
,
1000
0100
0001
0010
,
1000
1000
0001
0001
,
0200
0300
0001
1000
,
0010
0001
0001
1000
,
0002
0003
0020
0030
,
1000
1001
0001
0000
,
1000
0100
0001
0100
,
0100
0110
0020
0030
,
1000
0001
1000
0100
,
0001
0100
0000
0000
;

//---------------dance-single - ----------------
#NOTES:
     dance-single:
     :
     Hard:
     6:
     0.339286,0.384277,0.093750,0.270833,0.005208,228.000000,219.000000,9.000000,26.000000,0.000000,0.000000,0.339286,0.384277,0.093750,0.270833,0.005208,228.000000,219.000000,9.000000,26.000000,0.000000,0.000000:
0000
0000
0000
0000
,
0000
0000
0000
0000
,
0000
0000
0000
0000
,
0000
0000
0000
0000
,
0000
0000
0000
0000
,
0020
0000
0030
0000
0001
1000
0100
0000
,
0001
0000
1000
0000
0010
0001
0100
0001
,
2000
0001
0100
3010
,
0002
0010
1000
0103
,
1000
0000
0001
0000
0010
1000
0100
0000
,
0010
0000
0100
0000
0001
0010
0100
0000
,
2000
3000
0002
0003
,
0010
0000
1000
0000
0001
0010
0100
2000
,
0002
3003
0000
1001
,
0010
1000
0001
0100
0020
0000
0130
0000
,
1000
0001
1000
0000
0002
0000
0103
0000
,
0010
1000
0000
0001
0000
0010
0100
1000
,
0010
1000
0001
1001
,
0010
1001
0100
1001
,
0010
0000
0001
0000
1000
0100
1000
0002
,
0100
0000
1003
0000
0010
0010
0100
0000
,
0001
0110
1000
1100
,
0020
0000
0031
1000
0002
0000
1003
0000
,
0010
0000
0001
0100
0000
0001
0100
1000
,
0100
0001
1100
0101
,
1000
0000
0001
0000
1000
0100
0010
0000
,
1000
0001
0100
0000
0010
1000
0100
0000
,
0010
0001
1000
1010
,
0002
0000
1003
0001
0020
0000
0130
0000
,
1000
0001
1000
0000
0002
0000
0103
0000
,
0001
1000
0100
0010
0001
0100
0001
0010
,
0001
1000
0001
0100
0020
0000
0130
0000
,
0001
0010
1000
0100
,
0000
0001
1000
0000
0001
0010
0100
0000
,
2000
0000
3001
0000
1000
0010
0100
0000
,
0000
0100
0001
0000
1000
0001
0100
0000
,
0001
0002
2003
3100
,
0020
0001
1000
0031
,
0200
1000
0001
1300
,
0020
0130
0200
0310
,
0001
0010
0100
0000
1000
0100
0010
0000
,
0010
1000
0001
0100
0001
0000
0100
0000
,
0100
0001
2000
0000
0100
0000
3100
0000
,
0010
0001
0100
0000
0010
1000
0100
0000
,
0001
0000
1000
0000
0001
0010
0100
1000
,
0001
0100
1000
1000
,
0010
1000
0001
0100
0001
1000
0100
0000
,
0010
0000
0010
0000
0001
1000
0100
0000
,
0002
0000
2003
0000
3010
0010
0100
0000
,
0001
0000
0000
0100
0000
0000
0000
0000
0000
0000
0000
0000
0000
0000
0000
0000
;

//---------------dance-double - ----------------
#NOTES:
     dance-double:
     :
     Easy:
     3:
     0.165179,0.255208,0.031250,0.052083,0.000000,111.000000,108.000000,3.000000,5.000000,0.000000,0.000000,0.165179,0.255208,0.031250,0.052083,0.000000,111.000000,108.000000,3.000000,5.000000,0.000000,0.000000:
// measure 0
00000000
00000000
00000000
00000000
,  // measure 1
00000000
00000000
00000000
00000000
,  // measure 2
00000000
00000000
00000000
00000000
,  // measure 3
00000000
00000000
00000000
00000000
,  // measure 4
00000000
00000000
00000000
00000000
,  // measure 5
00010000
00000000
00000000
00000000
,  // measure 6
10000000
00000000
00000000
00000000
,  // measure 7
00100000
00000000
00000000
00000000
,  // measure 8
01000000
00000000
00010000
10000000
,  // measure 9
01000000
00000000
00000000
00000000
,  // measure 10
00010000
00000000
00000000
00000000
,  // measure 11
00001000
00000000
00000000
00000000
,  // measure 12
00000100
00000100
00000100
00001001
,  // measure 13
00000000
00000001
00000000
00001000
,  // measure 14
00000000
00000100
00000100
00000100
,  // measure 15
00000000
00000010
00000000
00000001
,  // measure 16
00000000
00000100
00001000
00000000
,  // measure 17
00010000
00010000
00010000
00000000
,  // measure 18
00001000
00000000
00010000
00000000
,  // measure 19
00010000
01000000
10000000
10000000
,  // measure 20
00020000
00000000
00030000
10010000
,  // measure 21
00000000
01000000
00000000
01000000
,  // measure 22
00000000
00100000
10000000
01000000
,  // measure 23
00000000
00010000
00000000
00010000
,  // measure 24
00000000
00010000
00001000
00000000
,  // measure 25
00000200
00001300
00000000
00000000
,  // measure 26
00000020
00000031
00000000
00000000
,  // measure 27
00000001
00000001
00001000
00001000
,  // measure 28
00000001
00000100
00001000
00010000
,  // measure 29
00002000
00000000
00000000
00003000
,  // measure 30
00000000
00000000
00000000
00000000
,  // measure 31
00000000
20000000
00000000
30000000
,  // measure 32
00000000
00000000
00000000
01000000
,  // measure 33
00000000
01000000
01000000
00100000
,  // measure 34
00000000
10000000
01000000
00010000
,  // measure 35
00000000
00001000
00000000
00001000
,  // measure 36
00010000
00001000
00000010
00000100
,  // measure 37
00000000
00001000
00001000
00000001
,  // measure 38
00000000
00000001
00000001
00001000
,  // measure 39
00000000
00000010
00000000
00000100
,  // measure 40
00000000
00000100
00000100
00000010
,  // measure 41
00000000
00001000
00010000
00000000
,  // measure 42
00000000
00010000
00001000
00010000
,  // measure 43
00000000
00100000
10000000
10000000
,  // measure 44
00010000
00010000
01000000
01000000
,  // measure 45
00000000
00100000
00100000
10000000
,  // measure 46
10000000
01000000
01000000
00010000
,  // measure 47
00010000
00001000
00000010
00000100
,  // measure 48
00001000
00000010
00000100
00000010
,  // measure 49
00001001
00000000
00000000
00000000
;

//---------------dance-double - ----------------
#NOTES:
     dance-double:
     :
     Medium:
     5:
     0.288690,0.307813,0.093750,0.083333,0.000000,194.000000,185.000000,9.000000,8.000000,0.000000,0.000000,0.288690,0.307813,0.093750,0.083333,0.000000,194.000000,185.000000,9.000000,8.000000,0.000000,0.000000:
// measure 0
00000000
00000000
00000000
00000000
,  // measure 1
00000000
00000000
00000000
00000000
,  // measure 2
00000000
00000000
00000000
00000000
,  // measure 3
00000000
00000000
00000000
00000000
,  // measure 4
00000000
00000000
00000000
00000000
,  // measure 5
00000002
00000000
00000000
00000003
,  // measure 6
00002000
00000000
00000000
00003000
,  // measure 7
00000001
00000001
00000100
00000100
,  // measure 8
00001000
00000000
00010000
00000000
01000000
10000000
00010000
00000000
,  // measure 9
01100000
00010000
00100000
01000000
,  // measure 10
10010000
01000000
00100000
10000000
,  // measure 11
00010000
00100000
01000000
00000000
10000000
00000000
00100000
00000000
,  // measure 12
00010000
00001000
00000010
00000000
00000001
00000000
00001100
00000000
,  // measure 13
00000010
00000000
00000100
00000000
00000001
00001000
00000100
00000000
,  // measure 14
00000010
00000000
00000001
00000000
00001000
00000001
00000100
00000000
,  // measure 15
00000010
00001000
00000001
00000010
,  // measure 16
00001000
00000000
00010000
00000000
01000000
10000000
00010000
00000000
,  // measure 17
01000000
01000000
01000000
00000000
,  // measure 18
00010000
10000000
01000000
00000000
00100000
00010000
01000000
00000000
,  // measure 19
10010000
00000000
01000000
00000000
00100000
01000000
00100000
00000000
,  // measure 20
00000000
00000000
00000000
00000000
00000000
00010000
00001000
00000000
,  // measure 21
00000110
00000000
00000001
00000000
00001000
00000001
00000100
00000000
,  // measure 22
00000010
00001000
00000001
00000100
,  // measure 23
00000100
00000000
00000010
00000000
00001000
00000001
00001000
00000000
,  // measure 24
00001000
00010000
00100000
01000000
,  // measure 25
20000000
00010000
01000000
31000000
,  // measure 26
00020000
10000000
01000000
01030000
,  // measure 27
00100000
00010000
00000100
00000010
,  // measure 28
00000001
00000000
00000001
00000000
00001000
00000010
00000100
00000000
,  // measure 29
00002002
00000000
00000000
00003003
,  // measure 30
00000100
00000100
00000010
00001000
,  // measure 31
00022000
00000000
00000000
00033000
,  // measure 32
00100000
00000000
00100000
00000000
10000000
00010000
10000000
00000000
,  // measure 33
01100000
00010000
10000000
10000000
,  // measure 34
01000000
00000000
00010000
00000000
00001000
00010000
00001000
00000000
,  // measure 35
00000010
00000001
00000001
00001000
,  // measure 36
00001000
00000000
00000001
00000000
00000010
00000100
00000010
00000000
,  // measure 37
00000001
00001000
00000010
00000100
,  // measure 38
00000001
00000010
00001000
00000000
00001000
00010000
00100000
00000000
,  // measure 39
10000000
10000000
00010000
00010000
,  // measure 40
00100000
00000000
00100000
00000000
01000000
10000000
00010000
00000000
,  // measure 41
00000000
00000000
10010000
00000000
01000000
00100000
01000000
00000000
,  // measure 42
00010000
00100000
01000000
10000000
,  // measure 43
00010000
00000000
01000000
00000000
10000000
01000000
00010000
00000000
,  // measure 44
00001000
00001000
00000010
00000100
,  // measure 45
00000001
00001000
00000100
00000010
,  // measure 46
00000001
00000100
00001000
00010000
,  // measure 47
01000000
10000000
00100000
01000000
,  // measure 48
00010000
10000000
01000000
00000000
00010000
00001000
00000100
00000000
,  // measure 49
00000001
00001000
00000100
00000000
00000000
00000000
00000000
00000000
;

//---------------dance-double - ----------------
#NOTES:
     dance-double:
     :
     Hard:
     6:
     0.328869,0.358659,0.062500,0.104167,0.005208,221.000000,215.000000,6.000000,10.000000,0.000000,0.000000,0.328869,0.358659,0.062500,0.104167,0.005208,221.000000,215.000000,6.000000,10.000000,0.000000,0.000000:
// measure 0
00000000
00000000
00000000
00000000
,  // measure 1
00000000
00000000
00000000
00000000
,  // measure 2
00000000
00000000
00000000
00000000
,  // measure 3
00000000
00000000
00000000
00000000
,  // measure 4
00000000
00000000
00000000
00000000
,  // measure 5
00000001
00000001
00000010
00000100
,  // measure 6
00001000
00001000
00000010
00000100
,  // measure 7
00000001
00000010
00001000
00010000
,  // measure 8
00100000
00000000
10000000
00000000
00010000
00100000
01000000
00000000
,  // measure 9
10000000
00000000
10000000
00000000
00100000
01000000
00010000
00000000
,  // measure 10
10000000
00000000
10000000
00000000
00010000
10000000
00010000
00000000
,  // measure 11
10000000
00100000
00010000
00001000
,  // measure 12
00000010
00000001
00000100
00000000
00001100
00000000
00000101
00000000
,  // measure 13
00000010
00000000
00000010
00000000
00000100
00000001
00000010
00000000
,  // measure 14
00000100
00010000
00001000
01000000
,  // measure 15
00100000
10000000
01000000
00000000
00100000
00010000
01000000
00000000
,  // measure 16
00100000
10000000
00010000
01000000
,  // measure 17
00200000
10300000
02000000
03010000
,  // measure 18
00100000
01000000
10000000
00000000
00100000
00010000
00001000
00000000
,  // measure 19
00000110
00000000
00000001
00000000
00000110
00000000
00002000
00000002
,  // measure 20
00000000
00000000
00003003
00000000
00000000
00000010
00000100
00000000
,  // measure 21
00000001
00000001
00001000
00001000
,  // measure 22
00000001
00000100
00001000
00000000
00010000
01000000
10000000
00000000
,  // measure 23
00010000
00010000
00100000
01000000
,  // measure 24
10000000
00000000
00100000
00000000
01000000
00010000
10000000
00000000
,  // measure 25
00200000
01000000
01000000
01300000
,  // measure 26
01000000
00010000
10000000
00000000
01000000
00010000
00001000
00000000
,  // measure 27
00001000
00000100
00000001
00000000
00000010
00000000
00000010
00000000
,  // measure 28
00000100
00001000
00000010
00000100
00000001
00001000
00000010
00000000
,  // measure 29
00000202
00000000
00000000
00000303
,  // measure 30
00000010
00001000
00000100
00000000
00010000
00001000
00010000
00000000
,  // measure 31
00000000
00000000
00010000
01000000
10000000
00000000
10000000
00000000
,  // measure 32
00100000
01000000
00100000
10000000
01000000
00100000
00010000
00000000
,  // measure 33
21000000
00010000
01000000
31000000
,  // measure 34
00100000
00000000
00010000
00000000
10000000
00100000
00010000
00000000
,  // measure 35
00001000
00000010
00000001
00001000
,  // measure 36
00000001
00000000
00000001
00000000
00000010
00000100
00001000
00000000
,  // measure 37
00000001
00000100
00001000
00000000
00010000
00000000
01000000
00000000
,  // measure 38
10000000
00010000
00100000
00000000
01000000
00000000
10000000
00000000
,  // measure 39
10000000
00000000
00010000
00000000
00010000
00100000
01000000
10000000
,  // measure 40
00010000
00000000
00100000
00000000
01000000
00010000
00001000
00000000
,  // measure 41
00000100
00000000
00000001
00000000
00000010
00000100
00001000
00000010
,  // measure 42
00000100
00000000
00000001
00000010
00000001
00000100
00001000
00000000
,  // measure 43
00010000
00000000
01000000
00000000
10000000
00010000
01000000
00000000
,  // measure 44
00100000
10000000
01000000
00100000
00010000
10000000
01000000
00000000
,  // measure 45
00010000
00000000
00001000
00010000
00000100
00000010
00000001
00000000
,  // measure 46
00001000
00000000
00000010
00000100
00000001
00000000
00000010
00000000
,  // measure 47
00001000
00010000
00100000
10000000
01000000
00100000
02000000
00000000
,  // measure 48
20000000
00000000
00000000
33000000
,  // measure 49
00100000
00000000
00000000
01000000
00000000
00000000
00000000
00000000
00000000
00000000
00000000
00000000
00000000
00000000
00000000
00000000
;

//---------------dance-single - ----------------
#NOTES:
     dance-single:
     :
     Challenge:
     9:
     0.632441,0.640462,0.197917,0.343750,0.796875,425.000000,406.000000,19.000000,33.000000,0.000000,0.000000,0.632441,0.640462,0.197917,0.343750,0.796875,425.000000,406.000000,19.000000,33.000000,0.000000,0.000000:
0000
0000
0000
0000
,
0000
0000
0000
0000
,
0000
0000
0000
0000
,
0000
0000
0000
0000
,
2000
0000
0000
0000
3200
0000
0000
0000
0310
0000
0001
1000
0001
0000
0000
0000
,
1002
0000
0000
0000
0023
0100
0000
0130
0000
1000
0000
0001
1000
0000
0000
0000
,
0002
0000
0000
0000
2003
0100
0000
3100
0000
0010
0000
0001
1000
0000
0000
0000
,
0002
0000
0000
0000
0023
0001
0000
0031
0000
0100
0000
0010
1000
0000
0000
0000
,
0200
0000
0000
0000
2300
0010
0000
3010
0000
0100
0000
0001
1000
0000
0000
0000
,
0002
0000
0000
0000
0023
1000
0000
1030
0000
0010
0000
0001
1000
0000
0000
0000
,
0002
0000
0000
0000
0203
1000
0000
1300
0000
0100
0000
0001
1000
0000
0000
0000
,
0200
0000
0000
0000
0320
0001
0000
0031
0000
1000
0000
0001
1000
0000
0000
1000
,
0010
1000
0000
0001
0000
0000
0000
0000
0100
0000
0001
1000
0001
1000
0001
0000
,
1001
0000
0001
0000
0100
0000
0000
0010
0000
0010
0100
0010
1000
0000
0000
0000
,
0001
0000
1000
0000
0100
0000
0000
0010
0000
0010
0100
0010
0001
0000
0000
0000
,
1000
0000
0001
0000
0100
0000
0000
0010
0000
0010
0100
0010
1000
0000
0000
1000
,
0001
2000
0000
3200
0000
0320
0000
0031
,
1000
0000
0100
0000
1200
0000
0000
1300
0000
0001
0100
0001
0100
0000
0000
0000
,
0010
0000
1000
0000
2001
0000
0000
3001
0000
0010
0100
0010
0100
0000
0000
0000
,
1000
0000
0001
0000
0201
0000
0000
0301
0000
1000
0100
1000
0100
0000
0000
0100
,
0010
0002
0000
0203
0000
0310
1000
0100
,
0110
0000
0000
0100
1000
0000
0001
0000
1000
0010
1000
0000
0001
0000
0100
0000
,
0010
1000
0000
1000
0000
0000
0001
0000
0010
0100
0010
0000
0001
0000
1000
0000
,
0020
0000
0000
2030
0000
0000
3100
0000
1000
0001
1000
0000
0010
0000
0100
0000
,
0001
0000
1000
0000
0100
0000
0000
0000
1000
0100
1000
0000
1100
0000
0000
0100
,
0010
0000
0000
0010
0001
0000
0100
0000
0010
0100
0010
0000
1000
0000
1000
0000
,
0001
1000
0000
0001
1000
0000
0100
1000
0000
0100
1000
0000
0100
0000
0010
0001
,
0010
0001
0000
0001
0100
0000
0010
0000
1000
0100
1000
0000
0001
0000
1000
0000
,
0010
0100
0000
0100
0001
0000
0010
0000
0100
1000
0100
0000
0010
0000
0001
1000
,
0002
0000
0013
0100
1000
0100
0000
1000
0000
0010
0000
0100
0000
0001
1000
0001
,
0100
0000
0010
1000
0010
1000
0100
0000
0010
0001
0010
0001
0100
0000
0010
1000
,
0020
0000
1030
0001
1000
0100
0000
0010
0000
0100
0000
1000
0000
0001
1000
0001
,
2000
0000
3010
0100
0010
0100
0001
0000
0010
0100
0010
0100
1000
0000
1000
0001
,
1000
0100
0110
0010
0001
0100
0110
0010
,
1000
0000
0001
0010
0000
1000
0000
0010
0000
0001
1000
0000
0010
0000
0100
0000
,
0001
0010
0110
0100
1000
0010
0110
0100
,
0001
0000
1000
0100
0000
0001
0000
0100
0000
1000
0001
0000
1002
0000
0000
0000
,
1003
0000
0100
0000
1100
0000
1000
0000
0001
0000
0100
0000
0101
0000
0100
0010
,
0100
0000
0010
1000
0000
0001
0000
0100
0000
0001
1000
0000
1001
0000
0001
1000
,
0100
0000
1000
0000
1010
0000
0010
0000
0100
0000
0001
0000
0011
0000
0001
0100
,
0001
0000
1000
0100
0000
1000
0000
0001
0000
1000
0010
0000
0120
0000
0000
0130
,
0001
0000
1000
0000
0001
0010
0001
0010
0100
0000
1000
0000
0001
0100
0001
0100
,
0010
0000
1000
0100
0000
0010
0000
0001
0000
1000
0100
0000
1000
0000
0001
0000
,
0100
0000
0010
0000
1000
0100
1000
0100
0010
0000
0100
0000
1000
0010
1000
0010
,
0001
0000
0010
1000
0000
0000
1000
0001
0100
0000
0100
0001
0000
0000
0001
0010
,
0100
0000
1000
0000
0001
0100
0001
0100
0010
0000
1000
0000
0001
0010
0001
0010
,
0100
0000
1000
0010
0000
1000
0000
0100
0000
0010
0001
0000
0100
0000
0010
0000
,
1000
0000
0001
0000
1000
0100
1000
0100
0010
0000
0100
0000
1000
0100
1000
0100
,
0001
0000
0001
0100
0000
0000
0100
1000
0001
0000
0001
2000
0000
0000
3001
0000
,
1002
0000
0000
0103
0000
0000
0000
0000
0000
0000
0000
0000
0000
0000
0000
0000
;

//---------------dance-double - ----------------
#NOTES:
     dance-double:
     :
     Challenge:
     9:
     0.574405,0.563607,0.218750,0.375000,0.718750,386.000000,365.000000,21.000000,36.000000,0.000000,0.000000,0.574405,0.563607,0.218750,0.375000,0.718750,386.000000,365.000000,21.000000,36.000000,0.000000,0.000000:
00000000
00000000
00000000
00000000
,
00000000
00000000
00000000
00000000
,
00000000
00000000
00000000
00000000
,
00000000
00000000
00000000
00000000
,
20000000
00000000
30020000
00000000
00032000
00000001
00003001
00000000
,
00000010
00000000
00000000
00000010
00000001
00000000
00000000
00000100
00000000
00000010
00000000
00001000
00000001
00000000
00000000
00000000
,
00000100
00000000
00000000
00000100
00001000
00000000
00000000
00100000
00000000
00001000
00000000
00010000
00001000
00000000
00000000
00001000
,
00010000
00000000
00000000
00010000
00100000
00000000
00000000
10000000
00000000
00100000
00000000
01000000
00010000
00000000
00000000
00000000
,
00100000
00000000
00000000
00100000
01000000
00000000
00000000
10000000
00000000
00100000
00000000
01000000
10000000
00000000
00000000
10000000
,
01000000
00000000
00000000
01000000
00010000
00000000
00000000
00100000
00000000
00001000
00000000
00010000
00001000
00000000
00000000
00000000
,
00000100
00000000
00000000
00000100
00000001
00000000
00000000
00000010
00000000
00000100
00000000
00000010
00000001
00000000
00000000
00000001
,
00000100
00000000
00000000
00000100
00000010
00000000
00000000
00001000
00000000
00000100
00000000
00010000
00001000
00000000
00000000
00000000
,
02000000
00000000
00000000
03001000
00000000
00000000
00000000
00000000
00100000
00000000
00010000
10000000
00010000
10000000
00010000
00000000
,
20020000
00000000
00000000
00000000
30030000
00000000
00010000
10000000
01000000
10000000
01000000
10000000
00010000
00000000
00000000
10000000
,
00000000
10000000
00010000
00100000
00001000
00000000
00010000
00000000
00002000
00000000
00000000
00000000
00013000
00000000
00000100
00000000
,
00010000
00000000
00010000
00000000
00001000
00000000
00000000
00000010
00000000
00000010
00000001
00000000
00000100
00000000
00001000
00000000
,
00010000
00000000
00200000
00000000
00000000
00000000
00320000
00000000
00000000
00000000
00030200
00000000
00000000
00000310
00000001
00000000
,
00000100
00000000
00000000
00000000
00000110
00000000
00000000
00000010
00000000
00000010
00000100
00000010
00001000
00000000
00000000
00000000
,
00000100
00000000
00010000
00000000
00011000
00000000
00000000
00001000
00000000
00001000
00100000
00010000
00100000
00000000
00000000
00000000
,
00010000
00000000
01000000
00000000
02100000
00000000
00000000
03100000
00000000
00100000
01000000
00100000
10000000
00000000
01000000
00000000
,
00100000
00020000
00000000
02030000
00000000
03100000
00010000
00001000
,
00011000
00000000
00000000
00010000
00000100
00000000
00010000
00000000
00001000
00010000
00000000
00000000
00001000
00000000
00100000
00000000
,
00010000
01000000
00000000
00100000
00000000
10000000
00010000
00000000
00100000
00000000
01000000
00000000
00010000
00000000
01000000
00000000
,
20000000
00000000
00000000
30200000
00000000
00000000
00310000
00000000
00001000
00000000
00000100
00000000
00000001
00000000
00000000
00000000
,
00001000
00000000
00000010
00000000
00001000
00000000
00000000
00000000
00000100
00000010
00000001
00000000
00001001
00000000
00000000
00000001
,
00001000
00000000
00000000
00001000
00000100
00000000
00000001
00000000
00000100
00010000
00000000
00000000
00001000
00000000
00100000
00000000
,
00010000
10000000
00000000
01000000
00000000
00000000
10000000
00010000
00000000
01000000
00000000
00000000
00100000
00000000
10000000
00000000
,
01000000
00100000
00000000
00020000
00000000
00000000
00130000
00000000
00001000
00010000
00000000
00000000
00001000
00000000
00001000
00000000
,
00100000
00010000
00000000
02000000
00000000
00000000
03100000
00000000
10000000
00010000
10000000
00000000
10010000
00000000
00000000
00000000
,
11000000
00000000
01000000
00000000
10000000
00100000
00000000
10000000
00000000
00100000
00000000
10000000
00000000
00010000
10000000
00010000
,
01000000
00000000
00100000
10000000
00100000
10000000
00000000
00000000
00010000
00100000
00010000
00100000
00000000
00000000
01000000
00000000
,
00010000
00000000
00001000
00000000
00000010
00000001
00000000
00001000
00000000
00000010
00000000
00001000
00000000
00000010
00000100
00000010
,
00001000
00000000
00000001
00000010
00000001
00000010
00000000
00000000
00000010
00001000
00000010
00001000
00000100
00000000
00020000
00000000
,
00000000
00031000
00012000
00203000
00000000
01300000
02100000
03100000
,
00010000
00000000
10000000
00100000
00000000
00010000
00000000
00100000
00000000
01000000
00010000
00000000
00100000
00000000
02000000
00000000
,
00000000
13000000
10020000
00230000
00000000
00301000
00101000
00100000
,
00001000
00000000
00010000
00001000
00000000
00000100
00000000
00000010
00000000
00001000
00000001
00000000
00001002
00000000
00000000
00000000
,
00000000
00001003
00002100
00003020
00000000
00000130
00000101
00000001
,
00000010
00000000
00000100
00000001
00000000
00000100
00000000
00001000
00000000
00000010
00001000
00000000
00001100
00000000
00020000
00000000
,
00000000
00031000
00101000
00200000
00000000
00310000
10010000
10000000
,
01000000
00000000
00100000
00010000
00000000
00001000
00000000
00000010
00000000
00001000
00000001
00000000
00001001
00000000
00000000
00000000
,
00000110
00000000
00000010
00000000
00001000
00000100
00001000
00000020
00000000
00000000
00000130
00000000
00000000
00000001
00000010
00000001
,
00001000
00000000
00000100
00010000
00000000
00001000
00000000
01000000
00000000
00100000
10000000
00000000
00010000
00000000
10000000
00100000
,
10000000
00000000
00010000
00000000
00100000
00010000
00100000
00020000
00000000
00000000
01030000
00000000
00100000
10000000
00100000
10000000
,
00010000
00000000
00010000
00002000
00000000
00000000
00000000
00000000
00013000
00000000
00000000
00010000
00000000
00000000
00010000
00100000
,
00001000
00000000
00010000
00000000
00000100
00001000
00000100
00002000
00000000
00000000
00003010
00000000
00000000
00000100
00000001
00000100
,
00000010
00000000
00001000
00000001
00000000
00000010
00000000
00000100
00000000
00000010
00000001
00000000
00001000
00000000
00000100
00000000
,
00000100
00000000
00010000
00000000
00001000
00100000
00010000
00200000
00000000
00000000
01300000
00000000
10000000
01000000
10000000
01000000
,
00100000
00000000
00100000
00002000
00000000
00000000
00013000
00000000
00000100
00000000
00010000
00000000
00010000
00000000
00000000
00000000
,
00120000
00000000
00000000
01030000
00000000
00000000
00000000
00000000
00000000
00000000
00000000
00000000
00000000
00000000
00000000
00000000
;
