#TITLE:Flow (Unique's Direction Mix);
#SUBTITLE:;
#ARTIST:Scotty D. revisits U1;
#TITLETRANSLIT:;
#SUBTITLETRANSLIT:;
#ARTISTTRANSLIT:;
#GENRE:;
#CREDIT:;
#BANNER:Flow (Unique's Direction Mix).png;
#BACKGROUND:Flow (Unique's Direction Mix)-bg.png;
#LYRICSPATH:;
#CDTITLE:;
#MUSIC:Flow (Unique's Direction Mix).ogg;
#OFFSET:-0.040000;
#SAMPLESTART:89.181313;
#SAMPLELENGTH:13.674286;
#LASTBEATHINT:226.089691;
#SELECTABLE:YES;
#BPMS:0.000000=140.000000
,80.000000=35.000000
,96.000000=70.000000
,112.000000=140.000000
,140.000000=70.000000
,142.000000=140.000000
;
#STOPS:
;
#BGCHANGES:;
#KEYSOUNDS:;
#ATTACKS:;

//---------------dance-single - ----------------
#NOTES:
     dance-single:
     :
     Hard:
     9:
     0.497768,0.595898,0.226563,0.664063,0.421875,446.000000,417.000000,29.000000,85.000000,0.000000,0.000000,0.497768,0.595898,0.226563,0.664063,0.421875,446.000000,417.000000,29.000000,85.000000,0.000000,0.000000:
0000
0000
0000
0000
,
0000
0000
0000
0000
,
0000
0000
0000
0000
,
0000
0000
0000
0000
,
0210
0302
0203
2300
3001
0010
1000
0100
,
0010
0100
1000
0100
0001
0100
0110
0000
,
2000
3020
2030
3200
0301
0010
0001
0100
,
1000
0010
0001
0100
0001
0010
0110
0000
,
2001
3020
0032
2003
3100
0001
0010
0100
,
0010
0001
0010
1000
0010
0100
1001
0000
,
2010
3020
0230
2300
3100
0001
0010
0001
,
0100
1000
0010
1000
0100
0010
1001
0000
,
1200
2300
3020
0032
1003
0100
0001
0010
,
0002
2003
3002
0203
0301
1000
0110
0000
,
0020
2030
3002
0023
0130
1000
0010
0001
,
0200
0302
0023
2030
3100
0010
1001
0001
,
0021
0230
2300
3002
0103
1000
0010
1000
,
0200
0302
0023
2030
3100
0010
1001
0000
,
0100
0001
0000
0000
0001
1000
0000
0000
1000
0010
0000
0000
0010
0001
0000
0000
,
0001
0010
0000
0000
0010
1000
0000
0000
1000
0100
0000
0000
0100
1000
0000
0000
,
2002
0000
0000
3000
0020
0003
2000
0030
,
0002
3000
0200
0003
2000
0300
0002
3000
,
0200
0000
0000
0000
0000
0000
0003
0000
0020
0000
0300
0000
0002
0030
0200
0003
,
2000
0000
0000
0000
0000
0300
0020
3000
0200
0000
0030
0000
0002
0000
0303
0000
,
1010
0000
0000
0010
0000
0000
0010
0000
0001
0000
0000
0001
0000
0000
0001
0000
0100
0000
0000
0100
0000
0000
0100
0000
1000
0000
0000
1000
0000
0000
1000
0000
,
0010
0000
0000
0010
0000
0000
0010
0000
1000
0000
0000
1000
0000
0000
1000
0000
0100
0000
0000
0100
0000
0000
0100
0000
0001
0000
0000
0001
0000
0000
0001
0000
,
0010
0000
0000
0100
0000
0000
0010
0000
0001
0000
0000
0100
0000
0000
1000
0000
0010
0000
0000
0100
0000
0000
0010
0000
1000
0000
0000
0100
0000
0000
0010
0000
,
0001
0000
0000
0010
0000
0000
0001
0000
1000
0000
0000
0100
0000
0000
1000
0000
0010
0000
0000
0100
0000
0000
0010
0000
1000
0000
0000
0001
0000
0000
0100
0000
,
0010
1000
1010
1000
0100
1000
1100
1000
,
0100
0001
0101
0001
0010
0001
0011
0001
,
0010
0100
0110
0100
1000
0100
1100
0100
,
0010
0001
0011
0001
0010
1000
1010
1000
,
1001
0000
0001
0000
1000
0000
0010
0000
0100
0001
0100
0000
0010
0000
1000
0000
,
1001
0000
0001
0100
0001
0000
0010
0000
1000
0000
0010
0000
0001
0000
1000
0000
,
2001
0000
3001
1000
0200
0000
1300
0010
2000
0000
3010
0100
0002
0000
0013
0001
,
0020
0000
0000
0000
0230
0000
0000
0000
1300
0000
0001
0100
0010
1000
0001
0000
1002
0000
0000
0000
0000
0000
1003
0000
0000
0000
0100
0000
1000
0000
0000
0000
,
0010
0000
0000
0100
0000
0001
1000
0000
0100
0000
0000
0010
0000
0100
1000
0000
,
0001
0000
0000
1000
0000
0010
0100
0000
0010
0000
0000
0001
0000
0010
1000
0000
,
0100
0000
0000
0001
0000
0100
0010
0000
0001
0000
0000
1000
0000
0010
1000
0000
,
0100
0000
0000
1000
0000
0001
0010
0000
0001
0000
0000
0100
0000
0010
1000
0000
,
0001
0000
0000
0010
0000
0100
1000
0000
0010
0000
0000
1000
0000
0100
0010
0000
,
0001
0000
0000
1000
0000
0010
1000
0000
0100
0000
0000
0001
0000
0100
1000
0000
,
0010
0000
0000
0001
0000
0010
1000
0000
0100
0000
0000
0010
0000
0001
0100
0000
,
0010
0000
0000
0001
0000
0010
1000
0000
1001
0000
0001
1000
0000
0001
1000
0000
,
0010
0000
1000
0001
0000
1000
0001
0000
0100
0000
0001
0010
0000
0001
0010
0000
,
0100
0000
1000
0001
0000
1000
0001
0000
0100
0000
0001
1000
0000
0100
1000
0000
,
0001
0000
1000
0010
0000
0100
0001
0000
1000
0000
0100
0001
0000
0100
0010
0000
,
0001
0000
0100
1000
0000
0100
1000
0000
0100
0000
0002
1000
0000
0000
1003
0000
,
0100
0000
2000
0001
0000
0000
3001
0000
0010
0000
0200
1000
0000
0000
1300
0000
,
0010
0000
0200
0001
0000
0000
0301
0000
0200
0000
0000
0010
0000
0000
0310
0000
,
2000
0000
0000
0100
0000
0000
3100
0000
0002
0000
0000
0010
0000
0000
0013
0000
,
2000
0000
0000
0001
0000
0000
3001
0000
2001
0000
3002
0000
0203
0000
0320
0000
,
1030
0000
0000
1000
0100
0000
1000
0000
0020
0000
0230
0000
0302
0000
1003
0000
,
0010
0000
0000
0010
1000
0000
0001
0000
0020
0000
0100
0000
0230
0000
1000
0000
,
2300
0010
3020
0100
0230
0001
0000
0010
,
0000
1000
0000
0301
2002
0000
0000
0000
,
0000
0000
3003
0000
;

//---------------dance-single - ----------------
#NOTES:
     dance-single:
     :
     Medium:
     6:
     0.350446,0.375195,0.242188,0.289063,0.125000,314.000000,283.000000,31.000000,37.000000,0.000000,0.000000,0.350446,0.375195,0.242188,0.289063,0.125000,314.000000,283.000000,31.000000,37.000000,0.000000,0.000000:
0000
0000
0000
0000
,
0000
0000
0000
0000
,
0000
0000
0000
0000
,
0000
0000
0000
0000
,
1000
0000
0101
0001
1000
0100
1000
0000
,
0010
1000
0100
0000
0010
0001
0100
0000
,
0010
1100
1001
0101
,
1001
1010
1001
0011
,
0100
0000
1001
0001
0100
0010
0100
0000
,
0010
0100
0001
0000
0010
0100
1000
0000
,
0001
0000
1100
1000
0001
0100
0001
0000
,
0100
0001
0010
0000
0100
1000
0010
0000
,
1000
0000
0110
0100
0001
1000
0001
0000
,
1000
0010
0100
0000
0001
0010
0100
0000
,
0010
0000
0011
0000
0001
0100
0001
0000
,
1000
0010
1000
0010
1000
0100
0010
0000
,
0100
0000
1001
0001
1000
0010
1000
0000
,
0010
0100
0010
0100
0001
1000
0001
0000
,
0011
1001
1010
0110
,
0102
1000
0100
0013
,
2002
0000
0000
3000
0203
0000
0320
0000
,
2030
3200
0320
0032
,
2003
0000
0000
0000
3002
0000
0203
0320
,
2030
0000
0000
3002
0023
0000
0200
0330
,
0210
2300
3020
0230
,
0302
2003
3200
0320
,
0230
2300
3002
0023
,
0230
0320
0032
0203
,
0301
1100
0010
0101
,
1000
0011
0100
1010
,
0100
0000
1001
0000
0010
1000
1100
0000
,
0010
0001
0010
0001
0100
0010
0110
0000
,
1010
0000
1000
0001
0100
0010
1000
0000
,
0001
1000
0001
1000
0010
0100
0001
0000
,
1000
0100
0001
0000
0001
0100
1000
0000
,
0020
0000
0001
0000
0100
0000
1030
0000
1001
0000
0000
0001
0000
0000
0001
0000
,
1000
0000
0000
1000
0000
0000
1000
0000
0010
0000
0000
0010
0000
0000
0010
0000
,
0100
0000
0000
0100
0000
0000
0100
0000
0001
0000
0000
0010
0000
0000
0001
0000
,
0010
0000
0000
0100
0000
0000
0010
0000
0100
0000
0000
1000
0000
0000
0100
0000
,
1000
0000
0000
0010
0000
0000
1000
0000
0001
0000
0000
0001
0000
0000
0001
0000
,
1000
0000
0000
1000
0000
0000
1000
0000
0010
0000
0000
0010
0000
0000
0010
0000
,
0100
0000
0000
0100
0000
0000
0100
0000
0010
0000
0000
1000
0000
0000
0010
0000
,
1000
0000
0000
0100
0000
0000
1000
0000
0100
0000
0000
0010
0000
0000
0100
0000
,
0010
0000
0000
0001
0000
0000
0010
0000
0001
0000
0000
0001
0000
0000
0001
0000
,
1000
0000
0000
0010
0000
0000
1000
0000
0100
0000
0000
0100
0000
0000
0100
0000
,
1000
0000
0000
0010
0000
0000
1000
0000
0010
0000
0000
0010
0000
0000
0010
0000
,
1000
0000
0000
1000
0000
0000
1000
0000
0001
0000
0000
0010
0000
0000
0001
0000
,
1000
0000
0000
0010
0000
0000
1000
0000
0100
0000
0000
0010
0000
0000
0010
0000
,
0100
0000
0000
1000
0000
0000
1000
0000
0010
0000
0000
0100
0000
0000
0100
0000
,
0001
0000
0000
1000
0000
0000
1000
0000
0010
0000
0000
1000
0000
0000
0001
0000
,
0010
0000
0000
0100
0000
0000
0010
0000
0001
0000
0000
1000
0000
0000
0100
0000
,
1000
0000
0000
0001
0000
0000
1000
0000
1001
0000
0001
0000
0100
0000
0010
0000
,
1000
0000
0100
0000
1000
0010
0100
0001
,
1000
0000
0010
0000
0100
0001
0010
0000
,
0100
1000
0010
0000
2000
0100
0000
0010
,
0000
0001
0000
3001
2002
0000
0000
0000
,
0000
0000
3003
0000
;

//---------------dance-single - ----------------
#NOTES:
     dance-single:
     :
     Easy:
     3:
     0.246652,0.397266,0.218750,0.296875,0.000000,221.000000,193.000000,28.000000,38.000000,0.000000,0.000000,0.246652,0.397266,0.218750,0.296875,0.000000,221.000000,193.000000,28.000000,38.000000,0.000000,0.000000:
0000
0000
0000
0000
,
0000
0000
0000
0000
,
0000
0000
0000
0000
,
0000
0000
0000
0000
,
2002
3003
0001
1000
,
0010
0100
0001
1000
,
0001
0001
0010
0010
,
0100
0000
0100
0000
1000
0100
1000
0000
,
2002
3003
0001
1000
,
0010
1000
0001
0100
,
0220
0330
0010
1000
,
0100
1000
0001
0100
,
0220
0330
0010
1000
,
0100
0001
0100
1000
,
0001
0001
0100
0100
,
0010
0000
0010
0000
1000
0010
1000
0000
,
2002
3003
1000
0001
,
0010
0100
1000
0001
,
0011
0011
0101
0101
,
0110
0110
1010
1010
,
2001
0000
3002
0000
,
0023
0000
0032
0000
,
2003
0000
3020
0000
,
0230
0000
0002
0303
,
1001
0000
0002
0000
,
2003
0000
3100
0000
,
0010
0000
0002
0000
,
0023
0000
0130
0000
,
1000
1100
1000
1100
,
0100
0110
0100
0110
,
0010
0011
0010
0011
,
0001
0101
0001
0101
,
1001
0000
0001
0000
1000
0001
1000
0000
,
0110
0000
0100
0000
0010
0100
0010
0000
,
2000
3200
0320
0032
,
2003
3200
0320
0031
1001
0000
1000
0000
,
0010
0100
0010
1000
,
0001
0010
0100
0100
,
1000
1000
0010
0010
,
0100
0001
0100
0000
0001
0000
0010
0000
,
0001
0100
0010
1000
,
0100
0010
0001
0001
,
1000
1000
0001
1000
,
0001
1000
0001
0000
0100
0000
0010
0000
,
1000
0010
0100
0001
,
1000
0100
0010
0010
,
0001
0001
1000
1000
,
0010
0010
0200
0001
,
0000
1300
0020
0001
,
0000
0130
2000
0100
,
0000
3100
0020
0031
,
0002
0000
1003
0000
2001
0001
0000
3001
,
0000
0010
0000
0010
0000
0100
0000
0100
,
0000
1000
0000
1000
0000
0010
0000
0010
,
0000
1000
0000
1000
0002
1000
0000
1000
,
0000
1000
0000
1003
2002
0000
0000
0000
,
0000
0000
3003
0000
;

//---------------dance-single - ----------------
#NOTES:
     dance-single:
     :
     Beginner:
     1:
     0.132813,0.176563,0.093750,0.070313,0.000000,119.000000,107.000000,12.000000,9.000000,0.000000,0.000000,0.132813,0.176563,0.093750,0.070313,0.000000,119.000000,107.000000,12.000000,9.000000,0.000000,0.000000:
0000
0000
0000
0000
,
0000
0000
0000
0000
,
0000
0000
0000
0000
,
0000
0000
0000
0000
,
1001
0000
0000
0000
,
1000
0000
0000
0000
,
0001
0000
0000
0000
,
0100
0000
0100
0000
,
0010
0010
0010
0000
,
1000
0000
0000
0000
,
0100
0000
0000
0000
,
0010
0000
0010
0000
,
0001
0001
0001
0000
,
1001
0000
0001
0000
,
1000
0000
0010
0000
,
0100
0100
0100
0000
,
0110
0000
1000
0000
,
0001
0000
0100
0000
,
0010
0010
0010
0000
,
0100
0100
0100
0000
,
2002
0000
3003
0000
,
0200
0000
0300
0000
,
0020
0030
0001
0001
,
0002
0003
2000
3000
,
1001
0000
1000
0000
,
0001
0000
1000
0000
,
0010
0000
0100
0000
,
0010
0000
0100
0000
,
0010
0010
0000
1000
,
0000
0001
0000
1000
,
0000
0010
0000
0100
,
0000
0001
0000
1001
,
1001
0000
1000
0000
,
1001
0000
0001
0000
,
0100
0100
0100
0000
,
0010
0010
0110
0000
,
0010
0000
1000
0000
,
0001
0000
1000
0000
,
0100
0000
0010
0000
,
0001
0000
0010
0000
,
0100
0000
1000
0000
,
0001
0000
0100
0000
,
0010
0000
1000
0000
,
0010
0000
0100
0100
,
0000
0001
0000
1000
,
0000
0001
0000
1000
,
0000
0010
0000
0100
,
0000
0010
0010
0000
,
0010
0000
1000
0000
,
1000
0000
0100
0000
,
0100
0000
0020
0000
,
0030
0000
1001
1001
,
0000
0001
0000
1000
,
0000
0010
0000
0100
,
0000
0100
0000
0010
,
0010
0000
2002
0000
,
0000
0000
3003
0000
;

//---------------dance-double - ----------------
#NOTES:
     dance-double:
     :
     Hard:
     9:
     0.467634,0.637207,0.179688,0.296875,0.406250,419.000000,396.000000,23.000000,38.000000,0.000000,0.000000,0.467634,0.637207,0.179688,0.296875,0.406250,419.000000,396.000000,23.000000,38.000000,0.000000,0.000000:
00000000
00000000
00000000
00000000
,
00000000
00000000
00000000
00000000
,
00000000
00000000
00000000
00000000
,
00000000
00000000
00000000
00000000
,
01100000
00000000
00000000
00000000
01010000
00000000
00010000
00100000
00010000
00000000
00001000
00000000
00010000
00000000
00100000
00000000
,
00001000
00000100
00000001
00000010
00000100
00010000
00011000
00000000
,
00100000
00000000
11000000
01000000
10000000
00100000
00010000
01000000
,
00010000
00100000
01000000
00001000
00010000
00100000
01100000
00000000
,
10010000
00000000
00000000
00000000
11000000
00000000
01000000
00000000
00010000
00000000
01000000
00100000
01000000
00000000
01000000
00000000
,
10000000
00100000
00010000
00001000
00000100
00000001
00000011
00000000
,
00001010
00000000
00000101
00000100
00000001
00000010
00001000
00000100
,
00001000
00000010
00000001
00000100
00001000
00100000
00110000
00000000
,
11000000
01100000
00100000
00001000
00010000
00000100
00010000
00001000
,
00100000
00000000
00010000
10000000
00010000
00000000
01000000
00000000
00001000
00000000
00010000
00000000
00000100
00000000
00000010
00000000
,
00000001
00000000
00000100
00000000
00000101
00000000
00000000
00000000
00000001
00001000
00000100
00000000
00010000
00000000
00010000
00000000
,
01000000
00000000
10000000
00000000
00100000
00000000
10000000
00000000
01000000
00000000
00100000
00010000
10000000
00000000
00100000
00000000
,
01100000
00000000
00000000
00000000
01010000
00000000
01000000
00000000
00100000
10000000
00100000
00000000
01000000
00000000
01000000
00000000
,
00010000
00100000
00000000
00100000
00001000
00000000
00010000
00000000
00000100
00000000
00000100
00000000
00001000
00000000
00001000
00000000
,
00000100
00000010
00000000
00000000
00000010
00000001
00000000
00000000
00000001
00000100
00000000
00000000
00000100
00001000
00000000
00000000
,
00001000
00100000
00000000
00000000
00100000
10000000
00000000
00000000
10000000
01000000
00000000
00000000
01000000
00010000
00000000
00000000
,
20020000
00000000
00000000
30000000
00200000
00030000
00002000
00300000
,
00020000
00003000
00000200
00030000
00000020
00000300
00000002
00000030
,
00000200
00000000
00000000
00000003
00000020
00000300
00002030
00003200
,
00020300
00000000
00000000
00230000
20000000
00300000
02000000
33000000
,
11000000
00000000
00000000
10000000
00000000
00000000
10000000
00000000
00100000
00000000
00000000
00100000
00000000
00000000
00100000
00000000
00010000
00000000
00000000
00010000
00000000
00000000
00010000
00000000
00001000
00000000
00000000
00001000
00000000
00000000
00001000
00000000
,
00000100
00000000
00000000
00000100
00000000
00000000
00000100
00000000
00000001
00000000
00000000
00000001
00000000
00000000
00000001
00000000
00000010
00000000
00000000
00000010
00000000
00000000
00000010
00000000
00001000
00000000
00000000
00001000
00000000
00000000
00001000
00000000
,
00010000
00000000
00000000
01000000
00000000
00000000
10000000
00000000
00010000
00000000
00000000
01000000
00000000
00000000
00100000
00000000
00010000
00000000
00000000
00001000
00000000
00000000
00000100
00000000
00000010
00000000
00000000
00001000
00000000
00000000
00000100
00000000
,
00010000
00000000
00000000
00001000
00000000
00000000
00100000
00000000
00010000
00000000
00000000
10000000
00000000
00000000
01000000
00000000
00100000
00000000
00000000
00001000
00000000
00000000
00000100
00000000
00000010
00000000
00000000
00000001
00000000
00000000
00000010
00000000
,
00000100
00000100
00000001
00000001
00000010
00000010
00001000
00001000
,
00000001
00000001
00000100
00000100
00010000
00010000
00001000
00001000
,
00100000
00100000
00010000
00010000
00100000
00100000
10000000
10000000
,
00010000
00010000
01000000
01000000
10000000
10000000
00010000
00010000
,
10000000
00100000
10000000
00000000
00100000
01000000
00100000
00000000
01000000
00010000
01000000
00000000
00010000
00100000
00010000
00000000
,
00100000
00001000
00100000
00000000
00001000
00010000
00001000
00000000
00010000
00000100
00010000
00000000
00000100
00000010
00000100
00000000
,
00001100
00000000
00000100
00000010
00000002
00000000
00000103
00000010
00000200
00000000
00000310
00001000
00000002
00000000
00000013
00000100
,
00002000
00000000
00000000
00000000
00003200
00000000
00000000
00000000
00000310
00000000
00000001
00001000
00000001
00001000
00000001
00000000
00001001
00000000
00000000
00000000
00000000
00000000
00000001
00000000
00000000
00000000
00000000
00000000
00000001
00000000
00000000
00000000
,
00000100
00000000
00000000
00000100
00000000
00000000
00000100
00000000
00001000
00000000
00000000
00001000
00000000
00000000
00001000
00000000
,
00010000
00000000
00000000
00010000
00000000
00000000
00010000
00000000
00100000
00000000
00000000
00100000
00000000
00000000
00100000
00000000
,
10000000
00000000
00000000
10000000
00000000
00000000
10000000
00000000
01000000
00000000
00000000
01000000
00000000
00000000
01000000
00000000
,
00010000
00000000
00000000
00010000
00000000
00000000
00010000
00000000
00001000
00000000
00000000
00000010
00000000
00000000
00000001
00000000
,
00001000
00000000
00000000
00000010
00000000
00000000
00000100
00000000
00001000
00000000
00000000
00010000
00000000
00000000
00100000
00000000
,
01000000
00000000
00000000
00010000
00000000
00000000
00100000
00000000
00001000
00000000
00000000
00010000
00000000
00000000
00000100
00000000
,
00001000
00000000
00000000
00000001
00000000
00000000
00000010
00000000
00000100
00000000
00000000
00010000
00000000
00000000
00100000
00000000
,
01000000
00000000
00000000
10000000
00000000
00000000
01000000
00000000
02010000
00000000
00000000
03010000
00000000
00100000
00001000
00000000
,
01000000
00000000
00000000
00010000
00000000
00100000
10000000
00000000
00200000
00000000
00000000
00301000
00000000
00010000
00000100
00000000
,
00020000
00000000
00000000
00130000
00000000
00010000
00001000
00000000
00000200
00000000
00000000
00000310
00000000
00001000
00000010
00000000
,
00000200
00000000
00000000
00001300
00000000
00000100
00000010
00000000
00002000
00000000
00000000
00003100
00000000
00000001
00000100
00000000
,
00002000
00000000
00000000
00013000
00000000
00100000
00010000
00000000
00020000
00000000
00000000
10000000
00000000
00000000
10030000
00000000
,
02000000
00000000
00000000
00100000
00000000
00000000
03100000
00000000
00002000
00000000
00000000
00010000
00000000
00000000
00013000
00000000
,
00000200
00000000
00000000
00000010
00000000
00000000
00000310
00000000
00000002
00000000
00000000
00001000
00000000
00000000
00001003
00000000
,
00000200
00000000
00000000
00010000
00000000
00000000
00010300
00000000
00002000
00000000
00000000
00100000
00000000
00000000
00103000
00000000
,
00020000
00000000
00000000
10000000
00000000
00000000
10030000
00000000
10010000
00000000
01000000
00000000
00100000
00000000
00010000
00000000
,
01000000
00100000
10000000
00010000
00100000
00001000
00010000
00000100
,
00001000
00000100
00000010
00000001
00000100
00000001
00001000
00000100
,
00000000
00010000
00001000
00100000
00000000
00001000
00000000
00010000
,
00000000
00001000
00000000
00001000
00022000
00000000
00000000
00000000
,
00000000
00033000
00000000
00000000
;

//---------------dance-double - ----------------
#NOTES:
     dance-double:
     :
     Medium:
     6:
     0.341518,0.463477,0.289063,0.476563,0.062500,306.000000,269.000000,37.000000,61.000000,0.000000,0.000000,0.341518,0.463477,0.289063,0.476563,0.062500,306.000000,269.000000,37.000000,61.000000,0.000000,0.000000:
00000000
00000000
00000000
00000000
,
00000000
00000000
00000000
00000000
,
00000000
00000000
00000000
00000000
,
00000000
00000000
00000000
00000000
,
02200000
00000000
03300000
01000000
10000000
00010000
01000000
00000000
,
00100000
01000000
00010000
00000000
00100000
00010000
01000000
00000000
,
00010000
00110000
00101000
00011000
,
00001000
00010000
00000100
00000000
00010000
00001000
00010000
00000000
,
00022000
00000000
00033000
00001000
00010000
00000100
00001000
00000000
,
00001000
00000100
00010000
00000000
00001000
00100000
00010000
00000000
,
02020000
00000000
03030000
01000000
00010000
00100000
00010000
00000000
,
00100000
00001000
00010000
00000100
00001000
00000000
00000100
00000000
,
00000220
00000000
00000330
00000010
00000001
00001000
00000010
00000000
,
00000100
00000010
00001000
00000000
00000100
00001000
00000010
00000000
,
00001000
00000000
00001100
00000000
00010000
00001000
00010000
00000000
,
00001000
00100000
00010000
00100000
00001000
00010000
00001000
00000000
,
00022000
00000000
00033000
00010000
00001000
00100000
00001000
00000000
,
00001000
00010000
00000100
00000000
00001000
00000100
00000010
00000000
,
00000011
00000110
00001100
00011000
,
00110000
01100000
11000000
10010000
,
02200000
00000000
00000000
03300000
02000000
00000000
03020000
00000000
,
00230000
00000000
00320000
00230000
,
00302000
00000000
00000000
00000000
00023000
00000000
00030200
00000320
,
00000032
00000000
00000000
00000203
00000320
00000000
00000200
00000330
,
00000120
00002030
00003002
00000203
,
00000320
00002030
00003200
00020300
,
00032000
00203000
00302000
00023000
,
00030200
00002300
00003020
00000230
,
00000301
00000001
00000101
00000000
00000100
00000010
00001000
00000000
,
00000100
00000100
00001100
00000000
00001000
00000100
00010000
00001000
,
00100000
00000000
10010000
00000000
01000000
01000000
10010000
00000000
,
00100000
01000000
00100000
01000000
10000000
00100000
00010000
00000000
,
00001000
00000000
00001100
00000000
00000100
00000001
00001000
00000000
,
00000100
00000000
00000101
00000000
00000100
00001000
00000001
00000000
,
00000101
00001010
00010100
00011000
,
00101000
01010000
10100000
01100000
10020000
00000000
20030000
00000000
,
01000000
00000000
00000000
01000000
00000000
00000000
31000000
00000000
00200000
00000000
00000000
00000000
00302000
00000000
00000000
00000000
,
00010000
00000000
00000000
00010000
00000000
00000000
00013000
00000000
00000100
00000000
00001000
00000000
00000100
00000000
00000000
00000000
,
00000010
00000001
00000010
00000000
00000100
00001000
00000010
00002000
,
00000000
00003100
00020000
00032000
,
00100000
00000000
00000000
00100000
00000000
00000000
00103000
00000000
00020000
00000000
00000000
00000000
20030000
00000000
00000000
00000000
,
01000000
00000000
00000000
01000000
00000000
00000000
31000000
00000000
10000000
00000000
00000000
00000000
10000000
00000000
00100000
00000000
,
00010000
00000000
00010000
00001000
00000100
00000000
00000100
00001000
,
00000000
00001000
00010000
00000000
00120000
00000000
20030000
00000000
,
31000000
00000000
00000000
00100000
00000000
00000000
01000000
00000000
20000000
00000000
00000000
00000000
30200000
00000000
00000000
00000000
,
01300000
00000000
00000000
00010000
00000000
00000000
00100000
00000000
00002000
00000000
00000000
00000000
00023000
00000000
00000000
00000000
,
00030100
00000000
00000000
00001000
00000000
00000000
00000100
00000000
00000020
00000000
00000000
00000000
00000230
00000000
00000000
00000000
,
00001300
00000000
00000000
00000001
00000000
00000000
00000100
00000000
00000010
00000000
00000000
00000010
00000000
00000000
00000010
00000000
,
00001000
00000000
00000000
00001000
00000000
00000000
00001000
00000000
00000100
00000000
00000000
00000100
00000000
00000000
00000100
00000000
,
00010000
00000000
00000000
00010000
00000000
00000000
00010000
00000000
00100000
00000000
00000000
00100000
00000000
00000000
00100000
00000000
,
10000000
00000000
00000000
10000000
00000000
00000000
10000000
00000000
01000000
00000000
00000000
01000000
00000000
00000000
01000000
00000000
,
00100000
00000000
00000000
00100000
00000000
00000000
00100000
00000000
01100000
00000000
01000000
00000000
10000000
00000000
00010000
00000000
,
10000000
00000000
00100000
00000000
01000000
00010000
01000000
00100000
,
10000000
00000000
00010000
00000000
00100000
00001000
00010000
00001000
,
00010000
00000100
00010000
00000000
00000200
00001000
00000000
00001000
,
00000000
00001000
00000000
00001300
00002002
00000000
00000000
00000000
,
00000000
00000000
00003003
00000000
;

//---------------dance-double - ----------------
#NOTES:
     dance-double:
     :
     Easy:
     3:
     0.219866,0.286914,0.117188,0.390625,0.000000,197.000000,182.000000,15.000000,50.000000,0.000000,0.000000,0.219866,0.286914,0.117188,0.390625,0.000000,197.000000,182.000000,15.000000,50.000000,0.000000,0.000000:
00000000
00000000
00000000
00000000
,
00000000
00000000
00000000
00000000
,
00000000
00000000
00000000
00000000
,
00000000
00000000
00000000
00000000
,
00002002
00003003
00000001
00001000
,
00000010
00000100
00000001
00001000
,
00000000
00000100
00010000
00010000
,
00001000
00000000
00001000
00000000
00100000
00100000
00100000
00000000
,
20020000
30030000
00010000
10000000
,
00100000
10000000
00010000
01000000
,
02200000
03300000
01000000
01000000
,
00010000
00010000
00100000
00001000
,
00022000
00033000
00010000
00001000
,
00010000
00000100
00001000
00000100
,
00000010
00000110
00000000
00001001
,
00000100
00000000
00000100
00000000
00000010
00000010
00000010
00000000
,
00000220
00000330
00000010
00001000
,
00000100
00001000
00000100
00010000
,
00001000
00001000
00010000
00010000
,
00001000
00010000
00000100
00000010
,
00000120
00000000
00000032
00000000
,
00000203
00000000
00000320
00000000
,
00002030
00000000
00003200
00000000
,
00020300
00000000
00002000
00033000
,
00011000
00000000
02000000
00000000
,
23000000
00000000
30100000
00000000
,
01000000
00000000
00020000
00000000
,
00230000
00000000
00301000
00000000
,
00000200
00000301
00000020
00000031
,
00000200
00000301
00000020
00000031
,
00002000
00003100
00020000
00031000
,
00200000
00310000
02000000
03100000
,
20010000
00000000
30010000
00000000
10000000
10000000
10000000
00000000
,
01200000
00000000
01300000
00000000
00100000
00100000
00100000
00000000
,
20000000
32000000
03200000
00320000
,
00032000
00003200
00000320
00000031
00001001
00000000
00001000
00000000
,
00000001
00001000
00000010
00000100
,
00000010
00000100
00000001
00000010
,
00000100
00001000
00000010
00001000
,
00000100
00000100
00000100
00000000
00010000
00000000
00001000
00000000
,
00100000
00001000
00010000
00001000
,
00010000
00000100
00010000
00001000
,
00100000
00010000
01000000
00100000
,
10000000
10000000
10000000
00000000
10010000
00000000
00010000
00000000
,
10000000
01000000
10000000
00010000
,
01000000
00010000
00100000
00100000
,
00001000
00001000
00010000
00010000
,
00000100
00000100
00000020
00000000
,
00000032
00000000
00000203
00000000
,
00000320
00000000
00002030
00000000
,
00003200
00000000
00020300
00000000
,
00031000
00001000
00012000
00103000
,
00010000
00100000
00010000
01000000
,
00010000
01000000
00100000
10000000
,
00100000
10000000
00020000
00000000
,
00000000
00030000
20020000
00000000
,
00000000
00000000
30030000
00000000
;

//---------------dance-single - ----------------
#NOTES:
     dance-single:
     :
     Challenge:
     10:
     0.664063,0.860742,0.218750,0.140625,0.933594,595.000000,567.000000,28.000000,18.000000,0.000000,0.000000,0.664063,0.860742,0.218750,0.140625,0.933594,595.000000,567.000000,28.000000,18.000000,0.000000,0.000000:
0000
0000
0000
0000
,
0000
0000
0000
0000
,
0000
0000
0000
0000
,
0000
0000
0000
0000
,
1001
0000
0001
0010
0100
0000
1000
0010
0100
0000
0001
0000
0010
0000
0100
1000
,
0000
0001
0000
1000
0100
0000
0010
0001
1000
0001
0010
0100
1000
0000
0010
0100
,
0000
0000
0000
0000
1001
0000
1000
0100
0010
0000
0001
0000
0100
0000
1000
0000
,
0100
0000
0001
0010
0001
0000
0100
0000
0010
0000
1000
0001
0010
0000
0100
0000
,
1001
0000
0010
0000
0100
0000
0010
0000
0101
0000
0010
1000
0100
0000
0010
0000
,
1100
0000
0001
0010
0100
1000
0100
0000
0110
0000
0010
0000
1001
0000
0000
0000
,
1100
0000
0010
0001
0100
0000
1000
0000
0100
0001
0100
0010
0000
1000
0100
0010
,
0001
0000
1000
0000
0001
0100
0010
0000
1000
0000
0100
0000
1001
0000
0000
0000
,
0011
0000
0100
0000
1000
0000
0010
0000
0101
0000
1000
0000
0001
0100
1000
0100
,
0000
0000
0001
0010
0100
0000
1000
0000
0010
0000
0010
0000
0110
0000
0000
0000
,
0101
0000
0010
1000
0100
0000
0001
0000
0100
1000
0100
0010
0000
0001
0100
0010
,
1000
0000
0001
0000
0010
0000
1000
0010
0001
0000
0100
0010
0000
0000
0100
0000
,
1001
0000
0010
0001
0010
0100
0010
0000
0001
1000
0001
0100
0001
0000
1000
0000
,
1100
0000
0010
0001
0100
0000
0010
1000
0100
0000
0010
0001
0100
0000
0010
1000
,
0100
0010
0001
0100
0010
1000
0100
0010
,
0001
0100
0001
0100
0010
1000
0010
1000
0001
0010
0001
0010
0100
1000
0100
1000
,
0020
0000
0000
0000
2000
0030
3002
0000
,
0200
0003
0020
0300
2000
0030
0200
3000
,
0020
0000
0000
0300
0032
0000
0203
0320
,
2030
0000
0000
3002
0203
0000
0320
0000
,
1030
0000
0000
0100
0000
0000
0010
0000
0001
0000
0000
0100
0000
0000
0010
0000
1000
0000
0000
0001
0000
0000
0010
0000
0001
0000
0000
1000
0000
0000
0010
0000
,
0100
0000
0000
0100
0000
0000
1000
0000
0010
0000
0000
0010
0000
0000
0001
0000
1000
0000
0000
1000
0000
0000
0100
0000
0001
0000
0000
0001
0000
0000
0010
0000
,
1000
0000
0100
1000
0000
0100
1000
0000
0001
0000
0100
0001
0000
0100
0001
0000
1000
0000
0010
1000
0000
0010
1000
0000
0001
0000
0010
0001
0000
0010
0001
0000
,
0100
0000
0000
0100
0000
0000
0100
0000
0010
0000
0000
0010
0000
0000
0010
0000
1000
0000
0001
0100
0000
0001
0100
0010
1000
0000
0001
0010
0000
0001
0010
0100
,
1000
0010
1000
0010
1000
0010
1000
0010
0100
0001
0100
0001
0100
0001
0100
0001
,
1000
0100
1000
0100
1000
0100
1000
0100
0010
0001
0010
0001
0010
0001
0010
0001
,
1000
0010
0100
0010
1000
0010
0100
0010
1000
0010
0100
0001
0100
0010
0100
0001
,
0100
0010
1000
0001
0010
0100
1000
0001
0100
0010
1000
0100
0010
0001
1000
0010
,
0100
0000
0101
0000
0010
0000
1100
0000
0001
0010
0100
1000
0010
0100
0001
1000
,
0010
0000
1010
0000
0100
0000
0101
0000
1000
0010
0100
0001
0010
0100
1000
0001
,
0100
0010
0100
0010
1000
0010
1000
0010
0100
0001
0100
0001
1000
0100
0010
0001
,
0200
0000
0000
0000
0310
0110
1001
0000
1000
0001
0000
0100
0000
0000
0010
0000
,
1000
0001
0000
0100
0000
0000
0010
0000
1000
0001
0000
0100
0000
0000
0010
0000
,
0100
0010
0100
0010
1000
0001
1000
0000
0001
1000
0000
0100
0000
0000
0010
0000
,
0001
1000
0000
0100
0000
0000
0010
0000
0001
1000
0000
0100
0000
0000
0010
0000
,
0100
0010
0100
0010
0001
1000
0001
0000
0100
0010
0000
1000
0000
0000
0001
0000
,
0100
0010
0000
1000
0000
0000
0001
0000
0010
0100
0000
1000
0000
0000
0001
0000
,
0010
0100
0000
1000
0000
0000
0001
0000
0010
0001
0000
1000
0000
0000
0100
0000
,
0010
0001
0000
1000
0000
0000
0100
0000
0010
0001
0000
1000
0000
0000
0100
0000
,
0010
0001
0010
0100
1000
0010
0100
0000
0101
0000
0001
0010
0000
0001
0100
0010
,
1000
0000
1000
0100
0000
0010
0001
0100
0010
0000
1000
0010
0000
1000
0100
0010
,
0001
0000
0001
0100
0000
0010
1000
0100
0010
0000
0001
1000
0000
0001
0100
0001
,
0010
0000
0100
1000
0000
0010
1000
0100
1000
0000
0100
0010
0000
0001
0100
0010
,
1000
0000
0001
0010
0000
0001
1000
0100
0010
0000
0001
1000
0000
0100
0010
0001
,
0100
0000
0010
1000
0000
0001
0100
0010
1000
0000
0100
0001
0000
0100
1000
0100
,
0010
0000
0001
0100
0000
1000
0100
0001
0010
0001
0010
0001
1000
0010
1000
0010
,
0100
0001
1000
0001
0010
0100
1000
0010
0100
0000
0001
0000
0010
0000
0100
0000
,
1000
0000
0010
0000
0100
0000
0001
0000
1001
0000
1000
0100
0010
0000
0001
0000
,
0101
0000
0000
1000
0100
0000
0010
0001
1000
0000
0001
0100
0010
0000
1000
0000
,
1100
0000
0000
0001
0100
0000
0010
1000
0100
0010
0001
0100
0010
1000
0001
0010
,
0100
1000
0010
0100
0001
1000
0100
0010
0001
0000
0110
0000
1000
0000
0110
0000
,
0001
0010
0100
1000
0010
0100
0001
1000
2002
0000
0000
0000
0000
0000
0000
0000
,
0000
0000
3003
0000
;

//---------------dance-double - ----------------
#NOTES:
     dance-double:
     :
     Challenge:
     10:
     0.640625,0.949023,0.148438,0.140625,0.890625,574.000000,555.000000,19.000000,18.000000,0.000000,0.000000,0.640625,0.949023,0.148438,0.140625,0.890625,574.000000,555.000000,19.000000,18.000000,0.000000,0.000000:
// measure 0
00000000
00000000
00000000
00000000
,  // measure 1
00000000
00000000
00000000
00000000
,  // measure 2
00000000
00000000
00000000
00000000
,  // measure 3
00000000
00000000
00000000
00000000
,  // measure 4
00011000
00000000
00001000
00100000
00010000
00000000
10000000
00100000
01000000
00000000
00010000
00000000
00100000
00000000
01000000
10000000
,  // measure 5
00000000
00010000
00000000
10000000
01000000
00000000
00010000
00000000
00001000
00000000
00010000
00100000
00010000
00000000
00100000
01000000
,  // measure 6
00000000
00000000
00000000
00000000
00011000
00000000
00010000
00001000
00000100
00000000
00000001
00000000
00000010
00000000
00001000
00000000
,  // measure 7
00000010
00000000
00000001
00000100
00000010
00000000
00001000
00000000
00000100
00000000
00000010
00000001
00000100
00000000
00001000
00000000
,  // measure 8
00011000
00000000
00100000
00000000
01000000
00000000
10000000
00000000
01010000
00000000
00100000
10000000
01000000
00000000
00010000
00000000
,  // measure 9
00001000
00000000
00100000
00010000
00001000
00000000
00000100
00000000
00000110
00000000
00000010
00000000
00001001
00000000
00000000
00000000
,  // measure 10
00011000
00000000
00000010
00000000
00000100
00000000
00000001
00000010
00000100
00000000
00010000
00001000
00000000
00000010
00001000
00010000
,  // measure 11
00100000
00000000
10000000
00000000
00010000
01000000
00100000
00000000
10000000
00000000
01000000
00000000
10010000
00000000
00000000
00000000
,  // measure 12
10100000
00000000
01000000
00010000
01000000
00010000
00100000
00000000
00001000
00000000
00010000
00000000
00001000
00000100
00000001
00000010
,  // measure 13
00000000
00000000
00000001
00000100
00000010
00000000
00010000
00000000
00001000
00000000
00000100
00000000
00000001
00000000
00000000
00000000
,  // measure 14
00000011
00000000
00000100
00001000
00000010
00000000
00010000
00000000
00001000
00000100
00001000
00010000
00000000
00100000
10000000
00010000
,  // measure 15
10000000
00000000
01000000
00000000
00010000
00000000
00001000
00000000
00000100
00000000
00001000
00100000
00000000
00000000
01000000
00000000
,  // measure 16
10010000
00000000
00100000
10000000
00100000
01000000
00100000
00000000
10000000
01000000
00100000
00010000
00001000
00000000
00000100
00000000
,  // measure 17
00000110
00000000
00000010
00000001
00000100
00000000
00001000
00000100
00000001
00000000
00000010
00000100
00010000
00000000
00001000
00000000
,  // measure 18
00000100
00000001
00000010
00001000
00010000
01000000
10000000
00100000
,  // measure 19
00010000
00001000
00000100
00000001
00000010
00000100
00001000
00010000
,  // measure 20
00200000
00000000
00000000
00000000
00000000
00000000
00000000
00000000
20000000
00000000
00000000
00300000
00020000
00000000
00000000
30000000
,  // measure 21
02000000
00000000
00000000
00030000
20000000
00000000
00000000
03000000
00200000
00000000
30000000
00000000
00020000
00000000
00300000
00000000
,  // measure 22
00002000
00000000
00000000
00030000
00000200
00003000
00000302
00000023
,  // measure 23
00002030
00000000
00000000
00023000
02030000
00000000
03200000
00320000
,  // measure 24
10030000
00000000
00000000
01000000
00000000
00000000
00010000
00000000
00001000
00000000
00000000
00000100
00000000
00000000
00000001
00000000
00000010
00000000
00000000
00000001
00000000
00000000
00000100
00000000
00000010
00000000
00000000
00001000
00000000
00000000
00010000
00000000
,  // measure 25
01000000
00000000
00000000
01000000
00000000
00000000
00100000
00000000
10000000
00000000
00000000
10000000
00000000
00000000
01000000
00000000
00010000
00000000
00000000
00010000
00000000
00000000
00001000
00000000
00000010
00000000
00000000
00000010
00000000
00000000
00000001
00000000
,  // measure 26
00001000
00000000
00000100
00001000
00000000
00000100
00001000
00000000
00000001
00000000
00000100
00000001
00000000
00000100
00000001
00000000
00001000
00000000
00000010
00010000
00000000
00000010
00010000
00000000
00001000
00000000
01000000
00010000
00000000
01000000
00010000
00000000
,  // measure 27
10000000
00000000
00100000
01000000
00000000
00100000
01000000
00000000
00010000
00000000
00100000
01000000
00000000
00100000
01000000
00000000
10000000
00000000
00010000
00100000
00000000
00010000
00100000
00001000
00010000
00000000
00000100
00001000
00000000
00000100
00001000
00000001
,  // measure 28
00000010
00000001
00000010
00000001
00000010
00000001
00000010
00000001
00001000
00000010
00001000
00000010
00001000
00000010
00001000
00000010
,  // measure 29
00010000
00001000
00010000
00001000
00010000
00001000
00010000
00001000
01000000
00010000
01000000
00010000
01000000
00010000
01000000
00010000
,  // measure 30
10000000
01000000
10000000
01000000
10000000
01000000
10000000
01000000
00100000
00010000
00100000
00010000
00100000
00010000
00100000
00010000
,  // measure 31
00001000
00000100
00001000
00000100
00001000
00000100
00001000
00000100
00000010
00000001
00000010
00000001
00000010
00000001
00000010
00000001
,  // measure 32
00001000
00000000
00001100
00000000
00010000
00000000
00011000
00000000
00000010
00000100
00000010
00001000
00000100
00010000
00001000
00100000
,  // measure 33
00010000
00000000
01010000
00000000
00001000
00000000
00011000
00000000
00100000
01000000
00100000
00010000
01000000
00001000
00010000
00000010
,  // measure 34
00001000
00000010
00000100
00000001
00000100
00000010
00001000
00000100
00001000
00000100
00010000
00001000
00100000
00001000
00100000
00010000
,  // measure 35
02000000
00000000
00000000
00000000
03100000
01100000
10010000
00000000
10000000
00010000
00000000
01000000
00000000
00000000
00100000
00000000
,  // measure 36
01000000
00001000
00000000
00010000
00000000
00000000
00000100
00000000
00001000
00000001
00000000
00000010
00000000
00000000
00000100
00000000
,  // measure 37
00001000
00000001
00000000
00001000
00000001
00000000
00000010
00000000
00000001
00001000
00000000
00000100
00000000
00000000
00000010
00000000
,  // measure 38
00000100
00010000
00000000
00001000
00000000
00000000
01000000
00000000
00010000
10000000
00000000
00100000
00000000
00000000
01000000
00000000
,  // measure 39
00010000
10000000
00000000
00010000
10000000
00000000
00100000
00000000
10000000
00010000
00000000
00100000
00000000
00000000
01000000
00000000
,  // measure 40
00100000
00001000
00000000
00010000
00000000
00000000
00000010
00000000
00001000
00000001
00000000
00000100
00000000
00000000
00000010
00000000
,  // measure 41
00001000
00000001
00000000
00001000
00000001
00000000
00000100
00000000
00000001
00001000
00000000
00000010
00000000
00000000
00000100
00000000
,  // measure 42
00000010
00010000
00000000
00001000
00000000
00000000
00100000
00000000
00010000
10000000
00000000
01000000
00000000
00000000
00100000
00000000
,  // measure 43
00010000
10000000
00000000
00010000
10000000
00000000
01000000
00000000
00010000
00001000
00000000
00000100
00000001
00000100
00001000
00000000
,  // measure 44
00001000
00010000
00000000
01000000
10000000
01000000
00010000
00000000
00010000
00001000
00000000
00000010
00000001
00000010
00001000
00000000
,  // measure 45
00001000
00010000
00000000
00100000
10000000
00100000
00010000
00000000
00001000
00000100
00000000
00000001
00000010
00000000
00000001
00001000
,  // measure 46
00000100
00000010
00000000
00001000
00010000
00000000
00100000
10000000
01000000
00100000
00010000
00100000
00000000
00001000
00010000
00000000
,  // measure 47
00000100
00000000
00001000
00000001
00000000
00001000
00000010
00000000
00000100
00000001
00000000
00001000
00000100
00001000
00000100
00010000
,  // measure 48
00001000
00100000
00000000
00010000
01000000
00010000
10000000
00010000
00100000
00010000
00000000
10000000
01000000
00100000
00010000
01000000
,  // measure 49
00100000
10000000
00000000
01000000
00010000
00001000
00010000
00000000
00000010
00001000
00000001
00001000
00000010
00001000
00000001
00000010
,  // measure 50
00000100
00001000
00000100
00000010
00000100
00010000
00001000
00100000
00010000
00000000
10000000
00000000
01000000
00000000
00100000
00000000
,  // measure 51
00010000
00000000
00001000
00000000
00000100
00000000
00000010
00000000
00000011
00000000
00000001
00000100
00001000
00000000
00010000
00000000
,  // measure 52
00001000
00000000
00000000
00000010
00001000
00000000
00010000
00000000
00100000
00000000
10000000
01000000
00010000
00000000
00001000
00000000
,  // measure 53
00010000
00000000
00000000
00100000
00010000
00000000
00001000
00000000
00000010
00000001
00000010
00000001
00001000
00000010
00001000
00000010
,  // measure 54
00010000
00001000
00010000
00001000
00100000
00010000
00100000
00010000
10000000
00000000
00100000
00000000
00010000
00000000
00100000
00000000
,  // measure 55
10000000
01000000
00010000
00001000
00000010
00000001
00000100
00000010
00020000
00000000
00000000
00000000
00000000
00000000
00000000
00000000
,  // measure 56
00000000
00000000
00030000
00000000
;
