#VERSION:0.83;
#TITLE:Disco Lies (Freemansons Remix);
#SUBTITLE:;
#ARTIST:Moby;
#TITLETRANSLIT:;
#SUBTITLETRANSLIT:;
#ARTISTTRANSLIT:;
#GENRE:;
#ORIGIN:;
#CREDIT:;
#BANNER:Disco Lies (Freemansons Remix).png;
#BACKGROUND:Disco Lies (Freemansons Remix)-bg.png;
#PREVIEWVID:;
#JACKET:Disco Lies (Freemansons Remix)-jacket.png;
#CDIMAGE:;
#DISCIMAGE:;
#LYRICSPATH:;
#CDTITLE:;
#MUSIC:Disco Lies (Freemansons Remix).ogg;
#OFFSET:0.000000;
#SAMPLESTART:74.075081;
#SAMPLELENGTH:15.000007;
#SELECTABLE:YES;
#BPMS:0.000=128.000;
#STOPS:;
#DELAYS:;
#WARPS:;
#TIMESIGNATURES:0.000=4=4;
#TICKCOUNTS:0.000=4;
#COMBOS:0.000=1;
#SPEEDS:0.000=1.000=0.000=0;
#SCROLLS:0.000=1.000;
#FAKES:;
#LABELS:0.000=Song Start;
#BGCHANGES:0.000=Disco Lies (Freemansons Remix).avi=1.000=1=0=0=StretchNoLoop==CrossFade==,
99999=-nosongbg-=1.000=0=0=0 // don't automatically add -songbackground-
;
#KEYSOUNDS:;
#ATTACKS:
;

//---------------dance-single - ----------------
#NOTEDATA:;
#CHARTNAME:;
#STEPSTYPE:dance-single;
#DESCRIPTION:;
#CHARTSTYLE:;
#DIFFICULTY:Beginner;
#METER:1;
#RADARVALUES:0.108060,0.196670,0.066187,0.000000,0.000000,80.000000,73.000000,7.000000,0.000000,0.000000,0.000000,0.000000,0.000000,0.000000,0.108060,0.196670,0.066187,0.000000,0.000000,80.000000,73.000000,7.000000,0.000000,0.000000,0.000000,0.000000,0.000000,0.000000;
#CREDIT:;
#NOTES:
0000
0000
0000
0000
,
0000
0000
0000
0000
,
0000
0000
0000
0000
,
0000
0000
0000
0000
,
1000
0000
0000
0000
,
0001
0000
0000
0000
,
0100
0000
0000
0000
,
0010
0000
0000
0000
,
1001
0000
0000
0000
,
0000
1000
1000
0000
,
1001
0000
0000
0000
,
0000
0001
0001
0000
,
1001
0000
0000
0000
,
0000
1000
1000
0000
,
1001
0000
0000
0000
,
1000
0000
0001
0000
,
1001
0000
0000
0000
,
0000
0000
0000
0000
,
0001
0000
0000
0001
,
0001
0000
0000
0000
,
0100
0000
0000
0000
,
0000
0000
0000
0000
,
0010
0000
0000
0010
,
0010
0000
0000
0000
,
1000
0000
0100
0000
,
1000
0000
0100
0000
,
1000
0000
0000
0100
,
0100
0000
0000
0000
,
0001
0000
0010
0000
,
0001
0000
0010
0000
,
0001
0000
0000
0010
,
0010
0000
0000
0000
,
1001
0000
0000
0000
,
0000
0000
0000
0000
,
0001
0000
0000
0000
,
0000
0000
0000
0000
,
1000
0000
0000
0000
,
0000
0000
0000
0000
,
0001
0000
0000
0000
,
0000
0000
1000
1000
,
1000
0000
1000
0000
,
0000
0001
0001
0000
,
0001
0000
0001
0000
,
0000
0100
0100
0000
,
0100
0000
0100
0000
,
0000
0010
0010
0000
,
1000
0000
0001
0000
,
0100
0000
0010
0000
,
0100
0100
0100
0000
,
0010
0010
0010
0000
,
1000
1000
1000
0000
,
0001
0001
0001
0000
,
1001
0000
0000
0000
;

//---------------dance-single - ----------------
#NOTEDATA:;
#CHARTNAME:;
#STEPSTYPE:dance-single;
#DESCRIPTION:;
#CHARTSTYLE:;
#DIFFICULTY:Hard;
#METER:8;
#RADARVALUES:0.482219,0.516258,0.321480,0.226927,0.208016,357.000000,323.000000,34.000000,24.000000,0.000000,0.000000,0.000000,0.000000,0.000000,0.482219,0.516258,0.321480,0.226927,0.208016,357.000000,323.000000,34.000000,24.000000,0.000000,0.000000,0.000000,0.000000,0.000000;
#CREDIT:;
#NOTES:
0000
0000
0000
0000
,
0000
0000
0000
0000
,
0000
0000
0000
0000
,
0000
0000
0000
0000
,
1000
0000
0100
1000
0100
0000
0010
0000
0001
0000
0100
0001
0100
0000
0010
0000
,
1000
0000
0010
1000
0010
0000
0100
0000
0001
0000
0010
0001
0010
0000
0001
0000
,
0100
0000
0010
1000
0001
0000
1000
0000
0100
0000
0010
0100
1000
0000
0100
0000
,
0020
0000
0001
0000
0100
0000
0031
0010
,
0001
0100
0010
1000
0010
0100
0001
0010
,
0000
0000
1100
0000
0000
0101
0000
0000
2002
0000
0000
0000
3003
0000
0000
0000
,
0001
0000
1000
0000
0001
0000
0100
0000
0010
0000
0100
0010
0000
1000
0010
0000
,
0000
0000
1010
0000
0000
0011
0000
0000
2002
0000
0000
0000
3003
0000
0000
0000
,
1000
0100
1000
0001
1000
0010
1000
0100
,
0000
0000
1100
0000
0000
0101
0000
0000
2002
0000
0000
0000
3003
0000
0000
0000
,
2100
0000
0000
0000
3010
0000
0000
0000
0100
0000
0001
1000
0000
0001
1000
0000
,
0100
0000
0110
0000
0000
1001
0000
0000
0110
0000
0000
0100
0010
0000
0100
0000
,
0110
0000
0010
1000
0100
0010
0001
0100
,
0010
1000
0000
0000
0100
1000
0010
0100
,
0002
0000
0013
0000
0000
0010
0100
1000
,
0020
0000
0100
0000
1030
0100
0010
0100
,
1000
0000
0001
1000
0001
0100
0010
1000
,
0100
0010
0001
0000
0001
0100
1000
0100
,
0001
0000
0011
0000
1000
0100
1000
0010
,
0000
0000
0000
0000
0110
0000
0000
0000
0010
0000
0100
0000
0001
0100
0001
0100
,
0001
0000
0010
0100
1000
0100
0001
0100
,
1000
0100
0010
0000
0001
0100
1000
0100
,
0002
0100
0100
0103
0000
0100
0001
0010
,
0200
1000
1000
1300
0000
0000
1001
0000
,
1010
0000
1000
0010
0100
0010
1000
0010
,
0001
0010
1000
0000
1000
0010
0001
0010
,
2000
0001
0001
3001
0000
0001
1000
0100
,
0010
0100
1000
0001
0101
0000
1100
0000
,
2001
0000
0100
0000
3010
1000
0100
0010
,
0000
0110
0000
0000
0010
0100
0000
1000
,
0001
0000
1001
0000
1000
0001
0000
0102
,
0000
0000
0100
0000
1000
0000
0013
0001
,
0100
0000
0100
0001
0100
0010
0000
0100
,
0010
1000
0001
2002
0000
3003
0000
1000
,
0001
0000
0001
0200
0000
2300
0000
3020
,
0000
0000
0032
0000
0000
0000
0003
0000
1000
0000
0001
0000
0010
0000
0001
0010
,
0001
0000
0010
0001
0000
0000
0001
0100
0000
0000
0100
0010
0000
0000
0010
1000
,
0200
0000
0010
0000
0000
0010
0000
0000
1300
0000
0100
0000
0001
0000
0100
0000
,
0010
0000
0001
0010
0000
0000
0010
0100
0000
0000
0100
1000
0000
0000
1000
0010
,
0200
0000
0010
0000
0000
0010
0000
0000
0301
0000
1000
0000
0010
0000
0100
0000
,
0001
0000
0010
0100
0000
0000
0100
1000
0000
0000
1000
0010
0000
0000
0010
0100
,
0002
0000
1000
0000
0000
1000
0000
0000
0013
0000
1000
0000
0010
0000
0001
0000
,
0010
0000
0100
1000
0000
0000
1000
0010
0000
0000
0010
0000
0100
0000
0110
0000
,
0100
0000
0001
0000
1000
0000
1001
0000
1000
0000
0001
0000
0010
0100
0010
0100
,
1000
0000
0001
0010
0100
1000
0010
1000
,
0000
0000
1100
0000
0000
0101
0000
0000
1001
0000
0000
1000
0001
0000
0000
0000
,
0101
0000
0000
0000
0001
0000
0100
0000
0010
0000
1000
0100
0000
0010
0001
0000
,
0010
0000
0011
0000
0000
0110
0000
0000
1001
0000
0000
0000
0001
0100
0010
1000
,
0001
0000
0000
0000
;

//---------------dance-single - ----------------
#NOTEDATA:;
#CHARTNAME:;
#STEPSTYPE:dance-single;
#DESCRIPTION:;
#CHARTSTYLE:;
#DIFFICULTY:Easy;
#METER:3;
#RADARVALUES:0.175598,0.270421,0.047276,0.151285,0.000000,130.000000,125.000000,5.000000,16.000000,0.000000,0.000000,0.000000,0.000000,0.000000,0.175598,0.270421,0.047276,0.151285,0.000000,130.000000,125.000000,5.000000,16.000000,0.000000,0.000000,0.000000,0.000000,0.000000;
#CREDIT:;
#NOTES:
0000
0000
0000
0000
,
0000
0000
0000
0000
,
0000
0000
0000
0000
,
0000
0000
0000
0000
,
1000
0000
0001
0000
,
1000
0000
0001
0000
,
1000
0000
0001
0000
,
1000
0000
0001
1000
,
0001
0001
1000
1000
,
0000
0002
0000
0000
0000
0000
0003
0000
,
1000
1000
0001
0001
,
0000
2000
0000
0000
0000
0000
3000
0000
,
0100
0100
0010
0010
,
0000
0200
0000
0000
0000
0000
0300
0000
,
0010
0010
0100
0100
,
0000
0020
0000
0000
0000
0000
0030
0000
,
0110
0000
0001
0000
,
0001
0000
1000
0000
,
1000
0000
1000
0001
,
1000
0000
0001
0000
,
0100
0000
0100
0000
,
0010
0000
0010
0000
,
0100
0000
0100
0010
,
0100
0000
0100
0000
,
0001
0100
0001
0000
,
1000
0100
1000
0000
,
0001
1000
0001
0100
,
0001
1000
0001
0100
,
0001
0010
0001
0000
,
1000
0010
1000
0000
,
1000
0001
1000
0010
,
1000
0001
1000
0010
,
2000
0000
0000
3200
0000
0000
0000
0000
,
0000
0000
0000
0000
,
0320
0000
0000
0000
,
0000
0000
0032
0000
,
0203
0000
0000
0000
,
0010
0000
0320
0000
,
2030
0000
0000
0000
,
3002
0000
0100
0010
,
1003
1000
0100
0100
,
0000
0020
0000
0000
0000
0000
0000
0030
,
0001
0001
0100
0100
,
0000
0020
0000
0000
0000
0000
0030
0000
,
1000
1000
0010
0010
,
0000
0200
0000
0000
0000
0000
0000
0300
,
0001
0001
0010
0010
,
0110
0100
0110
0100
,
0010
0001
0100
0010
,
0000
2001
0000
0000
0100
0000
3100
0000
,
1000
0010
0100
0001
,
0010
0100
1000
0010
,
0110
0000
0000
0000
;

//---------------dance-double - ----------------
#NOTEDATA:;
#CHARTNAME:;
#STEPSTYPE:dance-double;
#DESCRIPTION:;
#CHARTSTYLE:;
#DIFFICULTY:Hard;
#METER:8;
#RADARVALUES:0.507884,0.516258,0.330935,0.028366,0.137102,376.000000,341.000000,35.000000,3.000000,0.000000,0.000000,0.000000,0.000000,0.000000,0.507884,0.516258,0.330935,0.028366,0.137102,376.000000,341.000000,35.000000,3.000000,0.000000,0.000000,0.000000,0.000000,0.000000;
#CREDIT:;
#NOTES:
// measure 0
00000000
00000000
00000000
00000000
,  // measure 1
00000000
00000000
00000000
00000000
,  // measure 2
00000000
00000000
00000000
00000000
,  // measure 3
00000000
00000000
00000000
00000000
,  // measure 4
10000000
00000000
00010000
00100000
00010000
00000000
00100000
00000000
00001000
00000000
00010000
00001000
00010000
00000000
00000100
00000000
,  // measure 5
00001000
00000000
00000010
00000100
00000010
00000000
00000100
00000000
00001000
00000000
00100000
00010000
00100000
00000000
00010000
00000000
,  // measure 6
01000000
00000000
00100000
10000000
00100000
00000000
01000000
00000000
00001000
00000000
00010000
00000100
00001000
00000000
00000010
00000000
,  // measure 7
00000100
00000000
00000001
00000010
00000100
00000000
00001000
00000000
00000010
00000000
00001000
00000000
00001001
00000000
00000000
00000000
,  // measure 8
00001100
00000000
00000100
00010000
00001000
00100000
00010000
01000000
,  // measure 9
00000000
00000000
00100000
00000000
00000000
10000000
00000000
00000000
01000000
00000000
10000000
00000000
10010000
00000000
00000000
00000000
,  // measure 10
01100000
00000000
00000000
00000000
01000000
00000000
00010000
00000000
00100000
00000000
00010000
00100000
00000000
00100000
00001000
00000000
,  // measure 11
00000000
00000000
00000010
00000000
00000000
00000001
00000000
00000000
00000100
00000000
00000010
00000000
00001010
00000000
00000000
00000000
,  // measure 12
00010010
00000010
00010000
00001000
00100000
00010000
01000000
00100000
,  // measure 13
00000000
00000000
01000000
00000000
00000000
00001000
00000000
00000000
00010000
00000000
00001000
00000000
00011000
00000000
00000000
00000000
,  // measure 14
00010010
00000000
00000000
00000000
00010000
00000000
00000010
00000000
00001000
00000000
00000100
00001000
00000000
00000100
00000010
00000000
,  // measure 15
00000100
00000000
00000110
00000000
00000000
00010000
00000000
00000000
00001000
00000000
00010000
00000000
00011000
00000000
00000000
00000000
,  // measure 16
00010000
01000000
10000000
01000000
00010000
01000000
10000000
01000000
,  // measure 17
00010000
00001000
00010000
00000000
00010000
01000000
10000000
00100000
,  // measure 18
10000000
01000000
00010000
00000000
00000000
01000000
10000000
00100000
,  // measure 19
10000000
01000000
00100000
00000000
00001000
00010000
00000100
00010000
,  // measure 20
00001000
00000100
00000001
00000100
00001000
00000100
00000001
00000100
,  // measure 21
00001000
00010000
00001000
00000000
00001000
00000010
00000001
00001000
,  // measure 22
00000001
00000010
00001000
00000000
00001000
00000010
00000001
00000100
,  // measure 23
00001000
00000000
00010000
00000000
01000000
00000000
10000000
00000000
01000000
00000000
00010000
00000000
00001000
00010000
00001000
00010000
,  // measure 24
00001000
00000000
00010000
00000100
00000010
00000001
00000100
00001000
,  // measure 25
00010000
01000000
10000000
00000000
00100000
10000000
01000000
00010000
,  // measure 26
00001000
00010000
01000000
10000000
00000000
10000000
00100000
00010000
,  // measure 27
00001000
00010000
00100000
10000000
00000000
00000000
00110000
00000000
,  // measure 28
00100000
00001000
00010000
00001000
00000100
00000001
00000010
00001000
,  // measure 29
00010000
00001000
00000010
00000000
00000001
00000100
00001000
00010000
,  // measure 30
00100000
00010000
00001000
00000100
00000000
00000100
00001000
00010000
,  // measure 31
00100000
10000000
01000000
00010000
00011000
00001000
00011000
00010000
,  // measure 32
00011000
00000000
00001100
00000000
00001000
00000010
00000100
00000001
,  // measure 33
00000000
00000010
00000000
00000000
00000100
00001000
00000000
00001100
,  // measure 34
00000000
00000000
00011000
00000000
00001000
00010000
01000000
00100000
,  // measure 35
00000000
00101000
00010000
00010010
,  // measure 36
00011000
00000000
00010000
00000100
00000001
00001000
00010000
00000000
,  // measure 37
00001000
01000000
10000000
00010000
00001000
00000000
00001000
00010000
,  // measure 38
00001000
00000100
00001000
00010000
00100000
00020000
00000000
00032000
,  // measure 39
00000000
00000000
00003200
00000000
00000000
00000000
00000300
00000000
00000001
00000000
00000010
00000000
00000100
00000000
00010000
00001000
,  // measure 40
00100000
00010000
01000000
00100000
10000000
01000000
00100000
00010000
,  // measure 41
00000000
00000000
10010000
00000000
00000000
11000000
00000000
00000000
01010000
00000000
01000000
00000000
00010000
00000000
00100000
00000000
,  // measure 42
00001000
00000100
00000001
00000010
00000100
00001000
00000010
00000100
,  // measure 43
00000000
00000000
00000101
00000000
00000000
00001100
00000000
00000000
00001001
00000000
00001000
00000000
00000001
00000000
00000100
00000000
,  // measure 44
00010000
01000000
00100000
10000000
01000000
00100000
00010000
01000000
,  // measure 45
00000000
00000000
01010000
00000000
00000000
11000000
00000000
00000000
10010000
00000000
00010000
00000000
10000000
00000000
01000000
00000000
,  // measure 46
00100000
00001000
00010000
00000100
00001000
00000010
00000001
00000010
,  // measure 47
00001000
00000000
00010000
00000000
01000000
00000000
10000000
00000000
01000000
00000000
00010000
00000000
10000000
00010000
10000000
00010000
,  // measure 48
01000000
00010000
00100000
01000000
10000000
01000000
00010000
00001000
,  // measure 49
00000000
00000000
00011000
00000000
00000000
00001100
00000000
00000000
00001001
00000000
00000001
00000000
00001000
00000000
00000000
00000000
,  // measure 50
00000010
00000000
00001000
00000000
00000100
00000000
00010000
00000000
00001000
00000000
01000000
00100000
00000000
10000000
00100000
00000000
,  // measure 51
10000000
00000000
11000000
00000000
00000000
01010000
00000000
00000000
00011000
00000000
00000000
00000000
00010000
00001000
00010000
00001000
,  // measure 52
00010000
00000000
00000000
00000000
;

//---------------dance-single - ----------------
#NOTEDATA:;
#CHARTNAME:;
#STEPSTYPE:dance-single;
#DESCRIPTION:;
#CHARTSTYLE:;
#DIFFICULTY:Medium;
#METER:5;
#RADARVALUES:0.314726,0.393340,0.226927,0.198561,0.042549,233.000000,209.000000,24.000000,21.000000,0.000000,0.000000,0.000000,0.000000,0.000000,0.314726,0.393340,0.226927,0.198561,0.042549,233.000000,209.000000,24.000000,21.000000,0.000000,0.000000,0.000000,0.000000,0.000000;
#CREDIT:;
#NOTES:
0000
0000
0000
0000
,
0000
0000
0000
0000
,
0000
0000
0000
0000
,
0000
0000
0000
0000
,
1000
1100
0001
0101
,
1000
1010
0001
0011
,
1000
1001
0010
0110
,
1000
1001
0110
0110
,
1001
2100
3020
0230
,
0300
0000
0001
0000
0000
0001
0000
0000
0020
0000
0000
0000
0001
0000
0030
0000
,
0011
0002
0203
0320
,
0030
0000
1000
0000
0000
1000
0000
0000
0020
0000
0000
0000
0100
0000
0030
0000
,
0110
0200
0302
0023
,
0030
0000
0100
0000
0000
0100
0000
0000
2000
0000
0000
0000
0010
0000
3000
0000
,
1010
2000
3020
0230
,
0300
0000
0001
0000
0000
0001
0000
0000
0010
0000
0000
0000
0100
0000
0000
0000
,
1000
0000
0100
0000
1000
0000
0010
1000
,
0000
0010
0000
0000
0100
0000
0001
0100
,
0001
0000
0010
0000
0100
1000
0100
1000
,
0000
0100
0010
0001
,
1000
0000
0001
0000
0010
0000
0100
1000
,
0000
0100
0000
0000
1000
0000
0001
0100
,
0001
0000
0100
0000
0001
0100
0001
0100
,
0000
0010
0100
0001
,
1001
0000
0000
0000
1000
0000
0001
1000
,
0000
0100
0000
0000
1000
0000
0010
0100
,
0001
0000
0001
0000
0001
0010
0100
1000
,
0000
0010
0100
0010
,
0100
0000
0001
0000
0010
0000
0001
1000
,
0000
0010
0000
0000
1000
0000
0100
0010
,
0001
0000
1000
0000
0001
0010
0100
1000
,
0020
0230
0302
0023
,
0130
0000
0100
0000
0001
0100
1000
0001
,
0000
0001
0000
0000
1000
0001
0000
0100
,
0010
0000
1001
0000
1000
0100
0000
0020
,
0000
0000
0000
0000
0001
0000
0030
0010
,
0100
0000
0100
1000
0000
0010
0000
0000
,
0100
0001
0000
0100
0010
0000
0000
0100
,
0001
0000
0001
0010
0000
0100
0000
0010
,
0000
0001
0000
0000
0001
0100
0010
0100
,
0001
0011
1000
1010
,
0000
0000
1000
0000
0000
0001
0000
0000
0100
0000
0000
0000
0100
0000
0010
0000
,
1000
1010
0001
0011
,
0000
0000
0001
0000
0000
0100
0000
0000
0010
0000
0000
0000
1000
0000
0100
0000
,
0010
0011
1000
1010
,
0000
0000
0010
0000
0000
0100
0000
0000
0001
0000
0010
0000
0100
0000
1000
0000
,
0000
0000
0100
0000
0010
0001
0100
0001
,
0000
1000
0010
1000
0000
0000
0000
0000
,
0100
0010
0100
1000
,
0000
0000
1000
0000
0000
0010
0000
0000
0200
0000
0000
0000
0301
0000
0000
0000
,
0101
0001
0010
0100
,
0000
0000
0010
0000
0000
0100
0000
0000
1000
0000
0000
0000
0010
0000
0000
0000
,
0110
0000
0000
0000
;

//---------------dance-double - ----------------
#NOTEDATA:;
#CHARTNAME:;
#STEPSTYPE:dance-double;
#DESCRIPTION:;
#CHARTSTYLE:;
#DIFFICULTY:Medium;
#METER:6;
#RADARVALUES:0.332286,0.368756,0.245837,0.312024,0.037821,246.000000,220.000000,26.000000,33.000000,0.000000,0.000000,0.000000,0.000000,0.000000,0.332286,0.368756,0.245837,0.312024,0.037821,246.000000,220.000000,26.000000,33.000000,0.000000,0.000000,0.000000,0.000000,0.000000;
#CREDIT:;
#NOTES:
// measure 0
00000000
00000000
00000000
00000000
,  // measure 1
00000000
00000000
00000000
00000000
,  // measure 2
00000000
00000000
00000000
00000000
,  // measure 3
00000000
00000000
00000000
00000000
,  // measure 4
10000000
01000000
00010000
00000001
,  // measure 5
00000010
00001000
10000000
00010000
,  // measure 6
10000000
00100000
00010000
00000001
,  // measure 7
00000100
00001000
00000100
00000110
,  // measure 8
00001020
00000130
00000120
00001030
,  // measure 9
00000000
00000000
00000010
00000000
00000000
00010000
00000000
00000000
00002000
00000000
00000000
00000000
00103000
00000000
00000000
00000000
,  // measure 10
00210000
01300000
01200000
00310000
,  // measure 11
00000000
00000000
00100000
00000000
00000000
00001000
00000000
00000000
00020000
00000000
00000000
00000000
00030100
00000000
00000000
00000000
,  // measure 12
00002100
00003010
00002010
00003100
,  // measure 13
00000000
00000000
00000100
00000000
00000000
00010000
00000000
00000000
00002000
00000000
00000000
00000000
01003000
00000000
00000000
00000000
,  // measure 14
01020000
10030000
21000000
30010000
,  // measure 15
00000000
00000000
10010000
00000000
00000000
10000000
00000000
00000000
01000000
00000000
00000000
00000000
00010000
00000000
00000000
00000000
,  // measure 16
00011000
00000000
00010000
00000000
00000100
00000000
00001000
00000100
,  // measure 17
00000000
00000010
00000000
00000000
00000001
00000010
00000001
00000010
,  // measure 18
00000100
00000000
00010000
00000000
00000000
00001000
00010000
00001000
,  // measure 19
00000000
00010000
00100000
10000000
,  // measure 20
10100000
00000000
10000000
00010000
00100000
00000000
00100000
00001000
,  // measure 21
00000000
00010000
00000000
00000000
00000100
00001000
00000100
00001000
,  // measure 22
00000001
00000000
00000010
00000000
00000000
00000001
00000100
00000010
,  // measure 23
00000000
00000010
00001000
00100000
,  // measure 24
10000000
00000000
10010000
00000000
10000000
00000000
00100000
01000000
,  // measure 25
00000000
00010000
00000000
00000000
00100000
00010000
00100000
00010000
,  // measure 26
00100000
00001000
00010000
00001000
00000000
00001000
00010000
00001000
,  // measure 27
00000000
00001000
00000100
00000001
00000000
00000000
00001000
00000000
,  // measure 28
00010000
00000000
00000000
00010000
01000000
00000000
10000000
01000000
,  // measure 29
00000000
00100000
00000000
00000000
01000000
00001000
01000000
00001000
,  // measure 30
01000000
00010000
00100000
00010000
00000000
00010000
00100000
00010000
,  // measure 31
00000000
00010000
00001000
00000100
00000010
00000000
00001001
00000000
,  // measure 32
00000002
00000000
00000203
00000000
00001300
00010000
00100000
00000000
,  // measure 33
20000000
00000000
32000000
00000000
03010000
00001000
00000100
00000000
,  // measure 34
00000002
00000000
00000023
00000000
00001030
00010000
00100000
00000000
,  // measure 35
20000000
00000000
32000000
00000000
03010000
00001000
00010000
00000000
,  // measure 36
00011000
00000000
00000000
00001000
00000000
00010000
00000000
00010000
,  // measure 37
00001000
00000100
00000000
00001100
00000000
00000000
00000000
00000100
,  // measure 38
00000002
00000000
00000000
00000203
00000000
00002300
00000000
00023000
,  // measure 39
00000000
02030000
00000000
03000000
10000000
00100000
01000000
00010000
,  // measure 40
00100000
00101000
00010000
00010010
,  // measure 41
00000000
00000000
00001000
00000000
00000000
00000010
00000000
00000000
00000100
00000000
00000001
00000000
00000010
00000000
00000200
00000000
,  // measure 42
00000000
00001000
00000000
00010000
00000000
00001300
00000000
00000000
,  // measure 43
00000000
00000000
00000100
00000000
00000000
00010000
00000000
00000000
00001000
00000000
00100000
00000000
00010000
00000000
02000000
00000000
,  // measure 44
00000000
00100000
00000000
00010000
00000000
03100000
00000000
01000000
,  // measure 45
00000000
00000000
00010000
00000000
00000000
00100000
00000000
00000000
00001000
00000000
00010000
00000000
00000100
00000000
00002000
00000000
,  // measure 46
00000000
00000100
00000000
00003001
00000000
00000100
00001000
00010000
,  // measure 47
00000000
00100000
00010000
00001000
00000000
00000000
00100100
00000000
,  // measure 48
00012000
00103000
00021000
00030010
,  // measure 49
00000000
00000000
00010000
00000000
00000000
00000100
00000000
00000000
00000010
00000000
00000000
00000000
00000001
00000000
00000000
00000000
,  // measure 50
00000102
00001003
00001200
00010300
,  // measure 51
00201000
00310000
20010000
30100000
,  // measure 52
10010000
00000000
00000000
00000000
;

//---------------dance-double - ----------------
#NOTEDATA:;
#CHARTNAME:;
#STEPSTYPE:dance-double;
#DESCRIPTION:;
#CHARTSTYLE:;
#DIFFICULTY:Easy;
#METER:4;
#RADARVALUES:0.217471,0.245837,0.028366,0.170195,0.000000,161.000000,158.000000,3.000000,18.000000,0.000000,0.000000,0.000000,0.000000,0.000000,0.217471,0.245837,0.028366,0.170195,0.000000,161.000000,158.000000,3.000000,18.000000,0.000000,0.000000,0.000000,0.000000,0.000000;
#CREDIT:;
#NOTES:
// measure 0
00000000
00000000
00000000
00000000
,  // measure 1
00000000
00000000
00000000
00000000
,  // measure 2
00000000
00000000
00000000
00000000
,  // measure 3
00000000
00000000
00000000
00000000
,  // measure 4
10000000
00010000
10000000
00010000
,  // measure 5
01000000
00010000
01000000
00010000
,  // measure 6
01000000
00001000
01000000
00001000
,  // measure 7
00010000
00000100
00010000
00000100
,  // measure 8
00001000
00001000
00000001
00000001
,  // measure 9
00000000
00000200
00000000
00000000
00000010
00000000
00000310
00000000
,  // measure 10
00001000
00001000
00000100
00000100
,  // measure 11
00000000
00020000
00000000
00000000
00001000
00000000
00031000
00000000
,  // measure 12
00010000
00010000
01000000
01000000
,  // measure 13
00000000
00200000
00000000
00000000
00010000
00000000
00310000
00000000
,  // measure 14
10000000
10000000
00100000
00100000
,  // measure 15
00000000
02000000
00000000
00000000
10000000
00000000
03010000
00000000
,  // measure 16
00000000
00000000
10000000
01000000
,  // measure 17
00100000
00010000
00100000
01000000
,  // measure 18
10000000
00000000
00000000
00010000
,  // measure 19
10000000
00010000
00000000
00100000
,  // measure 20
00001000
00010000
00000100
00010000
,  // measure 21
00001000
00100000
00001000
00010000
,  // measure 22
00000100
00000000
00000000
00010000
,  // measure 23
00001000
00010000
00000100
00001000
,  // measure 24
00000001
00000100
00000001
00001000
,  // measure 25
00000001
00000100
00001000
00000100
,  // measure 26
00000002
00000000
00000003
00000000
00000000
00000010
00000000
00000100
,  // measure 27
00000000
00002000
00000000
00000000
00003000
00000000
00000000
00000000
,  // measure 28
00010000
00100000
00010000
00001000
,  // measure 29
00000100
00001000
00010000
00100000
,  // measure 30
00020000
00000000
00030000
00000000
00000000
00010000
00000000
00001000
,  // measure 31
00000000
00000200
00000000
00000000
00010300
00000000
00011000
00000000
,  // measure 32
00002000
00000000
00000000
00020000
00000000
00000000
00000000
00000000
,  // measure 33
00000000
00000000
00000000
00030000
,  // measure 34
00203000
00000000
00000000
00000000
,  // measure 35
00000000
00000000
00320000
00000000
,  // measure 36
01030000
00100000
10000000
00010000
,  // measure 37
00100000
00001000
00000200
00000000
,  // measure 38
00001300
00000000
00000000
00010000
00000000
00001000
00000000
00010000
,  // measure 39
00000000
00001000
00000000
00000000
00010000
00000000
00001000
00000000
,  // measure 40
00010000
00001000
00010000
00000100
,  // measure 41
00000000
00000020
00000000
00000000
00000100
00000000
00000031
00000000
,  // measure 42
00000010
00000100
00001000
00000100
,  // measure 43
00000000
00020000
00000000
00000000
00001000
00000000
00030100
00000000
,  // measure 44
00010000
00001000
00100000
01000000
,  // measure 45
00000000
00200000
00000000
00000000
10000000
00000000
00310000
00000000
,  // measure 46
00100000
10000000
00100000
00010000
,  // measure 47
00001000
00010000
01000000
20000000
,  // measure 48
31000000
00010000
00100000
00001000
,  // measure 49
00000000
00102000
00000000
00000000
00100000
00000000
00013000
00000000
,  // measure 50
00001000
00000100
00000001
00000100
,  // measure 51
00001000
00010000
01000000
00010000
,  // measure 52
00011000
00000000
00000000
00000000
;
