#TITLE:Danza Kuduro;
#SUBTITLE:;
#ARTIST:Don Omar ft. Lucenzo;
#TITLETRANSLIT:;
#SUBTITLETRANSLIT:;
#ARTISTTRANSLIT:;
#GENRE:;
#CREDIT:;
#BANNER:Danza Kuduro.png;
#BACKGROUND:Danza Kuduro-bg.png;
#LYRICSPATH:;
#CDTITLE:;
#MUSIC:Danza Kuduro.ogg;
#OFFSET:0.021308;
#SAMPLESTART:75.670998;
#SAMPLELENGTH:15.000000;
#SELECTABLE:YES;
#BPMS:0.000000=130.000000
;
#STOPS:
;
#BGCHANGES:;
#KEYSOUNDS:;
#ATTACKS:;

//---------------dance-single - ----------------
#NOTES:
     dance-single:
     :
     Beginner:
     2:
     0.095246,0.130798,0.000000,0.083340,0.000000,72.000000,72.000000,0.000000,9.000000,0.000000,0.000000,0.095246,0.130798,0.000000,0.083340,0.000000,72.000000,72.000000,0.000000,9.000000,0.000000,0.000000:
0000
0000
0000
0000
,
0000
0000
0000
0000
,
0000
0000
0000
0000
,
0000
0000
0000
0000
,
0001
0000
0000
0000
,
0001
0000
0000
0000
,
1000
0000
0000
0000
,
1000
0000
1000
0000
,
0100
0000
0000
0000
,
0010
0000
0000
0000
,
0100
0000
0000
0000
,
0010
0000
0010
0000
,
1000
0000
0000
0000
,
0001
0000
0000
0000
,
1000
0000
0000
0000
,
0001
0000
0001
0000
,
0100
0000
0000
0000
,
0010
0000
0010
0000
,
0010
0000
0000
0000
,
1000
0000
1000
0000
,
1000
0000
0000
0000
,
0100
0000
0100
0000
,
0100
0000
0000
0000
,
0010
0000
0010
0000
,
0020
0000
0030
0000
,
0002
0000
0003
0000
,
2000
0000
3000
0000
,
0020
0000
0030
0000
,
0200
0000
0300
0000
,
0002
0000
0003
0000
,
2000
0000
3000
0000
,
0200
0000
0300
0000
,
0010
0000
0010
0000
,
0010
0000
0000
0000
,
0001
0000
0000
0000
,
1000
0000
1000
0000
,
1000
0000
1000
0000
,
1000
0000
0000
0000
,
0100
0000
0000
0000
,
0010
0000
0010
0000
,
0020
0000
0000
0030
,
0100
0000
0000
0000
,
0001
0000
0000
0000
,
1000
0000
0000
0000
,
0010
0000
0000
0000
,
1000
0000
0000
0000
,
0001
0000
0000
0000
,
0010
0000
0000
0000
,
0100
0000
0000
0000
,
1000
0000
1000
0000
,
0001
0000
0001
0000
,
1000
0000
1000
0000
,
0001
0000
0001
0000
,
0010
0000
0010
0000
,
0100
0000
0100
0000
,
0010
0000
0010
0000
,
0100
0000
0100
0000
;

//---------------dance-single - ----------------
#NOTES:
     dance-single:
     :
     Easy:
     3:
     0.206366,0.262753,0.120380,0.055560,0.000000,156.000000,143.000000,13.000000,6.000000,0.000000,0.000000,0.206366,0.262753,0.120380,0.055560,0.000000,156.000000,143.000000,13.000000,6.000000,0.000000,0.000000:
0000
0000
0000
0000
,
0000
0000
0000
0000
,
0000
0000
0000
0000
,
0000
0000
0000
0000
,
1000
1000
0001
0001
,
1000
1000
0001
0001
,
1000
1000
0001
0001
,
0020
0000
0000
0030
,
0001
0000
1000
0010
,
0000
0000
0010
0100
,
0000
0000
0100
0001
,
0000
0000
1000
0001
,
1001
0000
0001
0001
,
0000
0000
1000
1000
,
0000
0000
0010
0010
,
0000
0000
0100
0100
,
0110
0000
0001
0000
,
1000
0000
0100
0100
,
1000
0000
0010
0000
,
0100
0000
0001
0001
,
0010
0000
0100
0000
,
1000
0000
0001
0000
,
1000
0000
0010
0000
,
0100
0100
0010
0010
,
0110
0000
1000
1000
,
0000
0000
0001
0001
,
0000
0000
0010
0010
,
0000
0000
0100
0100
,
0110
0000
1000
1000
,
0000
0000
0010
0010
,
0000
0000
0100
0100
,
0000
0000
0001
0001
,
1001
0000
1000
1000
,
1000
0000
0010
0010
,
0010
0000
0100
0100
,
0100
0000
0001
0001
,
1001
0000
1000
1000
,
1000
0000
0100
0100
,
0100
0000
0010
0010
,
0010
0000
0001
0001
,
2002
0000
0000
3003
,
0010
0010
1000
1000
,
0100
0100
0010
0010
,
0001
0001
1000
1000
,
0010
0010
0100
0100
,
0110
0000
0001
0002
,
0003
1000
1000
2000
,
3000
0010
0010
0020
,
0030
0100
0010
0010
,
0110
0000
0001
0001
,
1000
0000
1000
1000
,
0001
0000
0010
0010
,
0100
0000
0110
0110
,
0110
0000
0001
0001
,
0000
0000
1000
1000
,
0000
0000
0010
0010
,
0000
0000
0100
0110
;

//---------------dance-single - ----------------
#NOTES:
     dance-single:
     :
     Hard:
     8:
     0.507979,0.525507,0.268541,0.166681,0.254651,384.000000,355.000000,29.000000,18.000000,0.000000,0.000000,0.507979,0.525507,0.268541,0.166681,0.254651,384.000000,355.000000,29.000000,18.000000,0.000000,0.000000:
0000
0000
0000
0000
,
0000
0000
0000
0000
,
0000
0000
0000
0000
,
0000
0000
0000
0000
,
0001
0000
0000
0001
0000
0000
0001
0000
1000
0000
0000
1000
0000
0000
1000
0000
,
0010
0000
0000
0010
0000
0000
0010
0000
0100
0000
0000
0100
0000
0000
0100
0000
,
0001
0000
0000
0010
0000
0000
0001
0000
1000
0000
0000
0010
0000
0000
1000
0000
,
1001
0000
0110
0000
0001
1000
1001
0000
,
0001
0000
0000
0001
0000
0000
1000
0000
0100
0000
0010
0000
0001
0000
1000
0000
,
0010
0000
0000
0010
0000
0000
0100
0000
0001
0000
1000
0000
0100
0000
1000
0000
,
0001
0000
0000
0001
0000
0000
0010
0000
0100
0000
1000
0000
0001
0000
1000
0000
,
0010
0000
0000
0010
0000
0000
0100
0000
0101
0000
0000
0000
1100
0000
0000
0000
,
1001
0000
0000
1000
0000
0000
1000
0000
0010
0000
1000
0000
0100
0000
1000
0000
,
0001
0000
0000
0001
0000
0000
0001
0000
0010
0000
0001
0000
0100
0000
0001
0000
,
0010
0000
0000
0010
0000
0000
0010
0000
0100
0000
1000
0000
0001
0000
0100
0000
,
0110
0000
1001
0000
0010
0100
0110
0000
,
0001
0000
0000
0100
0000
0000
0001
0000
1000
0000
0000
0100
0000
0000
1000
0000
,
0001
0000
0000
1000
0000
0000
0001
0000
1000
0000
0010
0000
0100
0000
0001
0000
,
2000
0000
0000
0001
0000
0000
3001
0000
0200
0000
0000
0010
0000
0000
0310
0000
,
1000
0001
1000
0001
1001
0000
1001
0000
,
0010
0000
0000
2000
0000
0000
3100
0000
0010
0000
0000
0002
0000
0000
0103
0000
,
0010
0000
0000
2000
0000
0000
3100
0000
0010
0000
0001
0000
1000
0000
0001
0000
,
1000
0100
1000
0100
0010
0001
0010
0001
,
1000
0000
0000
1000
0000
0000
0001
0000
0010
0000
0100
0000
0110
0000
0000
0000
,
0001
0000
0000
1000
0010
0000
0100
0000
0010
0000
1000
0000
0100
0000
0010
0000
,
0000
0001
0000
0100
0001
0000
1000
0000
0100
0000
1000
0000
0001
0000
0010
0000
,
0000
0100
0000
1000
0001
0000
1000
0000
0010
0000
0100
0000
0001
0000
1000
0000
,
0000
0010
0000
0100
0010
0000
1000
0000
1100
0000
0000
0000
0101
0000
0000
0000
,
0110
0000
0000
1000
0100
0000
1000
0000
0001
0000
0100
0000
0010
0000
1000
0000
,
0001
0100
0000
0001
0100
0000
0010
0000
1000
0000
0001
0000
0010
0000
0001
0000
,
1000
0010
0000
1000
0010
0000
1000
0000
0100
0000
0010
0000
0100
0000
1000
0000
,
1001
0000
0110
0000
1000
0001
1001
0000
,
0110
0000
0010
1000
0002
0000
2003
0000
,
3001
0000
0010
0000
0100
1000
0001
2000
,
0000
3010
0100
0001
1000
0100
0010
0002
,
0000
1003
0100
1000
0020
0000
0230
0000
,
0310
1000
0001
1000
0002
0000
2003
0000
,
3001
0000
0100
0000
0010
1000
0001
0020
,
0000
0130
1000
0001
0100
0001
1000
0200
,
0000
0310
0001
1000
0020
0000
0230
0000
,
0320
0000
0000
0000
0100
0100
0130
0000
,
0001
0000
1000
0010
0100
0001
0010
1000
,
0010
0000
0001
0100
0010
1000
0100
1000
,
0010
0000
0100
0001
0010
0001
0100
0010
,
1000
0000
0001
1000
1001
0000
0110
0000
,
1001
0000
1000
0010
0100
0010
1000
1000
,
0000
0000
0001
0010
0100
0010
0001
0001
,
0000
0000
1000
0010
0001
0010
1000
1000
,
1001
0000
0110
0000
0001
1000
1001
0000
,
1000
0010
0000
0100
0000
0010
1000
0000
0100
0000
0010
0000
0001
0000
0010
0000
,
0100
0010
0000
0001
0000
1000
0010
0000
0100
0000
0001
0000
0100
0000
0010
0000
,
1000
0100
0000
0010
0000
0001
0010
0000
0100
0000
1000
0000
0001
0000
1000
0000
,
0010
1000
0000
0001
0000
0010
0100
0000
1000
0000
0001
0000
1001
0000
0000
0000
,
0001
0100
0000
0010
0000
0100
0001
0000
1000
0000
0100
0000
0010
0000
0100
0000
,
1000
0001
0000
0100
0000
0010
1000
0000
0100
0000
1000
0000
0001
0000
0100
0000
,
0001
0010
0000
0100
0000
1000
0001
0000
1000
0000
0010
0000
0100
0000
0000
0000
,
1001
0000
0110
0000
0001
1000
1001
0000
;

//---------------dance-single - ----------------
#NOTES:
     dance-single:
     :
     Medium:
     6:
     0.400827,0.420405,0.388921,0.018520,0.027780,303.000000,261.000000,42.000000,2.000000,0.000000,0.000000,0.400827,0.420405,0.388921,0.018520,0.027780,303.000000,261.000000,42.000000,2.000000,0.000000,0.000000:
0000
0000
0000
0000
,
0000
0000
0000
0000
,
0000
0000
0000
0000
,
0000
0000
0000
0000
,
1000
0000
0000
1000
0000
0000
0000
0000
0001
0000
0000
0001
0000
0000
0000
0000
,
0100
0000
0000
0100
0000
0000
0000
0000
0010
0000
0000
0010
0000
0000
0000
0000
,
1000
0000
0000
1000
0000
0000
1000
0000
0001
0000
0000
0001
0000
0000
0001
0000
,
1001
0000
1001
0000
0001
1000
1001
0000
,
1000
0000
0001
1000
0001
0100
0010
0000
,
1000
0000
0100
0010
0001
0010
0100
0000
,
0010
0000
0001
1000
0010
1000
0001
0000
,
0100
0010
1010
0101
,
1000
0000
0000
0001
0100
0001
0100
0001
,
0000
0000
0000
1000
0100
1000
0100
1000
,
0000
0000
0000
0010
0100
0010
0100
0010
,
0110
0000
1001
0000
0010
0100
0110
0000
,
0001
0000
1000
0100
1000
0000
0001
0100
,
0001
0000
0010
0001
1000
0001
1000
0000
,
0100
0000
0010
0001
0010
0000
0001
0100
,
0001
0000
1000
0010
1000
0000
0001
0000
,
1001
0000
0010
1000
0010
0000
0100
0001
,
0100
0000
0001
0010
0001
0000
0010
0000
,
0100
0000
1000
0100
1000
0000
0001
0100
,
0001
0000
0010
0000
0100
0010
0100
0000
,
1000
0000
1100
0000
1000
0100
1000
0000
,
0001
0000
0101
0000
0001
0100
0001
0000
,
1000
0000
1010
0000
1000
0010
1000
0000
,
0001
0000
0011
0000
0001
0010
0001
0000
,
1000
0000
1010
0000
0010
0100
0001
0000
,
0001
0000
0011
0000
0010
0100
1000
0000
,
0001
0000
1001
0000
0010
1000
0001
0000
,
1000
0001
1001
0110
,
1001
0000
0110
1001
,
0110
0000
0010
0000
1000
0001
1000
0001
,
0000
0000
0100
0000
0010
0100
0010
0100
,
0000
0001
1001
0110
,
1001
0000
0110
1001
,
0110
0000
0000
0000
1000
0100
0010
0001
,
0000
0000
0100
0000
0001
0010
0100
1000
,
0000
0100
1001
0110
,
2002
0000
0000
3003
,
0001
0000
1000
0000
0001
0010
0001
0000
,
1000
0000
0001
0000
1000
0100
1000
0000
,
0010
0000
0100
0000
0001
0010
0001
0000
,
0100
0010
1001
0110
,
1001
0000
0001
0000
1000
0100
1000
0000
,
0010
0000
0100
0000
0001
1000
0001
0000
,
1000
0000
0100
0000
0010
0100
0010
0000
,
1001
0000
0110
0000
0001
1000
1001
0000
,
1000
0000
0100
0010
0001
1000
0010
0000
,
0100
0000
0001
0100
0001
1000
0100
0000
,
0010
0000
0001
1000
0010
0100
0010
0000
,
1000
0100
1001
0110
,
0010
0000
0100
0001
0100
0000
0001
0000
,
1000
0000
0100
1000
0100
0000
0010
0000
,
0001
0000
0100
0010
0100
0000
0010
0000
,
1001
0000
0110
0000
0001
1000
1001
0000
;

//---------------dance-double - ----------------
#NOTES:
     dance-double:
     :
     Hard:
     8:
     0.515916,0.525507,0.324101,0.046300,0.287061,390.000000,355.000000,35.000000,5.000000,0.000000,0.000000,0.515916,0.525507,0.324101,0.046300,0.287061,390.000000,355.000000,35.000000,5.000000,0.000000,0.000000:
00000000
00000000
00000000
00000000
,
00000000
00000000
00000000
00000000
,
00000000
00000000
00000000
00000000
,
00000000
00000000
00000000
00000000
,
00010000
00000000
00000000
00010000
00000000
00000000
00010000
00000000
00001000
00000000
00000000
00001000
00000000
00000000
00001000
00000000
,
00000100
00000000
00000000
00000100
00000000
00000000
00000100
00000000
00000001
00000000
00000000
00000001
00000000
00000000
00000001
00000000
,
00001000
00000000
00000000
00000010
00000000
00000000
00010000
00000000
00001000
00000000
00000000
00100000
00000000
00000000
00010000
00000000
,
10010000
00000000
01100000
00000000
10000000
00010000
10010000
00000000
,
10000000
00000000
00000000
10000000
00000000
00000000
00010000
00000000
00100000
00000000
00001000
00000000
00010000
00000000
00000010
00000000
,
00010000
00000000
00000000
00010000
00000000
00000000
00001000
00000000
00000100
00000000
00000001
00000000
00001000
00000000
00000010
00000000
,
00000100
00000000
00000000
00000100
00000000
00000000
00000001
00000000
00001000
00000000
00000100
00000000
00010000
00000000
00000010
00000000
,
00001000
00000000
00000000
00001000
00000000
00000000
00000100
00000000
00010100
00000000
00000000
00000000
00011000
00000000
00000000
00000000
,
00100000
00000000
00000000
00100000
00000000
00000000
00100000
00000000
00010000
00000000
10000000
00000000
01000000
00000000
00010000
00000000
,
00001000
00000000
00000000
00001000
00000000
00000000
00001000
00000000
00000010
00000000
00000100
00000000
00001000
00000000
00000001
00000000
,
00000100
00000000
00000000
00000100
00000000
00000000
00000100
00000000
00001000
00000000
00010000
00000000
01000000
00000000
00100000
00000000
,
01100000
00000000
10010000
00000000
01000000
00001000
00011000
00000000
,
00000100
00000000
00000000
00000001
00000000
00000000
00001000
00000000
00000100
00000000
00000000
00010000
00000000
00000000
00001000
00000000
,
00100000
00000000
00000000
00010000
00000000
00000000
10000000
00000000
01000000
00000000
00100000
00000000
00010000
00000000
10000000
00000000
,
00100000
00000000
00000000
00010000
00000000
00000000
00010000
00000000
00000010
00000000
00000000
00001000
00000000
00000000
00001000
00000000
,
00000001
00000100
00001000
00000100
00000110
00000000
00001001
00000000
,
00000100
00000000
00000000
00020000
00000000
00000000
00001000
00000000
00031000
00000000
00000000
02000000
00000000
00000000
10000000
00000000
,
13000000
00000000
00000000
02000000
00000000
00000000
00100000
00000000
03100000
00000000
00000000
00020000
00000000
00000000
00001000
00000000
,
00031000
00000000
00000000
00000200
00000000
00000000
00000001
00000000
00000301
00000000
00000000
00000010
00000000
00000000
00000001
00000000
,
00001000
00000010
00000000
00001000
00000000
00000000
00000001
00000000
00000010
00000000
00001000
00000000
00011000
00000000
00000000
00000000
,
01000000
00000000
00000000
01000000
10000000
00000000
00010000
00000000
10000000
00000000
01000000
00000000
00100000
00000000
00010000
00000000
,
00000000
00001000
00000000
00001000
00000100
00000000
00000010
00000000
00000001
00000000
00000100
00000000
00000010
00000000
00010000
00000000
,
00000000
00001000
00000000
00010000
00100000
00000000
01000000
00000000
00010000
00000000
10000000
00000000
01000000
00000000
00100000
00000000
,
00000000
00001000
00000000
00010000
00000100
00000000
00000010
00000000
00000011
00000000
00000000
00000000
00001010
00000000
00000000
00000000
,
00000100
00000000
00000000
00000100
00000001
00000000
00001000
00000000
00000001
00000000
00000100
00000000
00000010
00000000
00001000
00000000
,
00000000
00010000
00000000
00010000
01000000
00000000
00100000
00000000
10000000
00000000
01000000
00000000
00100000
00000000
00001000
00000000
,
00000000
00010000
00000000
00001000
00000010
00000000
00000100
00000000
00001000
00000000
00000010
00000000
00000100
00000000
00000001
00000000
,
00001001
00000000
00000110
00000000
00000001
00001000
00001001
00000000
,
00000110
00000000
00000001
00000100
00001000
00010000
01000000
10000000
,
00010000
00000000
01100000
00000000
10000000
00100000
00010000
00001000
,
00000000
00000100
00000010
00000100
00010000
00000100
00000001
00000010
,
00000000
00001000
00010000
01000000
01100000
00000000
10010000
00000000
,
01100000
00000000
10000000
01000000
00010000
00001000
00000100
00000001
,
00001000
00000000
00000110
00000000
00000001
00000010
00001000
00010000
,
00000000
01000000
00100000
01000000
00001000
01000000
10000000
00100000
,
00000000
00010000
00001000
00000100
00000110
00000000
00001001
00000000
,
00000110
00000000
00000000
00000000
00001000
00001000
00001000
00000000
,
00000001
00000000
00000000
00000000
00001000
00000000
00000010
00000000
00000100
00000000
00000001
00000000
00000010
00000000
00000000
00001000
,
00000000
00000000
00010000
00000000
00100000
00000000
10000000
00000000
01000000
00000000
00100000
00000000
00010000
00000000
00000000
10000000
,
00000000
00000000
00100000
00000000
01000000
00000000
00001000
00000000
00010000
00000000
00000100
00000000
00001000
00000000
00000000
00000001
,
00000000
00000010
00000100
00000000
00000110
00000000
00001001
00000000
,
00000010
00000000
00001000
00000100
00010000
01000000
00100000
00010000
,
10000000
00000000
01000000
00100000
00001000
00010000
00000010
00000100
,
00000001
00000000
00001000
00000100
00010000
01000000
00100000
00010000
,
10010000
00000000
01100000
00000000
10000000
00010000
10010000
00000000
,
00100000
10000000
00000000
00010000
00000000
10000000
01000000
00000000
00100000
00000000
00001000
00000000
00010000
00000000
00000100
00000000
,
00000010
00000001
00000000
00001000
00000000
00000001
00000100
00000000
00000010
00000000
00010000
00000000
00001000
00000000
00100000
00000000
,
01000000
10000000
00000000
00010000
00000000
10000000
00100000
00000000
01000000
00000000
00001000
00000000
00010000
00000000
00000010
00000000
,
00000100
00000001
00000000
00001000
00000000
00000001
00000010
00000000
00000110
00000000
00000000
00000000
00001001
00000000
00000000
00000000
,
00000010
00000001
00000000
00001000
00000000
00000001
00000100
00000000
00000010
00000000
00010000
00000000
00001000
00000000
01000000
00000000
,
00100000
10000000
00000000
00010000
00000000
10000000
01000000
00000000
00100000
00000000
00001000
00000000
00010000
00000000
00000010
00000000
,
00000100
00000001
00000000
00001000
00000000
00000001
00000010
00000000
00000100
00000000
00010000
00000000
00001000
00000000
00100000
00000000
,
01100000
00000000
10010000
00000000
10000000
00010000
10010000
00000000
;

//---------------dance-double - ----------------
#NOTES:
     dance-double:
     :
     Medium:
     6:
     0.403473,0.420405,0.305581,0.018520,0.023150,305.000000,272.000000,33.000000,2.000000,0.000000,0.000000,0.403473,0.420405,0.305581,0.018520,0.023150,305.000000,272.000000,33.000000,2.000000,0.000000,0.000000:
00000000
00000000
00000000
00000000
,
00000000
00000000
00000000
00000000
,
00000000
00000000
00000000
00000000
,
00000000
00000000
00000000
00000000
,
00000001
00000000
00000000
00000001
00000000
00000000
00000000
00000000
00000010
00000000
00000000
00000010
00000000
00000000
00000000
00000000
,
00001000
00000000
00000000
00001000
00000000
00000000
00000000
00000000
00010000
00000000
00000000
00010000
00000000
00000000
00000000
00000000
,
00100000
00000000
00000000
00100000
00000000
00000000
00000000
00000000
10000000
00000000
01000000
00000000
00100000
00000000
00010000
00000000
,
10010000
01010000
00101000
00010100
,
00001000
00000000
00000001
00000010
00000001
00000100
00000010
00000000
,
00010000
00000000
00001000
00010000
00001000
01000000
00100000
00000000
,
10000000
00000000
01000000
00100000
00010000
00100000
00001000
00000000
,
00010000
00000010
00001010
00000101
,
00001000
00000000
00000001
00000001
00000100
00000001
00000100
00000010
,
00000000
00000000
00010000
00010000
00001000
00100000
00001000
00100000
,
00000000
00000000
00010000
10000000
01000000
10000000
01000000
00100000
,
00010000
00000000
01000000
00000000
00001000
00010000
00011000
00000000
,
00000100
00000000
00000001
00001000
00000001
00000000
00001000
00000100
,
00001000
00000000
00000100
00010000
00001000
00010000
00001000
00000000
,
00100000
00000000
00010000
01000000
00010000
00000000
10000000
01000000
,
10000000
00000000
00010000
00100000
00001000
00000000
00010000
00000000
,
00011000
00000000
00000010
00000001
00000010
00000000
00000001
00000100
,
00000001
00000000
00001000
00000010
00001000
00000000
00000100
00000000
,
00010000
00000000
00001000
00100000
00001000
00000000
00100000
00010000
,
00100000
00000000
00010000
00000000
10000000
00100000
01000000
00010000
,
10000000
00000000
01000000
00000000
00100000
00001000
00100000
00000000
,
01000000
00000000
00010000
00001000
00010000
00000000
00000100
00000000
,
00000010
00000000
00000001
00000000
00000100
00000010
00000100
00000000
,
00001000
00000000
00010000
00000000
00100000
10000000
00100000
10000000
,
00010000
00000000
01010000
00000000
01000000
00001000
00010000
00000000
,
00000010
00000000
00001010
00000000
00001000
00000100
00010000
00000000
,
00001000
00000000
00101000
00000000
00100000
00010000
10000000
00000000
,
10010000
00000000
01001000
00010100
,
00011000
00000000
00000110
00001001
,
00000110
00000000
00000000
00000000
00000001
00000001
00000100
00000010
,
00000000
00000000
00001000
00000000
00000100
00000100
00010000
00001000
,
00000000
00100000
00101000
00010010
,
00011000
00000000
01100000
10010000
,
01100000
00000000
00000000
00000000
10000000
10000000
01000000
00100000
,
00000000
00000000
00010000
00000000
01000000
01000000
00001000
00010000
,
00000000
00000010
00010010
00101000
,
00020200
00000000
00000000
00030300
,
00001000
00000000
00000001
00000010
00000001
00000100
00000010
00000000
,
00010000
00000000
00001000
00010000
00001000
01000000
00100000
00000000
,
10000000
00000000
01000000
00100000
00010000
00100000
00001000
00000000
,
00010000
00000010
00001010
00000101
,
00001000
00000000
00000001
00000001
00000100
00000001
00000100
00000010
,
00000000
00000000
00010000
00010000
00001000
00100000
00001000
00100000
,
00000000
00000000
00010000
10000000
01000000
10000000
01000000
00100000
,
00010000
00000000
01000000
00000000
00001000
00010000
00011000
00000000
,
00000100
00000000
00000001
00001000
00000001
00000000
00001000
00000100
,
00001000
00000000
00000100
00010000
00001000
00010000
00001000
00000000
,
00100000
00000000
00010000
01000000
00010000
00000000
10000000
01000000
,
10000000
00000000
00010000
00100000
00001000
00000000
00010000
00000000
,
00011000
00000000
00000010
00000001
00000010
00000000
00000001
00000100
,
00000001
00000000
00001000
00000010
00001000
00000000
00000100
00000000
,
00010000
00000000
00001000
00100000
00001000
00000000
00100000
00010000
,
00100000
01000000
01100000
10010000
;

//---------------dance-double - ----------------
#NOTES:
     dance-double:
     :
     Easy:
     3:
     0.198429,0.262753,0.092600,0.055560,0.000000,150.000000,140.000000,10.000000,6.000000,0.000000,0.000000,0.198429,0.262753,0.092600,0.055560,0.000000,150.000000,140.000000,10.000000,6.000000,0.000000,0.000000:
00000000
00000000
00000000
00000000
,
00000000
00000000
00000000
00000000
,
00000000
00000000
00000000
00000000
,
00000000
00000000
00000000
00000000
,
10000000
00000000
00010000
00000000
,
01000000
00000000
00001000
00000000
,
00010000
00000000
00000100
00000000
,
00000020
00000000
00000000
00000030
,
00000001
00000000
00000001
00000010
,
00000000
00000000
00000010
00000100
,
00000000
00000000
00000100
00010000
,
00000000
00000000
00010000
00001000
,
00011000
00000000
01000000
01000000
,
00000000
00000000
10000000
10000000
,
00000000
00000000
00100000
00100000
,
00000000
00000000
00010000
00010000
,
00011000
00000000
00000100
00000000
,
00000001
00000000
00000010
00000010
,
00000001
00000000
00000100
00000000
,
00000010
00000000
00010000
00010000
,
00001000
00000000
00100000
00000000
,
01000000
00000000
10000000
00000000
,
00010000
00000000
01000000
00000000
,
00001000
00001000
00010000
00010000
,
00011000
00000000
00000100
00000100
,
00000000
00000000
00000001
00000001
,
00000000
00000000
00000010
00000010
,
00000000
00000000
00001000
00001000
,
00011000
00000000
00100000
00100000
,
00000000
00000000
10000000
10000000
,
00000000
00000000
01000000
01000000
,
00000000
00000000
00010000
00010000
,
00011000
00000000
00000010
00000010
,
00000010
00000000
00000001
00000001
,
00000001
00000000
00000100
00000100
,
00000100
00000000
00001000
00001000
,
00011000
00000000
00100000
00100000
,
00100000
00000000
10000000
10000000
,
10000000
00000000
01000000
01000000
,
01000000
00000000
00010000
00010000
,
00022000
00000000
00000000
00033000
,
00000010
00000010
00000001
00000001
,
00000100
00000100
00000010
00000010
,
00010000
00010000
00001000
00001000
,
00100000
00100000
01000000
01000000
,
01100000
00000000
10000000
20000000
,
30000000
00010000
00010000
00020000
,
00030000
00001000
00001000
00002000
,
00003000
00000100
00000010
00000010
,
00000110
00000000
00000001
00000001
,
00000100
00000000
00000100
00000100
,
00001000
00000000
00001000
00001000
,
00010000
00000000
00010000
00010000
,
01000000
00000000
01000000
10000000
,
10000000
00000000
10000000
00100000
,
00100000
00000000
00100000
00001000
,
00001000
00000000
00010000
00011000
;

//---------------dance-single - ----------------
#NOTES:
     dance-single:
     :
     Challenge:
     9:
     0.579413,0.580604,0.194461,0.277801,0.416701,438.000000,417.000000,21.000000,30.000000,0.000000,0.000000,0.579413,0.580604,0.194461,0.277801,0.416701,438.000000,417.000000,21.000000,30.000000,0.000000,0.000000:
0000
0000
0000
0000
,
0000
0000
0000
0000
,
0000
0000
0000
0000
,
0000
0000
0000
0000
,
1000
0000
0000
0010
0000
0000
0100
0000
0010
0000
0010
0000
1000
0000
0001
0000
,
0010
0000
0000
0100
0000
0000
0010
0000
0001
0000
0001
0000
0100
0000
0010
0000
,
0100
0000
0000
0001
0000
0000
0010
0000
0001
0000
1000
0000
0001
0000
0100
0000
,
0110
0000
0000
0000
1001
0000
0000
0000
1010
0000
0010
0000
0100
0001
1000
0001
,
1000
0000
0000
0001
0010
0000
0001
0000
0100
0000
0010
0000
2000
0000
0000
3100
,
0010
0000
0000
0001
0100
0000
0010
0000
1000
0000
0100
0000
2000
0000
0000
3001
,
1000
0000
0000
0010
0100
0000
0001
0000
0010
0000
1000
0000
0020
0000
0000
0130
,
0010
0000
0000
0100
1000
0000
0100
0000
0010
0000
0100
0000
2000
0000
0000
3001
,
0100
0000
0000
0010
0000
0100
0001
0000
1000
0000
0100
0000
1000
0000
0001
0000
,
0100
0000
0000
0010
0000
1000
0100
0000
1000
0000
0001
0000
0010
0000
0001
0000
,
1000
0000
0000
0100
0000
0010
0100
0000
1000
0000
0010
0000
1000
0000
0001
0000
,
0011
0000
0000
0000
1010
0000
0000
0000
1100
0000
0100
0000
0010
0001
0010
0001
,
1000
0000
0000
0001
0000
1000
0010
0000
1000
0000
0001
0010
0000
0100
1000
0100
,
0000
0100
0000
0010
0000
0010
0001
0000
0100
0000
0010
0000
1000
0000
0001
0000
,
0010
0000
0100
0010
0000
0010
0001
0000
1000
0000
0001
0100
0000
0010
1000
0000
,
0100
0000
0010
0001
0000
1000
0000
0010
0110
0000
0000
0000
1001
0000
0000
0000
,
0110
0000
0000
1000
0000
0001
0010
0001
0000
1000
0000
0001
0000
1000
0010
0000
,
0100
0001
0000
0010
0000
0001
1000
0001
1000
0000
0100
0000
1000
0000
0100
0000
,
0010
0000
0001
1000
0100
0000
0010
0001
0100
0000
0010
1000
0100
0000
0010
0000
,
0001
0000
0000
0100
0000
0000
0001
0000
1001
0000
0110
0000
1001
0000
0000
0000
,
1000
0000
0000
0001
0010
0000
0100
0000
1000
0000
0100
0000
0001
0000
0100
0000
,
0010
0000
0000
0001
1000
0000
0100
0000
1000
0000
0010
0000
0001
0000
0010
0000
,
0100
0000
0000
0001
0010
0000
0001
0000
1000
0000
0100
0000
0001
0000
0100
0000
,
0010
0000
0000
0001
0100
0000
0001
0000
0010
0000
1000
0000
0010
0000
0100
0000
,
1000
0000
0000
0001
0100
0000
0010
0000
1000
0000
0100
0000
0001
0000
0100
0000
,
0010
0000
0000
0001
0100
0000
0001
0000
1000
0000
0010
0000
0001
0000
0010
0000
,
0100
0000
0000
0010
1000
0000
0001
0000
0100
0000
1000
0000
0100
0000
0010
0000
,
1000
0100
0010
0001
0001
0100
1000
0010
,
1001
0000
0000
0000
0000
0000
0000
0000
0000
0000
0000
0000
0000
0000
0000
0000
0000
0000
0000
0000
0000
0000
0000
0000
0002
0000
0000
0000
0000
0000
0000
0003
0002
0000
0000
0000
0000
0000
0000
0000
2000
0000
0000
0000
0000
0000
0000
0003
0002
0000
0000
0000
0000
0000
0003
0000
0002
0000
0000
0000
0000
0000
0000
3000
,
2000
3003
0000
0000
0001
0100
0010
0100
,
0000
0001
0010
0010
0001
1000
0100
0010
,
0000
0000
0000
0000
0100
0000
0000
0000
1000
0000
0000
0000
0010
0000
0000
0000
0200
0000
0000
0300
0200
0000
0000
0000
0020
0000
0000
0300
0200
0000
0000
0300
,
0230
0000
0000
0000
0301
0000
0000
0000
2000
0000
0000
0000
3200
0000
0000
0000
0020
0000
0000
0030
0020
0000
0000
0300
0200
0000
0000
0030
0020
0000
0000
0030
,
0020
0000
0330
0000
0100
0010
0001
1000
,
0000
0001
0100
0001
0010
0100
1000
0100
,
0000
0000
0000
0000
1000
0000
0000
0000
0100
0000
0000
0000
1000
0000
0000
0000
0002
0000
0000
0003
0002
0000
0000
0000
2000
0000
0000
3000
2000
0000
0000
0003
,
0002
0000
0000
3003
0000
0000
0000
0000
0110
0000
0110
0000
0110
0000
0000
0000
,
1000
0000
0000
0010
1000
0000
0100
0000
1000
0000
0001
0000
0020
0000
0000
0130
,
0010
0000
0000
0010
0001
0000
1000
0000
0001
0000
0100
0000
0002
0000
0000
0013
,
0100
0000
0000
0100
0010
0000
0100
0000
1000
0000
0001
0000
0200
0000
0000
0301
,
0010
0000
0000
0001
1000
0000
0100
0000
1001
0000
0000
0000
0110
0000
0000
0000
,
1001
0000
0000
1000
0001
0000
0010
0100
0010
0000
0100
0000
1000
0000
0001
0000
,
0100
0000
0000
0010
1000
0000
0001
0010
0001
0000
0100
0000
0010
0000
0010
0000
,
1000
0000
0000
1000
0010
0000
0100
0001
0100
0000
0001
0000
0010
0000
0100
0000
,
1000
0000
0000
1000
0001
0000
0100
0010
0100
0000
0001
0000
1000
0001
1000
0001
,
1000
0000
0000
0100
0000
0010
0001
0000
0100
0000
0001
0000
0010
0000
0001
0000
,
1000
0000
0000
0010
0000
0100
0001
0000
0010
0000
0100
0000
1000
0000
0001
0000
,
0100
0000
0000
0001
0000
0010
0100
0000
0010
0000
0001
0000
1000
0000
0100
0000
,
1000
0000
0000
0010
0000
0100
0001
0000
1000
0000
0100
0000
0001
0000
0100
0000
,
0010
0000
0000
0100
0000
1000
0010
0000
0100
0000
1000
0000
0100
0000
0001
0000
,
0010
0000
0000
0100
0000
0010
0001
0000
0100
0000
1000
0000
0100
0000
0001
0000
,
0010
0000
0000
0100
0000
0010
0001
0000
0010
0000
1000
0000
0010
0000
0100
0000
,
1001
0000
0000
0000
0110
0000
0000
0000
0001
0000
1000
0000
0010
0100
0010
0100
,
0010
0000
0000
0000
;

//---------------dance-double - ----------------
#NOTES:
     dance-double:
     :
     Challenge:
     9:
     0.595288,0.632692,0.305581,0.305581,0.486152,450.000000,417.000000,33.000000,33.000000,0.000000,0.000000,0.595288,0.632692,0.305581,0.305581,0.486152,450.000000,417.000000,33.000000,33.000000,0.000000,0.000000:
// measure 0
00000000
00000000
00000000
00000000
,  // measure 1
00000000
00000000
00000000
00000000
,  // measure 2
00000000
00000000
00000000
00000000
,  // measure 3
00000000
00000000
00000000
00000000
,  // measure 4
10000000
00000000
00000000
01000000
00000000
00000000
00010000
00000000
00001000
00000000
00001000
00000000
00000100
00000000
00000001
00000000
,  // measure 5
00001000
00000000
00000000
00000010
00000000
00000000
00000100
00000000
00010000
00000000
00010000
00000000
01000000
00000000
00100000
00000000
,  // measure 6
10000000
00000000
00000000
00010000
00000000
00000000
00001000
00000000
00000010
00000000
00000010
00000000
00000100
00000000
00000100
00000000
,  // measure 7
00000110
00000000
00001001
00000000
00000010
00001000
00010000
00000000
,  // measure 8
00100000
00000000
00000000
10000000
01000000
00000000
00010000
00000000
00000100
00000000
00001000
00000000
00000001
00000000
00000010
00000100
,  // measure 9
00000010
00000000
00000000
00000001
00000100
00000000
00001000
00000000
01000000
00000000
00010000
00000000
10000000
00000000
00100000
01000000
,  // measure 10
00100000
00000000
00000000
10000000
00010000
00000000
00001000
00000000
00000010
00000000
00000001
00000000
00000010
00000000
00001000
00000100
,  // measure 11
00000010
00000000
00000000
00000011
00000000
00000000
00001000
00000000
00001100
00000000
00000000
00000000
00001001
00000000
00000000
00000000
,  // measure 12
00000010
00000001
00000000
00001000
00000000
00000100
00010000
00001000
01000000
00000000
01000000
00000000
00010000
00000000
10000000
00000000
,  // measure 13
00100000
10000000
00000000
00010000
00000000
01000000
00001000
00010000
00000100
00000000
00000100
00000000
00001000
00000000
00000001
00000000
,  // measure 14
00000010
00000100
00000000
00001000
00000000
00000001
00000100
00000010
00001000
00000000
00010000
00000000
01000000
00000000
00100000
00000000
,  // measure 15
01100000
00000000
00000000
00000000
10010000
00000000
00000000
00000000
10000000
00000000
01000000
00000000
00010000
00000000
00000000
00011000
,  // measure 16
00000000
00000000
00000000
00001000
00000000
00000100
00000001
00000100
00000001
00000010
00000000
00000100
00000000
00010000
00001000
00010000
,  // measure 17
00001000
00100000
00000000
00010000
00000000
10000000
01000000
00100000
01000000
00000000
00010000
00000000
00001000
00000000
00000100
00000000
,  // measure 18
00000110
00000000
00000001
00001000
00000000
00001000
00000100
00010000
00001000
00000100
00000000
00000010
00000000
00000100
00001000
00010000
,  // measure 19
00001000
01000000
00000000
00100000
00000000
10000000
01000000
00100000
00010000
00000000
00001000
00000000
00000100
00000000
00001000
00000000
,  // measure 20
00000001
00000000
00000000
00001000
00000000
00001000
00000100
00000001
00000000
00000100
00000000
00001000
00000000
00000010
00010000
00000000
,  // measure 21
00100000
10000000
00000000
00010000
00000000
10000000
01000000
10000000
00010000
00000000
00001000
00000000
00000100
00000000
00000010
00000000
,  // measure 22
00000011
00000000
00000000
00000000
00000001
00000000
00001000
00000100
00000001
00000100
00000000
00010000
00001000
00000000
00100000
00000000
,  // measure 23
01000000
10000000
00000000
00010000
00000000
00000000
10000000
00000000
01000000
00000000
00010000
00000000
00011000
00000000
00000000
00000000
,  // measure 24
00000110
00000000
00000000
00000001
00000100
00000000
00001000
00000000
00010000
00000000
00010000
00000000
00100000
00000000
00010000
00000000
,  // measure 25
00000000
00000010
00000000
00000010
00001000
00000000
00010000
00000000
00010000
00000000
10000000
00000000
01000000
00000000
00100000
00000000
,  // measure 26
00000000
00010000
00000000
00010000
01000000
00000000
10000000
00000000
01000000
00000000
00010000
00000000
00001000
00000000
00000010
00000000
,  // measure 27
00000000
00001000
00000000
00001000
00000001
00000000
00000010
00000000
00001000
00000000
00010000
00000000
01000000
00000000
10000000
00000000
,  // measure 28
01100000
00000000
00000000
10000000
01000000
00000000
00010000
00000000
00001000
00000000
00001000
00000000
00000010
00000000
00001000
00000000
,  // measure 29
00000000
00100000
00000000
00100000
00010000
00000000
00001000
00000000
00001000
00000000
00000001
00000000
00000100
00000000
00000010
00000000
,  // measure 30
00000000
00001000
00000000
00001000
00000100
00000000
00000001
00000000
00000100
00000000
00001000
00000000
00010000
00000000
00100000
00000000
,  // measure 31
00000000
00010000
00000000
00010000
10000000
00000000
00100000
00000000
20000000
00000000
30020000
00000000
00032000
00000000
00003002
00000000
,  // measure 32
00000203
00000000
00000302
00002003
00023000
20030000
30020000
00032000
,  // measure 33
00003001
00000000
00001001
00000000
00000001
00000100
00001000
00010000
,  // measure 34
00000000
00100000
01000000
00100000
10000000
01000000
00010000
00001000
,  // measure 35
00000000
00000010
00000100
00000010
00000002
00002003
00023000
20030000
,  // measure 36
32000000
00000000
23000000
30020000
00032000
00003002
00002003
00023000
,  // measure 37
10030000
00000000
10010000
00000000
10000000
01000000
00010000
00001000
,  // measure 38
00000000
00000010
00000100
00000010
00000001
00000100
00001000
00010000
,  // measure 39
00000000
00100000
01000000
00100000
20000000
30020000
00032000
00003002
,  // measure 40
00000203
00000000
00000300
00000000
00000010
00000110
00001001
00000000
,  // measure 41
00002001
00013000
10020000
00031000
,  // measure 42
00002001
00013000
10020000
00031000
,  // measure 43
00002001
00013000
10020000
00031000
,  // measure 44
00001001
00000000
00000000
00000000
00000110
00000000
00001000
00000000
00010000
00000000
01000000
00000000
01100000
00000000
10000000
00010000
,  // measure 45
00000000
00000000
10000000
00000000
01000000
00000000
00010000
00001000
00010000
00000000
00000100
00000000
00000010
00000000
00000001
00000000
,  // measure 46
00001000
00000000
00000001
00000000
00000100
00000000
00001000
00010000
00001000
00000000
01000000
00000000
00100000
00000000
10000000
00000000
,  // measure 47
00010000
00000000
10000000
00000000
00100000
00000000
00010000
00001000
00010000
00000000
01000000
00000000
00010000
00000000
00001000
00000000
,  // measure 48
00001010
00000000
00000011
00000000
00000100
00000010
00001001
00000000
,  // measure 49
00000010
00000001
00000000
00000001
00000000
00000100
00001000
00000000
01000000
00000000
00010000
00000000
10000000
00000000
00100000
01000000
,  // measure 50
00100000
10000000
00000000
10000000
00000000
01000000
00010000
00000000
00000100
00000000
00001000
00000000
00000001
00000000
00000010
00000100
,  // measure 51
00000010
00000001
00000000
00000001
00000000
00001000
00010000
00000000
00100000
00000000
10000000
00000000
00100000
00000000
00010000
01000000
,  // measure 52
00100000
00000000
00000000
10100000
00000000
00000000
10000000
00000000
01000000
00000000
00010000
00000000
01000000
00000000
10000000
00100000
,  // measure 53
00000000
10000000
00000000
00010000
00000000
01000000
00001000
00010000
00000100
00000000
00000100
00000000
00001000
00000000
00000001
00000000
,  // measure 54
00000010
00000001
00000000
00001000
00000000
00000100
00010000
00001000
01000000
00000000
01000000
00000000
00010000
00000000
10000000
00000000
,  // measure 55
00100000
01000000
00000000
00010000
00000000
10000000
01000000
00100000
00010000
00000000
00001000
00000000
00000100
00000000
00000010
00000000
,  // measure 56
00000110
00000000
00000000
00000000
00001001
00000000
00000000
00000000
00000001
00000000
00000100
00000000
00001000
00000000
00000000
00011000
;
