#TITLE:DM★STAR ~関西 energy style~;
#SUBTITLE:;
#ARTIST:NAOKI;
#TITLETRANSLIT:DM STAR ~KANSAI energy style~;
#SUBTITLETRANSLIT:;
#ARTISTTRANSLIT:;
#GENRE:SPEED RAVE;
#CREDIT:;
#BANNER:DM STAR ~KANSAI energy style~.png;
#BACKGROUND:DM STAR ~KANSAI energy style~-bg.png;
#LYRICSPATH:;
#CDTITLE:;
#MUSIC:DM STAR ~KANSAI energy style~.ogg;
#OFFSET:-0.436000;
#SAMPLESTART:39.894001;
#SAMPLELENGTH:12.500000;
#SELECTABLE:YES;
#BPMS:0.000000=155.100006
,232.000000=77.500000
,248.000000=155.000000
;
#STOPS:
;
#BGCHANGES:;
#KEYSOUNDS:;
#ATTACKS:;

//---------------dance-single - DDRDAIKENKAI----------------
#NOTES:
     dance-single:
     DDRDAIKENKAI:
     Easy:
     3:
     0.202247,0.233798,0.064719,0.194157,0.000000,175.000000,167.000000,8.000000,24.000000,0.000000,0.000000,0.202247,0.233798,0.064719,0.194157,0.000000,175.000000,167.000000,8.000000,24.000000,0.000000,0.000000:
0000
0000
0000
0000
,
0000
0000
0000
0000
,
0000
0000
0000
0000
,
0000
0000
0000
0000
,
0000
0000
0000
0000
,
0000
0010
0000
1001
,
0000
0100
0000
1001
,
0000
0010
0000
1001
,
0000
0100
0000
0100
,
0220
0000
0000
0330
,
0010
0000
0100
0000
,
0010
0001
0100
0000
,
0010
0000
0100
0000
,
0010
1000
0100
0000
,
1000
0000
0001
0000
,
1000
0100
0001
0000
,
1000
0000
0001
0000
,
1000
0100
0001
0000
,
1000
0000
0001
0000
,
0100
0100
0100
0100
,
0010
0000
0100
0000
,
0001
0000
1000
1000
,
1000
0000
0100
0000
,
0010
0000
0001
0001
,
0001
0000
1000
0000
,
0002
0000
0003
0000
,
0100
0000
0010
1000
,
0100
0000
0010
0100
,
0010
0000
0001
0100
,
0010
0000
0100
0010
,
0100
0000
0010
1000
,
0100
0000
0010
0100
,
0010
0000
0001
0100
,
0010
0000
0100
0010
,
2000
0000
0000
0000
,
3002
0000
0000
0000
,
0203
0000
0000
0000
,
0320
0000
0000
0030
,
2000
0000
3020
0000
,
0230
0000
0302
0000
,
2003
0000
3200
0000
,
0320
0000
0000
0030
,
0001
0001
0001
0000
,
0100
0010
1000
0000
,
1000
1000
1000
0000
,
0100
0010
0001
0000
,
0010
0010
0010
0000
,
0001
0100
1000
0000
,
0100
0100
0100
0000
,
0010
1000
0100
0000
,
1000
1000
1000
1000
,
2000
0000
3100
0000
,
0010
0010
0010
0010
,
0020
0000
0031
0000
,
0100
0100
0100
0100
,
0200
0000
0301
0000
,
1001
0000
0110
0000
,
2002
0000
3003
0000
,
2000
0000
3001
0001
,
0200
0000
0310
0010
,
0120
0000
1030
1000
,
0002
0000
1003
1000
,
0100
0000
0010
0010
,
0010
0000
0001
0100
,
0001
0000
0010
0010
,
0010
0000
0100
1000
,
0100
0000
1000
1000
,
1000
0000
0010
0100
,
0010
0000
1000
0001
,
1000
0000
0001
0000
,
0100
0000
0010
0000
,
0200
0000
0000
0000
,
0000
0310
0000
0000
;

//---------------dance-single - DDRDAIKENKAI----------------
#NOTES:
     dance-single:
     DDRDAIKENKAI:
     Hard:
     9:
     0.604431,0.964417,0.266967,0.315506,0.283146,523.000000,490.000000,33.000000,39.000000,0.000000,0.000000,0.604431,0.964417,0.266967,0.315506,0.283146,523.000000,490.000000,33.000000,39.000000,0.000000,0.000000:
0000
0000
0000
0000
,
0000
0000
0000
0000
,
0000
0000
0000
0000
,
0000
0000
0000
0000
,
0000
0000
0000
0000
,
1000
0000
0000
0000
1100
0000
0000
0100
0010
0000
0001
0000
0100
0000
0000
0000
,
0001
0000
0000
0000
0101
0000
0000
0100
0010
0000
1000
0000
0100
0000
0000
0000
,
1000
0000
0000
0000
1100
0000
0000
0100
0010
0000
0001
0000
0100
0000
0000
0000
,
0001
0000
0000
0000
0101
0000
0000
0100
0010
0000
1000
0000
0100
0000
0000
0000
,
1001
0000
1000
0000
0010
0000
0100
0000
0001
0100
0001
0000
1000
0010
1000
0010
,
1000
0000
0100
0000
0001
0000
0100
0000
1000
0000
0000
1000
0000
0000
1000
0000
,
0010
1000
0100
0010
0001
0100
0010
0000
,
0100
0000
0001
0000
0010
0000
0001
0000
0100
0000
0000
0100
0000
0000
0100
0000
,
0001
0010
0100
1000
0010
0100
0001
0000
,
0010
0000
1000
0000
0010
0000
0001
0000
0100
0000
0000
0100
0000
0000
0100
0000
,
0010
1000
0001
0100
0010
1000
0100
0000
,
1000
0000
0010
0000
0001
0000
0010
0000
1000
0000
0000
1000
0000
0000
1000
0000
,
1001
0000
0000
0001
0010
0000
0000
0010
0100
0000
1000
0000
1001
0000
0000
0000
,
1000
0010
1000
0001
0010
0001
1000
0010
,
1000
0100
2000
0000
3100
0010
0001
1000
,
0001
0100
0001
0010
1000
0010
0001
0100
,
0002
0000
2003
0000
3001
0010
0100
1000
,
0001
0100
1000
0001
0010
1000
0001
0100
,
1000
0100
0002
0000
1003
0100
0010
0001
,
0100
0001
0010
0100
1000
0010
0100
0001
,
2000
3100
1100
0101
,
0012
0000
1003
0000
1000
0100
1000
0010
,
0100
0001
2000
0000
3001
0000
0011
0000
,
2100
0000
3001
0000
0001
0010
0001
0100
,
0010
1000
0002
0000
0013
0000
0110
0000
,
0012
0000
0103
0000
0010
1000
0100
0001
,
0100
1000
0020
0000
1030
0000
1001
0000
,
0210
0000
0301
0000
0100
0001
0010
1000
,
0010
0001
2000
0000
3010
0000
1100
0000
,
0020
0000
0031
0100
0000
1000
0000
0100
,
0001
1000
0000
0100
0000
0001
0000
0100
,
1000
0001
0000
0100
0000
1000
0000
0100
,
0001
1000
0000
0100
0002
0000
0203
0000
,
1300
0000
0001
0000
0100
0010
0000
0100
0010
0000
0010
1000
0000
1000
0100
0000
,
1000
0000
0010
0000
0100
0001
0000
0100
0010
0000
0010
0100
0000
0100
0001
0000
,
0010
0000
0100
0000
0010
0001
0000
0100
0001
0000
0001
0010
0000
0010
0100
0000
,
0010
0000
0001
0000
0100
0010
0000
0100
0002
0000
0000
2003
0000
0000
3001
0000
,
1000
0100
0001
0100
1000
0010
1000
0000
,
0001
0010
0001
0100
1000
0100
0001
0000
,
1000
0100
0010
0001
0100
0010
1000
0000
,
0001
0010
0100
1000
0010
0100
0001
0000
,
1000
0010
1000
0000
1000
0001
1000
0000
,
1000
0000
0100
1000
0001
0000
0001
0010
0100
0000
0100
0000
1000
0000
0000
0000
,
0001
0010
0001
0000
0001
1000
0001
0000
,
0001
0000
0100
0001
0000
1000
0000
0100
1000
0000
0001
0000
1002
0000
0000
0000
,
1003
0100
1000
0000
0010
0000
1000
0100
1000
0000
0001
0000
1000
0100
1000
0000
,
0001
0010
0200
0000
1300
1000
0100
0010
,
0001
0010
0001
0000
0100
0000
0001
0010
0001
0000
1000
0000
0001
0010
0001
0000
,
0200
0000
0302
0000
0013
0100
0001
0100
,
0010
0100
0010
0000
0001
0000
0100
0010
0100
0000
0001
0000
0010
0100
0010
0000
,
0001
1000
0200
0000
1300
0010
0100
0001
,
1000
0100
1000
0000
0001
0000
0100
0010
0100
0000
0001
0000
1000
0001
1000
0000
,
0001
0010
0001
0000
1000
0000
0010
0100
0020
0000
0000
0000
0230
0000
0000
0000
,
0310
0100
0010
0100
0010
0001
0010
0020
0000
0100
0230
0000
1000
0000
0301
0000
,
0100
1000
0100
1000
0100
0010
0100
0200
0000
0010
0320
0000
0100
0000
1030
1000
,
2001
0000
3001
0000
0100
0010
0100
0002
0000
1000
2003
0000
0100
0000
3010
0100
,
0101
0000
0000
0000
1100
0000
0000
0000
1000
0000
0010
0000
1000
0000
0010
0000
1010
0000
0000
0000
0011
0000
0000
0000
0001
1000
0001
1000
0001
1000
0001
1000
,
0001
0000
1100
0000
1000
0010
0100
0001
,
0010
0100
2000
0000
3010
0000
0110
0000
,
0102
0000
1003
0000
0100
0010
0001
1000
,
0010
0001
0020
0000
1030
0000
1100
0100
,
0012
0000
1003
0000
0001
0010
1000
0001
,
0100
1000
0200
0000
0310
0000
0011
0000
,
2100
0000
3001
0000
1000
0010
0001
1000
,
0100
0001
1001
0000
0101
0000
0001
0010
,
0000
1000
0100
0000
0010
1000
0000
1010
,
0010
0001
1000
0100
0001
0000
0010
0020
,
0000
0100
0130
0000
0000
0000
0000
0000
;

//---------------dance-single - DDRDAIKENKAI----------------
#NOTES:
     dance-single:
     DDRDAIKENKAI:
     Medium:
     6:
     0.451878,0.613720,0.299326,0.388315,0.064719,391.000000,354.000000,37.000000,48.000000,0.000000,0.000000,0.451878,0.613720,0.299326,0.388315,0.064719,391.000000,354.000000,37.000000,48.000000,0.000000,0.000000:
0000
0000
0000
0000
,
0000
0000
0000
0000
,
0000
0000
0000
0000
,
0000
0000
0000
0000
,
0000
0000
0000
0000
,
1001
0000
0001
0000
0001
0000
1000
1000
,
0000
0100
0200
0000
0000
0000
1300
0000
,
0010
0000
0010
0000
0010
0000
0100
0100
,
0000
0001
0002
0000
1000
0000
1003
0000
,
2002
0000
0000
3003
,
1000
0001
0100
0000
0001
0000
0001
0000
,
0010
0100
1000
0000
0100
0000
0100
0000
,
1000
0001
0100
0000
0010
0000
0010
0000
,
0100
0001
1000
0000
0001
0000
0001
0000
,
0010
0001
0100
0000
0010
0000
0010
0000
,
0100
0001
1000
0000
0100
0000
0100
0000
,
1000
0010
0100
0000
0001
0000
0001
0000
,
0101
1100
0110
1001
,
1000
0010
1000
0000
0001
0100
0001
0000
,
0010
0100
0020
0000
0230
0000
2300
0000
,
3001
0010
0001
0000
0100
0010
0100
0000
,
0020
2030
3200
0302
,
0103
1000
0100
0000
1000
0010
1000
0000
,
0010
0100
0020
0000
0230
0000
0302
0000
,
0013
0001
0100
0000
0010
1000
0100
0000
,
0010
0001
0100
0010
2000
0000
3100
0000
,
0110
0000
0110
0000
0100
1000
0100
2000
,
0000
0100
3200
0000
0310
0000
0011
0000
,
0101
0000
0101
0000
0100
0010
0100
0020
,
0000
1000
2030
0000
3001
0000
0011
0000
,
1001
0000
1001
0000
1000
0100
1000
2000
,
0000
0001
3002
0000
0013
0000
0110
0000
,
1100
0000
1100
0000
0100
1000
0100
2000
,
0000
0010
3020
0000
0130
0000
0110
0000
,
0002
0000
0100
0000
0000
0010
0003
0000
,
2000
0000
0100
0000
0000
0010
3000
0000
,
0200
0000
0001
0000
0000
1000
0300
0000
,
0020
1000
0100
0031
,
0010
0000
0001
0000
0000
0100
0000
0000
0010
0000
0000
1000
0000
0000
0001
0000
,
0000
0000
1000
0000
0000
0010
0000
0000
0100
0000
0000
0001
0000
0000
1000
0000
,
0000
0000
0100
0000
0000
0010
0000
0000
0001
0000
0000
0010
0000
0000
0100
0000
,
0000
0000
1000
0000
0000
0001
0000
0000
0100
0000
0000
0010
0000
0000
1000
0000
,
0100
0000
1100
0000
0100
1000
0010
0000
,
0100
0001
0100
0000
0001
0010
0100
0000
,
1000
0000
1010
0000
0010
0100
0010
0000
,
0100
0001
0100
0000
0001
1000
0100
0000
,
1000
0000
1001
0000
0001
0010
0100
0000
,
1000
0001
0100
0000
0010
1000
0100
0000
,
1000
0000
0011
0000
0010
0001
1000
0000
,
0010
0100
0010
0100
0001
1000
0002
0000
,
1003
0100
0001
0100
,
1000
0010
1000
0010
0100
0001
0100
0001
,
0010
0100
1000
0010
,
1000
0001
1000
0001
0100
0010
0100
0010
,
1000
0001
0010
0100
,
1000
0100
1000
0100
0010
0001
0010
0001
,
1001
0100
1001
0010
,
1001
0010
1100
0101
,
2000
0000
0010
0000
3010
0000
0100
0200
0000
0001
0302
0000
1003
0000
1000
0000
,
0100
0000
0100
0000
0010
0000
0001
0002
0000
1000
2003
0000
0010
0000
3010
0000
,
0110
0000
0100
0000
0001
0000
0010
0020
0000
0001
0032
0000
1003
0000
0100
0000
,
0010
0000
0010
0000
0001
0000
0001
0000
0100
0000
0100
0000
0001
1000
0001
1000
,
0100
0000
0100
0000
1000
0010
1000
0020
,
0000
0100
0230
0000
0301
0000
0101
0000
,
0011
0000
0011
0000
0100
0010
0100
0020
,
0000
0001
0032
0000
1003
0000
1100
0000
,
1010
0000
1010
0000
0100
0001
0100
0002
,
0000
0010
0023
0000
0130
0000
0110
0000
,
1100
0000
0011
0000
0100
0010
0100
0002
,
0000
1000
2003
0000
3100
0000
0010
0002
,
0000
0000
1000
0003
2000
0000
0000
0000
3100
0000
0000
0000
0010
0000
0002
0000
,
0000
0000
1000
0003
2000
0000
0000
0000
3100
0000
0000
0000
0010
0000
0020
0000
,
0000
0100
0130
0000
0000
0000
0000
0000
;

//---------------dance-single - DDRDAIKENKAI----------------
#NOTES:
     dance-single:
     DDRDAIKENKAI:
     Beginner:
     1:
     0.183756,0.263023,0.105169,0.097079,0.000000,159.000000,146.000000,13.000000,12.000000,0.000000,0.000000,0.183756,0.263023,0.105169,0.097079,0.000000,159.000000,146.000000,13.000000,12.000000,0.000000,0.000000:
0000
0000
0000
0000
,
0000
0000
0000
0000
,
0000
0000
0000
0000
,
0000
0000
0000
0000
,
0000
0000
0000
0000
,
0000
1000
0000
1000
,
0000
0001
0000
0001
,
0000
0100
0000
0100
,
0000
0000
0000
0000
,
0220
0000
0330
0000
,
0100
0100
0100
0000
,
0001
0000
1000
0000
,
0100
0100
0100
0000
,
1000
0000
0001
0000
,
0010
0010
0010
0000
,
0001
0000
1000
0000
,
0010
0010
0010
0000
,
0110
0000
0000
0000
,
0100
0100
0100
0000
,
0010
0000
0010
0000
,
1000
1000
1000
0000
,
0001
0000
0001
0000
,
1000
1000
1000
0000
,
0100
0100
0100
0000
,
0110
0000
0110
0000
,
2002
0000
3003
0000
,
0100
0100
0100
0000
,
0001
0001
0001
0000
,
1000
1000
1000
0000
,
0001
0001
0001
0000
,
1000
0000
0001
0000
,
0100
0100
0100
0000
,
0010
0000
1000
0000
,
0001
0001
0001
0000
,
2000
0000
0000
0000
,
3000
0000
0000
0010
,
0020
0000
0000
0000
,
0030
0000
0100
0100
,
0200
0000
0000
0000
,
0300
0000
0001
0001
,
0002
0000
0003
0000
,
2002
0000
3003
0000
,
1000
1000
1000
0000
,
0010
0000
0100
0000
,
0001
0001
0001
0000
,
0010
0000
0100
0000
,
1000
1000
1000
0000
,
0010
0010
0010
0000
,
1000
0000
0001
0000
,
1001
0000
0000
0000
,
1000
0000
0010
0000
,
1000
0000
0100
0000
,
0010
0000
0001
0000
,
0100
0000
0001
0000
,
0010
0000
0100
0000
,
1000
0000
0010
0000
,
0110
0000
1001
0000
,
0220
0000
0330
0000
,
1000
0000
1000
0000
,
0100
0100
0100
0000
,
0010
0000
0010
0000
,
0001
0001
0001
0001
,
0001
0000
1000
1000
,
1000
0000
0001
0000
,
0100
0000
0010
0010
,
0010
0000
0100
0000
,
0001
0000
1000
1000
,
1000
0000
0100
0000
,
0010
0000
0001
0000
,
1001
0000
0000
0000
,
0110
0000
0000
1000
,
1000
0000
0001
0001
,
0000
1001
0000
0000
;

//---------------dance-double - ----------------
#NOTES:
     dance-double:
     :
     Hard:
     9:
     0.573227,0.789068,0.242697,0.145618,0.141573,496.000000,466.000000,30.000000,18.000000,0.000000,0.000000,0.573227,0.789068,0.242697,0.145618,0.141573,496.000000,466.000000,30.000000,18.000000,0.000000,0.000000:
// measure 0
00000000
00000000
00000000
00000000
,  // measure 1
00000000
00000000
00000000
00000000
,  // measure 2
00000000
00000000
00000000
00000000
,  // measure 3
00000000
00000000
00000000
00000000
,  // measure 4
00000000
00000000
00000000
00000000
,  // measure 5
10000000
00000000
00000000
00000000
10100000
00000000
00000000
00100000
01000000
00000000
00010000
00000000
00100000
00000000
00000000
00000000
,  // measure 6
00001000
00000000
00000000
00000000
00011000
00000000
00000000
00010000
00000100
00000000
00000010
00000000
00000001
00000000
00000000
00000000
,  // measure 7
00001000
00000000
00000001
00000000
00000100
00001000
00000000
00000000
00010000
00000000
00000010
00000000
00001000
00000100
00000000
00000000
,  // measure 8
00010000
00001000
01000000
00010000
00100000
10000000
00010000
00000000
,  // measure 9
01000000
00000000
10000000
00000000
00010000
00000000
00100000
00000000
00001000
00010000
00001000
00000000
00011000
00000000
00000000
00000000
,  // measure 10
00001000
00000010
00000001
00000100
00001000
00010000
00000100
00001000
,  // measure 11
00000010
00010000
00100000
10000000
00010000
01000000
00001000
00000000
,  // measure 12
00010000
00100000
10000000
01000000
00010000
00001000
01000000
00100000
,  // measure 13
01000000
10000000
01000000
00010000
00100000
00001000
00010000
00000000
,  // measure 14
00001000
00000100
00000001
00000010
00001000
00010000
00000010
00000000
,  // measure 15
00001000
00000000
00000100
00010000
00000000
00000000
00010000
00000000
00001000
00000000
00100000
00000000
01000000
00000000
00000000
00000000
,  // measure 16
10000000
01000000
00001000
01000000
10000000
00010000
01000000
00000000
,  // measure 17
00010000
00100000
00001000
00000010
00000001
00000100
00000001
00000000
,  // measure 18
00001000
00000100
00000001
00001000
00010000
00001000
00000010
00001000
,  // measure 19
00010000
00100000
10000000
01000000
00100000
00010000
10000000
00000000
,  // measure 20
00010000
01000000
10000000
00010000
00001000
00010000
00100000
00010000
,  // measure 21
00002000
00000000
00003002
00000000
00000103
00001000
00000001
00001000
,  // measure 22
00000010
00010000
00001000
00100000
00010000
00001000
01000000
00010000
,  // measure 23
00002000
00003020
00002030
00203000
,  // measure 24
00310000
01000000
10000000
00010000
00100000
10000000
01000000
00010000
,  // measure 25
00001000
00000010
00000002
00000000
00000000
00000000
00000103
00000000
,  // measure 26
00001000
00000100
00000001
00001000
00010000
00000100
00001000
00010000
,  // measure 27
00100000
10000000
00020000
00000000
10030000
00000000
01000000
00000000
,  // measure 28
00010000
01000000
10000000
00010000
00001000
01000000
00010000
00001000
,  // measure 29
00000100
00000001
00002000
00000000
00003010
00000000
00000100
00000000
,  // measure 30
00000001
00000010
00001000
00010000
00000100
00000001
00000100
00001000
,  // measure 31
00000010
00010000
00100000
01000000
00020000
00000000
20030000
00000000
,  // measure 32
30100000
10000000
01000000
00010000
00001000
00100000
00010000
00001000
,  // measure 33
00000001
00000100
00001000
00010000
00000100
00000000
00000110
00000000
,  // measure 34
00000001
00000000
00001000
00000000
00000000
00000000
00001000
00000000
00000100
00000000
00000000
00010000
00000000
00000000
00001000
00000000
,  // measure 35
00010000
01000000
10000000
00100000
,  // measure 36
00010000
00010000
00001000
00000000
00000000
00000000
00011000
00000000
,  // measure 37
00001000
00000000
00000100
00000000
00000001
00000010
00010000
00000000
,  // measure 38
00001000
01000000
01000000
00000000
10000000
00000000
00010000
00000000
,  // measure 39
10000000
00100000
00001000
00000000
00010000
00000100
00000010
00000000
,  // measure 40
00000100
00000000
00000001
00000000
00001001
00000000
00000000
00000000
00000100
00000000
00010000
00001000
00010000
00000000
00000000
00000000
,  // measure 41
00011000
00000000
01001000
00000000
00000000
01000000
10010000
00000000
,  // measure 42
00010000
01000000
10000000
01000000
00010000
00001000
00000010
00000100
,  // measure 43
00000001
00000010
00000001
00000100
00001000
00010000
00100000
00000000
,  // measure 44
10000000
01000000
00100000
00010000
01000000
10000000
00010000
00100000
,  // measure 45
01000000
00010000
00001000
00000010
00001000
00000100
00000010
00000000
,  // measure 46
00000001
00000010
00001000
00000000
00010000
00100000
10000000
00000000
,  // measure 47
00010000
00000000
01000000
00100000
00000000
00100000
10000000
00010000
10000000
00000000
01000000
00100000
01000000
00000000
00000000
00000000
,  // measure 48
10000000
00100000
00010000
00000000
00001000
00000010
00000001
00000000
,  // measure 49
00001000
00000000
00000100
00000010
00000000
00000010
00000001
00001000
00000001
00000000
00000100
00000000
00001001
00000000
00000000
00000000
,  // measure 50
00000010
00000100
00000010
00000000
00010000
00000000
00000010
00000100
00000010
00000000
00010000
00000000
00001000
00000000
00100000
00000000
,  // measure 51
00010000
01000000
00010000
00000000
10000000
00000000
01000000
00000000
00001000
00000000
01000000
00000000
10000000
00000000
00010000
00000000
,  // measure 52
00100000
01000000
00100000
00000000
00001000
00000000
00100000
01000000
00100000
00000000
00001000
00000000
00010000
00000000
00000010
00000000
,  // measure 53
00002000
00003002
00000013
00001001
,  // measure 54
00000100
00000010
00000100
00000000
00010000
00000000
00000100
00000010
00000100
00000000
00010000
00000000
00001000
00100000
00001000
00000000
,  // measure 55
00010000
01000000
20000000
00000000
30010000
00000000
10010000
00000000
,  // measure 56
10000000
00000000
00000000
10000000
00100000
00000000
00000000
00100000
00010000
00000000
00000000
00010000
00001000
00000000
00000000
00001000
,  // measure 57
00000010
00000000
00000000
00000010
00000001
00000000
00000000
00000000
00000200
00000000
00000000
00000000
00000000
00000000
00000000
00000000
,  // measure 58
00000310
00010000
00000010
00000000
00001000
00000000
00010000
00000000
01000000
00000000
00100000
00000000
10000000
00000000
10010000
00000000
,  // measure 59
00100000
01000000
00100000
00000000
10000000
01000000
00010000
00001000
00000000
00000100
00000001
00000000
00000010
00000000
00001001
00000000
,  // measure 60
00000100
00010000
00000100
00000000
00001000
00000000
00010000
00000000
00100000
00000000
01000000
00000000
10000000
00000000
00010000
10000000
,  // measure 61
10010000
01010000
01001000
00011000
00010010
00001010
00002002
00003003
,  // measure 62
00000001
00001000
00000100
00000000
00000001
00000100
00001000
00000010
,  // measure 63
00010000
00100000
10000000
00010000
00001000
00000000
00000001
00000000
,  // measure 64
00000100
00001000
00010000
00000000
00100000
10000000
00010000
10000000
,  // measure 65
01000000
00010000
00001000
00000010
00000100
00001000
00010000
00000000
,  // measure 66
10000000
00010000
01000000
00000000
10000000
01000000
00010000
00100000
,  // measure 67
00001000
00000010
00000001
00001000
00010000
00000000
10000000
00000000
,  // measure 68
01000000
00010000
00001000
00000000
00000010
00000001
00001000
00000001
,  // measure 69
00000100
00001000
00010000
00000000
00011000
00000000
00001000
01010000
,  // measure 70
00000000
10010000
11000000
00000000
00101000
00010000
00000000
00000100
,  // measure 71
00001001
00000100
00000001
00000010
00001100
00000000
00010000
00102000
,  // measure 72
00000000
00003000
00011000
00000000
00000000
00000000
00000000
00000000
;

//---------------dance-double - ----------------
#NOTES:
     dance-double:
     :
     Medium:
     7:
     0.461124,0.584495,0.444944,0.145618,0.028315,399.000000,344.000000,55.000000,18.000000,0.000000,0.000000,0.461124,0.584495,0.444944,0.145618,0.028315,399.000000,344.000000,55.000000,18.000000,0.000000,0.000000:
00000000
00000000
00000000
00000000
,
00000000
00000000
00000000
00000000
,
00000000
00000000
00000000
00000000
,
00000000
00000000
00000000
00000000
,
00000000
00000000
00000000
00000000
,
00001001
00000000
00000001
00000000
00000001
00000000
00001000
00000100
,
00010000
00000000
00001000
00000000
00001000
00000000
00100000
00010000
,
10000000
10000000
01000000
01000000
,
00010000
00001000
00000100
00000001
,
00002002
00000000
00000000
00003003
,
00001000
00000001
00000100
00000000
00000010
00000000
00000010
00000000
,
00010000
00000010
00001000
00000000
00000010
00010000
00001000
00000000
,
00100000
00010000
10000000
00000000
01000000
00000000
01000000
00000000
,
10000000
01000000
00010000
00000000
00001000
00000000
00001000
00000000
,
00010000
00000100
00001000
00000000
00000010
00000000
00000010
00000000
,
00000100
00000001
00001000
00000000
00000100
00000000
00000100
00000000
,
00010000
00001000
00100000
00000000
00001000
01000000
00010000
00000000
,
10000000
01000000
10000000
01000000
00100000
00010000
00100000
00000000
,
00101000
00000000
00010100
00000000
00000010
00000001
00001000
00000000
,
00000011
00001100
00000100
00010000
,
00010010
00000000
01001000
00000000
00100000
10000000
00010000
00000000
,
10100000
00000000
01010000
00000000
00100000
00010000
10000000
00010000
,
10000000
01100000
01001000
00011000
,
00010010
00000110
00001001
00000011
,
00001001
00000110
00010100
00011000
,
00101000
01100000
20020000
30030000
,
11000000
00000000
01010000
00000000
10000000
00100000
10000000
00010000
,
00000000
01000000
00001000
00000000
00010000
00000000
00010100
00000000
,
00000110
00000000
00001001
00000000
00000100
00000010
00001000
00000010
,
00000000
00010000
00001000
00000000
00100000
00000000
00110000
00000000
,
10010000
00000000
11000000
00000000
10000000
00100000
00010000
00001000
,
00000000
01000000
00010000
00000000
00100000
00000000
00011000
00000000
,
00001010
00000000
00000101
00000000
00000001
00000010
00001000
00010000
,
00000000
00000100
00001000
00000000
00010100
00000000
00101000
00000000
,
00021000
00000000
00000000
02000000
00030000
00000000
13000000
00000000
,
00100000
00010000
00001000
00000100
,
00000001
00000020
00000000
00000000
00001030
00000000
00010000
00000000
,
00022000
00033000
01000000
01000000
,
00010000
00000000
10000000
00000000
00000000
01000000
00000000
00000000
00010000
00000000
00000000
00001000
00000000
00000000
00000100
00000000
,
00000001
00000010
00000100
00001000
00000001
00000000
00001001
00000000
,
00001000
00000000
00000001
00000000
00000000
00000100
00000000
00000000
00001000
00000000
00000000
00010000
00000000
00000000
01000000
00000000
,
01100000
20020000
00000000
30030000
,
01000000
10000000
00100000
00000000
01000000
00010000
00100000
00000000
,
00101000
00000000
00010100
00000000
00000100
00000010
00000001
00000000
,
00000100
00000001
00000010
00000000
00000100
00001000
00000010
00000000
,
00010010
00000000
01001000
00000000
00010000
10000000
01000000
00000000
,
10000000
01000000
00010000
00000000
01000000
00100000
00001000
00000000
,
00010000
00000100
00000010
00000000
00001000
00000010
00000001
00000000
,
00000101
00001001
00001010
00010010
,
00010000
00001000
00010000
00001000
01000000
00010000
20000000
00000000
,
30010000
00100000
00001000
00010000
,
00000020
00000000
00001030
00000000
00000001
00000100
00000001
00000100
,
00000010
00010000
00001000
00100000
,
00010000
00000000
10000000
00000000
01000000
00100000
01000000
00000000
,
10000000
00000000
00100000
00000000
00010000
00001000
00100000
00000000
,
00001000
00010000
00000010
00000000
00001000
00000001
00001000
00000000
,
00000001
00000000
00000100
00000000
00001000
00010000
00000100
00000000
,
00010000
00001000
01000000
00000000
20020000
00000000
30030000
00000000
,
20000000
00000000
00000000
00000000
31000000
00000000
00100000
00000000
00010000
10000000
00010000
00000000
00100000
00000000
00001000
00000000
,
00021000
00000000
00000000
00000000
00030010
00000000
00000100
00000000
00000001
00001000
00000001
00000000
00000100
00000000
00000010
00000000
,
00001010
00000000
00000000
00000000
00001000
00000100
00001000
00000000
00000100
00000000
00010000
00000000
00001000
00000000
00100000
00000000
,
00010000
00010000
10000000
10000000
01000000
00010000
00002000
00000000
,
00003100
00000001
00001000
00000000
00000001
00000010
00000100
00001000
,
00000000
00001000
00000010
00000000
00010000
00000000
00001000
00000000
,
00100000
00010000
10000000
00000000
00010000
01000000
00100000
10000000
,
00000000
10000000
01000000
00000000
00010000
00000000
00001000
00000000
,
00000010
00000001
00001000
00000000
00000001
00000100
00000010
00001000
,
00000000
00001000
00000100
00000000
00010000
00000000
00001000
00000000
,
01000000
00010000
10000000
00000000
00010000
00100000
01000000
10000000
,
00000000
10000000
00100000
00000000
00100000
00000000
00000000
00011000
,
00000000
00010000
00010000
00000000
00000100
00000100
00000000
00000010
,
00000001
00000001
00001000
00001000
00000100
00000000
00010000
00010000
,
00000000
00011000
00000000
00000000
;

//---------------dance-double - ----------------
#NOTES:
     dance-double:
     :
     Easy:
     3:
     0.205714,0.233798,0.072809,0.177978,0.000000,178.000000,169.000000,9.000000,22.000000,0.000000,0.000000,0.205714,0.233798,0.072809,0.177978,0.000000,178.000000,169.000000,9.000000,22.000000,0.000000,0.000000:
00000000
00000000
00000000
00000000
,
00000000
00000000
00000000
00000000
,
00000000
00000000
00000000
00000000
,
00000000
00000000
00000000
00000000
,
00000000
00000000
00000000
00000000
,
00000000
00100000
00000000
10010000
,
00000000
01000000
00000000
10010000
,
00000000
00100000
00000000
00001000
,
00000000
00010000
00000000
00010000
,
00000000
00000200
00000000
00000300
,
00001000
00000001
00001000
00000000
,
00000010
00000010
00010000
00000000
,
00001000
01000000
00001000
00000000
,
00100000
00100000
00010000
00000000
,
10000000
00000000
10000000
00000000
,
00010000
00000000
00010000
00000000
,
00100000
00000000
00100000
00000000
,
00001000
00010000
00001000
00000000
,
00010000
00000010
00010000
00000000
,
00000100
00000000
00000100
00001000
,
00000010
00000000
00000010
00000000
,
00010000
00001000
00010000
00000000
,
00001000
00100000
00001000
00000000
,
01000000
00000000
01000000
00010000
,
00100000
00000000
00100000
00000000
,
00010000
10000000
00200000
00000000
,
10300000
00000000
01000000
00010000
,
00001000
00000000
00011000
00000000
,
00000100
00000000
00001000
00000001
,
00000100
00000000
00000110
00000000
,
00000001
00000000
00000100
00001000
,
00010000
00000000
00011000
00000000
,
01000000
00000000
00010000
10000000
,
01000000
00000000
01100000
00000000
,
20000000
00000000
00000000
00000000
,
30020000
00000000
00000000
00000000
,
00032000
00000000
00000000
00000000
,
00003002
00000000
00000000
00000000
,
00002003
00000000
00003020
00000000
,
00020030
00000000
00032000
00000000
,
00203000
00000000
00320000
00000000
,
20030000
00000000
00000000
30000000
,
00010000
00010000
00010000
00000000
,
10000000
00100000
01000000
00000000
,
00001000
00001000
00010000
00000000
,
00000010
00000100
00000001
00000000
,
00001000
00001000
00001000
00000000
,
00000001
00000010
00000100
00000000
,
00010000
00010000
00001000
00000000
,
00100000
01000000
10000000
00000000
,
00010000
10000000
00010000
10000000
,
02000000
00000000
03010000
00000000
,
00001000
00010000
00001000
00010000
,
00000020
00000000
00001030
00000001
,
00001000
00000001
00001000
00000001
,
00000200
00000000
00001300
00000000
,
00010000
00001000
00010000
00001000
,
00200000
00000000
00000000
00300000
,
00020000
00000000
10030000
10000000
,
02000000
00000000
03010000
00010000
,
00002000
00000000
00013000
00010000
,
00000020
00000000
00001030
00001000
,
00000001
00000000
00000010
00001000
,
00010000
00000000
00011000
00000000
,
00100000
00000000
00010000
10000000
,
00100000
00000000
01100000
00000000
,
10000000
00000000
00100000
00010000
,
00001000
00000000
00011000
00000000
,
00000010
00000000
00001000
00000001
,
00000010
00000000
00000100
00000000
00000100
00000000
00000000
00010000
,
00000000
00001000
00000000
00000000
00100000
00000000
00000000
00000000
,
00020000
00000000
00000000
00000000
,
00000000
10030000
00000000
00000000
;
