#VERSION:0.83;
#TITLE:DIVE2006;
#SUBTITLE:;
#ARTIST:BeForU;
#TITLETRANSLIT:;
#SUBTITLETRANSLIT:;
#ARTISTTRANSLIT:;
#GENRE:;
#ORIGIN:;
#CREDIT:;
#BANNER:DIVE2006.png;
#BACKGROUND:DIVE2006-bg.png;
#PREVIEWVID:;
#JACKET:DIVE2006-jacket.png;
#CDIMAGE:;
#DISCIMAGE:;
#LYRICSPATH:;
#CDTITLE:;
#MUSIC:DIVE2006.ogg;
#OFFSET:-4.863500;
#SAMPLESTART:43.573002;
#SAMPLELENGTH:12.387096;
#SELECTABLE:YES;
#BPMS:0.000=155.000;
#STOPS:;
#DELAYS:;
#WARPS:;
#TIMESIGNATURES:0.000=4=4;
#TICKCOUNTS:0.000=4;
#COMBOS:0.000=1;
#SPEEDS:0.000=1.000=0.000=0;
#SCROLLS:0.000=1.000;
#FAKES:;
#LABELS:0.000=Song Start;
#BGCHANGES:;
#KEYSOUNDS:;
#ATTACKS:
;

//---------------dance-single - ----------------
#NOTEDATA:;
#CHARTNAME:;
#STEPSTYPE:dance-single;
#DESCRIPTION:;
#CHARTSTYLE:;
#DIFFICULTY:Hard;
#METER:7;
#RADARVALUES:0.461378,0.543868,0.322965,0.262409,0.000000,320.000000,288.000000,32.000000,26.000000,0.000000,0.000000,0.000000,0.000000,0.000000,0.461378,0.543868,0.322965,0.262409,0.000000,320.000000,288.000000,32.000000,26.000000,0.000000,0.000000,0.000000,0.000000,0.000000;
#CREDIT:;
#NOTES:
0000
0000
0000
0000
,
0010
0000
1000
0100
1000
0000
0001
0200
,
0000
0000
0000
0310
,
0010
0000
0100
0000
0001
1000
0001
2000
,
0000
0000
0000
0000
3000
0100
0010
0002
,
0000
0000
0103
0000
0010
0000
0100
0002
,
0000
0010
0010
0003
,
0100
0000
1000
0000
0100
0000
1000
0001
,
0200
0000
0310
0020
0000
0000
0030
0000
,
1000
0100
0001
0100
1000
0010
0001
0010
,
1000
0100
0010
0001
,
0100
0010
0100
0001
1000
0100
0010
0100
,
1000
0010
0100
0001
,
1000
0100
0010
0100
1000
0000
0001
0100
,
0000
0100
0010
0000
1000
0000
0100
0000
,
1000
0000
0001
0100
0010
0000
0100
0001
,
0000
1000
0100
0000
1000
0000
0010
0000
,
0100
0000
0001
0100
0010
0000
1000
0100
,
1000
0000
0001
0100
0010
0000
0100
0000
,
0001
0000
1000
0100
0010
0000
0001
1000
,
0000
1000
0010
0000
0100
0000
0001
0100
,
0010
0000
1000
0100
1000
0000
1000
0001
,
0000
0100
0010
0100
0001
0000
1000
0000
,
0200
0302
0023
2030
,
3200
0000
0000
0300
,
0101
0000
0011
0000
1100
0000
1000
1010
,
0000
0101
0000
0110
0000
0010
1000
0100
,
0110
0000
0011
0000
0101
0000
0001
1001
,
0000
1010
1000
0100
0000
0100
0010
0001
,
0101
0000
0110
0000
1010
0000
1000
0100
,
0001
0100
0000
0110
0000
0001
0100
0020
,
0000
0000
1000
0000
0100
0000
0031
0010
,
0100
0001
0010
0011
0000
0000
1100
0000
,
1000
0010
0100
0001
0100
0000
0010
1000
,
0000
1000
0000
0100
0000
0100
1000
0001
,
0100
0000
0010
0000
0100
0000
0001
1000
,
0000
0010
0100
0002
0000
1003
0001
0100
,
0010
0000
1000
0000
0101
0000
0010
1000
,
0100
0100
0000
1100
0000
1000
0010
0200
,
0000
1000
0010
0301
,
0100
0001
1000
0100
0010
0001
0200
0000
,
0310
0000
1100
0000
1001
0000
0001
0100
,
0000
0010
0000
0100
0000
0001
1000
0100
,
0010
0000
0100
0000
1000
0000
0001
0100
,
0000
0100
0010
2000
0000
0000
3001
0000
,
0010
0000
0110
0000
1100
0000
1000
0001
,
0100
0010
0000
0200
0000
0301
1000
0200
,
0000
0000
1000
0000
0010
0000
1300
0001
,
0100
0000
0010
2000
0000
0000
3001
0000
,
1001
0000
1100
0000
0101
0000
0001
0020
,
0000
0230
0000
2300
0000
3001
0100
0010
,
0100
0000
0101
0000
1001
0000
1000
0100
,
0010
0001
0100
0010
0000
0010
0100
0001
,
1001
0000
0011
0000
0110
0000
0100
1000
,
0001
0100
0000
0020
0000
0130
0001
2000
,
0000
0000
0100
0000
0000
0100
3000
1000
,
0020
0000
0130
0002
0000
0000
1003
0000
,
0010
0100
0000
0010
,
0000
0000
1000
0000
0000
0000
0001
0100
,
0010
0000
1000
0100
0000
0100
1000
1001
;

//---------------dance-single - ----------------
#NOTEDATA:;
#CHARTNAME:;
#STEPSTYPE:dance-single;
#DESCRIPTION:;
#CHARTSTYLE:;
#DIFFICULTY:Medium;
#METER:5;
#RADARVALUES:0.325848,0.392793,0.070649,0.222038,0.000000,226.000000,219.000000,7.000000,22.000000,0.000000,0.000000,0.000000,0.000000,0.000000,0.325848,0.392793,0.070649,0.222038,0.000000,226.000000,219.000000,7.000000,22.000000,0.000000,0.000000,0.000000,0.000000,0.000000;
#CREDIT:;
#NOTES:
0000
0000
0000
0000
,
1000
0000
0010
0000
0100
0000
0001
0100
,
0020
0000
0000
0000
,
1030
0000
0100
0000
1000
0000
0001
0100
,
0020
0000
0000
0000
,
0130
0000
0001
0000
1000
0000
0100
1000
,
0000
1000
0100
0000
0020
0000
0000
0000
,
0031
0000
0100
0000
0010
0000
1000
0100
,
2000
0000
0000
0002
0000
0000
3003
0000
,
1000
0000
0100
0000
0010
0001
0010
0000
,
0100
0100
1000
1000
,
0010
0000
0100
0000
0001
1000
0001
0000
,
0100
0100
0010
0010
,
1000
0000
0100
0000
0010
0001
0010
0000
,
0100
1000
0200
0000
,
1300
0000
0001
0000
0100
0000
0000
0010
,
0000
0100
0001
1000
,
0100
0000
0010
0000
0001
0000
1000
0010
,
0000
0100
0000
0002
0000
0000
0103
0000
,
0010
1000
0100
1000
,
0001
0100
0020
0000
,
0130
0000
0001
0000
1000
0000
0100
1000
,
0000
0100
0000
0010
0000
0000
0001
0000
,
0100
0010
0100
0010
,
2000
0000
0000
0000
0000
0000
0000
0000
0000
0000
0000
0000
0000
0000
0000
0000
0000
0000
0000
0000
0000
0000
0000
0000
0000
0000
0000
0000
0000
0000
0000
0000
0000
0000
0000
0000
0000
0000
0000
0000
0000
0000
0000
0000
0000
0000
0000
0000
0000
0000
0000
0000
0000
0000
0000
0000
0000
0000
0000
0000
0000
0000
0000
0000
0000
0000
0000
0000
0000
0000
0000
0000
0000
0000
0000
0000
0000
0000
0000
0000
0000
0000
0000
0000
0000
0000
0000
0000
0000
0000
0000
0000
0000
0000
0000
0000
0000
0000
0000
0000
0000
0000
0000
0000
0000
0000
0000
0000
0000
0000
0000
0000
0000
0000
0000
0000
0000
0000
0000
0000
0000
0000
0000
0000
0000
0000
0000
0000
0000
0000
0000
0000
0000
0000
0000
0000
0000
0000
0000
0000
0000
0000
0000
0000
0000
3000
0000
0000
0000
0000
0000
0000
0000
0000
0000
0000
0000
0000
0000
0000
0000
0000
0000
0000
0000
0000
0000
0000
0000
0000
0000
0000
0000
0000
0000
0000
0000
0000
0000
0000
0000
0000
0000
0000
0000
0000
0000
0000
0000
0000
0000
0000
,
0001
0000
0100
0000
0101
0000
0100
0010
,
0000
1000
0000
1010
0000
1000
0100
0000
,
1000
0100
0110
0010
,
0001
1000
1010
0000
,
0010
0000
0100
0000
0101
0000
0001
1000
,
0100
0000
0000
1100
0000
1000
0000
0002
,
0000
0000
0100
0000
0000
0100
0003
0000
,
0010
1000
0100
0001
,
0100
0000
1000
0000
0010
0000
0100
0001
,
0000
0100
0000
0001
0000
0000
1000
0000
,
0010
0000
0100
0000
0001
0000
0000
0100
,
0000
0010
1000
0002
0000
0000
1003
0000
,
0010
0100
0001
1000
,
0100
1000
0000
0020
0000
0000
0130
0002
,
0000
0010
0000
0013
,
0001
0100
0000
2000
0000
0000
3001
0000
,
0010
0000
1000
0000
0100
0000
0001
0100
,
0000
1000
0000
0010
0000
0000
0100
0000
,
0001
0000
0100
0000
0010
0000
1000
0100
,
0000
0100
0000
2000
0000
0000
3000
0000
,
0010
0100
0001
0100
,
0010
0010
0000
2000
0000
3100
1000
0200
,
0000
0010
0000
0310
,
0001
0000
0100
0020
0000
0000
0030
0000
,
0100
0000
0001
0000
1000
0000
0100
1000
,
0000
1000
0000
0020
0000
0030
0100
0000
,
0001
0000
0100
0000
0010
1000
0001
0000
,
0010
0001
0020
0030
,
0100
1000
0010
0100
,
0001
0000
0000
1000
0000
0100
0000
2000
,
0000
0001
0000
3001
,
0100
0010
1000
0001
,
1001
0000
0100
0000
,
0100
0000
0100
0000
,
0010
0000
0100
0000
0020
0000
1030
0001
;

//---------------dance-single - ----------------
#NOTEDATA:;
#CHARTNAME:;
#STEPSTYPE:dance-single;
#DESCRIPTION:;
#CHARTSTYLE:;
#DIFFICULTY:Easy;
#METER:4;
#RADARVALUES:0.259525,0.302149,0.030278,0.181668,0.000000,180.000000,177.000000,3.000000,18.000000,0.000000,0.000000,0.000000,0.000000,0.000000,0.259525,0.302149,0.030278,0.181668,0.000000,180.000000,177.000000,3.000000,18.000000,0.000000,0.000000,0.000000,0.000000,0.000000;
#CREDIT:;
#NOTES:
0000
0000
0000
0000
,
0010
1000
0100
1000
,
0020
0000
0000
0000
,
0130
0001
0100
0010
,
0200
0000
0000
0000
,
0301
0000
1000
0000
,
0100
0100
1000
0000
,
0010
0000
0100
0000
,
0001
1000
0001
0000
,
1000
0100
0010
0001
,
2000
0000
0000
0000
,
3010
0100
0001
0100
,
0020
0000
0000
0000
,
1030
0100
0001
0100
,
0010
0001
2000
0000
,
3010
0100
0001
0100
,
0020
0000
0000
0000
,
1030
0010
1000
0100
,
1000
0010
0200
0000
,
0301
0010
0100
0010
,
0001
1000
0010
0000
,
0010
1000
0100
0001
,
0010
1000
0200
0000
,
1300
0010
0001
0100
,
2000
0000
0000
0000
,
3010
0100
0010
0000
,
0010
1000
0010
0000
,
1000
0001
1000
0000
,
0001
0010
0100
1000
,
0010
0100
0001
0000
,
0001
0100
0010
0000
,
2000
0000
3001
0000
,
0002
0000
1003
0000
,
1000
0010
0100
0000
,
0001
0010
0100
0000
,
0100
1000
0001
0000
,
0001
0100
1000
0100
,
0001
0010
1000
0000
,
0001
0100
1000
0000
,
0020
0000
0130
0000
,
0001
1000
1001
0000
,
1000
0010
0100
0000
,
0010
1000
0001
0001
,
1000
0100
0010
0000
,
0010
0100
1000
1000
,
0010
0100
0001
0000
,
1000
0100
0010
0100
,
2000
0000
3002
0000
,
0103
0100
0010
0010
,
1000
0100
0020
0000
,
0130
1000
0002
0000
,
0103
0010
1000
0100
,
0010
0100
1000
0001
,
0100
0010
0200
0000
,
0301
1000
0002
0000
,
1003
0100
0010
0001
,
1000
0010
0100
0001
,
1001
0000
0010
0000
,
0001
0000
0100
0000
,
1000
0000
0000
0000
0100
0000
0000
0110
;

//---------------dance-single - ----------------
#NOTEDATA:;
#CHARTNAME:;
#STEPSTYPE:dance-single;
#DESCRIPTION:;
#CHARTSTYLE:;
#DIFFICULTY:Beginner;
#METER:1;
#RADARVALUES:0.095159,0.120607,0.010093,0.030278,0.000000,66.000000,65.000000,1.000000,3.000000,0.000000,0.000000,0.000000,0.000000,0.000000,0.095159,0.120607,0.010093,0.030278,0.000000,66.000000,65.000000,1.000000,3.000000,0.000000,0.000000,0.000000,0.000000,0.000000;
#CREDIT:;
#NOTES:
0000
0000
0000
0000
,
1000
0000
0000
0000
,
0000
0000
0000
0000
,
0001
0000
0000
0000
,
0000
0000
0000
0000
,
0100
0000
0000
0000
,
0100
0000
0000
0000
,
0010
0000
0000
0000
,
0010
0000
0000
0000
,
1000
0000
0000
0000
,
0100
0000
0000
0000
,
1000
0000
0000
0000
,
0100
0000
0000
0000
,
0010
0000
0000
0000
,
0001
0000
0000
0000
,
0010
0000
0000
0000
,
0001
0000
0000
0000
,
1000
0000
0000
0000
,
0010
0000
0000
0000
,
0100
0000
0000
0000
,
0001
0000
0000
0000
,
0010
0000
0000
0000
,
0100
0000
0000
0000
,
1000
0000
0000
0000
,
1001
0000
0000
0000
,
0010
0000
0000
0000
,
0010
0000
0000
0000
,
0100
0000
0000
0000
,
0100
0000
0000
0000
,
0001
0000
0000
0000
,
0001
0000
0000
0000
,
1000
0000
0000
0000
,
1000
0000
0000
0000
,
0001
0000
0000
0000
,
0001
0000
0000
0000
,
0100
0000
0000
0000
,
0100
0000
0000
0000
,
0010
0000
0000
0000
,
0010
0000
0000
0000
,
1000
0000
0000
0000
,
1000
0000
0000
0000
,
0001
0000
0001
0000
,
0001
0000
0000
0000
,
0100
0000
0100
0000
,
0100
0000
0000
0000
,
0010
0000
0010
0000
,
0010
0000
0000
0000
,
1000
0000
1000
0000
,
2000
0000
3000
0000
,
0100
0000
0100
0000
,
0100
0000
0000
0000
,
0010
0000
0000
0000
,
0010
0000
0000
0000
,
0001
0000
0001
0000
,
0001
0000
0000
0000
,
0200
0000
0300
0000
,
0020
0000
0030
0000
,
0010
0000
0000
0000
,
0100
0000
0000
0000
,
0010
0000
0100
0100
;

//---------------dance-double - ----------------
#NOTEDATA:;
#CHARTNAME:;
#STEPSTYPE:dance-double;
#DESCRIPTION:;
#CHARTSTYLE:;
#DIFFICULTY:Hard;
#METER:8;
#RADARVALUES:0.565188,0.574083,0.413799,0.232131,0.005046,392.000000,351.000000,41.000000,23.000000,0.000000,0.000000,0.000000,0.000000,0.000000,0.565188,0.574083,0.413799,0.232131,0.005046,392.000000,351.000000,41.000000,23.000000,0.000000,0.000000,0.000000,0.000000,0.000000;
#CREDIT:;
#NOTES:
// measure 0
00000000
00000000
00000000
00000000
,  // measure 1
00100000
10000000
01000000
10000000
00010000
00000000
00100000
00001000
,  // measure 2
00020000
00000000
00000000
00030000
00000000
00001000
00001000
00000000
,  // measure 3
00010000
00000100
00001000
00000010
00000100
00000000
00000010
00010000
,  // measure 4
00002000
00000000
00000000
00003000
00000000
00010000
00010000
00000100
,  // measure 5
00000010
00000001
00000100
00000000
00000010
00000000
00000100
00000000
,  // measure 6
00000010
00001000
00000100
00000000
00000010
00000000
00000100
00000000
,  // measure 7
00010000
00001000
00100000
00000000
00001000
00010000
00000100
00000000
,  // measure 8
00010000
00001000
00100000
00010000
01000000
00100000
10000000
00000000
,  // measure 9
10000000
01000000
00010000
01000000
00100000
00001000
00010000
00001000
,  // measure 10
00100000
00001000
00000100
00000001
,  // measure 11
00001000
00000010
00000001
00000010
00000100
00000001
00001000
00000100
,  // measure 12
00010000
00100000
01000000
00010000
,  // measure 13
10000000
01000000
00100000
01000000
10000000
00010000
01000000
00000000
,  // measure 14
00010000
00100000
01000000
00100000
00010000
10000000
00100000
00000000
,  // measure 15
01000000
00010000
00100000
00001000
00010000
00000100
00010000
00001000
,  // measure 16
00100000
10000000
01000000
00010000
,  // measure 17
01000000
00100000
10000000
01000000
00100000
00010000
10000000
00000000
,  // measure 18
00010000
00100000
00001000
00100000
00001000
00010000
00000100
00000000
,  // measure 19
00001000
00000100
00000010
00000001
00000100
00000010
00000100
00000010
,  // measure 20
00001000
00000100
00010000
00100000
00010000
00000100
00001000
00000000
,  // measure 21
01000000
10000000
00100000
01000000
00010000
00100000
01000000
10000000
,  // measure 22
00010000
00100000
01000000
00100000
00010000
00000100
00000001
00000010
,  // measure 23
00002000
00000000
00000000
00000000
00003020
00000000
00000000
00000000
00000032
00000000
00000000
00000000
00000203
00000000
00010300
00001000
,  // measure 24
00020000
00000000
00000000
00030000
,  // measure 25
10010000
00000000
00110000
00000000
11000000
00000000
10000000
10100000
,  // measure 26
00000000
10010000
00000000
01010000
00000000
00010000
00100000
01000000
,  // measure 27
00010000
00001000
00000100
00000000
00010000
00100000
01000000
00000000
,  // measure 28
10000000
00010000
00100000
00001000
00010000
00000010
00000100
00000000
,  // measure 29
00000101
00000000
00001100
00000000
00001000
00000010
00000100
00000001
,  // measure 30
00001000
00000100
00000010
00000001
00000100
00001000
00000100
00000010
,  // measure 31
00001000
00000000
00000100
00000000
00010000
00100000
01000000
00100000
,  // measure 32
10000000
00000000
00010000
00100000
00000000
00001000
00011000
00000000
,  // measure 33
00010100
00000000
00001010
00000000
00000110
00000000
00000001
00000011
,  // measure 34
00000000
00001001
00000000
00001100
00000000
00001000
00010000
00001000
,  // measure 35
00000010
00001000
00000100
00000000
00010000
00000100
00001000
00000000
,  // measure 36
00000001
00001000
00000010
00010000
00000100
00001000
00010000
00000000
,  // measure 37
00110000
00000000
01010000
00000000
00010000
01000000
00100000
10000000
,  // measure 38
00010000
00100000
01000000
10000000
00100000
00010000
00100000
01000000
,  // measure 39
00010000
00000000
00100000
00000000
00100000
00001000
00000000
00001000
,  // measure 40
01000000
10000000
00010000
00100000
01000000
00001000
00100000
01000000
,  // measure 41
11000000
00000000
10010000
00000000
00110000
00010000
01000000
01010000
,  // measure 42
00000000
00011000
00000000
00001010
00000000
00000011
00000001
00000100
,  // measure 43
00001000
00000100
00000001
00000010
00000100
00001000
00000010
00020000
,  // measure 44
00000000
00030100
00000010
00000100
00010000
00001000
00010000
00000000
,  // measure 45
00010100
00000000
00101000
00000000
00110000
00100000
01000000
10000000
,  // measure 46
00100000
00010000
00100000
01000000
00001000
00100000
01000000
00010000
,  // measure 47
02000000
00000000
23000000
00000000
30100000
00020000
00000000
00130000
,  // measure 48
02000000
00000000
03001000
00200000
00000000
00301000
00011000
00000000
,  // measure 49
00001010
00000000
00001001
00000000
00001100
00000000
00010000
00011000
,  // measure 50
00000000
00110000
00000000
01010000
00000000
01000000
00010000
00000000
,  // measure 51
00100000
00001000
00000200
00000000
00001300
00000100
00000002
00000000
,  // measure 52
00000013
00000100
00002000
00000000
00013000
00100000
01000000
00000000
,  // measure 53
10010000
00000000
00110000
00000000
01100000
01000000
10000000
00100000
,  // measure 54
01000000
00010000
00100000
01000000
00100000
00010000
01000000
00020000
,  // measure 55
00000000
00000000
01000000
00000000
00130000
01000000
00100000
00010000
,  // measure 56
00200000
00000000
00001000
00002000
00000000
00000000
00303000
00000000
,  // measure 57
00021000
00000000
00000000
00030200
00000000
00000000
00000310
00000001
,  // measure 58
00001000
00000000
00001000
00000010
00000000
00000200
00000000
00001300
,  // measure 59
00011000
00000000
00001000
00200000
00000000
00310000
00110000
00101000
;

//---------------dance-double - ----------------
#NOTEDATA:;
#CHARTNAME:;
#STEPSTYPE:dance-double;
#DESCRIPTION:;
#CHARTSTYLE:;
#DIFFICULTY:Medium;
#METER:5;
#RADARVALUES:0.384963,0.453223,0.201853,0.272502,0.000000,267.000000,247.000000,20.000000,27.000000,0.000000,0.000000,0.000000,0.000000,0.000000,0.384963,0.453223,0.201853,0.272502,0.000000,267.000000,247.000000,20.000000,27.000000,0.000000,0.000000,0.000000,0.000000,0.000000;
#CREDIT:;
#NOTES:
// measure 0
00000000
00000000
00000000
00000000
,  // measure 1
10000000
00000000
00100000
00000000
01000000
00000000
00010000
01000000
,  // measure 2
00200000
00000000
00000000
00310000
,  // measure 3
00001000
00000000
00000100
00000000
00000001
00000000
00000010
00000100
,  // measure 4
00002000
00000000
00000000
00003100
,  // measure 5
00010000
00000000
00001000
00000000
00010000
00000000
00001000
00100000
,  // measure 6
00000000
00100000
00001000
00000000
00020000
00000000
00030000
00000000
,  // measure 7
00001000
00100000
00001000
00010000
,  // measure 8
00000100
00010000
00002000
00020000
00000000
00000000
00033000
00000000
,  // measure 9
00100000
00000000
01000000
00000000
10000000
00100000
01000000
00000000
,  // measure 10
00010000
00100000
00001000
00010000
,  // measure 11
00000100
00000000
00000010
00000000
00000001
00000100
00000010
00000000
,  // measure 12
00001000
00000010
00010000
00001000
,  // measure 13
00100000
00010000
01000000
00000000
00100000
00000000
01000000
00000000
,  // measure 14
00100000
10000000
01000000
00000000
00100000
00000000
01000000
00000000
,  // measure 15
00100000
00010000
01000000
00000000
00100000
10000000
01000000
00000000
,  // measure 16
01100000
00000000
00001000
00000100
,  // measure 17
00000001
00000010
00000001
00000010
00000100
00001000
00000001
00000000
,  // measure 18
00000100
00001000
00010000
00100000
,  // measure 19
10000000
01000000
10000000
01000000
00100000
00010000
10000000
00000000
,  // measure 20
00100000
00010000
00001000
00000100
,  // measure 21
00000001
00000010
00001000
00000000
00000010
00000000
00000001
00000000
,  // measure 22
00001000
00000100
00000001
00000000
00000100
00000000
00010000
00000000
,  // measure 23
00002000
00010000
00010000
00013000
,  // measure 24
00022000
00000000
00000000
00033000
,  // measure 25
00100000
00000000
00001000
00000000
00010000
00000000
00001000
00100000
,  // measure 26
00000000
00001000
00000000
00010000
00000000
00000000
01000000
00000000
,  // measure 27
10000000
00000000
00100000
00000000
00010000
00000000
00100000
10000000
,  // measure 28
00000000
00010000
10000000
00020000
00000000
00100000
00130000
00000000
,  // measure 29
00110000
00011000
00001100
00000110
,  // measure 30
00000001
00000000
00000000
00000101
00000000
00000100
00000010
00000200
,  // measure 31
00000000
00000000
00000010
00000000
00000010
00000320
00000000
00000100
,  // measure 32
00000230
00000000
00000301
00000002
00000000
00001000
00001003
00000000
,  // measure 33
00000100
00000000
00010000
00000000
00001000
00000000
00010000
00000100
,  // measure 34
00000000
00010000
00000000
00001000
00000000
00000000
00100000
00000000
,  // measure 35
10000000
00000000
01000000
00000000
00010000
00000000
00001000
00002000
,  // measure 36
00000000
00003100
00000010
00000200
00000000
00001000
00001300
00000000
,  // measure 37
00001100
00011000
00110000
01100000
,  // measure 38
10000000
00000000
00000000
10100000
00000000
00100000
00000000
02000000
,  // measure 39
00000000
00010000
00000000
03100000
,  // measure 40
00100000
10000000
01000000
00010000
,  // measure 41
00001000
00000000
00000010
00000000
00000001
00000000
00000100
00001000
,  // measure 42
00000000
00010000
00000000
00100000
00000000
10000000
01000000
10000000
,  // measure 43
01000000
00000000
00100000
00000000
00010000
00000000
00010000
02000000
,  // measure 44
00000000
03100000
01000000
00200000
00000000
00000000
00300000
00000000
,  // measure 45
01100000
10010000
00110000
00011000
,  // measure 46
00001100
00000000
00000000
00000110
00000000
00000001
00001000
00000002
,  // measure 47
00000000
00000000
00000100
00000000
00000000
00000203
00000000
00000010
,  // measure 48
00000320
00000000
00001000
00002000
00000000
00000000
00003030
00000000
,  // measure 49
00000110
00000000
00000010
00000000
00001000
00000000
00000100
00000010
,  // measure 50
00000000
00000001
00000000
00002000
00000000
00000001
00003001
00000000
,  // measure 51
00000100
00000000
00001000
00000000
00000100
00000010
00010000
00000000
,  // measure 52
00001000
00000000
00000100
00000000
00001000
00100000
00010000
00000000
,  // measure 53
10000000
00100000
00010000
01000000
,  // measure 54
10000000
00000000
00000000
00010000
00000000
00100000
00000000
02000000
,  // measure 55
00000000
00000000
10000000
00000000
00000000
23000000
00000000
00010000
,  // measure 56
30020000
00000000
01030000
00200000
00000000
00000000
00300000
00000000
,  // measure 57
10010000
01000000
00000000
01000000
,  // measure 58
00000000
00000000
01000000
00000000
00000000
00010000
00000000
00000000
,  // measure 59
00100000
00000000
00000000
00001000
00000000
00000000
00010000
00001000
;

//---------------dance-double - ----------------
#NOTEDATA:;
#CHARTNAME:;
#STEPSTYPE:dance-double;
#DESCRIPTION:;
#CHARTSTYLE:;
#DIFFICULTY:Easy;
#METER:3;
#RADARVALUES:0.246549,0.271934,0.040371,0.090834,0.000000,171.000000,167.000000,4.000000,9.000000,0.000000,0.000000,0.000000,0.000000,0.000000,0.246549,0.271934,0.040371,0.090834,0.000000,171.000000,167.000000,4.000000,9.000000,0.000000,0.000000,0.000000,0.000000,0.000000;
#CREDIT:;
#NOTES:
// measure 0
00000000
00000000
00000000
00000000
,  // measure 1
10000000
10000000
00010000
01000000
,  // measure 2
00020000
00000000
00000000
00000000
,  // measure 3
00130000
00100000
00001000
00010000
,  // measure 4
00002000
00000000
00000000
00000000
,  // measure 5
00013000
00000100
00010000
00000000
,  // measure 6
00000100
00001000
00000100
00000000
,  // measure 7
00000010
00000000
00000001
00000000
,  // measure 8
00000100
00000010
00001000
00000000
,  // measure 9
00000001
00000001
00001000
00000010
,  // measure 10
00002000
00000000
00000000
00000000
,  // measure 11
00003100
00000100
00010000
00001000
,  // measure 12
00020000
00000000
00000000
00000000
,  // measure 13
00031000
00100000
00001000
00000000
,  // measure 14
00100000
00010000
00100000
00000000
,  // measure 15
01000000
10000000
00100000
01000000
,  // measure 16
00010000
00000000
00100000
00100000
,  // measure 17
00001000
00010000
00001000
00000000
,  // measure 18
00100000
00001000
00100000
00000000
,  // measure 19
00001000
00010000
00001000
00010000
,  // measure 20
00000100
00010000
00000100
00000000
,  // measure 21
00000010
00000001
00000010
00000001
,  // measure 22
00000100
00000010
00000100
00000010
,  // measure 23
00002000
00000000
00003100
00000000
,  // measure 24
00022000
00000000
00000000
00033000
,  // measure 25
00100000
01000000
00100000
00000000
,  // measure 26
00010000
10000000
00010000
00000000
,  // measure 27
01000000
00100000
10000000
00000000
,  // measure 28
00100000
01000000
00010000
00000000
,  // measure 29
00100000
00001000
00100000
00000000
,  // measure 30
00000100
00010000
00000100
00000000
,  // measure 31
00010000
00001000
00010000
00000000
,  // measure 32
00000100
00000000
00000000
00000110
00000000
00000000
00000000
00000000
,  // measure 33
00000100
00000010
00000100
00000000
,  // measure 34
00001000
00000001
00001000
00000000
,  // measure 35
00000010
00000100
00000001
00000000
,  // measure 36
00000100
00000010
00001000
00000000
,  // measure 37
00000100
00010000
00000100
00000000
,  // measure 38
00100000
00001000
00100000
00000000
,  // measure 39
00001000
00010000
00001000
00000000
,  // measure 40
00100000
00010000
01000000
00100000
,  // measure 41
10000000
00010000
10000000
00000000
,  // measure 42
00001000
00100000
00001000
00000000
,  // measure 43
00010000
00001000
00010000
00000000
,  // measure 44
00000100
00010000
00000100
00000000
,  // measure 45
00001000
00000001
00001000
00000000
,  // measure 46
00000100
00010000
00000100
00000000
,  // measure 47
00010000
00001000
00010000
00000000
,  // measure 48
00001000
00100000
00001000
00000000
,  // measure 49
01000000
00100000
10000000
01000000
,  // measure 50
00100000
00010000
10000000
00000000
,  // measure 51
00010000
00000000
00100000
00000000
,  // measure 52
00001000
00000000
00010000
00000000
,  // measure 53
00000100
00000010
00000001
00000100
,  // measure 54
00000010
00001000
00000001
00000000
,  // measure 55
00000010
00000000
00000100
00000000
,  // measure 56
00010000
00000000
00001000
00000000
,  // measure 57
00022000
00000000
00000000
00000000
,  // measure 58
00033000
00000000
00000000
00000000
00000000
00010000
00000000
00000000
,  // measure 59
00000100
00000000
00000000
00000000
00001000
00000000
00000000
00001001
;
