#VERSION:0.83;
#TITLE:DAZZLING♡SEASON;
#SUBTITLE:;
#ARTIST:jun;
#TITLETRANSLIT:DAZZLING SEASON;
#SUBTITLETRANSLIT:;
#ARTISTTRANSLIT:;
#GENRE:;
#ORIGIN:;
#CREDIT:;
#BANNER:DAZZLING SEASON.png;
#BACKGROUND:DAZZLING SEASON-bg.png;
#PREVIEWVID:;
#JACKET:DAZZLING SEASON-jacket.png;
#CDIMAGE:;
#DISCIMAGE:;
#LYRICSPATH:;
#CDTITLE:;
#MUSIC:DAZZLING SEASON.ogg;
#OFFSET:0.260000;
#SAMPLESTART:36.382000;
#SAMPLELENGTH:15.000000;
#SELECTABLE:YES;
#BPMS:0.000=180.000,
16.000=90.000,
24.000=180.000,
168.000=90.000,
184.000=180.000;
#STOPS:;
#DELAYS:;
#WARPS:;
#TIMESIGNATURES:0.000=4=4;
#TICKCOUNTS:0.000=4;
#COMBOS:0.000=1;
#SPEEDS:0.000=1.000=0.000=0;
#SCROLLS:0.000=1.000;
#FAKES:;
#LABELS:0.000=Song Start;
#BGCHANGES:;
#KEYSOUNDS:;
#ATTACKS:
;
#DISPLAYBPM:*;

//---------------dance-single - ----------------
#NOTEDATA:;
#CHARTNAME:;
#STEPSTYPE:dance-single;
#DESCRIPTION:;
#CHARTSTYLE:;
#DIFFICULTY:Hard;
#METER:10;
#RADARVALUES:0.792376,1.258332,0.430342,0.239079,0.449468,580.000000,535.000000,45.000000,25.000000,0.000000,0.000000,0.000000,0.000000,0.000000,0.792376,1.258332,0.430342,0.239079,0.449468,580.000000,535.000000,45.000000,25.000000,0.000000,0.000000,0.000000,0.000000,0.000000;
#CREDIT:;
#NOTES:
0000
0000
0000
0000
,
0000
0000
0000
0000
,
0000
0000
0000
0000
,
0000
0000
0000
0000
,
0001
0010
0001
0100
0100
0002
0000
0013
0000
0010
1000
0000
0011
0000
1010
0000
,
0001
0010
0100
0100
1000
0200
0000
1300
0000
0010
1000
0000
0110
0000
1001
0000
,
1000
0010
0001
0010
1000
0020
0000
0130
,
0000
0100
0001
1000
0100
0000
1001
0000
,
0001
0010
1000
0001
0100
1000
0001
0001
,
1000
0000
0010
0000
0100
0000
0001
0000
0010
0000
0001
0010
0001
0000
1000
0001
,
2000
0010
3020
0001
,
0032
0100
0203
1000
,
2300
0010
0001
0100
,
3002
0000
0000
0000
0010
0000
0000
0000
1003
0000
0000
0000
0110
0000
1000
0001
,
1000
0100
1000
0010
0100
1000
0100
0010
,
1000
0100
0010
0001
0010
0100
1000
0010
,
0100
0001
0010
1000
0001
1000
0010
0001
,
0200
0001
0310
1001
,
0001
0100
0110
0000
1000
1100
0000
0001
,
0011
0000
1000
1010
0010
0100
1001
0000
,
1000
0010
0110
0000
0001
0101
0000
1000
,
1010
0000
0001
0011
0010
0100
1001
0000
,
1000
0010
0010
0001
0100
0100
1000
0100
,
0100
0001
0010
0010
1000
0001
1001
0000
,
0010
0000
0000
0000
1000
0100
1000
0001
0100
0000
0010
0000
0010
0000
0100
0000
,
2001
0000
0010
3010
,
1001
0000
0001
0000
0010
0000
0100
0000
1000
0000
0000
0000
0001
0000
0100
0001
,
0010
0000
0001
0000
0100
0000
0010
1000
0001
0000
1000
0000
0100
0000
0010
0000
,
0001
0000
1000
0010
1000
0000
0001
0010
0001
0000
0100
0000
0010
0100
0010
0000
,
1000
0100
0010
0100
2000
0000
3020
0000
,
0130
0000
0001
0000
0010
0100
0010
0000
0000
0000
0001
0000
1000
0000
0010
0000
,
1000
0000
0100
0000
0010
0100
0010
0000
0000
0000
0001
0000
1000
0000
0010
0000
,
1000
0000
0001
0000
0100
0001
1000
0001
0100
0000
0010
0000
1000
0100
1000
0001
,
0200
0310
1010
0011
,
1001
0000
1000
0000
0100
0000
0010
0000
0001
0000
0000
0000
1000
0000
0010
1000
,
0100
0000
1000
0000
0010
0000
0100
0001
1000
0000
0001
0000
0010
0000
0100
0000
,
1000
0000
0001
0100
0001
0000
1000
0100
1000
0000
0010
0000
0100
0010
0100
0000
,
0001
0010
0100
0010
0002
0000
0203
0000
,
0310
0000
1000
0000
0100
0010
0100
0000
0000
0000
1000
0000
0001
0000
0100
0000
,
0001
0000
0010
0000
0100
0010
0100
0000
0000
0000
1000
0000
0001
0000
0100
0000
,
0001
0010
0100
1000
1001
0001
0101
0100
,
0110
0000
0010
0000
1000
0000
0001
0010
0100
1000
0100
1000
0001
0100
0001
0100
,
0001
0100
0100
0001
0100
0100
0000
0010
0000
0100
0010
0000
0110
0000
1001
0000
,
1000
0100
0100
1000
0100
0100
0000
0010
0000
0100
0010
0000
0110
0000
1001
0000
,
0001
0010
0100
1000
0001
0100
0010
1000
1000
0001
0010
0001
0100
0110
0000
1001
,
1000
0010
0100
0001
1000
0100
0010
0010
0001
0010
0110
0100
1100
1000
1001
0001
,
1000
0000
0010
0000
1000
0100
1000
0100
0010
0000
0001
0000
0010
0000
0001
0000
,
0200
0001
0001
0000
0310
0000
1001
0000
,
0001
0000
0010
0000
0001
0100
0001
0100
0010
0000
1000
0000
0010
0000
1000
0000
,
0200
1000
1000
0000
0310
0000
1001
0000
,
1000
0000
0010
0000
0010
0000
0100
0000
0010
0000
1000
0000
0001
1000
0100
1000
,
0001
0010
0001
0000
0101
0000
1100
0000
,
1000
0010
0001
0100
0001
0010
1000
0200
,
0000
0010
0310
0000
1100
0000
0101
0000
,
1001
0000
1000
0000
0100
0000
0010
0000
0001
0000
0000
0000
1000
0000
0010
1000
,
0100
0000
1000
0000
0010
0000
0100
0001
1000
0000
0001
0000
0010
0000
0100
0000
,
1000
0000
0001
0100
0001
0000
1000
0100
1000
0000
0010
0000
0100
0010
0100
0000
,
0001
0010
0100
0010
0002
0000
0203
0000
,
0310
0000
1000
0000
0100
0010
0100
0000
0000
0000
1000
0000
0001
0000
0100
0000
,
0001
0000
0010
0000
0100
0010
0100
0000
0000
0000
1000
0000
0001
0000
0100
0000
,
0001
0000
1000
0000
0010
1000
0001
1000
0010
0000
0100
0000
0001
0010
0001
1000
,
0020
0130
0101
1100
,
1001
0000
0001
0000
0010
0000
0100
0000
1000
0000
0000
0000
0001
0000
0100
0001
,
0010
0000
0001
0000
0100
0000
0010
1000
0001
0000
1000
0000
0100
0000
0010
0000
,
0001
0000
1000
0010
1000
0000
0001
0010
0001
0000
0100
0000
0010
0100
0010
0000
,
1000
0100
0010
0100
2000
0000
3020
0000
,
0130
0000
0001
0000
0010
0100
0010
0000
0000
0000
0001
0000
1000
0000
0010
0000
,
1000
0000
0100
0000
0010
0100
0010
0000
0000
0000
0001
0000
1000
0000
0010
0000
,
1000
0000
0100
0000
0010
0000
0001
0000
0010
0000
0100
0000
1000
0000
0010
0100
,
0010
0000
0100
0000
0001
0000
1000
0100
0010
0001
0010
0001
1000
0010
1000
0010
,
0200
0000
0000
0000
,
0000
0300
0000
0000
0000
0000
0000
0000
;

//---------------dance-single - ----------------
#NOTEDATA:;
#CHARTNAME:;
#STEPSTYPE:dance-single;
#DESCRIPTION:;
#CHARTSTYLE:;
#DIFFICULTY:Medium;
#METER:8;
#RADARVALUES:0.591549,0.918242,0.286895,0.306021,0.124321,433.000000,403.000000,30.000000,32.000000,0.000000,0.000000,0.000000,0.000000,0.000000,0.591549,0.918242,0.286895,0.306021,0.124321,433.000000,403.000000,30.000000,32.000000,0.000000,0.000000,0.000000,0.000000,0.000000;
#CREDIT:;
#NOTES:
0000
0000
0000
0000
,
0000
0000
0000
0000
,
0000
0000
0000
0000
,
0000
0000
0000
0000
,
0001
0100
0001
0000
1000
0100
0000
1000
0000
1000
0020
0000
0100
0000
1030
0000
,
1000
0100
1000
0000
0001
0100
0000
0001
0000
0001
0020
0000
0130
0000
1001
0000
,
0001
0010
0100
0010
0001
0020
0000
0130
,
0000
0100
1000
0001
0100
0000
1001
0000
,
1000
0010
1000
0010
0100
0001
0100
0001
,
1000
0100
0010
0001
0010
0000
1001
0000
,
1000
0010
1000
0010
,
1000
0001
1000
0001
,
0010
0001
0010
0001
,
0100
0010
0110
1001
,
1000
0010
1000
0000
0100
0010
0100
0000
,
1000
0010
1000
0000
0001
0010
0001
0000
,
0100
0001
0100
0000
0010
1000
0010
0000
,
0100
0001
0010
0100
1000
0000
0101
0000
,
1000
0100
0010
0000
0000
0011
0000
0000
,
0101
0000
0000
1100
0000
1000
0001
0000
,
0001
0100
0010
0000
0000
1010
0000
0000
,
1100
0000
0000
0101
0000
0001
1000
0000
,
0010
1000
0200
0000
0310
0200
0000
1300
,
0020
0000
0130
0020
0000
1030
0200
0000
,
0310
0001
0100
0001
1000
0100
0010
0000
,
1002
0000
0010
0013
,
1001
0000
1000
0010
0100
0000
0001
1000
,
0000
1000
0100
1000
0010
0000
0100
0000
,
0001
0010
1000
0010
0001
0100
1000
0100
,
0002
0010
0103
1001
,
1000
0010
0100
0020
0000
1030
0010
0000
,
1000
0100
0010
0200
0000
1300
0100
0000
,
1000
0010
0001
1000
0100
0001
1000
0000
,
0200
0010
0001
1300
,
1001
0000
0001
0010
0100
0000
1000
0001
,
0000
0001
0100
0001
0010
0000
0100
0000
,
1000
0010
0001
0010
1000
0100
0001
0100
,
2000
0010
3100
1001
,
0001
0010
0100
0020
0000
0031
0010
0000
,
0001
0100
0010
0200
0000
0301
0100
0000
,
0001
0010
1000
0001
0100
1000
0001
0000
,
0100
0010
1000
0001
0100
0000
1001
0000
,
1000
0100
1000
0000
0001
0100
0000
0010
0000
1000
0100
0000
0110
0000
1001
0000
,
0001
0100
0001
0000
1000
0100
0000
0010
0000
0001
0100
0000
0110
0000
1001
0000
,
1000
0100
1000
0100
1000
0100
0000
1000
0000
1000
0001
0000
0101
0000
1100
0000
,
0001
0100
0001
0100
0001
0100
0000
0001
0000
0010
0100
0000
1000
0000
0001
0000
,
1000
0000
0100
0000
0010
0100
1000
0010
,
0000
0010
0100
0001
1000
0100
2000
0000
,
3001
0010
0100
1000
0001
0020
0000
0230
,
0000
1300
0001
0100
0010
0000
1001
0000
,
0001
1000
0001
1000
0100
2000
0000
3020
,
0000
0130
0010
1000
0002
0000
0010
0000
,
1003
0010
0100
0000
0010
0100
0001
0010
,
0000
0100
0010
0001
0200
0000
0310
0000
,
1001
0000
0001
0100
0010
0000
1000
0001
,
0000
0001
0010
0001
0100
0000
0010
0000
,
1000
0100
0001
0100
1000
0010
0001
0010
,
2000
0100
3010
1001
,
0001
0100
0010
0200
0000
0301
0100
0000
,
0001
0010
0100
0020
0000
0031
0010
0000
,
0001
0100
1000
0001
0010
1000
0001
0000
,
0020
0100
1000
0031
,
1001
0000
1000
0100
0010
0000
0001
1000
,
0000
1000
0010
1000
0100
0000
0010
0000
,
0001
0100
1000
0100
0001
0010
1000
0010
,
0002
0100
0013
1001
,
1000
0100
0010
0200
0000
1300
0100
0000
,
1000
0010
0100
0020
0000
1030
0010
0000
,
1000
0100
0001
1000
0010
0001
1000
0000
,
0010
0100
0010
1000
0100
0010
0100
0000
,
2002
0000
0000
0000
,
0000
3003
0000
0000
0000
0000
0000
0000
;

//---------------dance-single - ----------------
#NOTEDATA:;
#CHARTNAME:;
#STEPSTYPE:dance-single;
#DESCRIPTION:;
#CHARTSTYLE:;
#DIFFICULTY:Easy;
#METER:6;
#RADARVALUES:0.430342,0.646170,0.210389,0.153010,0.019126,315.000000,293.000000,22.000000,16.000000,0.000000,0.000000,0.000000,0.000000,0.000000,0.430342,0.646170,0.210389,0.153010,0.019126,315.000000,293.000000,22.000000,16.000000,0.000000,0.000000,0.000000,0.000000,0.000000;
#CREDIT:;
#NOTES:
0000
0000
0000
0000
,
0000
0000
0000
0000
,
0000
0000
0000
0000
,
0000
0000
0000
0000
,
0001
0000
0100
0000
0001
0100
0000
0010
0000
0000
0010
0000
1000
0000
0001
0000
,
1000
0000
0100
0000
1000
0100
0000
0010
0000
0000
0100
0000
0110
0000
1001
0000
,
0001
1000
0010
0100
,
0002
0010
1003
1001
,
0001
0010
0100
1000
,
0010
0100
0010
0000
0100
0000
1001
0000
,
0001
0001
0001
0001
,
1000
1000
1000
1000
,
0010
0010
0010
0010
,
0100
0010
2002
3003
,
1000
0100
1000
0010
,
0100
0001
0100
0000
0010
0000
1000
0000
,
0001
0010
0100
1000
,
0001
0100
0110
1001
,
1000
0000
0010
0000
0000
0010
0000
0000
,
1000
0000
0000
0001
0000
0000
1001
0000
,
1000
0000
0100
0000
0000
0100
0000
0000
,
0010
0000
0000
0001
0000
0000
1001
0000
,
1000
0010
0001
0100
,
1000
0001
1000
0100
,
0001
0000
0010
0000
1000
0001
1000
0001
,
0020
0000
0100
0130
,
1001
0000
1000
0000
0010
0000
0100
0001
,
0000
0001
1000
0000
0100
0000
0010
0000
,
0002
0100
1000
0010
,
0103
0000
0110
1001
,
0001
0000
0010
0100
0000
0100
1000
0000
,
0001
0000
1000
0010
0000
0010
0100
0000
,
0001
0010
1000
0100
,
0002
0010
1003
0000
,
1001
0000
0001
0000
0010
0000
0100
1000
,
0000
1000
0001
0000
0100
0000
0010
0000
,
2000
0000
0100
0000
0001
0000
0010
3000
,
0100
0000
0110
1001
,
1000
0000
0010
0100
0000
0100
0001
0000
,
1000
0000
0001
0010
0000
0010
0100
0000
,
1000
0010
0001
0100
,
1000
0000
0010
0000
0100
0001
0100
0001
,
1000
0000
0100
1000
0100
0000
0010
0000
,
0001
0000
0100
0001
0100
0000
0010
0000
,
1000
0000
0001
1000
0001
0000
1000
0100
,
1000
0000
0001
0100
0001
0000
0010
0010
,
0010
0001
0100
0010
,
2000
0000
0100
0000
3001
0100
0001
0000
,
1000
0100
0010
0010
,
0002
0000
0100
0000
1003
0100
1000
0000
,
0010
1000
0100
0010
,
0002
0000
0100
0000
1003
0100
1000
0000
,
0001
0000
0100
0000
0010
1000
0010
0000
,
1000
0100
2000
0000
0010
0000
3001
0000
,
1001
0000
0001
0000
0100
0000
0010
1000
,
0000
1000
0001
0000
0010
0000
0100
0000
,
2000
0010
0001
0100
,
3010
0000
0110
1001
,
1000
0000
0100
0010
0000
0010
0001
0000
,
1000
0000
0001
0100
0000
0100
0010
0000
,
1000
0100
0001
0010
,
2000
0100
3001
0000
,
1001
0000
1000
0000
0100
0000
0010
0001
,
0000
0001
1000
0000
0010
0000
0100
0000
,
0002
0000
0010
0000
1000
0000
0100
0003
,
0010
0000
0110
1001
,
0001
0000
0100
0010
0000
0010
1000
0000
,
0001
0000
1000
0100
0000
0100
0010
0000
,
0001
0100
1000
0010
,
0001
0010
0001
0010
0100
1000
0100
0000
,
2002
0000
0000
0000
,
0000
3003
0000
0000
0000
0000
0000
0000
;

//---------------dance-single - ----------------
#NOTEDATA:;
#CHARTNAME:;
#STEPSTYPE:dance-single;
#DESCRIPTION:;
#CHARTSTYLE:;
#DIFFICULTY:Beginner;
#METER:4;
#RADARVALUES:0.275965,0.435124,0.105195,0.057379,0.009563,202.000000,191.000000,11.000000,6.000000,0.000000,0.000000,0.000000,0.000000,0.000000,0.275965,0.435124,0.105195,0.057379,0.009563,202.000000,191.000000,11.000000,6.000000,0.000000,0.000000,0.000000,0.000000,0.000000;
#CREDIT:;
#NOTES:
0000
0000
0000
0000
,
0000
0000
0000
0000
,
0000
0000
0000
0000
,
0000
0000
0000
0000
,
0100
0000
0100
0000
0100
0000
0000
1000
0000
0000
1000
0000
1000
0000
0000
0000
,
0001
0000
0001
0000
0001
0000
0000
0100
0000
0000
0100
0000
0100
0000
0000
0000
,
0001
0000
0001
0000
0010
0000
0000
0001
,
0000
0001
0001
0000
,
1000
0000
1000
0000
0010
0000
0000
1000
,
0000
0001
0001
0000
,
1000
0000
0100
0000
,
0001
0000
0010
0000
,
1000
0000
0001
0000
,
0110
0000
2002
3003
,
1000
1000
1000
0000
,
0001
0001
0001
0000
,
0100
0010
0100
0000
,
0010
0100
0010
0000
,
0000
0000
1000
0000
0000
1000
0000
0000
,
0001
0000
0000
0001
0000
0000
0110
0000
,
0000
0000
0001
0000
0000
0001
0000
0000
,
1000
0000
0000
1000
0000
0000
0110
0000
,
0000
1000
1000
1000
,
0000
0001
0001
0001
,
0000
0010
0010
0000
,
0200
0000
0010
0310
,
1001
0000
1000
0000
,
0010
0010
0010
0000
,
1000
0001
1000
0001
,
1000
0000
0100
0000
,
0010
0010
0010
0000
,
0001
0001
0001
0000
,
0100
0010
0100
0010
,
0100
0000
0010
0000
,
1001
0000
0001
0000
,
0010
0010
0010
0000
,
0001
1000
0001
1000
,
0001
0000
0100
0000
,
0010
0010
0010
0000
,
1000
1000
1000
0000
,
0100
0010
0100
0010
,
0100
0000
0110
0000
,
1001
0000
2000
0000
,
3001
0000
0002
0000
,
1003
1000
1000
0000
,
0001
0001
0001
0000
,
0000
0100
0000
0100
,
0000
0010
0010
0010
,
0000
1000
0000
1000
,
0000
0001
0001
0001
,
0000
1000
0100
1000
,
0000
0001
0100
0001
,
0000
0010
0100
0010
,
0200
0000
0010
0310
,
1001
0000
0001
0000
,
0100
0100
0100
0000
,
0001
1000
0001
1000
,
0001
0000
0010
0000
,
0100
0100
0100
0000
,
1000
1000
1000
0000
,
0010
0100
0010
0100
,
0010
0000
0100
0000
,
1001
0000
1000
0000
,
0100
0100
0100
0000
,
1000
0001
1000
0001
,
1000
0000
0010
0000
,
0100
0100
0100
0000
,
0001
0001
0001
0000
,
0010
0100
0010
0100
,
0010
0100
0010
0000
,
1001
0000
0000
0000
;

//---------------dance-double - ----------------
#NOTEDATA:;
#CHARTNAME:;
#STEPSTYPE:dance-double;
#DESCRIPTION:;
#CHARTSTYLE:;
#DIFFICULTY:Hard;
#METER:10;
#RADARVALUES:0.748658,0.952251,0.334710,0.210389,0.310803,548.000000,513.000000,35.000000,22.000000,0.000000,0.000000,0.000000,0.000000,0.000000,0.748658,0.952251,0.334710,0.210389,0.310803,548.000000,513.000000,35.000000,22.000000,0.000000,0.000000,0.000000,0.000000,0.000000;
#CREDIT:;
#NOTES:
00000000
00000000
00000000
00000000
,
00000000
00000000
00000000
00000000
,
00000000
00000000
00000000
00000000
,
00000000
00000000
00000000
00000000
,
00000001
00000010
00000001
00000000
00001000
00000010
00000000
00010000
00001000
00000000
01001000
00000000
01010000
00000000
10010000
00000000
,
10000000
01000000
00100000
00010000
00100000
00001000
00000000
00010000
00000010
00000000
00000110
00000000
00000101
00000000
00001001
00000000
,
00001000
00000010
00000001
00000010
00001000
00000020
00000000
00010030
,
00000000
00010000
00001000
00000000
01001000
00000000
01010000
00000000
,
00010000
10000000
01000000
00010000
00001000
00100000
01000000
00010000
,
00001000
00000000
00000100
00000001
00000100
00000000
00000001
00000010
00000001
00000000
00000100
00000000
00001000
00000000
00010000
00001000
,
00020000
00100000
00230000
10000000
,
20300000
01000000
32000000
00010000
,
03020000
00000100
00001000
00000100
,
00031000
00000000
00000000
00000000
00000010
00000000
00000000
00000000
00001001
00000000
00000000
00000000
00000001
00000000
00000100
00000010
,
00000100
00000001
00001000
00000010
00000001
00001000
00000100
00001000
,
00010000
01000000
00010000
00001000
00000010
00000100
00010000
00001000
,
00010000
00100000
10000000
00010000
10000000
01000000
00010000
00001000
,
00000200
00000000
00000001
00000000
00000010
00000000
00001300
00010000
,
00100000
00010000
00011000
00000000
00000010
00001000
00011000
00000000
,
01000000
00010000
00011000
00000000
00000100
00001000
00011000
00000000
,
01000000
10000000
00100000
00010000
00001000
01000000
10000000
01000000
,
00010000
01000000
00100000
00010000
00000010
00001000
00000001
00000010
,
00000001
00000100
00001000
00000000
00010000
01000000
10000000
00000000
,
00100000
00010000
00001000
00000010
00001000
00010000
01000000
00010000
,
00011000
00000100
00011000
01000000
,
01200000
00000000
10000000
10300000
,
00010000
10000000
01000000
00010000
00001000
00000100
00000001
00001000
,
00000020
00000001
00000100
00001030
,
00000001
00000100
00001000
00010000
01000000
10000000
00100000
00010000
,
00001000
00000000
01000000
00100000
01000000
00000000
00001000
00000000
00010000
00000100
00010000
00000000
00000010
00001000
00000010
00000000
,
00000100
00000001
00000010
00001000
00010000
00000100
00000010
00000100
,
00010000
01000000
10000000
00010000
00100000
00001000
00000010
00001000
,
00010000
00000000
00000100
00000000
00001000
00000010
00010000
00000010
00001000
00000000
00000100
00000000
00010000
00001000
01000000
00001000
,
00020000
00000000
00000000
00000000
00032000
00000000
00000000
00000000
00003100
00000010
00000100
00000010
00001000
00000001
00001000
00000001
,
00001000
00000001
00000100
00001000
00010000
01000000
10000000
00010000
,
00200000
10000000
01000000
00310000
,
10000000
01000000
00010000
00001000
00000100
00000001
00000010
00001000
,
00010000
00000000
00000100
00000010
00000100
00000000
00010000
00000000
00001000
01000000
00001000
01000000
00010000
10000000
00010000
10000000
,
00100000
10000000
01000000
00010000
00001000
00000010
00000001
00001000
,
00000100
00000010
00000100
00010000
00001000
01000000
10000000
01000000
,
00010000
00100000
00001000
00000010
00001000
00010000
00001000
00000100
,
00000001
00000000
00001000
00000000
00000010
00000000
00010000
00000000
00001000
01000000
00001000
01000000
00010000
10000000
00010000
10000000
,
00100000
00000000
10000000
01000000
00010000
00000000
00000000
00010000
00011000
00000000
00010010
00000000
00000110
00000000
00001001
00000000
,
00000010
00000000
00000001
00000100
00001000
00000000
00000000
00001000
00011000
00000000
00000000
00000000
00000000
00000000
01100000
00000000
,
20000000
00000000
30010000
00000000
00100000
00002000
00000000
00003100
00000010
00000000
00000110
00000000
00001100
00000000
00001001
00000000
,
00000001
00000000
00001000
00000000
00000010
00020000
00000000
01030000
00100000
00000000
01100000
00000000
11000000
00000000
10010000
00000000
,
00100000
00000000
10000000
00010000
00100000
00000000
00010000
10000000
00100000
00000000
00010000
00000000
00001000
00000000
00000100
00000001
,
00000010
00000010
00000011
00000000
00001001
00000000
00001100
00000000
,
00000010
00000000
00000001
00001000
00000010
00000000
00001000
00000001
00000010
00000000
00001000
00000000
00010000
00000000
01000000
10000000
,
00100000
00100000
01100000
00000000
10010000
00000000
01100000
00000000
,
10000000
00100000
00010000
00000000
00001000
00000010
00000001
00000000
,
00000100
00001000
00010000
00000000
00001000
00010000
01000000
00000000
,
10000000
00100000
00010000
10000000
01000000
00010000
00100000
00001000
,
00000000
00010000
00000100
00000000
00000220
00000000
00000330
00000000
,
00001000
00000001
00000100
00001000
00010000
01000000
10000000
00010000
,
00200000
10000000
01000000
00310000
,
10000000
01000000
00010000
00001000
00000100
00000001
00000010
00001000
,
00010000
00000000
00000100
00000010
00000100
00000000
00010000
00000000
00001000
01000000
00001000
00000000
00100000
00010000
00100000
00000000
,
01000000
10000000
00100000
00010000
00001000
01000000
00100000
01000000
,
00001000
00000100
00000001
00001000
00000010
00010000
00100000
00010000
,
00001000
00000000
01000000
00000000
00010000
00100000
00001000
00100000
00010000
00000000
01000000
00000000
00001000
00010000
00000100
00010000
,
00002000
00000000
00000000
00000000
00023000
00000000
00000000
00000000
01030000
00100000
01000000
00100000
00010000
10000000
00010000
10000000
,
00010000
10000000
01000000
00010000
00001000
00000100
00000001
00001000
,
00000020
00000001
00000100
00001030
,
00000001
00000100
00001000
00010000
01000000
10000000
00100000
00010000
,
00001000
00000000
01000000
00100000
01000000
00000000
00001000
00000000
00010000
00000100
00010000
00000100
00001000
00000001
00001000
00000001
,
00000010
00000001
00000100
00001000
00010000
00100000
10000000
00010000
,
01000000
00100000
01000000
00001000
00010000
00000100
00000001
00000100
,
00001000
00000010
00010000
00100000
00010000
00001000
00010000
01000000
,
10000000
00000000
00010000
00000000
00100000
00000000
00001000
00000000
00010000
00000100
00010000
00000100
00001000
00000001
00001000
00000001
,
00000020
00000000
00000000
00000000
,
00000000
00000030
00000000
00000000
00000000
00000000
00000000
00000000
;

//---------------dance-double - ----------------
#NOTEDATA:;
#CHARTNAME:;
#STEPSTYPE:dance-double;
#DESCRIPTION:;
#CHARTSTYLE:;
#DIFFICULTY:Medium;
#METER:8;
#RADARVALUES:0.545100,0.748197,0.191263,0.191263,0.043034,399.000000,379.000000,20.000000,20.000000,0.000000,0.000000,0.000000,0.000000,0.000000,0.545100,0.748197,0.191263,0.191263,0.043034,399.000000,379.000000,20.000000,20.000000,0.000000,0.000000,0.000000,0.000000,0.000000;
#CREDIT:;
#NOTES:
00000000
00000000
00000000
00000000
,
00000000
00000000
00000000
00000000
,
00000000
00000000
00000000
00000000
,
00000000
00000000
00000000
00000000
,
10000000
00100000
10000000
00000000
00010000
00100000
00000000
00001000
00000000
00001000
00010000
00000000
00000010
00000000
00000100
00000000
,
00000001
00000010
00000001
00000000
00001000
00000010
00000000
00010000
00000000
00010000
00001000
00000000
01000000
00000000
10010000
00000000
,
10000000
01000000
00010000
00000000
00001000
00000100
00000001
00000010
,
00000000
00000100
00010000
00000000
00011000
00000000
00000110
00000000
,
00000001
00000010
00000100
00000000
00010000
00001000
00001000
00100000
,
00000000
01000000
00100000
00000000
01100000
00000000
10010000
00000000
,
10000000
10000000
01000000
01000000
,
00010000
00010000
00001000
00001000
,
00000100
00000100
00000001
00000001
,
00000010
00001000
00010000
01100000
,
10000000
00100000
10000000
00000000
00100000
00010000
00100000
00000000
,
00010000
00001000
00010000
00000000
00001000
00000010
00001000
00000000
,
00000010
00000001
00000010
00000000
00000100
00001000
00000100
00000000
,
00010000
00001000
00010000
01000000
00100000
00000000
00011000
00000000
,
00010000
00000000
01000000
00000000
10000000
00100000
00010000
00000000
,
00001000
00000000
00000100
00000000
00000001
00000010
00001000
00000000
,
00010000
01000000
10000000
00000000
00100000
00000000
00010000
00000000
,
00011000
00000000
00000000
00000100
00000000
00000001
00000000
00000010
,
00001000
00000000
00011000
00000000
01000000
00010000
00001000
00000000
,
00010000
00000000
00011000
00000000
00000100
00001000
00010000
00000000
,
00100000
10000000
01000000
10000000
00010000
01000000
00100000
00000000
,
20010000
00000000
00100000
30100000
,
10000000
01000000
00010000
00000000
00001000
00100000
00010000
00100000
,
00002000
00000010
00010000
00003100
,
00000001
00000010
00001000
00010000
00000100
00000010
00000001
00000100
,
00002000
00010000
00000010
00013000
,
00001000
00010000
01000000
10000000
00100000
00000000
00010000
00000000
,
00010000
00001000
00000100
00000001
00000010
00000000
00000100
00000000
,
00000010
00001000
00010000
00100000
00010000
00001000
00000010
00001000
,
00010000
00100000
20000000
00000000
01000000
00000000
31000000
00000000
,
10000000
00100000
00010000
00000000
00001000
01000000
00010000
01000000
,
00002000
00000100
00010000
00003010
,
00000001
00000100
00001000
00010000
00000010
00000100
00000001
00000010
,
00002000
00010000
00000100
00013000
,
00001000
00010000
00100000
00000000
10000000
01000000
00010000
00000000
,
00001000
00010000
01000000
00000000
10000000
00100000
00010000
00000000
,
00002000
00000000
00003000
00000100
00000010
00000100
00000000
00000001
,
00000010
00001000
00010000
00100000
10000000
00000000
01100000
00000000
,
20000000
00000000
00000000
00000000
30020000
00000000
00000000
01000000
01030000
00000000
00001000
00000000
00010000
00000000
00000100
00000000
,
00000020
00000000
00000000
00000000
00000032
00000000
00000000
00001003
,
00000001
00000010
00000100
00001000
00010000
00100000
01000000
10000000
,
00010000
00000000
00001000
00000000
00000100
00000100
00000010
00000010
,
00000001
00000100
00001000
00000100
00000010
00001000
00000000
00000100
,
00000000
00010000
00001000
00000000
00011000
00000000
01100000
00000000
,
10000000
01000000
00010000
01000000
00100000
00010000
00000000
01000000
,
00000000
00001000
00010000
00000000
00011000
00000000
00010100
00000000
,
00000010
00000001
00000010
00000000
00000100
00001000
00000100
00010000
,
00000000
00010000
00001000
00000000
00011000
00000000
01100000
00000000
,
10000000
01000000
00010000
00001000
00100000
00010000
01000000
00001000
,
00000000
00010000
00000200
00000000
00000010
00000000
00000310
00000000
,
00000001
00000100
00001000
00000000
00010000
00000010
00001000
00000010
,
00020000
00100000
00001000
01030000
,
10000000
00100000
00010000
00001000
01000000
00100000
10000000
01000000
,
00020000
00001000
00000010
00031000
,
00010000
00001000
00000100
00000001
00000010
00000000
00001000
00000000
,
00001000
00010000
01000000
10000000
00100000
00000000
01000000
00000000
,
00100000
00010000
00001000
00000010
00001000
00010000
00100000
00010000
,
00001000
00000010
00000002
00000000
00000100
00000000
00000103
00000000
,
00000001
00000010
00001000
00000000
00010000
00000100
00001000
00000100
,
00020000
01000000
00001000
00130000
,
10000000
01000000
00010000
00001000
00100000
01000000
10000000
00100000
,
00020000
00001000
01000000
00031000
,
00010000
00001000
00000010
00000000
00000001
00000100
00001000
00000000
,
00010000
00001000
00000100
00000000
00000001
00000010
00001000
00000000
,
00020000
00000000
00030000
01000000
00100000
01000000
00000000
10000000
,
00100000
00010000
00001000
00000010
00000001
00000000
00000110
00000000
,
00002002
00000000
00000000
00000000
,
00000000
00003003
00000000
00000000
00000000
00000000
00000000
00000000
;

//---------------dance-double - ----------------
#NOTEDATA:;
#CHARTNAME:;
#STEPSTYPE:dance-double;
#DESCRIPTION:;
#CHARTSTYLE:;
#DIFFICULTY:Easy;
#METER:6;
#RADARVALUES:0.413948,0.476126,0.124321,0.200826,0.000000,303.000000,290.000000,13.000000,21.000000,0.000000,0.000000,0.000000,0.000000,0.000000,0.413948,0.476126,0.124321,0.200826,0.000000,303.000000,290.000000,13.000000,21.000000,0.000000,0.000000,0.000000,0.000000,0.000000;
#CREDIT:;
#NOTES:
// measure 0
00000000
00000000
00000000
00000000
,  // measure 1
00000000
00000000
00000000
00000000
,  // measure 2
00000000
00000000
00000000
00000000
,  // measure 3
00000000
00000000
00000000
00000000
,  // measure 4
00011000
00000000
00000000
00000000
00000000
00000000
00000000
00000100
,  // measure 5
00000010
00000000
00000010
00000000
00000001
00000100
00000110
00001001
,  // measure 6
00000001
00000100
00000010
00010000
,  // measure 7
00002000
01000000
00013000
00011000
,  // measure 8
01000000
00100000
10000000
01000000
,  // measure 9
00100000
00001000
00100000
00000000
00001000
00000000
00011000
00000000
,  // measure 10
00000100
00000100
00000001
00000001
,  // measure 11
00000010
00000010
00001000
00001000
,  // measure 12
00010000
00010000
00100000
00100000
,  // measure 13
10000000
10000000
20020000
30030000
,  // measure 14
10000000
01000000
10000000
00100000
,  // measure 15
01000000
00010000
01000000
00000000
00001000
00000000
00010000
00000000
,  // measure 16
00000100
00000010
00000001
00001000
,  // measure 17
00000010
00000100
00000110
00001001
,  // measure 18
00000001
00000000
00000000
00000010
00000000
00000000
00001000
00000000
,  // measure 19
00010000
01000000
10000000
00100000
,  // measure 20
10010000
00000000
00000000
01000000
00001000
00000000
00010000
00000000
,  // measure 21
00000100
00000000
00000010
00001000
,  // measure 22
00010000
00100000
10000000
01000000
,  // measure 23
00010000
00001000
00000100
00000001
,  // measure 24
00000010
00000000
00001000
00000000
00010000
00001000
00010000
00001000
,  // measure 25
00200000
00000000
01000000
01300000
,  // measure 26
10010000
00000000
10000000
00000000
00100000
00000000
01000000
00001000
,  // measure 27
00010000
00001000
00000100
00000001
,  // measure 28
00002000
00000100
00000001
00000010
,  // measure 29
00003001
00000000
00000100
00000100
,  // measure 30
00001000
00000000
00010000
00001000
00010000
00000000
00100000
00000000
,  // measure 31
00010000
00000000
00001000
00010000
00001000
00000000
00000010
00000000
,  // measure 32
00001000
00010000
01000000
10000000
,  // measure 33
00020000
00100000
10000000
01030000
,  // measure 34
10010000
00000000
10000000
00000000
01000000
00000000
00100000
00001000
,  // measure 35
00010000
00001000
00000010
00000001
,  // measure 36
00002000
00000010
00000001
00000100
,  // measure 37
00003001
00000000
00000010
00000010
,  // measure 38
00001000
00000000
00010000
00001000
00010000
00000000
01000000
00000000
,  // measure 39
00010000
00000000
00001000
00010000
00001000
00000000
00000100
00000000
,  // measure 40
00001000
00010000
00100000
10000000
,  // measure 41
00010000
01000000
00010000
01000000
00001000
00010000
00001000
00010000
,  // measure 42
00000200
00000000
00000320
00000000
00000031
00000100
00001000
00000000
,  // measure 43
00020000
00000000
00230000
00000000
10300000
01000000
00010000
00000000
,  // measure 44
00001000
00000000
00100000
00010000
00100000
00000000
00001000
00000000
,  // measure 45
00010000
00000000
00000010
00000000
00001000
00001000
00000001
00000001
,  // measure 46
00000010
00000001
00001000
00000010
,  // measure 47
00020000
00000000
00032000
00000000
00103000
00010000
00100000
00000000
,  // measure 48
01000000
10000000
00010000
01000000
,  // measure 49
00002000
00000000
00023000
00000000
00030100
00001000
00000100
00000000
,  // measure 50
00000010
00000001
00001000
00000100
,  // measure 51
00020000
00000000
00032000
00000000
01003000
00010000
01000000
00000000
,  // measure 52
00100000
00000000
10000000
00000000
00010000
00000000
01000000
00001000
,  // measure 53
00000000
00001000
00010000
00000000
00000100
00000000
00000100
00000000
,  // measure 54
00001001
00000000
00000001
00000000
00000010
00000000
00000100
00010000
,  // measure 55
00001000
00010000
01000000
10000000
,  // measure 56
00020000
01000000
10000000
00100000
,  // measure 57
10030000
00000000
01000000
01000000
,  // measure 58
00010000
00000000
00001000
00010000
00001000
00000000
00000010
00000000
,  // measure 59
00001000
00000000
00010000
00001000
00010000
00000000
00100000
00000000
,  // measure 60
00010000
00001000
00000100
00000001
,  // measure 61
00002000
00000010
00000001
00003100
,  // measure 62
00001001
00000000
00000001
00000000
00000100
00000000
00000010
00010000
,  // measure 63
00001000
00010000
00100000
10000000
,  // measure 64
00020000
00100000
10000000
01000000
,  // measure 65
10030000
00000000
00100000
00100000
,  // measure 66
00010000
00000000
00001000
00010000
00001000
00000000
00000100
00000000
,  // measure 67
00001000
00000000
00010000
00001000
00010000
00000000
01000000
00000000
,  // measure 68
00010000
00001000
00000010
00000001
,  // measure 69
00001000
00000100
00001000
00000100
00010000
00001000
00010000
00001000
,  // measure 70
02000000
00000000
00000000
00000000
,  // measure 71
00000000
03000000
00000000
00000000
00000000
00000000
00000000
00000000
;
