#TITLE:Cradle;
#SUBTITLE:;
#ARTIST:positive MA feat. akino;
#TITLETRANSLIT:;
#SUBTITLETRANSLIT:;
#ARTISTTRANSLIT:;
#GENRE:;
#CREDIT:;
#BANNER:Cradle.png;
#BACKGROUND:Cradle-bg.png;
#LYRICSPATH:;
#CDTITLE:;
#MUSIC:Cradle.ogg;
#OFFSET:-1.222000;
#SAMPLESTART:35.722000;
#SAMPLELENGTH:15.000000;
#SELECTABLE:YES;
#DISPLAYBPM:160.000000:188.000000;
#BPMS:0.000000=160.000000
,168.000000=188.000000
;
#STOPS:
;
#BGCHANGES:;
#KEYSOUNDS:;
#ATTACKS:;

//---------------dance-single - Copied from----------------
#NOTES:
     dance-single:
     Copied from:
     Challenge:
     9:
     0.727971,0.775229,0.279098,0.054019,0.400641,566.000000,535.000000,31.000000,6.000000,0.000000,0.000000,0.727971,0.775229,0.279098,0.054019,0.400641,566.000000,535.000000,31.000000,6.000000,0.000000,0.000000:
0000
0000
0000
0000
,
0001
0010
0000
0200
0000
0000
1300
0001
,
1000
1000
1000
1000
,
0001
0100
0000
0020
0000
0000
1030
0001
,
0010
0010
0011
1010
,
1000
0001
0000
0200
0000
0000
0310
1000
,
0001
0001
0001
0001
,
0010
0000
0100
0000
0000
0000
2000
0000
0000
0000
0000
0000
3000
0000
0001
1000
,
0001
1000
1100
0101
,
0001
0010
0001
0100
0010
0000
1000
0001
,
1000
0100
1000
0000
0100
0000
0010
0000
,
0001
0100
0001
1000
0100
0000
0010
0001
,
0100
0010
1000
0000
1010
0000
0011
0000
,
0010
0001
0100
0010
1000
0000
0001
0010
,
0100
1000
0200
0000
0010
0000
0001
0000
,
1300
0000
0100
0000
1000
0000
0001
0000
0100
0000
0000
0000
0010
0000
1000
0001
,
1000
0010
1001
0010
,
1001
0000
0100
0000
1001
0000
0001
1000
,
0001
0100
0001
0000
1001
0000
0001
1000
,
0100
1000
0001
0000
1001
0000
1000
0001
,
0010
0001
0100
0010
1010
0000
0101
0000
,
1001
1000
0001
0010
0100
0000
1000
0001
,
1000
0001
0100
0001
1000
0000
0100
0000
,
1100
0100
1000
0100
0010
0000
0001
0100
,
0001
0000
0100
0000
0000
0100
0000
0000
0010
0000
0000
0010
0000
0000
1000
0000
,
0001
0000
0000
0000
1000
0000
0000
0001
0000
0001
0000
0000
0101
0000
0100
0001
,
0000
0000
0000
0000
0100
0000
0000
0010
0000
0010
0000
0000
0110
0000
0000
1000
,
0000
0001
0000
0000
1001
0000
0000
0001
0000
1000
0000
0000
1001
0000
0000
1000
,
0000
0001
0000
0000
0010
0000
0100
0000
0000
0110
0000
0000
1001
0000
0000
1000
,
0000
0001
0000
0000
0101
0000
0000
0001
0000
1000
0000
0000
1100
0000
0000
1000
,
0000
0001
0000
0000
0011
0000
0000
0001
0000
0100
0010
0000
1000
0100
0000
0010
,
0001
0000
0100
0010
0000
1000
0100
0000
0010
0001
0000
0100
0010
0000
1000
0001
,
1000
0000
0001
0010
0000
0100
1000
0000
0010
0100
0000
0001
1000
0000
0000
0000
,
1000
0100
1000
0001
0010
0000
0100
0010
,
0001
1000
0000
0001
0000
0100
0000
0001
0000
0000
1000
0000
0000
0010
0000
0000
,
0100
0010
1000
0100
0010
0000
0100
1000
,
0001
0000
0000
0100
0000
0010
0000
0000
1010
0000
0000
0000
0101
0000
0000
0000
,
1000
0001
0010
0100
1000
0000
0001
1000
,
0100
0000
0000
0100
0000
0100
0000
0000
0010
0000
0001
0000
0010
0000
0000
0000
,
0001
0100
0001
1000
0010
0000
0100
0010
,
1000
0100
0100
0000
1100
0000
0101
0000
,
1000
0000
0000
0001
1000
0001
0000
0001
1000
0000
0000
1000
0000
0000
1000
0000
,
0001
0010
0000
0001
0010
0100
0000
0010
0100
0000
0000
0000
1000
0000
0000
0000
,
0001
0010
0100
0010
0001
1000
0010
0000
,
0100
0001
0100
0000
0010
0000
0000
0000
1000
0001
1000
0000
0100
0000
0000
0000
,
0010
0100
1000
0100
0010
0001
1000
0010
,
0100
0001
0100
0000
0001
0000
1000
0100
1000
0000
0100
0000
0000
0000
0010
0000
,
0001
0100
0001
1000
0001
0010
0100
1000
,
0001
0000
0001
0000
0010
0000
0001
0000
1000
0100
1000
0000
0100
0000
1000
0001
,
1000
0000
0100
0000
0010
0100
0010
0000
0001
0000
0010
0000
0100
0010
0100
0000
,
1000
0000
0001
0000
0100
0000
0100
0000
0010
1000
0010
1000
0010
0000
0100
0000
,
0001
0010
0100
0010
0001
0100
0010
1000
,
0001
0100
0001
0000
0100
0000
0001
0000
1000
0100
1000
0000
0100
0000
1000
0000
,
0001
1000
0001
0000
0010
0000
0100
0000
1000
0000
0010
0000
1000
0000
0100
0000
,
1000
0001
1000
0000
0010
0000
0100
0001
0100
0000
0010
0000
0000
0000
1000
0000
,
0001
0010
0100
0010
0001
1000
0010
0001
,
0010
0000
0010
0000
0100
0000
0001
0000
1000
0001
1000
0000
0100
0000
0010
0100
,
0010
0000
0100
0000
0010
0001
0010
0000
0001
0000
1000
0000
0010
1000
0010
0000
,
0100
0000
0001
0100
0001
0000
0100
0000
0001
1000
0001
1000
0001
0000
0000
0000
,
1000
0100
0010
0001
0100
0001
1000
0010
,
0001
0010
0100
0001
0000
0001
0000
0010
,
0100
1000
0001
1000
0010
1000
0100
0010
,
0001
1000
0010
0100
0000
0100
0010
1000
,
0100
0010
0001
1000
0100
0001
0100
0010
,
0001
1000
0010
0100
0000
0100
0000
0010
,
1000
0001
1000
0000
0001
0000
0010
0100
0010
0100
0010
0000
0001
0000
1000
0000
,
0001
0000
0001
0000
0100
0000
0001
0000
1000
0001
1000
0000
0001
1000
0001
1000
,
0100
0010
0100
1000
0001
0100
1000
0100
,
0000
0010
0100
1001
0000
0110
0000
0001
,
1000
0100
1000
0000
0010
0000
0100
0000
0001
0100
0001
0000
0100
0000
0001
0000
,
1000
0100
1000
0000
0010
0000
0100
0000
0001
0000
1000
0000
0000
0000
1000
0000
,
0001
0010
0001
0000
0100
0000
0010
0000
1020
0000
0000
0000
0130
0000
0010
0000
,
1000
0010
1000
0000
0001
0000
0010
0000
0100
0010
0100
0000
1000
0000
0001
0000
,
0100
0001
0100
0000
0010
0000
1000
0000
0100
1000
0100
0000
0010
0000
0001
1000
,
0010
1000
0100
0001
0100
0010
0100
1000
;

//---------------dance-single - ----------------
#NOTES:
     dance-single:
     :
     Hard:
     8:
     0.626363,0.606701,0.369130,0.063022,0.018006,487.000000,446.000000,41.000000,7.000000,0.000000,0.000000,0.626363,0.606701,0.369130,0.063022,0.018006,487.000000,446.000000,41.000000,7.000000,0.000000,0.000000:
0000
0000
0000
0000
,
1000
0001
0000
0200
0000
0000
0310
1000
,
0002
0100
1000
0103
,
0001
1000
0000
0200
0000
0000
0310
0001
,
1000
1000
1001
1001
,
0001
1000
0000
0200
0000
0000
0310
0001
,
2000
0010
0001
3010
,
1000
0000
0001
0000
0000
0000
0200
0000
0000
0000
0000
0000
0000
0000
0301
1000
,
0001
1000
1001
0110
,
1000
0010
1000
0100
0010
0000
0001
0010
,
0001
0100
0010
0000
0100
0000
0100
0000
,
0001
0100
0001
0010
0100
0000
1000
0100
,
1000
0010
0100
0000
0101
0000
1100
0000
,
1000
0100
0001
0100
1000
0000
0001
0100
,
1000
0100
0001
0000
1000
0000
1000
0000
,
0001
0000
0010
0000
1000
0000
0010
0000
0001
0000
0000
0000
1000
0000
0001
1000
,
0001
1000
1010
0011
,
0001
1000
0001
0010
1000
0000
1000
0001
,
1000
0010
0001
0000
1000
0000
1000
0000
,
0001
1000
0001
0100
1000
0000
1000
0001
,
1000
0100
0001
0000
1100
0000
1100
0000
,
0100
0010
0100
1000
0010
0000
0010
0100
,
0010
1000
0100
0000
0010
0000
0001
0000
,
0100
0000
0010
0000
0100
0000
0001
0000
0010
0000
0000
0000
0010
0000
0100
0010
,
0100
1000
0001
0000
0101
0000
1001
0000
,
0001
1000
0100
0001
,
0100
1000
0010
0100
,
0001
0010
0100
0010
,
0001
0100
1010
0101
,
1000
0100
0001
0100
,
0010
0001
0100
0010
,
0001
0010
1000
0001
,
0100
0010
1010
0011
,
1000
0100
1000
0001
0010
0000
0100
0010
,
0001
0000
0100
0000
0001
1000
0010
0000
,
0100
0010
1000
0100
0010
0000
0100
1000
,
0001
0000
0100
0010
1010
0000
0101
0000
,
1000
0001
0010
0100
1000
0000
0001
1000
,
0100
0000
0100
0000
0010
0001
0010
0000
,
0001
0100
0001
1000
0010
0000
0100
0010
,
1000
0100
1100
0101
,
1000
1000
1000
1000
,
0001
0001
0001
1001
,
1000
0100
0001
0100
1000
0001
1000
0000
,
0001
0001
0100
0010
1000
1000
0001
0000
,
1000
0010
0001
0010
1000
0001
1000
0000
,
0001
0001
0010
0100
1000
1000
0001
0000
,
0001
0010
0100
0010
0001
0010
1000
0010
,
0001
1000
0001
0100
0010
0100
0001
0000
,
0101
0001
1000
0000
1100
1000
0001
0000
,
0011
0001
1000
0000
1010
1000
0001
0000
,
1000
0100
0001
0100
1000
0001
1000
0010
,
0100
0001
0010
0100
1000
0001
1000
0000
,
1000
0100
0010
0001
0100
1000
0100
0001
,
1000
0001
0010
0100
1000
0001
1000
0000
,
1000
0010
0100
0010
1000
0010
0001
0010
,
1000
0001
0010
0100
1000
0001
0100
0000
,
0101
0100
0010
0000
1100
0100
0010
0000
,
0011
0010
0100
0000
1010
0010
0100
0000
,
0001
0100
0001
0100
1000
0100
1000
0100
,
0001
1000
0001
1000
0001
0100
0001
0100
,
0010
1000
0001
0100
0010
1000
0010
0001
,
0010
1000
0100
1000
0010
0100
0001
1000
,
0001
0010
0001
0010
1000
0010
1000
0010
,
0001
1000
0001
1000
0001
0010
0001
0010
,
0011
1000
0010
0000
1010
0001
0010
0000
,
0110
0001
0100
0000
0110
1000
0100
0000
,
1000
0100
0010
0001
0100
0001
0010
0100
,
1000
0001
1000
0010
0100
0001
1000
0000
,
1001
1000
0100
0000
0110
0001
1000
0000
,
1001
0001
1000
0000
0110
1000
0001
0000
,
0001
0010
1000
0010
0001
0010
0100
0000
,
1100
1000
0001
0000
0101
0001
1000
0000
,
1100
0001
0100
0000
0101
1000
0100
0000
,
1000
0000
0100
0000
0010
0000
0001
0000
1000
0001
2000
0000
0000
0000
3001
0000
;

//---------------dance-single - ----------------
#NOTES:
     dance-single:
     :
     Medium:
     6:
     0.510608,0.606701,0.432152,0.261092,0.022508,397.000000,349.000000,48.000000,29.000000,0.000000,0.000000,0.510608,0.606701,0.432152,0.261092,0.022508,397.000000,349.000000,48.000000,29.000000,0.000000,0.000000:
0000
0000
0000
0000
,
1000
0001
0000
0200
0000
0000
0310
1000
,
0002
1000
1000
1003
,
0001
1000
0000
0200
0000
0000
1300
0001
,
0200
0000
0010
0310
,
1000
0001
0000
0200
0000
0000
0301
1000
,
0200
0010
0010
0310
,
0001
1000
0000
0020
0000
0000
0000
0130
,
0002
0000
0010
1003
,
0001
1000
0001
0000
0100
0000
0010
1000
,
0001
1000
0002
0000
1000
0000
1003
0000
,
0001
1000
0001
0000
0100
0000
0010
1000
,
0200
0000
0001
1300
,
0001
1000
0001
0000
0100
0000
0010
1000
,
0001
1000
0002
0000
1000
0000
1003
0000
,
0001
1000
0001
0000
1000
0000
0010
1000
,
0200
0000
0001
1300
,
2100
3001
0102
1003
,
2001
3001
1002
1003
,
0012
1003
2010
3001
,
0210
1300
0120
0031
,
0102
1003
2100
3001
,
2001
3100
1002
0013
,
0012
1003
2010
3001
,
0120
1030
0210
0301
,
0100
0010
1000
1010
,
1000
0100
0010
0011
,
0001
1000
0010
0110
,
0100
0001
1000
1001
,
1000
0100
0010
0100
,
1000
0010
0100
0010
,
1000
0000
0000
1000
0000
0000
1000
0000
0000
1000
0000
0000
1000
0000
0000
0000
,
0001
0000
0000
0001
0000
0000
0001
0000
0000
0001
0000
0000
0001
0000
0000
0000
,
1000
0100
0001
0100
1000
0000
0001
0000
,
1000
0010
0100
0000
,
0001
0100
1000
0100
0001
0000
0010
0000
,
0100
1000
0001
0001
,
1000
0010
0001
0010
1000
0000
0001
0000
,
0010
0100
1000
0000
,
0001
0010
1000
0010
0001
0000
1000
0000
,
0010
0100
0001
0000
0010
0100
1000
0000
,
1001
0000
0000
0000
1001
0000
0000
0000
0001
0000
0000
0100
0000
0000
0010
0000
,
1001
1001
1001
1001
,
1000
0100
0010
0010
,
0100
1000
0100
0000
0100
0001
0100
0000
,
1000
0010
0100
0100
,
0010
0001
0010
0000
0010
1000
0010
0000
,
0100
0001
0010
0100
,
1000
0001
1000
0000
0100
0010
0100
0000
,
1100
1000
1001
1000
,
1010
0000
1000
0000
1001
0001
1000
0000
,
0001
0000
0100
0000
1000
0100
1000
0000
,
0100
0000
0001
0000
0100
0001
1000
0000
,
0001
0000
0010
0000
1000
0010
1000
0000
,
0010
0000
0001
0000
1000
0001
0100
0000
,
0010
0000
1000
0000
0001
0100
0001
0000
,
0010
0000
0100
0000
1000
0100
1000
0000
,
1100
0001
0101
1000
,
1010
0000
0001
0000
0011
0010
0001
0000
,
1000
0010
0100
0001
,
0100
0000
0010
0000
1000
0001
1000
0000
,
0001
0010
0100
1000
,
0100
0000
0010
0000
0001
1000
0001
0000
,
0100
0010
1000
0001
,
0010
0100
0010
0000
0001
0000
0100
0000
,
0110
1000
0110
0001
,
1001
0100
1001
0010
,
1000
0100
1000
0100
0001
0100
0001
0100
,
1000
0100
1000
0100
0010
0100
1000
0000
,
1001
0100
1001
0010
,
0110
0001
0110
1000
,
0001
0100
1000
0100
0001
0100
1000
0100
,
0101
1100
1001
0110
,
0011
0000
1010
0000
0001
0100
1000
0100
,
0001
0010
0100
1000
0001
2000
0000
3001
;

//---------------dance-single - ----------------
#NOTES:
     dance-single:
     :
     Easy:
     4:
     0.309966,0.337056,0.243086,0.063022,0.000000,241.000000,214.000000,27.000000,7.000000,0.000000,0.000000,0.309966,0.337056,0.243086,0.063022,0.000000,241.000000,214.000000,27.000000,7.000000,0.000000,0.000000:
0000
0000
0000
0000
,
1000
0000
0000
1000
0000
0000
0100
0000
,
0020
0000
0030
0000
,
0001
0000
0000
0001
0000
0000
0100
0000
,
0020
0000
0001
0100
,
1030
0000
0000
1000
0000
0000
0100
0000
,
0010
0000
0000
0000
,
0001
0000
0000
0001
0000
0000
0000
0000
,
2001
0000
0010
3100
,
1001
0000
0000
1000
,
0001
0000
0000
0000
,
0110
0000
0000
0001
,
1000
0000
0000
0000
,
1001
0000
0000
0100
,
0010
0000
0000
0000
,
0110
0000
0000
0000
,
1001
0000
1000
0001
,
0100
0001
0100
0000
,
0100
1000
0100
0000
,
0010
0001
0010
0000
,
0010
1000
0010
0000
,
0100
0001
1000
0000
,
0100
1000
0001
0000
,
0010
0001
1000
0000
,
0010
1000
0001
0000
,
1000
0001
1000
0100
,
1000
0001
1000
0000
,
0001
1000
0001
0100
,
0001
1000
0001
0001
,
1000
0010
1000
0001
,
1000
0010
1000
0000
,
0001
0010
0001
1000
,
0001
0010
0001
0001
,
1000
0010
0100
0001
,
1000
0010
0100
0000
,
0001
0010
0100
1000
,
0001
0010
0100
0100
,
1000
0100
0010
0001
,
1000
0100
0010
0000
,
0001
0100
0010
1000
,
0001
0100
0010
0010
,
1000
0000
0100
0000
,
2000
3200
0320
0031
,
1000
0100
0010
0000
,
0010
0100
1000
0000
,
0001
0100
0010
0000
,
0010
0100
0001
0000
,
1000
0100
0001
0000
,
0001
0100
1000
0000
,
1100
0000
1001
0000
,
0011
0000
1001
0000
,
0001
0100
0010
0000
,
0010
0100
0001
0000
,
0001
0010
0100
0000
,
0100
0010
0001
0000
,
0001
0100
1000
0000
,
1000
0100
0001
0000
,
0101
0000
1001
0000
,
1010
0000
1001
0000
,
1000
0100
0010
0100
,
1000
0100
0010
0000
,
0001
0100
0010
0100
,
0001
0100
0010
0000
,
1000
0010
0100
0010
,
1000
0010
0100
0000
,
0101
0000
0011
0000
,
1010
0000
1100
0000
,
1000
0100
0001
0100
,
1000
0100
0010
0000
,
0101
0000
1100
0000
,
1010
0000
0011
0000
,
0001
0010
1000
0010
,
0011
0000
1010
0000
,
1001
0000
0110
0000
,
1001
0000
1000
0000
0020
0000
0000
0130
;

//---------------dance-single - ----------------
#NOTES:
     dance-single:
     :
     Beginner:
     2:
     0.205787,0.335368,0.135048,0.000000,0.000000,160.000000,145.000000,15.000000,0.000000,0.000000,0.000000,0.205787,0.335368,0.135048,0.000000,0.000000,160.000000,145.000000,15.000000,0.000000,0.000000,0.000000:
0000
0000
0000
0000
,
0000
0000
0000
0000
,
0000
0000
0000
0000
,
0000
0000
0000
0000
,
0000
0000
0000
0000
,
1000
0000
0000
0000
,
0000
0000
0000
0000
,
0001
0000
0000
0000
,
0000
0000
0000
0000
,
1001
0000
0000
0000
,
1001
0000
0000
0000
,
1001
0000
0000
0000
,
1001
0000
0000
0000
,
0110
0000
0000
0000
,
0110
0000
0000
0000
,
0110
0000
0000
0000
,
0110
0000
1001
0000
,
1000
0000
1000
0000
,
0100
0000
0100
0000
,
0010
0000
0010
0000
,
0001
0000
0001
0000
,
1000
0000
1000
0000
,
0010
0000
0010
0000
,
0100
0000
0100
0000
,
0001
0000
0001
0000
,
1000
0000
1000
0000
,
0100
0000
0100
0000
,
0001
0000
0001
0000
,
0010
0000
0010
0000
,
1000
0000
1000
0000
,
0010
0000
0010
0000
,
0001
0000
0001
0000
,
0100
0000
0100
0000
,
1000
1000
1000
0000
,
1000
1000
1000
0000
,
0001
0001
0001
0000
,
0001
0001
0001
0000
,
0100
0100
0100
0000
,
0100
0100
0100
0000
,
0010
0010
0010
0000
,
0010
0010
0010
0000
,
1000
0000
1000
0000
,
0001
0000
0001
0001
,
0001
0000
0100
0000
,
0010
0000
1000
0000
,
0001
0000
0100
0000
,
0010
0000
1000
0000
,
0001
0000
0100
0000
,
0010
0000
1000
0000
,
0001
0000
0100
0000
,
1000
0000
0100
0000
,
0001
0000
0010
0000
,
0100
0000
1000
0000
,
0001
0000
0010
0000
,
0100
0000
1000
0000
,
0001
0000
0010
0000
,
0100
0000
1000
0000
,
0001
0000
0010
0000
,
1000
0000
0010
0000
,
0001
0001
0001
0000
,
0100
0100
0100
0000
,
1000
1000
1000
0000
,
0100
0100
0100
0000
,
0001
0001
0001
0000
,
0010
0010
0010
0000
,
1000
0000
0010
0000
,
0001
0000
0010
0000
,
0100
0100
0100
0000
,
1000
1000
1000
0000
,
0001
0000
0010
0000
,
1000
0000
0010
0000
,
0001
0001
0001
0000
,
1001
0000
1001
0000
,
1001
0000
1001
0000
,
1001
0000
1001
0000
;

//---------------dance-double - ----------------
#NOTES:
     dance-double:
     :
     Easy:
     5:
     0.366558,0.471879,0.297105,0.432152,0.000000,285.000000,252.000000,33.000000,48.000000,0.000000,0.000000,0.366558,0.471879,0.297105,0.432152,0.000000,285.000000,252.000000,33.000000,48.000000,0.000000,0.000000:
00000000
00000000
00000000
00000000
,
00010000
00001000
00000100
00000000
,
00000001
00000001
00000001
00000000
,
00000100
00001000
00010000
00000000
,
02000000
00000000
10000000
10000000
,
13000000
01000000
00100000
00000000
,
00001000
00001000
00001000
00000000
,
00010000
00000010
00000100
00000000
,
00000002
00000000
00000010
00000013
,
00000001
00000010
00000100
00000000
,
00010000
00010000
00001000
00001000
,
01000000
00100000
10000000
00000000
,
21000000
00000000
00010000
30010000
,
10000000
01000000
00100000
00000000
,
00001000
00001000
00010000
00010000
,
00000010
00000100
00000001
00000000
,
00000020
00000000
00000100
00000130
,
00000011
00000001
00000011
00000001
,
00001010
00001000
00001010
00000000
,
00011000
00001000
00011000
00001000
,
00110000
00010000
00120000
00130000
,
10010000
10000000
10010000
00000000
,
10010000
00010000
10000000
00010000
,
10010000
10000000
10010000
00000000
,
01010000
00001000
00010000
00010000
,
00001000
00010000
00001000
00010000
,
00000100
00000010
00000100
00000010
,
00000001
00000100
00000001
00000100
,
00001000
00010000
00002000
00000000
,
00013000
01000000
00010000
01000000
,
10000000
00100000
10000000
00100000
,
00010000
00001000
00010000
00001000
,
00000010
00000002
00000010
00000013
,
00000001
00000100
00000010
00000100
,
00001000
00010000
00002000
00000000
,
00013000
01000000
10000000
01000000
,
00100000
01000000
00020000
00030000
,
00001000
00000010
00000001
00000100
,
00001000
00000100
00000020
00000000
,
00010030
00001000
00100000
00010000
,
01000000
00100000
20000000
01000000
,
31000000
00010000
00001000
00001000
,
00000100
00000100
00000001
00000001
,
00001000
00000100
00010000
00001000
,
00100000
01000000
10000000
00000000
,
10000000
00100000
01000000
00001000
,
00010000
00000100
00000010
00000000
,
00000010
00000001
00000100
00000010
,
00010000
00001000
00200000
00300000
,
00220000
00330000
00022000
00033000
,
00002020
00003030
00022000
00033000
,
00010000
01000000
10000000
01000000
,
00010000
01000000
00200000
00300000
,
00001000
00000100
00000001
00000100
,
00001000
00000100
00000020
00000030
,
00010000
01000000
00100000
00010000
,
01000000
10000000
02000000
03000000
,
02200000
03300000
00022000
00033000
,
00000220
00000330
00002002
00003003
,
00000001
00000010
00001000
00010000
,
00100000
10000000
02000000
03000000
,
01000000
10000000
00100000
00010000
,
00001000
00000010
00000002
00000003
,
00000100
00000001
00000010
00001000
,
00010000
01000000
20000000
30000000
,
22000000
33000000
02020000
03030000
,
00002020
00003030
00000202
00000303
,
00000001
00000010
00001000
00010000
,
01000000
10000000
00200000
00300000
,
00100000
00010000
00001000
00000100
,
00000001
00000010
00000011
00000000
,
00000001
00001000
00010000
10000000
,
20100000
30010000
00210000
00301000
,
00021000
00030010
00002010
00003001
,
00001001
00000000
00000001
00000000
00000020
00000000
00000000
00001030
;

//---------------dance-double - ----------------
#NOTES:
     dance-double:
     :
     Medium:
     7:
     0.505464,0.572995,0.216076,0.234082,0.180063,393.000000,369.000000,24.000000,26.000000,0.000000,0.000000,0.505464,0.572995,0.216076,0.234082,0.180063,393.000000,369.000000,24.000000,26.000000,0.000000,0.000000:
00000000
00000000
00000000
00000000
,
00010000
00001000
00000000
00000100
00000000
00000000
00000010
00001000
,
00000002
00000010
00000010
00000013
,
00000001
00001000
00000000
00000100
00000000
00000000
00010000
00001000
,
02000000
00100000
00100000
03100000
,
10000000
00010000
00000000
01000000
00000000
00000000
00001000
00010000
,
00000200
00000010
00000010
00000310
,
00000001
00000100
00000000
00001000
00000000
00000000
00000000
00010000
,
02000000
00100000
10000000
13000000
,
10000000
00100000
00000000
00100000
00010000
00000000
00001000
00000000
,
00000010
00000001
00000000
00000001
00000100
00000000
00001000
00000000
,
00000100
00000001
00000000
00000001
00000010
00000000
00001000
00010000
,
01000000
10000000
00000000
10000000
00100000
00000000
00100000
00000000
,
10000000
01000000
00000000
01000000
00010000
00000000
00010000
00000000
,
00001000
00000010
00000000
00000010
00000001
00000000
00000001
00000000
,
00000100
00001000
00000000
00001000
00010000
00000000
00010000
01000000
,
10000000
00100000
00000000
00100000
10000000
00000000
01000000
00000000
,
00010000
00001000
00010000
00000000
00000100
00000000
00000000
00000000
,
00000010
00000001
00000010
00000000
00000100
00000000
00000000
00000000
,
00010000
00001000
00010000
00000000
01000000
00000000
00000000
00000000
,
10000000
00100000
10000000
00000000
01000000
00000000
01000000
00000000
,
00010000
00001000
00010000
00000000
00000100
00000000
00000000
00000000
,
00001000
00000001
00001000
00000000
00000100
00000000
00000000
00000000
,
00000010
00000100
00000010
00000000
00001000
00000000
00000000
00000000
,
00010000
00000000
00001000
00000000
00000000
00010000
00000000
00000000
01000000
00000000
00000000
10000000
00000000
00000000
00010000
00000000
,
10000000
00000000
00000000
01000000
10000000
00000000
00000000
00000000
00010000
00000000
01000000
00000000
00001000
00000000
00000000
00000000
,
00010000
00000000
00000000
00000000
00011000
00000000
00000000
00020000
00000000
00030000
00000000
00000000
00000100
00000000
00000000
00000020
,
00000000
00000030
00000000
00000000
00000001
00000000
00000000
00000200
00000000
00000300
00000000
00000000
00001000
00000000
00000000
00020000
,
00000000
00030000
00000000
00000000
01000000
00000000
10000000
00000000
00000000
10000000
00000000
00000000
10000000
00000000
00000000
00200000
,
00000000
00300000
00000000
00000000
01000000
00000000
00000000
00002000
00000000
00003000
00000000
00000000
00010000
00000000
00000000
00000020
,
00000000
00000030
00000000
00000000
00000100
00000000
00000000
00000001
00000000
00000000
00000010
00000000
00000000
00001000
00000000
00000000
,
00010000
00000000
00000000
01000000
00000000
00000000
10000000
00000000
00000000
00100000
00000000
00000000
00010000
00000000
00000000
00001000
,
00000100
00000000
00000000
00000001
00000000
00000000
00000010
00000000
00000000
00001000
00000000
00000000
00010000
00000000
00001000
00000000
,
00011000
00000000
00000000
00000000
00001000
00010000
00000000
00000000
01000000
00000000
00000000
10000000
00000000
00000000
00100000
00000000
,
00000000
10000000
00000000
01000000
00000000
00010000
00000000
00001000
00000000
00000000
00000100
00000000
00000000
00000001
00000000
00000001
,
00000000
00000000
00001000
00000000
00000001
00000010
00000000
00000000
00001000
00000000
00000000
00010000
00000000
00000000
00100000
00000000
,
00000000
00000000
10000000
00000000
00000000
00010000
00000000
00000000
10000000
00000000
00000000
00000000
01000000
00000000
00010000
00000000
,
00000000
00000000
00001000
00000000
00001000
00000000
00001000
00000000
00010000
00001000
00000000
00000000
00010000
00001000
00000000
00000000
,
00010000
00000000
00000000
00000010
00000000
00000100
00000000
00000000
00000001
00000000
00000000
00001000
00000000
00000000
00000100
00000000
,
00000000
00000000
00010000
00000000
00001000
00100000
00000000
00000000
01000000
00000000
00000000
00000000
10000000
00000000
00000000
10000000
,
00010000
00000000
00100000
00000000
00100000
00000000
00000000
00001000
00000000
00010000
00000000
00000000
00000100
00000000
00001000
00000001
,
00000100
00000000
00000000
00000000
00000010
00000000
00000000
00000000
00000100
00000000
00000000
00000100
00000000
00000000
00000100
00000000
,
00000001
00000100
00001000
00010000
01000000
10000000
01000000
00000000
,
10000000
01000000
10000000
00000000
00100000
00000000
00010000
00000000
,
00001000
00000100
00000001
00000000
00000020
00000000
00000030
00000000
,
00000001
00000010
00000001
00000000
00000100
00000000
00001000
00000000
,
00010000
01000000
10000000
00000000
10000000
00010000
10000000
00000000
,
10000000
00100000
10000000
00000000
01000000
00000000
00100000
00000000
,
00001000
00010000
00001000
00000000
00000200
00000000
00000300
00000000
,
00000110
00001000
00001001
00000010
,
00000110
00010000
00022000
00033000
,
00010000
01000000
10000000
00000000
00100000
00000000
00010000
00000000
,
00001000
00000100
00000001
00000000
00000020
00000000
00000030
00000000
,
00000010
00000001
00000100
00000000
00001000
00000000
00010000
00000000
,
01000000
10000000
00100000
00000000
00020000
00000000
00030000
00000000
,
00100000
10000000
01000000
00000000
00010000
00000000
00001000
00000000
,
00000010
00000001
00000100
00000000
00002000
00000000
00003000
00000000
,
00011000
00100000
01100000
10000000
,
10010000
00000000
00001000
00000000
00011000
00010000
00000010
00000000
,
00000100
00000001
00000010
00000000
00001000
00010000
01000000
00000000
,
10000000
00100000
00010000
00000000
00200000
00000000
00300000
00000000
,
10000000
01000000
00010000
00000000
00001000
00000100
00000001
00000000
,
00000010
00000100
00001000
00000000
00000020
00000000
00000030
00000000
,
00000001
00000010
00001000
00000000
00000100
00010000
00001000
00000000
,
01000000
00100000
10000000
00000000
02000000
00000000
03000000
00000000
,
01100000
00001000
00011000
00000010
,
00000110
00000001
00002002
00003003
,
00000010
00000001
00000010
00000001
00000100
00001000
00000100
00001000
,
00010000
01000000
00010000
01000000
10000000
00100000
10000000
00000000
,
10100000
00010000
00110000
00001000
,
00011000
00000010
00001010
00000001
,
00000011
00000010
00000001
00000100
00001000
00010000
00001000
00000000
,
00011000
00100000
01100000
00010000
,
10010000
00100000
00011000
00000100
,
00001001
00000000
00000001
00000010
00002000
00023000
02030000
13000000
;

//---------------dance-double - ----------------
#NOTES:
     dance-double:
     :
     Challenge:
     10:
     0.757552,0.842640,0.225079,0.054019,0.477168,589.000000,564.000000,25.000000,6.000000,0.000000,0.000000,0.757552,0.842640,0.225079,0.054019,0.477168,589.000000,564.000000,25.000000,6.000000,0.000000,0.000000:
00000000
00000000
00000000
00000000
,
10000000
01000000
00000000
00010000
00000000
00000000
00001000
00010000
,
00000020
00000001
00000100
00001030
,
00000001
00000100
00000000
00001000
00000000
00000000
00010000
00001000
,
00200000
00010000
01000000
10000000
,
00310000
01000000
00000000
10000000
00000000
00000000
01000000
00001000
,
00020000
00000010
00001000
00000100
,
00031000
00000000
00010000
00000000
00000000
00000000
00000100
00000000
00000000
00000000
00000000
00000000
00000010
00000000
00000001
00001000
,
00000200
00000001
00000010
00000310
,
00000110
00001000
00000001
00000000
00000100
00000000
00001000
00010000
,
00011000
00010000
00001000
00000000
01000000
00000000
00010000
00000000
,
01010000
00010000
10000000
00000000
01000000
00000000
00100000
00001000
,
00011000
00010000
00000100
00000000
00000010
00000000
00000010
00000000
,
00000011
00000001
00001000
00000000
00000010
00000000
00000100
00001000
,
00011000
00010000
00100000
00000000
10000000
00000000
01000000
00000000
,
11000000
00000000
10000000
00000000
00010000
00000000
00000000
00000000
01000000
00000000
00000000
00000000
00001000
00000000
00010000
00001000
,
00020000
00030100
00001020
00010030
,
00011000
00010000
00000100
00001000
00000010
00000000
00000100
00000001
,
00001001
00001000
00000010
00000100
00000010
00000000
00010000
00001000
,
00011000
00001000
01000000
00100000
10000000
00000000
00010000
10000000
,
11000000
10000000
00100000
01000000
00010000
00010000
00010000
00000000
,
01010000
00010000
10000000
00100000
00010000
00000000
00010000
00000010
,
00001010
00000010
00001000
00000001
00001000
00000000
00000010
00000000
,
00001010
00000010
00000010
00001000
00000100
00000000
00010000
00001000
,
00101000
00000000
00100000
00000000
00010000
01000000
00000000
00100000
10000000
00000000
01000000
00010000
00000000
00001000
00000100
00000000
,
00000001
00000000
00000000
00000001
00000010
00000000
00000000
00001000
00000000
00010000
00000000
00000000
01000000
00000000
10000000
00010000
,
01000000
00000000
00000000
00000000
10000000
00000000
00000000
01000000
00000000
00100000
00000000
00000000
10100000
00000000
00000000
10000000
,
00000000
01000000
00000000
00000000
00011000
00000000
00000000
00001000
00000000
00000100
00000000
00000000
00000101
00000000
00000000
00000001
,
00000000
00000010
00000000
00000000
00000011
00000000
00000010
00000000
00000000
00001000
00000000
00000000
00010000
00000000
00000000
01000000
,
00000000
10000000
00000000
00000000
10100000
00000000
00000000
10000000
00000000
00100000
00000000
00000000
00110000
00000000
00000000
00010000
,
00000000
00001000
00000000
00000000
00001010
00000000
00000000
00000000
00000010
00000000
00000001
00000100
00000000
00000100
00000010
00000000
,
00000010
00010000
00000000
00010000
00001000
00000000
00001000
01000000
00000000
01000000
00100000
00000000
00100000
00000000
00000000
10000000
,
01000000
00000000
01000000
00100000
00000000
00100000
00001000
00000000
00001000
00010000
00000000
00010000
00000100
00000000
00001000
00000001
,
00001000
00000000
00000000
00000001
00000100
00000000
00000000
00000000
00000010
00000000
00001000
00000100
00000000
00000010
00000001
00000000
,
00000100
00000010
00000000
00010000
00000000
00001000
00000000
01000000
00000000
00000000
00100000
00000000
00000000
10000000
00000000
10000000
,
00000000
00000000
00010000
00000000
10000000
01000000
00000000
00100000
00010000
00000000
00000000
01000000
00000000
00000000
00100000
00000000
,
00000000
00000000
00010000
00000000
00001000
00000100
00000000
00000000
00000010
00001000
00000000
00001000
00000001
00000000
00000001
00000000
,
00000100
00001000
00000100
00000001
00000100
00001000
00000100
00000001
,
00000100
00000000
00001000
00010000
00000000
01000000
00010000
00000000
00001000
00000000
00000100
00001000
00000000
00010000
00001000
00000000
,
00010000
01000000
10000000
01000000
00010000
01000000
10000000
00100000
,
10000000
00000000
01000000
00100000
01000000
00000000
00000000
10000000
00000000
00010000
00000000
00000000
10010000
00000000
00010000
10000000
,
01000000
00000000
00000000
01000000
00010000
00000000
00000000
00000000
00001000
00000000
00000000
00000100
00000000
00000000
00000001
00000000
,
00000100
00001000
00000000
00000100
00001000
00010000
00000000
00001000
00010000
00100000
00000000
00010000
00100000
00000000
00000000
00000000
,
00100000
10000000
01000000
00010000
01000000
10000000
00100000
01000000
,
00001000
00010000
00001000
00000000
00010000
00000000
00000100
00000000
00001000
00000100
00001000
00000000
00000001
00000000
00000000
00000000
,
00000001
00000100
00000001
00000000
00001000
00000000
00000100
00000000
00000010
00000000
00000100
00000000
00010000
00000000
00001000
00000000
,
01000000
00010000
01000000
00000000
00010000
00000000
10000000
00000000
01000000
10000000
01000000
00000000
10000000
00000000
00010000
00000000
,
10000000
00100000
00010000
10000000
00010000
00100000
01000000
00010000
,
00100000
00000000
01000000
00000000
00010000
00000000
00001000
00000000
00000010
00000001
00000010
00000000
00000100
00000000
00001000
00000010
,
00001000
00000000
00000010
00000000
00000100
00000001
00000100
00000000
00000010
00000000
00000000
00000000
00010000
00001000
00010000
00000000
,
01000000
10000000
00100000
00010000
00001000
00000100
00000001
00000010
,
00001000
00010000
01000000
00100000
00010000
00001000
00000100
00000010
,
00001000
00000000
00010000
00000000
01000000
00000000
00100000
00000000
00010000
10000000
00010000
00000000
10000000
00000000
00000000
00000000
,
00100000
00010000
00001000
00000100
00000010
00001000
00010000
01000000
,
00100000
00000000
00010000
00000000
00001000
00000000
00000100
00000000
00000001
00001000
00000001
00000000
00001000
00000000
00000000
00000000
,
00000001
00000010
00001000
00010000
01000000
10000000
00100000
00010000
,
00001000
00000000
00000100
00000000
00000001
00000000
00001000
00000000
00000001
00001000
00000001
00000000
00001000
00000000
00000001
00000100
,
00000010
00000000
00001000
00000000
00000100
00001000
00000100
00000000
00010000
00000000
00000000
00000000
00001000
00010000
00001000
00000000
,
01000000
00010000
00001000
00000010
00000100
00001000
00100000
00010000
,
01000000
10000000
01000000
00100000
10000000
01000000
00010000
00001000
,
00000100
00000001
00000010
00000001
00000100
00001000
00010000
01000000
,
10000000
00100000
00010000
10000000
00010000
00100000
01000000
00010000
,
00100000
00000000
00001000
00000000
00000010
00000000
00000001
00000000
00001000
00000010
00001000
00000010
00010000
00000000
00001000
00000000
,
00010000
01000000
10000000
00100000
10000000
01000000
00100000
00001000
,
00010000
00000000
00000100
00000000
00000010
00000000
00000001
00000000
00000100
00000000
00000010
00000100
00000000
00000001
00001000
00000000
,
00000001
00001000
00000001
00000000
00000100
00000000
00000000
00000000
00000010
00000100
00000010
00000000
00010000
00000000
00000000
00000000
,
00001000
00010000
00001000
00000000
01000000
00000000
00000000
00000000
00100000
01000000
00100000
00000000
10000000
00000000
00010000
10000000
,
00010000
01000000
10000000
01000000
00001000
00000100
00000001
00000010
,
00001000
00010000
00100000
00001000
00000100
00000001
00001000
00000001
,
00001000
00000001
00000100
00000000
00001000
00000000
00010000
00000000
01000000
00000000
00100000
00000000
00010000
01000000
00010000
01000000
,
00100000
00000000
10000000
00000000
01000000
00010000
00000000
00001000
00010000
00000000
00001000
00000000
00000100
00000000
00000001
00000000
,
00001000
00000100
00000001
00000100
00000010
00000000
00000001
00000100
,
00001000
00000000
00010000
00000000
01000000
00100000
01000000
00100000
00010000
00000000
10000000
00000000
00100000
01000000
00100000
01000000
,
00001000
00000000
00010000
00000000
00000100
00000010
00000100
00000010
00000001
00000000
00000100
00000000
00001000
00010000
00001000
00010000
,
01000000
00000000
10000000
00000000
00100000
00000000
00010000
00000000
00001000
00010000
00001000
00000000
00010000
00000000
00011000
00000000
;

//---------------dance-double - ----------------
#NOTES:
     dance-double:
     :
     Hard:
     9:
     0.645656,0.741524,0.216076,0.072025,0.256590,502.000000,478.000000,24.000000,8.000000,0.000000,0.000000,0.645656,0.741524,0.216076,0.072025,0.256590,502.000000,478.000000,24.000000,8.000000,0.000000,0.000000:
00000000
00000000
00000000
00000000
,
10000000
00010000
00000000
01000000
00000000
00000000
00001000
00000010
,
00000200
00000010
00001000
00000310
,
00000001
00001000
00000000
00000100
00000000
00000000
00010000
00100000
,
02000000
00100000
00010000
03100000
,
10000000
00010000
00000000
01000000
00000000
00000000
00001000
00000100
,
00000002
00000100
00001000
00000103
,
00000001
00000000
00001000
00000000
00000000
00000000
00000100
00000000
00000000
00000000
00000000
00000000
00000000
00000000
00010000
00001000
,
00020000
00000000
00001000
00031000
,
00010000
00001000
00100000
00000000
00010000
00000000
10000000
01000000
,
00010000
00001000
00020000
00000000
01000000
00000000
00031000
00000000
,
00010000
00001000
00000010
00000000
00000001
00000000
00001000
00000001
,
00000100
00001000
00000200
00000000
00000001
00000000
00001000
00000000
,
00000301
00000010
00000100
00000000
00010000
00000000
00001000
00100000
,
00010000
01000000
20000000
00000000
01000000
00000000
00010000
00000000
,
31000000
00001000
00010000
00000000
00000100
00000000
00000010
00000001
,
00000100
00001000
00000200
00000000
00000001
00000000
00001000
00000000
,
00000301
00000010
00000100
00010000
00001000
00000000
00000000
00000000
,
10000000
00100000
01000000
00001000
00010000
00000000
00000000
00000000
,
00000001
00000100
00000010
00010000
00001000
00000000
00000000
00000000
,
10000000
01000000
00100000
00001000
00010000
00000000
00000010
00000000
,
00000001
00000010
00001000
00000010
00010000
00000000
00001000
00000000
,
10000000
01000000
00010000
01000000
00001000
00000000
00000100
00000000
,
00000001
00000000
00000100
00000000
00001000
00000000
00000100
00000000
00010000
00000000
00000000
00000000
00010000
00000000
00001000
00100000
,
01000000
00000000
00010000
00000000
00001000
00000000
00010000
00000000
01000000
00000000
00000000
01000000
00000000
00000000
01000000
00000000
,
11000000
00000000
00000000
01000000
10000000
00000000
00000000
10000000
00100000
00000000
00000000
00100000
01000000
00000000
00000000
00000000
,
01010000
00000000
00000000
00000000
01000000
00000000
00000000
00001000
00000000
00010000
00000000
00000000
00011000
00000000
00000000
00010000
,
00000000
00000100
00000000
00000000
00000110
00000000
00000000
00000001
00000000
00001000
00000000
00000000
00001010
00000000
00000000
00001000
,
00000000
00000010
00000000
00000000
00000110
00000000
00000100
00000000
00000000
00000001
00000000
00000000
00000101
00000000
00000000
00000001
,
00000000
00000100
00000000
00000000
00000101
00000000
00000000
00000100
00000000
00001000
00000000
00000000
00001100
00000000
00000000
00001000
,
00000000
00010000
00000000
00000000
00001000
00000000
00010000
00100000
00000000
00010000
00100000
00000000
00010000
00001000
00000000
00010000
,
00001000
00000000
00000100
00001000
00000000
00000100
00001000
00000000
00010000
00001000
00000000
00010000
00001000
00000000
00000000
00001000
,
00010000
00000000
01000000
00010000
00000000
01000000
00010000
00000000
00001000
00010000
00000000
00001000
00010000
00000000
00001000
00000000
,
01000000
00000000
10000000
00000000
01000000
00000000
00010000
00000000
10000000
00000000
00000000
10000000
00000000
00000000
10000000
00000000
,
00010000
10000000
00000000
01000000
00000000
00010000
00000000
00001000
00000000
00000000
00010000
00000000
00000000
00001000
00000000
00001000
,
00000100
00000000
00000001
00000000
00000100
00000000
00001000
00000000
00000100
00000000
00000000
00000001
00000000
00000000
00000001
00000000
,
00001000
00000000
00000001
00000000
00000100
00000000
00001000
00000000
00010000
00001000
00000000
00001000
00010000
00000000
00001000
00000000
,
00100000
00000000
00010000
00000000
00100000
00000000
10000000
00000000
00100000
00010000
00000000
00000000
00010000
10000000
00000000
00000000
,
10000000
00000000
00000000
00100000
00000000
00100000
00000000
00000000
00010000
00000000
00001000
00010000
00000000
00010000
00001000
00000000
,
00000010
00000000
00000001
00000000
00000010
00000000
00001000
00000000
00000010
00000000
00000000
00000000
00000001
00000000
00001000
00000001
,
00001000
00000000
00000001
00000000
00000001
00000000
00000000
00000100
00000000
00000100
00000000
00000000
00000010
00000000
00010000
00001000
,
00010000
00000000
00000000
00010000
00001000
00000000
00000000
00000000
00100000
00000000
00000000
00100000
00000000
00000000
00010000
00000000
,
10000000
01000000
00010000
00001000
00000100
00000001
00000100
00000000
,
00000001
00000100
00000010
00000100
00000001
00000100
00000010
00000000
,
00000100
00001000
00010000
00001000
00100000
00010000
01000000
00000000
,
10000000
01000000
00100000
01000000
10000000
01000000
00100000
00000000
,
00100000
01000000
00001000
00010000
00000100
00000010
00000001
00000000
,
00000001
00000010
00000100
00000010
00000001
00000010
00000100
00000000
,
00000100
00010000
00001000
00100000
00010000
01000000
00100000
00000000
,
00100000
10000000
01000000
00000000
00010000
00001000
00000100
00000000
,
00000010
00001000
00000100
00000000
00000010
00001000
00010000
00000000
,
00010000
01000000
00100000
01000000
10000000
00100000
01000000
00100000
,
00010000
00001000
00010000
00000000
00011000
00000000
00000000
00000000
,
00001000
00000010
00000100
00000010
00000001
00000010
00000100
00000010
,
00010000
00001000
00010000
00000000
00011000
00000000
00000000
00000000
,
00010000
01000000
00100000
01000000
10000000
01000000
00100000
01000000
,
00010000
00001000
00010000
00000000
00011000
00000000
00000000
00000000
,
00010000
01000000
10000000
00000000
10000000
01000000
00010000
00000000
,
00001000
00000100
00000001
00000000
00000001
00000100
00001000
00000000
,
00010000
00001000
00010000
00001000
00100000
00010000
01000000
00100000
,
10000000
01000000
00100000
00001000
00010000
00000100
00001100
00000000
,
00000001
00000100
00000001
00000100
00000010
00001000
00000100
00000001
,
00000100
00010000
00001000
00100000
00010000
01000000
01100000
00000000
,
10000000
00100000
01000000
00100000
00010000
00001000
00010000
00100000
,
00010000
00001000
00000010
00000001
00001000
00000010
00000100
00000000
,
00000001
00000100
00001000
00000000
00010000
01000000
10000000
00000000
,
10000000
00100000
00010000
00000000
00001000
00000010
00000001
00000000
,
00001000
00000001
00001000
00000010
00000100
00000001
00000100
00001000
,
00010000
01000000
10000000
00100000
01000000
00010000
10010000
00000000
,
11000000
00010000
01000000
00000000
01010000
00001000
00010000
00000000
,
00001100
00000001
00000100
00000000
00000101
00001000
00000100
00000000
,
00010000
00001000
00000010
00001000
00010000
01000000
00010000
00001000
,
00011000
00000100
00001000
00000000
00001001
00000001
00000100
00000000
,
00001010
00010000
00001000
00000000
00110000
00001000
00010000
00000000
,
00010000
00000000
00001000
00000000
00000100
00000000
00001000
00000000
00010000
00100000
00010000
00000000
00001000
00000000
00011000
00000000
;
