#VERSION:0.83;
#TITLE:Cheerleader (Felix Jaehn Remix);
#SUBTITLE:;
#ARTIST:OMI;
#TITLETRANSLIT:;
#SUBTITLETRANSLIT:;
#ARTISTTRANSLIT:;
#GENRE:;
#ORIGIN:;
#CREDIT:;
#BANNER:Cheerleader (Felix Jaehn Remix).png;
#BACKGROUND:Cheerleader (Felix Jaehn Remix)-bg.png;
#PREVIEWVID:;
#JACKET:Cheerleader (Felix Jaehn Remix)-jacket.png;
#CDIMAGE:;
#DISCIMAGE:;
#LYRICSPATH:;
#CDTITLE:;
#MUSIC:Cheerleader (Felix Jaehn Remix).ogg;
#OFFSET:0.024127;
#SAMPLESTART:40.707520;
#SAMPLELENGTH:14.999997;
#SELECTABLE:YES;
#BPMS:0.000=118.010;
#STOPS:;
#DELAYS:;
#WARPS:;
#TIMESIGNATURES:0.000=4=4;
#TICKCOUNTS:0.000=4;
#COMBOS:0.000=1;
#SPEEDS:0.000=1.000=0.000=0;
#SCROLLS:0.000=1.000;
#FAKES:;
#LABELS:0.000=Song Start;
#BGCHANGES:-0.500=Cheerleader (Felix Jaehn Remix).avi=1.000=1=0=0=StretchNoLoop==CrossFade==,
99999=-nosongbg-=1.000=0=0=0 // don't automatically add -songbackground-
;
#KEYSOUNDS:;
#ATTACKS:
;

//---------------dance-single - ----------------
#NOTEDATA:;
#CHARTNAME:;
#STEPSTYPE:dance-single;
#DESCRIPTION:;
#CHARTSTYLE:;
#DIFFICULTY:Beginner;
#METER:1;
#RADARVALUES:0.069611,0.095715,0.000000,0.000000,0.000000,56.000000,56.000000,0.000000,0.000000,0.000000,0.000000,0.000000,0.000000,0.000000,0.069611,0.095715,0.000000,0.000000,0.000000,56.000000,56.000000,0.000000,0.000000,0.000000,0.000000,0.000000,0.000000,0.000000;
#CREDIT:;
#NOTES:
0000
0000
0000
0000
,
0000
0000
0000
0000
,
0000
0000
0000
0000
,
0000
0000
0000
0000
,
0100
0000
0000
0000
,
0100
0000
0000
0000
,
0100
0000
0000
0000
,
0000
0000
0000
0000
,
0001
0000
0000
0000
,
1000
0000
0000
0000
,
0001
0000
0000
0000
,
0000
0000
0000
0000
,
1000
0000
0000
0000
,
0001
0000
0000
0000
,
1000
0000
0000
0000
,
0000
0000
0000
0000
,
0100
0000
0000
0000
,
0100
0000
0000
0000
,
0010
0000
0000
0000
,
0010
0000
0000
0000
,
0100
0000
0000
0000
,
0100
0000
0100
0000
,
0100
0000
0000
0000
,
0010
0000
0010
0000
,
0010
0000
0000
0000
,
1000
0000
1000
0000
,
1000
0000
0000
0000
,
0001
0000
0001
0000
,
0001
0000
0000
0000
,
0010
0000
0000
0000
,
0100
0000
0000
0000
,
0000
0000
0000
0000
,
1000
0000
0000
0000
,
0010
0000
0000
0000
,
0100
0000
0000
0000
,
0000
0000
0000
0000
,
0001
0000
0000
0000
,
0001
0000
0000
0000
,
1000
0000
0000
0000
,
1000
0000
0000
0000
,
0010
0000
0000
0000
,
0010
0000
0010
0000
,
0010
0000
0000
0000
,
0100
0000
0100
0000
,
0100
0000
0000
0000
,
0001
0000
0001
0000
,
0001
0000
0000
0000
,
1000
0000
1000
0000
,
1000
0000
0000
0000
,
0001
0000
0000
0000
,
1000
0000
0000
0000
,
0100
0000
0100
0000
,
0010
0000
0000
0000
,
0010
0000
0000
0000
,
0100
0000
0000
0000
,
0010
0000
0000
0000
;

//---------------dance-single - ----------------
#NOTEDATA:;
#CHARTNAME:;
#STEPSTYPE:dance-single;
#DESCRIPTION:;
#CHARTSTYLE:;
#DIFFICULTY:Easy;
#METER:3;
#RADARVALUES:0.167811,0.217316,0.052208,0.069611,0.000000,135.000000,129.000000,6.000000,8.000000,0.000000,0.000000,0.000000,0.000000,0.000000,0.167811,0.217316,0.052208,0.069611,0.000000,135.000000,129.000000,6.000000,8.000000,0.000000,0.000000,0.000000,0.000000,0.000000;
#CREDIT:;
#NOTES:
0000
0000
0000
0000
,
0000
0000
0000
0000
,
0000
0000
0000
0000
,
0000
0000
0000
0000
,
0100
0000
0000
0000
,
0100
0000
0100
0000
,
0100
0000
0000
0000
,
0100
0000
0100
0000
,
1000
0000
0000
0000
,
0001
0000
0001
0000
,
0001
0000
0000
0000
,
1000
0000
0010
0000
,
0100
0000
0000
0000
,
0100
0000
0100
0000
,
0010
0000
0010
0000
,
1000
0000
1000
0000
,
0001
0000
0002
0003
,
1000
0000
2000
3000
,
0100
0000
0100
0100
,
0010
0010
0001
1000
,
0001
0000
1000
0000
,
0001
0001
1000
1000
,
0010
0000
0100
0000
,
0110
0000
1001
0000
,
0001
0100
0001
0000
,
1000
0100
1000
0000
,
0001
0010
0001
0000
,
1000
0010
0100
0001
,
1000
1000
0001
0000
,
0001
0001
1000
1000
,
0001
0000
1000
0000
,
0010
0010
0010
0000
,
0100
0100
0100
0100
,
0010
0010
0010
0000
,
1000
1000
0001
0001
,
1000
0100
0010
0001
,
1000
0000
1000
0000
,
0001
0000
0001
0000
,
0100
0000
0100
0000
,
0010
0000
0110
1001
,
0001
0000
1000
0000
,
0001
0001
0001
0000
,
1000
0000
0001
0000
,
1000
1000
1000
0000
,
0001
0010
0001
0000
,
1000
0100
1000
0000
,
0001
0100
0001
0000
,
1000
0010
1000
0000
,
0002
0000
0103
0000
,
2000
0000
3100
0100
,
0020
0000
0031
0000
,
1000
0010
0100
0001
,
2000
0000
3100
0000
,
0002
0000
0103
0000
,
0110
0000
1001
0000
,
0020
0000
0030
0000
;

//---------------dance-single - ----------------
#NOTEDATA:;
#CHARTNAME:;
#STEPSTYPE:dance-single;
#DESCRIPTION:;
#CHARTSTYLE:;
#DIFFICULTY:Medium;
#METER:5;
#RADARVALUES:0.302060,0.338047,0.182728,0.243637,0.000000,243.000000,222.000000,21.000000,28.000000,0.000000,0.000000,0.000000,0.000000,0.000000,0.302060,0.338047,0.182728,0.243637,0.000000,243.000000,222.000000,21.000000,28.000000,0.000000,0.000000,0.000000,0.000000,0.000000;
#CREDIT:;
#NOTES:
0000
0000
0000
0000
,
0000
0000
0000
0000
,
0000
0000
0000
0000
,
0000
0000
0000
0000
,
0100
0000
0000
0000
,
0100
0000
0100
0000
,
0100
0000
0000
0000
,
0100
0000
1000
0000
,
0001
0000
1000
0100
1000
0100
0000
0000
,
0010
0001
0100
0010
,
1000
0000
0001
0100
0001
2000
0000
3000
,
0000
1010
0000
0101
0000
0000
1000
0100
,
1000
0000
0001
0010
0001
0000
0100
0010
,
0100
0000
0001
1000
0001
0000
1000
0100
,
0020
0032
0023
0230
,
2300
3002
0203
0320
,
1030
0000
0100
1000
0001
1000
0000
0000
,
0001
0000
0100
0001
0010
0001
0000
0000
,
1000
0001
0100
0001
,
1000
1001
0110
1001
,
0020
0000
1030
0000
0100
1000
0001
0000
,
0100
0001
0020
1000
,
0031
0000
1000
0000
0001
0100
1000
0000
,
0010
1000
0010
2000
0000
0000
3001
0000
,
0110
0000
1001
0000
0010
1000
0001
0000
,
0010
0100
2000
0100
,
3010
0000
0001
0000
0100
0001
1000
0000
,
1010
0001
0011
0100
,
1000
0000
0100
1000
0100
1000
0000
0000
,
0001
0101
1000
1100
,
0100
0000
0010
0000
0001
0010
0001
0000
,
0000
1100
0000
0101
0000
0000
0010
1000
,
0001
0000
0010
0000
0100
0000
1000
0100
,
1000
0000
0010
0000
1000
0000
0001
1000
,
0020
0230
0302
2003
,
3200
0320
0032
2003
,
3100
0000
0010
0000
0001
1000
0000
0000
,
0010
0000
0100
0000
0001
1000
0001
0000
,
1000
0010
0001
0010
,
1000
0110
1001
0110
,
0002
0000
1003
0000
0100
1000
0010
0000
,
1000
0001
0200
1000
,
0301
0000
0010
0000
0100
1000
0010
0000
,
1000
0010
1000
0000
0001
0010
0001
0000
,
1001
0000
0110
0000
0001
1000
0010
0000
,
1000
0100
2000
0010
,
3001
0000
0001
0000
0100
0010
0100
0000
,
0001
0000
0010
0000
0100
1000
0100
0000
,
0010
0000
0001
0000
0100
0001
1000
0000
,
0002
1000
0013
0100
,
1001
0000
0001
0000
0010
0100
0010
0000
,
2000
0010
0100
3001
,
1001
0000
0001
0000
1000
0010
0100
0000
,
0020
1000
0130
0001
,
1001
0000
0010
0100
,
0020
0000
0030
0000
;

//---------------dance-single - ----------------
#NOTEDATA:;
#CHARTNAME:;
#STEPSTYPE:dance-single;
#DESCRIPTION:;
#CHARTSTYLE:;
#DIFFICULTY:Hard;
#METER:7;
#RADARVALUES:0.433823,0.460844,0.391560,0.287144,0.078312,349.000000,304.000000,45.000000,33.000000,0.000000,0.000000,0.000000,0.000000,0.000000,0.433823,0.460844,0.391560,0.287144,0.078312,349.000000,304.000000,45.000000,33.000000,0.000000,0.000000,0.000000,0.000000,0.000000;
#CREDIT:;
#NOTES:
0000
0000
0000
0000
,
0000
0000
0000
0000
,
0000
0000
0000
0000
,
0000
0000
0000
0000
,
2000
0000
0000
0000
0000
0000
0000
0000
3002
0000
0000
0203
0000
0000
0320
0000
,
0000
0000
0000
0000
0000
2030
0000
0000
3200
0000
0000
0320
0000
0000
0032
0000
,
0000
0000
0000
0000
,
2003
0000
0000
0000
3001
0000
0010
0100
,
1000
0000
0001
1000
0010
0100
0010
0000
,
1000
0001
0100
0001
1000
0100
1000
0010
,
0100
0000
0001
0100
0010
1000
0010
0000
,
1000
1100
0000
0101
0000
0001
0010
0100
,
1000
0000
0001
0000
1000
1000
0010
0100
,
0001
0000
1000
0001
0100
0100
0010
1000
,
0002
0023
0230
2300
,
3001
0100
0001
0010
0001
1000
0001
0100
,
0000
0010
1000
0100
1000
0000
0100
0010
,
0001
0100
0001
0100
0020
0000
1030
0100
,
0010
0001
0100
0001
0010
0100
1000
0001
,
0100
0110
0101
1001
,
1020
0000
0230
0000
0301
0010
0100
0020
,
0000
0000
0031
0000
1000
0000
0100
0000
0110
0000
0000
1100
0000
0000
1001
0000
,
0000
0000
0100
0001
1000
0100
1000
0010
,
0100
0001
0010
0001
1000
0001
0010
0000
,
0021
0000
0230
0000
1300
0010
0100
0020
,
0000
0000
1030
0000
0001
0000
0100
0000
0110
0000
0000
0101
0000
0000
1001
0000
,
0000
0000
0100
1000
0001
0100
0001
0010
,
0100
1000
0010
1000
0001
1000
0010
0000
,
0200
0000
0301
0010
0100
0100
1000
0000
,
0001
0100
0001
0000
1000
0100
1000
0000
,
1000
0010
0100
0001
0100
0100
0001
0000
,
0001
0101
0000
1100
0000
0001
0010
0100
,
1000
0001
1000
0100
0010
0000
0001
0100
,
0010
0100
0001
0001
0100
0000
0001
0000
,
2000
3020
0230
0302
,
1003
0100
0010
0001
1000
0001
0010
0100
,
1000
0000
0001
0100
0001
1000
0001
0000
,
1000
0100
0010
0100
1000
1000
0001
0000
,
1000
0010
0100
0001
0100
0010
1000
0100
,
1000
0101
0110
1001
,
0021
0000
0000
0000
0230
0000
0000
0000
1300
0000
0100
0000
0010
0001
0000
0000
,
0101
0000
0000
1001
0000
0000
1010
0000
0000
0000
0100
0000
0001
0000
1000
0000
,
0100
0000
0000
0000
0010
0000
0001
0000
0100
0000
0001
0000
1000
0100
0000
0000
,
0110
0000
0000
0011
0000
0000
1001
0000
0000
0000
0001
0000
0100
0000
0010
0000
,
1020
0000
0000
0000
0230
0000
0000
0000
0301
0000
0100
0000
0010
1000
0000
0000
,
1100
0000
0000
1001
0000
0000
0011
0000
0000
0000
0100
0000
1000
0000
0001
0000
,
0100
0000
0000
0000
0010
0000
1000
0000
0100
0000
1000
0000
0001
0100
0000
0000
,
0110
0000
0000
1010
0000
0000
1001
0000
0000
0000
1000
0000
0100
0000
0010
0000
,
0011
0000
0000
0000
1001
0000
0000
0010
1000
0000
0100
0000
1000
0000
0000
0000
,
1100
0000
0000
1001
0000
0000
0101
0000
0000
0000
0001
0000
0100
0000
0010
0000
,
1010
0000
0000
0000
1001
0000
0000
0010
0001
0000
0100
0000
0001
0000
0000
0000
,
0101
0000
0000
1001
0000
0000
1100
0000
0000
0000
0001
0000
1000
0000
0001
0000
,
0010
0000
0100
1000
0001
0100
0010
0100
,
0101
0000
0000
1001
0000
0000
1100
0000
0000
0000
1000
0000
0100
0000
0010
0000
,
0002
0000
2003
0000
,
3020
0000
0200
0330
;

//---------------dance-double - ----------------
#NOTEDATA:;
#CHARTNAME:;
#STEPSTYPE:dance-double;
#DESCRIPTION:;
#CHARTSTYLE:;
#DIFFICULTY:Hard;
#METER:7;
#RADARVALUES:0.416421,0.482924,0.261040,0.147923,0.160975,335.000000,305.000000,30.000000,17.000000,0.000000,0.000000,0.000000,0.000000,0.000000,0.416421,0.482924,0.261040,0.147923,0.160975,335.000000,305.000000,30.000000,17.000000,0.000000,0.000000,0.000000,0.000000,0.000000;
#CREDIT:;
#NOTES:
00000000
00000000
00000000
00000000
,
00000000
00000000
00000000
00000000
,
00000000
00000000
00000000
00000000
,
00000000
00000000
00000000
00000000
,
00000020
00000000
00000000
00000000
00000000
00000000
00000000
00000000
00001030
00000000
00000000
00010000
00000000
00000000
00200000
00000000
,
00000000
00000000
00000000
00000000
00000000
20300000
00000000
00000000
32000000
00000000
00000000
03200000
00000000
00000000
00320000
00000000
,
20000000
00000000
00030000
00000000
,
32000000
00000000
03020000
00000000
,
00031000
00000000
00000100
00000001
00000010
00000010
00001000
00000000
,
00010000
00000000
01000000
10000000
00100000
00100000
00010000
00000000
,
00001000
00000000
00000010
00000001
00000100
00000100
00001000
00000000
,
00010000
01000000
10000000
00000000
00100000
00000000
00010000
00000000
,
00001000
00000010
00000001
00000001
00000100
00001000
00010000
00000000
,
00010000
00100000
10000000
10000000
01000000
00010000
00001000
00000000
,
00000010
00000001
00000100
00000010
00001000
00000100
00010000
00001000
,
00100000
00100000
00010000
01000000
10000000
01000000
00010000
00100000
,
00001000
00000000
00010000
00000000
00000100
00000000
00000000
00000010
00000001
00000000
00000100
00000000
00001000
00000000
00000000
00000000
,
00010000
00000000
00001000
00000000
01000000
00000000
00000000
00100000
10000000
00000000
10000000
00000000
01000000
00000000
00010000
00001000
,
00000000
00000000
00000100
00000001
00000010
00000100
00001000
00000100
,
00010100
00000000
00000000
00000000
01001000
00000000
00000000
00000000
01000000
00010000
00000000
00000000
10010000
00000000
00000000
00000000
,
10000000
00000000
00000000
10000000
01000000
00000000
00010000
00000000
00001000
00000000
00000000
00000000
00000000
00000000
00000010
00000000
,
00000001
00000000
00000000
00000001
00000100
00000000
00001000
00000000
00010000
00000000
00000000
00000000
00000100
00000000
00000000
00000000
,
00000010
00000000
00000000
00000010
00000001
00000000
00000100
00000000
00001000
00000000
00000000
00000000
00000000
00000000
00010000
00000000
,
00100000
00000000
00000000
10100000
00000000
00000000
11000000
00000000
00000000
00000000
00011000
00000000
00000000
00000000
00000010
00000000
,
00000001
00000000
00000000
00000001
00000100
00000000
00001000
00000000
00010000
00000000
00000000
00000000
00000000
00000000
00100000
00000000
,
10000000
00000000
00000000
10000000
01000000
00000000
00010000
00000000
00001000
00000000
00000000
00000000
01000000
00000000
00000000
00000000
,
00100000
00000000
00000000
00100000
10000000
00000000
01000000
00000000
00010000
00000000
00000000
00000000
00000000
00000000
00001000
00000000
,
00001010
00000000
00000000
00000000
00000011
00000000
00000000
00000000
00000010
00000100
00000000
00000000
00001001
00000000
00000000
00000000
,
00000001
00000100
00000100
00001000
00010000
00010000
00000010
00000000
,
00010000
00001000
00100000
01000000
10000000
00100000
00010000
00100000
,
10000000
01000000
01000000
00010000
00001000
00001000
00100000
00000000
,
00001000
00000100
00000001
00000000
00000010
00000000
00001000
00000000
,
00010000
01000000
10000000
00100000
00010000
00000000
00001000
00000000
,
00001000
00000100
00000001
00000010
00001000
00000000
00010000
00000000
,
00100000
10000000
01000000
00100000
00010000
01000000
00001000
00010000
,
00000010
00000010
00001000
00000100
00000001
00000100
00001000
00000010
,
00020000
00000000
00001000
00000000
00130000
10000000
01000000
00010000
,
00002000
00000000
00000000
00000000
00010000
00000000
00000000
00000000
00003010
00000000
00000001
00000000
00000100
00000000
00001000
00010000
,
00000000
00000000
01000000
10000000
00100000
01000000
00010000
01000000
,
01001000
00000000
00000000
00000000
00010100
00000000
00000000
00000000
00000100
00001000
00000000
00000000
00001001
00000000
00000000
00000000
,
00000001
00000000
00000000
00000001
00000100
00000000
00001000
00000000
00010000
00000000
00000000
00000000
00000000
00000000
00100000
00000000
,
10000000
00000000
00000000
10000000
01000000
00000000
00010000
00000000
00001000
00000000
00000000
00000000
01000000
00000000
00000000
00000000
,
00100000
00000000
00000000
00100000
10000000
00000000
01000000
00000000
00010000
00000000
00000000
00000000
00000000
00000000
00001000
00000000
,
00000010
00000000
00000000
00000011
00000000
00000000
00000101
00000000
00000000
00000000
00011000
00000000
00000000
00000000
00100000
00000000
,
10000000
00000000
00000000
10000000
01000000
00000000
00010000
00000000
00001000
00000000
00000000
00000000
00000000
00000000
00000010
00000000
,
00000001
00000000
00000000
00000001
00000100
00000000
00001000
00000000
00010000
00000000
00000000
00000000
00000100
00000000
00000000
00000000
,
00000010
00000000
00000000
00000010
00000001
00000000
00000100
00000000
00001000
00000000
00000000
00000000
00000000
00000000
00010000
00000000
,
00110000
00000000
00000000
00000000
10100000
00000000
00000000
00000000
00100000
01000000
00000000
00000000
10010000
00000000
00000000
00000000
,
11000000
00000000
00000000
10000000
00100000
00000000
00010000
00000000
00001000
00000000
00010000
00000000
01000000
00100000
00000000
00000000
,
00101000
00000000
00000000
00011000
00000000
00000000
00020020
00000000
00000000
00000000
00030030
00000000
00001000
00000001
00000000
00000000
,
00000011
00000000
00000000
00000001
00000100
00000000
00001000
00000000
00010000
00000000
00001000
00000000
00000010
00000100
00000000
00000000
,
00010100
00000000
00000000
00011000
00000000
00000000
01001000
00000000
00000000
00000000
01000000
00000000
00010000
01000000
00000000
00000000
,
10100000
00000000
00000000
10000000
01000000
00000000
00010000
00000000
00001000
00000000
00010000
00000000
00100000
01000000
00000000
00000000
,
01001000
00000000
00000000
00011000
00000000
00000000
00020200
00000000
00000000
00000000
00030300
00000000
00001000
00000001
00000000
00000000
,
00000200
00000000
00000000
00000000
,
00000320
00000000
00010030
00000000
;

//---------------dance-double - ----------------
#NOTEDATA:;
#CHARTNAME:;
#STEPSTYPE:dance-double;
#DESCRIPTION:;
#CHARTSTYLE:;
#DIFFICULTY:Medium;
#METER:5;
#RADARVALUES:0.278442,0.338047,0.060909,0.121819,0.013052,224.000000,217.000000,7.000000,14.000000,0.000000,0.000000,0.000000,0.000000,0.000000,0.278442,0.338047,0.060909,0.121819,0.013052,224.000000,217.000000,7.000000,14.000000,0.000000,0.000000,0.000000,0.000000,0.000000;
#CREDIT:;
#NOTES:
00000000
00000000
00000000
00000000
,
00000000
00000000
00000000
00000000
,
00000000
00000000
00000000
00000000
,
00000000
00000000
00000000
00000000
,
01000000
00000000
00000000
00000000
,
10000000
00000000
10000000
00000000
,
10000000
00000000
00000000
00000000
,
00100000
00000000
01000000
00001000
,
00010000
00000000
00000100
00000000
00000010
00000100
00000000
00000000
,
00010000
00000000
00001000
00000000
01000000
00000000
00100000
10000000
,
00100000
00000000
01000000
00000000
00001000
00010000
00001000
00000000
,
00000200
00000000
00000320
00000000
,
00000130
00000000
00000001
00000100
00001000
00000000
00010000
00000000
,
01000000
00000000
10000000
01000000
00010000
00000000
01000000
00000000
,
10000000
00000000
00100000
01000000
00010000
00000000
00100000
00000000
,
00001000
00000000
00010000
00000100
00000010
00000100
00010000
00000000
,
00002000
00000000
00000000
00000000
00000100
00000100
00000000
00000000
,
00023000
00000000
00000000
00000000
01000000
01000000
00000000
00000000
,
00031000
00000000
00000100
00000001
00001000
00000001
00000100
00000010
,
00010000
00011000
00001000
00011000
,
00100000
00000000
10000000
00000000
01000000
00100000
01000000
00010000
,
00000000
00001000
00000100
00000001
00001000
00000000
00000010
00000000
,
00000100
00000000
00000001
00000000
00000010
00000100
00000010
00001000
,
00000000
00010000
00100000
10000000
00010000
00000000
00100000
00000000
,
01000000
00000000
10000000
00000000
00100000
01000000
00100000
00010000
,
00000000
00001000
00000010
00000001
00001000
00000000
00000100
00000000
,
00000010
00000000
00000001
00000000
00000100
00000010
00000100
00001000
,
00000000
00010000
01000000
10000000
00010000
00000000
00100000
00000000
,
00001000
00000000
01000000
00000000
00100000
01000000
00000000
00000000
,
00001000
00000000
00010000
00000000
00000100
00000000
00000010
00000001
,
00000010
00000000
00000100
00000000
00010000
00001000
00010000
00000000
,
02000000
00000000
03200000
00000000
,
01300000
00000000
10000000
01000000
00010000
00000000
00001000
00000000
,
00000100
00000000
00000001
00000100
00001000
00000000
00000100
00000000
,
00000001
00000000
00000010
00000100
00001000
00000000
00000010
00000000
,
00010000
00000000
00001000
01000000
00100000
01000000
00001000
00000000
,
00020000
00000000
02030000
00000000
,
23000000
00000000
30200000
00000000
,
00320000
00000000
00032000
00000000
,
00013000
00011000
00001000
00011000
,
00000010
00000000
00000001
00000000
00000100
00000010
00000100
00001000
,
00000000
00010000
01000000
10000000
00010000
00000000
00100000
00000000
,
01000000
00000000
10000000
00000000
00100000
01000000
00100000
00010000
,
00000000
00001000
00000010
00000001
00001000
00000000
00000010
00000000
,
00000100
00000000
00000001
00000000
00000010
00000100
00000010
00001000
,
00000000
00010000
00100000
10000000
00010000
00000000
01000000
00000000
,
00100000
00000000
10000000
00000000
01000000
00100000
01000000
00010000
,
00000000
00001000
00000100
00000001
00001000
00000000
00000100
00000000
,
00000110
00000000
00000000
00010000
,
00001000
00000000
00000000
00001000
00000000
00000000
00001000
00000000
00000000
00000000
00000000
00000000
00100000
00000000
00000000
00000000
,
01100000
00000000
00000000
00001000
,
00010000
00000000
00000000
00010000
00000000
00000000
00010000
00000000
00000000
00000000
00000100
00000000
00000010
00000000
00000000
00000000
,
00000110
00000000
00000000
00000001
,
00000100
00000000
00000000
00000010
00000000
00000000
00010000
00000000
00000000
00000000
00000000
00000000
00001000
00000000
00000000
00000000
,
00200000
00000000
00000000
00000000
,
02300000
00000000
03000000
00000000
;

//---------------dance-double - ----------------
#NOTEDATA:;
#CHARTNAME:;
#STEPSTYPE:dance-double;
#DESCRIPTION:;
#CHARTSTYLE:;
#DIFFICULTY:Easy;
#METER:3;
#RADARVALUES:0.169054,0.217316,0.000000,0.008701,0.000000,136.000000,136.000000,0.000000,1.000000,0.000000,0.000000,0.000000,0.000000,0.000000,0.169054,0.217316,0.000000,0.008701,0.000000,136.000000,136.000000,0.000000,1.000000,0.000000,0.000000,0.000000,0.000000,0.000000;
#CREDIT:;
#NOTES:
// measure 0
00000000
00000000
00000000
00000000
,  // measure 1
00000000
00000000
00000000
00000000
,  // measure 2
00000000
00000000
00000000
00000000
,  // measure 3
00000000
00000000
00000000
00000000
,  // measure 4
00001000
00000000
00000000
00000000
,  // measure 5
00010000
00000000
00010000
00000000
,  // measure 6
00010000
00000000
00000000
00000000
,  // measure 7
01000000
00000000
01000000
00000000
,  // measure 8
10000000
00000000
10000000
00000000
,  // measure 9
00010000
00000000
00010000
00000000
,  // measure 10
10000000
00000000
10000000
00000000
,  // measure 11
00100000
00000000
00010000
00000000
,  // measure 12
00001000
00001000
00000100
00000000
,  // measure 13
00000001
00000001
00000010
00000000
,  // measure 14
00000100
00000000
00000100
00000000
,  // measure 15
00010000
00000000
00010000
00000000
,  // measure 16
00001000
00100000
00100000
00000000
,  // measure 17
00010000
01000000
01000000
00000000
,  // measure 18
00100000
10000000
00010000
01000000
,  // measure 19
00001000
00010000
00001000
00010000
,  // measure 20
00000100
00000000
00000010
00000000
,  // measure 21
00000001
00000001
00000001
00000000
,  // measure 22
00001000
00000000
00000100
00000000
,  // measure 23
00010000
00010000
00001000
00000000
,  // measure 24
01000000
00000000
00100000
00000000
,  // measure 25
10000000
10000000
10000000
00000000
,  // measure 26
00010000
00000000
01000000
00000000
,  // measure 27
00001000
00001000
00010000
00010000
,  // measure 28
00001000
00001000
00000010
00000000
,  // measure 29
00000001
00000001
00000100
00000000
,  // measure 30
00000100
00000100
00001000
00000000
,  // measure 31
00100000
00000000
01000000
00000000
,  // measure 32
00010000
00010000
01000000
00000000
,  // measure 33
10000000
10000000
00100000
00000000
,  // measure 34
01000000
00000000
01000000
00000000
,  // measure 35
00001000
00000000
00001000
00000000
,  // measure 36
00010000
00000010
00000010
00000000
,  // measure 37
00001000
00000100
00000100
00000000
,  // measure 38
00000010
00000001
00001000
00000100
,  // measure 39
00010000
00001000
00010000
00001000
,  // measure 40
01000000
00000000
00100000
00000000
,  // measure 41
10000000
10000000
10000000
00000000
,  // measure 42
00010000
00000000
01000000
00000000
,  // measure 43
00001000
00001000
00010000
00000000
,  // measure 44
00000100
00000000
00000010
00000000
,  // measure 45
00000001
00000001
00000001
00000000
,  // measure 46
00001000
00000000
00000100
00000000
,  // measure 47
00010000
00010000
00001000
00001000
,  // measure 48
00100000
00000000
00000000
01000000
,  // measure 49
10000000
00100000
00010000
00001000
,  // measure 50
00000010
00000000
00000000
00000100
,  // measure 51
00000001
00000010
00001000
00010000
,  // measure 52
01000000
00000000
00000000
00100000
,  // measure 53
10000000
01000000
00010000
00001000
,  // measure 54
00000100
00000000
00000001
00000000
,  // measure 55
00000020
00000000
00000030
00000000
;
