#TITLE:CaptivAte~裁き~;
#SUBTITLE:;
#ARTIST:DJ YOSHITAKA feat. A/I;
#TITLETRANSLIT:CaptivAte~SABAKI~;
#SUBTITLETRANSLIT:;
#ARTISTTRANSLIT:;
#GENRE:;
#CREDIT:;
#BANNER:CaptivAte ~SABAKI~.png;
#BACKGROUND:CaptivAte ~SABAKI~-bg.png;
#LYRICSPATH:;
#CDTITLE:;
#MUSIC:CaptivAte ~SABAKI~.ogg;
#OFFSET:-1.448000;
#SAMPLESTART:23.160000;
#SAMPLELENGTH:15.000000;
#SELECTABLE:YES;
#BPMS:0.000000=180.000000
;
#STOPS:
;
#BGCHANGES:0.000=CaptivAte ~SABAKI~.avi=1.000=1=0=0=StretchNoLoop==CrossFade==,
99999=-nosongbg-=1.000=0=0=0 // don't automatically add -songbackground-
;
#KEYSOUNDS:;
#ATTACKS:;

//---------------dance-single - Dreamland200----------------
#NOTES:
     dance-single:
     Dreamland200:
     Hard:
     8:
     0.425556,0.643190,0.092512,0.416304,0.060133,322.000000,312.000000,10.000000,45.000000,0.000000,0.000000,0.425556,0.643190,0.092512,0.416304,0.060133,322.000000,312.000000,10.000000,45.000000,0.000000,0.000000:
0000
0000
0000
0000
,
0000
0000
0000
0000
,
0000
0000
0000
0000
,
0000
0000
0000
0000
,
0000
0000
0000
0000
,
0000
0000
0000
0000
,
0000
0000
0000
0000
,
0000
0000
0000
0000
,
0000
2010
0000
3200
,
0000
0320
0000
0032
,
0000
0203
0000
0320
,
0000
0230
0000
0302
,
0000
2003
0000
3200
,
0000
0320
0000
0032
,
0000
0203
0000
0000
,
0000
0320
0000
0100
,
0030
2002
0000
3003
,
0000
0000
0010
0000
1000
0000
0100
1000
,
0010
0000
0100
0000
0001
0000
0010
0100
,
0010
0000
0001
0000
0100
0000
0010
1000
,
0001
0000
1000
0000
0010
0000
0100
0001
,
1000
0000
0100
0000
0010
0000
0100
1000
,
0001
0000
0100
0000
0010
0000
1000
0001
,
0010
0000
0000
0000
0001
0000
0000
0100
0000
0000
1000
0000
0100
0000
0000
0010
,
0000
0000
1000
0000
0100
0000
0000
0010
0000
0000
0001
0000
0100
0000
0000
0010
,
0000
1000
0001
0000
0010
0000
0100
1000
,
0100
0000
0010
0000
0001
0000
0100
0010
,
0100
0000
0001
0000
0010
0000
0100
1000
,
0100
0000
0010
0000
0001
0000
0100
1000
,
0100
0000
0010
0000
1000
0000
0100
0010
,
0001
0000
0010
0000
0100
0000
1000
0001
,
0100
0000
0000
0000
0010
0000
0000
1000
0000
0000
0100
0000
0010
0000
0000
0001
,
0000
0000
0100
0000
0001
0000
0000
1000
0000
0000
0100
0000
1000
0000
0000
0001
,
0000
0010
0200
0000
0000
0000
0000
0300
,
1000
0000
2000
0000
0000
3020
0000
0000
,
0130
0000
0002
0000
0000
0010
0023
0000
,
0000
0000
0000
0031
,
0100
0000
0000
0000
0000
0000
0000
0100
0000
0000
0000
0000
0020
0000
0000
0000
0000
0000
0000
0000
0000
0000
0000
0000
0000
0000
0000
0000
0000
0000
0000
0000
0000
0000
0000
0000
0000
0000
0000
0000
0000
0000
0000
0000
0000
0000
0000
0000
,
1030
0000
0200
0000
0000
2300
0000
0000
,
3010
0000
0200
0000
0000
0302
0000
0000
,
2003
0002
0000
0000
,
3003
0110
0000
0000
,
0000
0000
0010
0000
1000
0100
0000
0100
,
1000
0000
0010
0000
0100
0001
0000
0001
,
0100
0000
0010
0000
1000
0001
0000
0001
,
1000
0000
0010
0000
1000
0100
0000
0010
,
0001
0000
0100
0000
0010
1000
0000
1000
,
0001
0000
0100
0000
0001
0010
0000
0010
,
0001
0000
0100
0000
0010
1000
0000
1000
,
0001
0000
0000
0000
0010
0000
0000
0100
0000
0000
1000
0000
0001
0000
0000
0100
,
0000
0010
1000
0100
1000
0010
0100
0001
,
1000
0100
0010
0001
0100
1000
0100
0010
,
1000
0100
0010
0001
1000
0010
0100
0001
,
0010
0100
0010
0001
0100
0010
1000
0001
,
0010
0000
0010
0001
0100
0010
1000
0001
,
0010
0100
1000
0100
0010
0001
1000
0010
,
0100
0001
0100
0000
0010
0000
1000
0100
,
1000
0000
0001
0000
0100
0000
0000
0010
0000
0000
0100
0000
0001
0000
0000
0010
,
0000
0100
1000
0000
0010
0000
0100
0001
,
0000
0200
0000
0000
0000
0320
0000
1030
,
0100
1000
0001
0001
2001
0000
0010
0010
,
3000
0200
0000
0001
0000
0302
0000
0013
,
0200
0000
1300
0010
2000
0000
3001
0010
,
0000
0012
0000
0000
0000
0100
0000
0103
,
0010
1000
0100
0100
0120
0000
0031
0100
,
0000
1200
0000
0010
0000
0001
0000
1300
,
0100
0001
1000
0100
0010
0011
0000
0000
,
0001
0100
0010
0000
1000
0000
0100
1000
,
0010
0100
0002
0000
1003
0100
2000
0000
,
3010
0100
0020
0000
0130
1000
0200
0000
,
0310
1000
0001
0010
0100
2100
0000
0000
,
3010
0000
0100
0000
0001
0100
0000
0010
,
1000
0000
0001
0010
0001
0010
0100
1000
,
0100
1000
0100
0010
0001
0100
0010
1000
,
0001
0100
0220
0000
0000
0000
0000
0000
,
0000
0000
0000
0000
,
0000
0000
0000
0000
,
0000
0330
0000
0000
;

//---------------dance-single - Dreamland200----------------
#NOTES:
     dance-single:
     Dreamland200:
     Medium:
     6:
     0.338330,0.464526,0.027754,0.240531,0.018502,256.000000,253.000000,3.000000,26.000000,0.000000,0.000000,0.338330,0.464526,0.027754,0.240531,0.018502,256.000000,253.000000,3.000000,26.000000,0.000000,0.000000:
0000
0000
0000
0000
,
0000
0000
0000
0000
,
0000
0000
0000
0000
,
0000
0000
0000
0000
,
0000
0000
0000
0000
,
0000
0000
0000
0000
,
0000
0000
0000
0000
,
0000
0000
0000
0000
,
0000
0020
0000
2030
,
0000
3200
0000
0320
,
0000
0032
0000
0000
,
0000
0203
0000
0000
,
0000
0320
0000
2030
,
0000
3200
0000
2300
,
0000
3002
0000
0103
,
0000
0020
0000
1030
,
0000
1001
0000
0000
,
0000
0010
1000
0100
,
1000
0000
0010
0000
0100
0000
0001
0010
,
0001
0010
0100
1000
,
0001
0000
1000
0000
0100
0000
1000
0010
,
0100
0010
1000
0100
,
0010
0000
0001
0000
0100
0000
0010
1000
,
0010
0000
0100
0000
0000
0100
0001
0000
,
0000
0001
0010
0000
0000
0010
0100
0000
,
0000
0100
1000
0000
0010
0000
0100
0000
,
0001
0000
0100
0000
0010
0000
1000
0001
,
1000
0010
0100
0001
,
0010
0000
0100
0000
1000
0000
0100
0010
,
0100
1000
0001
0100
,
0010
0000
0100
0000
0001
0000
0010
0100
,
0010
0000
0001
0000
0000
0001
0100
0000
,
0000
0100
1000
0000
0000
1000
0100
0000
,
0000
0100
0020
0000
0000
0000
0000
0000
,
1000
0030
2000
0000
0000
3200
0000
0000
,
0010
0000
0320
0000
0000
0001
0002
0000
,
0000
0000
0030
0200
,
0003
0020
0000
0300
,
1000
0000
2000
0030
0000
0000
3200
0000
,
0000
0300
0020
0000
0000
0001
0000
0000
,
0001
0002
0000
0000
,
0033
1001
0000
0000
,
0000
0001
0010
0100
,
1000
0100
0001
0100
,
0010
0001
0100
0010
,
1000
0000
0100
1000
0010
0100
0001
0100
,
0010
0000
1000
0000
0100
0000
1000
0010
,
0100
0001
0010
0100
,
0100
0000
0010
0000
0001
0000
0100
0010
,
0100
0000
0000
0000
0001
0000
0000
0001
0000
0000
0100
0000
0010
0000
0000
0010
,
0000
1000
0100
0000
1000
0000
0010
0000
,
0100
0001
0010
1000
,
0010
0100
1000
0010
,
0100
0000
0001
0010
0001
1000
0100
1000
,
0010
0000
0100
0000
0001
0000
0100
0010
,
0100
0001
0010
0001
,
0001
0000
1000
0000
0100
0000
1000
0010
,
1000
0000
0000
0000
0010
0000
0000
0010
0000
0000
0100
0000
0001
0000
0000
0001
,
0000
1000
0100
0000
0010
0000
0001
0001
,
0000
2000
0000
0000
0000
0010
0000
3010
,
0000
0100
0000
0000
0001
0000
0100
0010
,
0000
0100
0000
0001
0000
0100
0000
0010
,
1000
0100
0000
0000
1000
0000
0100
0010
,
0000
0001
0000
0000
0000
0100
0000
0010
,
1000
0000
0001
0000
0010
0000
0100
1000
,
0000
0100
0000
0100
0000
0100
0000
1000
,
0010
0100
0001
0000
0100
0000
0010
0000
,
1000
0000
0001
0010
0001
0000
1000
0100
,
1000
0010
0100
0001
,
0100
0010
1000
0100
,
0010
0100
1000
0010
,
0100
0000
0001
1000
0100
0000
1000
0001
,
0010
0001
0100
0010
,
1000
0000
0001
0010
0001
0000
1000
0000
,
0010
2002
0000
0000
,
0000
0000
0000
0000
,
0000
0000
0000
0000
,
0000
3003
0000
0000
;

//---------------dance-single - Dreamtis IX----------------
#NOTES:
     dance-single:
     Dreamtis IX:
     Easy:
     4:
     0.225994,0.343451,0.018502,0.111014,0.000000,171.000000,169.000000,2.000000,12.000000,0.000000,0.000000,0.225994,0.343451,0.018502,0.111014,0.000000,171.000000,169.000000,2.000000,12.000000,0.000000,0.000000:
0000
0000
0000
0000
,
0000
0000
0000
0000
,
0000
0000
0000
0000
,
0000
0000
0000
0000
,
0000
0000
0000
0000
,
0000
0000
0000
0000
,
0000
0000
0000
0000
,
0000
0000
0000
0000
,
0000
1000
0000
0010
,
0000
0100
0000
0001
,
0000
0010
0000
0100
,
0000
1000
0000
0001
,
0000
0100
0000
0000
,
0000
0010
0000
0000
,
0000
1000
0000
0100
,
0000
0010
0000
0001
,
0000
1001
0000
0000
,
0000
1000
0000
0010
,
0000
1000
0000
0010
,
0000
0100
0000
0001
,
0000
0100
0000
0001
,
0000
0010
0000
0001
,
0000
0010
0000
0001
,
0000
1000
0000
0010
,
0000
0100
0000
0001
,
0000
0010
0000
0100
,
0000
0010
0000
0100
,
0000
1000
0000
0001
,
0000
1000
0000
0001
,
0000
1000
0000
0010
,
0000
0100
0000
0001
,
0000
1000
0000
0100
,
0000
0010
0000
0001
,
0000
0200
0000
0000
,
0010
0320
0000
2030
,
0000
3002
0000
0000
,
0000
0023
0000
0230
,
0000
2300
0000
0000
,
0010
3020
0000
0230
,
0000
2300
0000
3200
,
0000
0302
0000
0000
,
0000
0003
0000
0000
,
0000
1000
0100
0010
,
0001
0100
0010
0100
,
0001
1000
0100
0010
,
0100
1000
0010
0100
,
0001
0010
0000
0100
,
1000
0001
0000
0100
,
0010
1000
0100
0010
,
0001
1000
0000
0001
,
0000
0100
0010
0100
,
0001
1000
0100
0010
,
0100
1000
0010
0100
,
0001
0010
0100
1000
,
0001
0100
0010
0100
,
0001
0010
0000
0100
,
1000
0010
0100
0001
,
1000
0100
0000
0010
,
0000
0001
0100
0010
,
0000
0100
0000
0001
,
0000
1000
0100
0010
,
0000
0100
0000
0100
,
0000
1000
0010
0100
,
0000
0001
0000
0001
,
0000
1000
0100
0010
,
0001
1000
0000
1000
,
0000
0010
0100
0001
,
0000
1000
0100
0010
,
0001
0100
1000
0100
,
0000
0010
1000
0100
,
0010
0001
0100
0010
,
0000
1000
0100
0001
,
0100
1000
0010
0001
,
0100
1000
0010
0100
,
0001
1001
0000
0000
;

//---------------dance-single - Dreamtis IX----------------
#NOTES:
     dance-single:
     Dreamtis IX:
     Beginner:
     1:
     0.081939,0.137380,0.018502,0.064758,0.000000,62.000000,60.000000,2.000000,7.000000,0.000000,0.000000,0.081939,0.137380,0.018502,0.064758,0.000000,62.000000,60.000000,2.000000,7.000000,0.000000,0.000000:
0000
0000
0000
0000
,
0000
0000
0000
0000
,
0000
0000
0000
0000
,
0000
0000
0000
0000
,
0000
0000
0000
0000
,
0000
0000
0000
0000
,
0000
0000
0000
0000
,
0000
0000
0000
0000
,
0000
1000
0000
0000
,
0000
0010
0000
0000
,
0000
0100
0000
0000
,
0000
0001
0000
0000
,
0000
0010
0000
0000
,
0000
0100
0000
0000
,
0000
2000
0000
0000
,
0000
0000
0000
3000
,
0000
1001
0000
0000
,
0000
1000
0000
0000
,
0000
0010
0000
0000
,
0000
0100
0000
0000
,
0000
0001
0000
0000
,
0000
1000
0000
0000
,
0000
0100
0000
0000
,
0000
0010
0000
0000
,
0000
0000
0000
0000
,
0000
0010
0000
0000
,
0000
0100
0000
0000
,
0000
1000
0000
0000
,
0000
0010
0000
0000
,
0000
0100
0000
0000
,
0000
0001
0000
0000
,
0000
1000
0000
0000
,
0000
0000
0000
0000
,
0000
0200
0000
0300
,
0000
2000
0000
3000
,
0000
0020
0000
0000
,
0000
0030
0000
0000
,
0000
0200
0000
0300
,
0000
0002
0000
0003
,
0000
2000
0000
0000
,
0000
3000
0000
0000
,
0000
1000
0000
0000
,
0000
1000
0000
0000
,
0000
0100
0000
0000
,
0000
0010
0000
0000
,
0000
0001
0000
0000
,
0000
1000
0000
0000
,
0000
0010
0000
0000
,
0000
0100
0000
0000
,
0000
0000
0000
0000
,
0000
0001
0000
0000
,
0000
0010
0000
0000
,
0000
0100
0000
0000
,
0000
1000
0000
0000
,
0000
0010
0000
0000
,
0000
0100
0000
0000
,
0000
0001
0000
0000
,
0000
0000
0000
0000
,
0000
1000
0000
0000
,
0000
0010
0000
0000
,
0000
1000
0000
0000
,
0000
0010
0000
0000
,
0000
0100
0000
0000
,
0000
0001
0000
0000
,
0000
0100
0000
0000
,
0000
0001
0000
0000
,
0000
1000
0000
0000
,
0000
0100
0000
0000
,
0000
0001
0000
0000
,
0000
0010
0000
0000
,
0000
1000
0000
0000
,
0000
0100
0000
0000
,
0000
0010
0000
0000
,
0000
0001
0000
0000
,
0000
1001
0000
0000
;

//---------------dance-single - Dreamland200----------------
#NOTES:
     dance-single:
     Dreamland200:
     Challenge:
     9:
     0.533927,0.714656,0.083261,0.305290,0.069384,404.000000,395.000000,9.000000,33.000000,0.000000,0.000000,0.533927,0.714656,0.083261,0.305290,0.069384,404.000000,395.000000,9.000000,33.000000,0.000000,0.000000:
0000
0000
0000
0000
,
0000
0000
0000
0000
,
0000
0000
0000
0000
,
0000
0000
0000
0000
,
0000
0000
0000
0000
,
0000
0000
0000
0000
,
0000
0000
0000
0000
,
0000
0000
0000
0000
,
0000
0000
0010
0000
1000
0100
0000
0100
,
1000
0000
0010
0000
0100
0000
0001
1000
,
0100
0000
1000
0000
0000
1000
0001
0000
,
0000
0001
0100
0000
0000
0100
0010
0000
,
0000
0010
1000
0000
0100
1000
0000
0100
,
0010
0000
0001
0100
0010
0000
0100
0000
,
0001
0000
0010
0001
0010
0001
1000
0100
,
1000
0100
1000
0010
0100
0001
1000
0100
,
0010
0001
2002
0000
0000
0000
3003
0000
,
0000
0000
0010
1000
0100
0010
0100
1000
,
0001
0100
0010
1000
0100
0001
0100
1000
,
0010
0100
0001
1000
0100
0010
0001
1000
,
0010
0100
0001
0100
0010
1000
0001
0010
,
0100
0000
0010
0001
0010
0001
1000
0100
,
1000
0100
1000
0010
1000
0010
0100
0001
,
0100
0000
0001
0000
1000
0000
0000
0010
0000
0000
1000
0000
0001
0000
0000
0010
,
0000
0000
0001
0000
0100
0000
0000
0010
0000
0000
0100
0000
0001
0000
0000
1000
,
0000
0001
1000
0100
0010
0001
0100
0010
,
0100
0001
0010
0100
1000
0010
0100
0001
,
1000
0100
0010
0001
0100
1000
0100
0010
,
1000
0100
0010
0001
1000
0010
0100
0001
,
0010
0000
0001
0100
0001
0100
0010
1000
,
0010
1000
0001
0010
0001
0010
0100
1000
,
0100
0000
1000
0000
0001
0000
0000
0100
0000
0000
0010
0000
1000
0000
0000
0100
,
0000
0000
0010
0000
0001
0000
0000
0100
0000
0000
1000
0000
0100
0000
0000
0010
,
0000
1000
0200
0000
0000
0000
0000
0300
,
1000
0000
2000
0000
0000
3020
0000
0000
,
0130
0000
0002
0000
0000
0010
0023
0000
,
0000
0000
0000
0031
,
0100
0000
0000
0000
0000
0000
0000
0100
0000
0000
0000
0000
0020
0000
0000
0000
0000
0000
0000
0000
0000
0000
0000
0000
0000
0000
0000
0000
0000
0000
0000
0000
0000
0000
0000
0000
0000
0000
0000
0000
0000
0000
0000
0000
0000
0000
0000
0000
,
1030
0000
0200
0000
0000
2300
0000
0000
,
3010
0000
0200
0000
0000
0302
0000
0000
,
2003
0002
0000
0000
,
3003
0220
0000
0000
,
0330
0000
0010
1000
0100
0010
0100
1000
,
0001
0100
0010
1000
0001
0010
0100
1000
,
0001
0100
0010
1000
0001
0010
0100
0010
,
0001
1000
0010
0100
0001
0100
0010
1000
,
0001
0000
0010
0100
1000
0100
0010
0001
,
1000
0000
0010
0100
0001
0100
0010
1000
,
0001
0000
0010
0100
1000
0010
0100
0001
,
1000
0000
0001
0000
0010
0000
0000
0100
0000
0000
1000
0000
0001
0000
0000
0100
,
0000
0010
1000
0100
1000
0010
0100
0001
,
1000
0100
0010
0001
0100
1000
0100
0010
,
1000
0100
0010
0001
1000
0010
0100
0001
,
0010
0100
0010
0001
0100
0010
1000
0001
,
0010
0000
0010
0001
0100
0010
1000
0001
,
0010
0100
1000
0100
0010
0001
1000
0010
,
0100
0001
0100
0000
0010
0000
1000
0100
,
1000
0000
0001
0000
0100
0000
0000
0010
0000
0000
0100
0000
0001
0000
0000
0010
,
0000
0100
1000
0000
0010
0000
0100
0001
,
0000
0200
0000
0000
0000
0320
0000
1030
,
0100
1000
0001
0100
2001
0000
0010
0010
,
3000
0200
0000
0001
0000
0302
0000
0013
,
0200
0000
1300
0010
2000
0000
3001
0010
,
0000
0012
0000
0000
0000
0100
0000
0103
,
0010
1000
0100
0010
0120
0000
0031
0100
,
0000
1200
0000
0010
0000
0001
0000
1300
,
0100
0001
1000
0100
0010
0011
0000
0000
,
0001
0100
0010
0000
1000
0000
0100
1000
,
0010
0100
0002
0000
1003
0100
2000
0000
,
3010
0100
0020
0000
0130
1000
0200
0000
,
0310
1000
0001
0010
0100
2100
0000
0000
,
3010
0000
0100
0000
0001
0100
0000
0010
,
1000
0000
0001
0010
0001
0010
0100
1000
,
0100
0000
1000
0000
0001
0010
0001
0000
0100
0000
0010
0000
1000
0100
1000
0000
,
0010
0100
2002
0000
0000
0000
0000
0000
,
0000
0000
0000
0000
,
0000
0000
0000
0000
,
0000
3003
0000
0000
;

//---------------dance-double - ----------------
#NOTES:
     dance-double:
     :
     Challenge:
     9:
     0.598685,0.783577,0.101763,0.231280,0.092512,453.000000,442.000000,11.000000,25.000000,0.000000,0.000000,0.598685,0.783577,0.101763,0.231280,0.092512,453.000000,442.000000,11.000000,25.000000,0.000000,0.000000:
// measure 0
00000000
00000000
00000000
00000000
,  // measure 1
00000000
00000000
00000000
00000000
,  // measure 2
00000000
00000000
00000000
00000000
,  // measure 3
00000000
00000000
00000000
00000000
,  // measure 4
00000000
00000000
00000000
00000000
,  // measure 5
00000000
00000000
00000000
00000000
,  // measure 6
00000000
00000000
00000000
00000000
,  // measure 7
00000000
00000000
00000000
00000000
,  // measure 8
00000000
00000000
00001000
00000000
00010000
00000000
00001000
00010000
,  // measure 9
00001000
01000000
00010000
00010000
10000000
00000000
01000000
10000000
,  // measure 10
00100000
01000000
00010000
00000000
00100000
00001000
00010000
00000000
,  // measure 11
00010000
00000000
00000100
00000000
00001000
00000000
00000000
00000000
00001000
00000000
00000001
00000000
00000100
00000000
00000000
00000001
,  // measure 12
00000000
00000010
00000100
00000000
00010000
00000000
00001000
00100000
,  // measure 13
00001000
00010000
01000000
01000000
00100000
00000000
00100000
00010000
,  // measure 14
10000000
00010000
01000000
10000000
01000000
00001000
00000100
00000001
,  // measure 15
00000100
00001000
00010000
00100000
10000000
00100000
00010000
00001000
,  // measure 16
00010000
00001000
00022000
00000000
00000000
00000000
00000000
00000000
,  // measure 17
00000000
00033000
00010000
00001000
00010000
00000100
00001000
00000100
,  // measure 18
00000010
00000001
00000100
00000001
00000010
00000100
00001000
00000100
,  // measure 19
00000010
00000001
00000100
00001000
00010000
00001000
00000100
00000010
,  // measure 20
00001000
00000100
00000010
00000001
00000100
00001000
00010000
00010000
,  // measure 21
00010000
00000000
01000000
10000000
01000000
00100000
01000000
10000000
,  // measure 22
00100000
01000000
00001000
00010000
00001000
00000100
00000010
00000100
,  // measure 23
00001000
00000000
00000000
00000000
00010000
00000000
00000000
00000010
00000000
00000000
00000010
00000000
00000010
00000000
00000000
00001000
,  // measure 24
00000000
00000000
00001000
00000000
00001000
00000000
00000000
00000001
00000000
00000000
00000001
00000000
00000001
00000000
00000000
00000100
,  // measure 25
00000000
00000100
00000100
00001000
00000100
00000001
00000100
00001000
,  // measure 26
00010000
00001000
00100000
00010000
01000000
00100000
10000000
01000000
,  // measure 27
00010000
01000000
10000000
00100000
01000000
00010000
00100000
01000000
,  // measure 28
10000000
01000000
00010000
00001000
01000000
00001000
00010000
00000100
,  // measure 29
00000010
00000000
00000010
00000001
00000100
00000010
00000100
00001000
,  // measure 30
00010000
01000000
10000000
00000000
00000000
00100000
00100000
00000000
,  // measure 31
10000000
00000000
00000000
10000000
00000000
00000000
10000000
00000000
01000000
00000000
00000000
01000000
00000000
00000000
01000000
00000000
,  // measure 32
00010000
00000000
00000000
00010000
00000000
00000000
00010000
00000000
00001000
00000000
00000100
00000000
00001000
00000000
00000000
00010000
,  // measure 33
00000000
00100000
20000000
00000000
31000000
00010000
00002000
00000000
,  // measure 34
00000000
00000000
00003100
00000000
00000001
00000100
00002000
00000000
,  // measure 35
00010000
00000000
02003000
00000000
03010000
00100000
02000000
00000000
,  // measure 36
13000000
00000000
00200000
00000000
01300000
00001000
00010000
00000000
,  // measure 37
00001000
00000000
00000000
00000000
00000000
00000000
00000000
00010000
00000000
00000000
00000000
00000000
00200000
00000000
00000000
00000000
00000000
00000000
00000000
00000000
00000000
00000000
00000000
00000000
10300000
00000000
00000000
00000000
00000000
00000000
01000000
00000000
00000000
00000000
00000000
00000000
00200000
00000000
00000000
00000000
00000000
00000000
00000000
00000000
00000000
00000000
00000000
00000000
,  // measure 38
00001000
00000000
00320000
00000000
01030000
00100000
20000000
00000000
,  // measure 39
01000000
00000000
30020000
00000000
01030000
00001000
00020000
00000000
,  // measure 40
00001000
00000000
00030200
00000000
00001300
00000001
00000010
00000100
,  // measure 41
00001000
00000001
00002002
00000000
00000000
00000000
00000000
00000000
,  // measure 42
00000000
00003003
00000001
00000100
00001000
00000100
00000010
00000100
,  // measure 43
00001000
00010000
01000000
10000000
01000000
00100000
00010000
10000000
,  // measure 44
00010000
00000000
00010000
00100000
00001000
00010000
00000100
00001000
,  // measure 45
00000001
00000000
00000001
00001000
00000001
00000100
00001000
00010000
,  // measure 46
01000000
10000000
00010000
10000000
00100000
01000000
00001000
00010000
,  // measure 47
00000100
00000000
00001000
00000100
00000010
00000100
00001000
00000001
,  // measure 48
00000100
00000000
00000001
00000100
00001000
00000001
00000010
00001000
,  // measure 49
00010000
00000000
00000000
00000000
00100000
00000000
00000000
00010000
00000000
00000000
10000000
00000000
01000000
00000000
00000000
01000000
,  // measure 50
00000000
01000000
00010000
01000000
10000000
01000000
00100000
01000000
,  // measure 51
00001000
00010000
00000100
00000010
00000001
00001000
00000010
00000100
,  // measure 52
00000001
00000010
00001000
00010000
01000000
10000000
00100000
10000000
,  // measure 53
01000000
00100000
00001000
00010000
00000000
00000000
00001000
00001000
,  // measure 54
00010000
00010000
00000100
00000010
00000100
00001000
00000010
00000100
,  // measure 55
00000001
00000000
00000001
00001000
00000001
00000100
00001000
00010000
,  // measure 56
00001000
00000000
00001000
00010000
00001000
01000000
00010000
10000000
,  // measure 57
01000000
00000000
00000000
00000000
00100000
00000000
00000000
00010000
00000000
00000000
01000000
00000000
00100000
00000000
00000000
10000000
,  // measure 58
00000000
01000000
00020000
00000000
00031000
00000000
00000100
00000001
,  // measure 59
00000000
00000012
00000000
00001003
00000000
00001010
00000000
00001000
,  // measure 60
00000010
00000100
00000001
00001000
00002001
00000000
00000010
00000000
,  // measure 61
00003100
00000000
00010000
00000000
00000000
00000000
00001000
00010000
00001000
00000000
00010000
00000000
00000000
00000000
00010000
00001000
,  // measure 62
00010000
00001000
00010000
00000100
00001100
00000000
00001000
00000001
,  // measure 63
00000010
00000100
00010000
00001000
00100000
00010000
10000000
00100000
,  // measure 64
01000000
00010000
00110000
00000000
00000000
00011000
00000000
00010100
,  // measure 65
00000000
00002100
00000000
00003100
00000000
00000100
00001000
00000100
,  // measure 66
00000010
00000100
00001000
00000010
00000100
00000001
00000010
00001000
,  // measure 67
00010000
01000000
10000000
00100000
01000000
00010000
10000000
00010000
,  // measure 68
00100000
01000000
10000000
01000000
00010000
00001000
00000010
00001000
,  // measure 69
00010000
00001000
00100000
00010000
10000000
00010000
00100000
01000000
,  // measure 70
10000000
10000000
01000000
10000000
00100000
01000000
00001000
00010000
,  // measure 71
00000100
00001000
00000010
00000010
00000020
00000000
00000130
00000100
,  // measure 72
00000200
00000000
00001300
00010000
00001000
00010000
00001000
00010000
,  // measure 73
00001000
00000000
00010000
00000000
00001000
00010000
00001000
00000000
00010000
00001000
00010000
00000000
00001000
00010000
00001000
00000000
,  // measure 74
00010000
00001000
00010000
00000000
00022000
00000000
00000000
00000000
00000000
00000000
00000000
00000000
00000000
00000000
00000000
00000000
,  // measure 75
00000000
00000000
00000000
00000000
,  // measure 76
00000000
00000000
00000000
00000000
,  // measure 77
00033000
00000000
00000000
00000000
;

//---------------dance-double - ----------------
#NOTES:
     dance-double:
     :
     Hard:
     8:
     0.490314,0.641109,0.055507,0.305290,0.060133,371.000000,365.000000,6.000000,33.000000,0.000000,0.000000,0.490314,0.641109,0.055507,0.305290,0.060133,371.000000,365.000000,6.000000,33.000000,0.000000,0.000000:
00000000
00000000
00000000
00000000
,
00000000
00000000
00000000
00000000
,
00000000
00000000
00000000
00000000
,
00000000
00000000
00000000
00000000
,
00000000
00000000
00000000
00000000
,
00000000
00000000
00000000
00000000
,
00000000
00000000
00000000
00000000
,
00000000
00000000
00000000
00000000
,
00000000
00000000
00001000
00000000
00010000
00000000
00001000
00100000
,
00000000
00010000
00100000
00000000
01000000
00000000
10000000
00100000
,
01000000
00000000
00010000
00000000
00000000
00010000
01000000
00000000
,
00000000
01000000
00001000
00000000
00000000
00001000
00010000
00000000
,
00000000
00010000
00000010
00000000
00000100
00000000
00000001
00000010
,
00000001
00000000
00000100
00001000
00000100
00000000
00000010
00000100
,
00000010
00000000
00000100
00001000
00000100
00001000
00010000
00001000
,
00010000
00001000
00010000
01000000
00010000
01000000
00010000
00001000
,
00010000
00001000
00022000
00000000
00000000
00000000
00000000
00000000
,
00000000
00033000
00010000
00000000
00001000
00100000
00010000
00000000
,
00010000
10000000
00100000
00000000
00100000
01000000
00001000
00000000
,
00001000
00010000
00000100
00000000
00000100
00001000
00000001
00000000
,
00000001
00001000
00000100
00000000
00000100
00001000
00000010
00000000
,
00000010
00000100
00000001
00000000
00000010
00000000
00000000
00000001
,
00000100
00000001
00001000
00000000
00000100
00000000
00000000
00010000
,
00001000
00000000
01000000
00000000
00010000
00000000
00000000
00100000
00000000
00000000
00100000
00000000
00100000
00000000
00000000
00010000
,
00000000
00000000
00010000
00000000
00010000
00000000
00000000
10000000
00000000
00000000
10000000
00000000
00100000
00000000
00000000
10000000
,
00000000
10000000
01000000
00000000
01000000
00010000
00001000
00000000
,
00010000
00001000
00000100
00000000
00000100
00001000
00010000
00000000
,
00010000
00001000
01000000
00000000
01000000
00010000
10000000
00000000
,
10000000
01000000
00010000
00000000
00010000
01000000
00100000
00000000
,
00100000
00001000
00010000
00000000
00000100
00000000
00000010
00000001
,
00000010
00000100
00000010
00000000
00000001
00000000
00000100
00001000
,
00010000
00000000
00001000
00000000
00010000
00000000
00000000
00000010
00000000
00000000
00000010
00000000
00000010
00000000
00000000
00001000
,
00000000
00000000
00001000
00000000
00001000
00000000
00000000
00000001
00000000
00000000
00000001
00000000
00000001
00000000
00000000
00000100
,
00000000
00000100
00002000
00000000
00000000
00000000
00000000
00000000
,
00000000
00000000
00023000
00000000
00000000
02030000
00000000
00000000
,
23000000
00000000
30020000
00000000
00000000
00100000
00200000
00000000
,
00000000
00000000
00000000
00000000
00000000
00330000
00100000
00000000
,
00001000
00000000
00000000
00000000
00000000
00000000
00000000
00010000
00000000
00000000
00000000
00000000
00002000
00000000
00000000
00000000
00000000
00000000
00000000
00000000
00000000
00000000
00000000
00000000
00000000
00000000
00000000
00000000
00000000
00000000
00000000
00000000
00000000
00000000
00000000
00000000
00000000
00000000
00000000
00000000
00000000
00000000
00000000
00000000
00000000
00000000
00000000
00000000
,
00003020
00000000
00000032
00000000
00000000
00002003
00000000
00000000
,
00003200
00000000
00020300
00000000
00000000
00230000
00000000
00000000
,
20300000
32000000
00000000
00000000
,
00000000
20000000
00000000
00000000
,
33000000
00000000
10000000
00100000
10000000
01000000
00010000
01000000
,
10000000
00100000
01000000
00001000
00010000
00000100
00000010
00000001
,
00000100
00001000
00000100
00000001
00001000
00000010
00001000
00000100
,
00010000
00001000
02000000
00000000
00000000
03020000
00000000
00000000
,
20030000
00000000
31000000
10000000
00100000
10000000
01000000
00100000
,
00010000
00000000
00010000
00100000
00001000
00010000
00000100
00001000
,
00000100
00000000
00000100
00000010
00000001
00001000
00000001
00000010
,
00000100
00000000
00000000
00000000
00000010
00000000
00000000
00000001
00000000
00000000
00000100
00000000
00000100
00000000
00000000
00001000
,
00000000
00000100
00000001
00001000
00000001
00000010
00000100
00001000
,
00000001
00000010
00001000
00010000
01000000
10000000
00100000
10000000
,
01000000
00100000
00001000
00010000
00000100
00000010
00000001
00000100
,
00001000
00010000
02000000
00000000
00000000
23000000
00000000
00000000
,
30200000
00000000
01300000
00010000
10000000
00010000
00100000
00001000
,
00010000
00000000
00010000
00001000
00010000
00000100
00001000
00000001
,
00001000
00000000
00001000
00000001
00001000
00000010
00001000
00000100
,
00010000
00000000
00000000
00000000
00000010
00000000
00000000
00010000
00000000
00000000
00001000
00000000
00100000
00000000
00000000
00001000
,
00000000
00010000
00002000
00000000
00103000
00000000
00010000
10000000
,
00000000
02000000
00000000
03000000
00000000
02000000
00000000
03010000
,
00001000
00000100
00000002
00000000
00000013
00000000
00000100
00001000
,
00000000
00000100
00000000
00000100
00000000
00001000
00000000
00000100
,
00010000
00001000
00100000
00100000
00110000
00000000
00010000
10000000
,
00000000
02000000
00000000
03000000
00000000
01000000
00000000
10000000
,
01000000
00010000
00002000
00000000
00003000
00011000
00000000
00010100
,
00000000
00002100
00000000
00000100
00000000
00003001
00000000
00001000
,
00000001
00001000
00000010
00000100
00000001
00000010
00000100
00001000
,
00000001
00001000
00000100
00000010
00000001
00000100
00001000
00010000
,
00001000
00000000
00010000
00001000
01000000
00010000
10000000
00100000
,
01000000
00010000
10000000
00100000
01000000
00001000
00010000
00000100
,
00010000
00000000
00001000
00010000
01000000
00000000
00010000
00001000
,
00000100
00000000
00001000
00010000
00100000
00000000
00010000
00001000
,
00000010
00000000
00001000
00010000
01000000
00010000
00001000
00010000
,
01000000
00010000
00001000
00000100
00001000
00010000
00001000
00000100
,
00001000
00010000
00022000
00000000
00000000
00000000
00000000
00000000
,
00000000
00000000
00000000
00000000
,
00000000
00000000
00000000
00000000
,
00033000
00000000
00000000
00000000
;

//---------------dance-double - ----------------
#NOTES:
     dance-double:
     :
     Medium:
     6:
     0.355511,0.569874,0.074010,0.370048,0.018502,269.000000,261.000000,8.000000,40.000000,0.000000,0.000000,0.355511,0.569874,0.074010,0.370048,0.018502,269.000000,261.000000,8.000000,40.000000,0.000000,0.000000:
00000000
00000000
00000000
00000000
,
00000000
00000000
00000000
00000000
,
00000000
00000000
00000000
00000000
,
00000000
00000000
00000000
00000000
,
00000000
00000000
00000000
00000000
,
00000000
00000000
00000000
00000000
,
00000000
00000000
00000000
00000000
,
00000000
00000000
00000000
00000000
,
00000000
00021000
00000000
00032000
,
00000000
00003200
00000000
00000302
,
00000000
00002003
00000000
00003002
,
00000000
00000203
00000000
00002300
,
00000000
00023000
00000000
02030000
,
00000000
23000000
00000000
30020000
,
00000000
20030000
00000000
30200000
,
00000000
00320000
00000000
00032000
,
00000000
00013000
00000000
00000000
,
00000000
00000000
00010000
00000000
00000100
00000000
00001000
00000100
,
00001000
00000000
00000010
00000000
00000100
00000000
00000001
00000010
,
00000001
00000100
00001000
00010000
,
00001000
00000100
00001000
00100000
,
00001000
00000000
00010000
00000000
01000000
10000000
00000000
00010000
,
10000000
00000000
00100000
00000000
01000000
00010000
00000000
10000000
,
00010000
00000000
01000000
00000000
00000000
00100000
10000000
00000000
,
00000000
10000000
00010000
00000000
00000000
00010000
01000000
00000000
,
00000000
01000000
00001000
00000000
00010000
00000000
00000100
00000010
,
00000100
00000000
00010000
00000000
00001000
00000000
00100000
01000000
,
00100000
00010000
00001000
00000100
,
00001000
00010000
00001000
00000010
,
00001000
00000000
00010000
00000000
00000100
00010000
00000000
00000100
,
00001000
00000000
00000001
00000000
00000100
00000001
00000000
00001000
,
00000001
00000000
00001000
00000000
00000000
00000100
00000010
00000000
,
00000000
00000010
00000001
00000000
00000000
00000001
00001000
00000000
,
00000000
00000001
00000020
00000000
00000000
00000000
00000000
00000000
,
00000000
00000000
00002030
00000000
00000000
00023000
00000000
00000000
,
02030000
00000000
03020000
00000000
00000000
00001000
00002000
00000000
,
00000000
00000000
00030000
00203000
,
00000000
00320000
00000000
00000000
,
02030000
00000000
23000000
00000000
30000000
02000000
00000000
00000000
,
03020000
00000000
20030000
00000000
00000000
30200000
00000000
00000000
,
20300000
32000000
00000000
00000000
,
00000000
03000000
00000000
00000000
,
00000000
01000000
10000000
00100000
,
01000000
00000000
00001000
00000000
00010000
00000100
00000000
00001000
,
00000001
00000000
00000100
00000000
00000010
00001000
00000000
00000100
,
00010000
00000000
00001000
00000000
00100000
00010000
01000000
00100000
,
10000000
01000000
00100000
00000000
00001000
00010000
00000000
00000100
,
00001000
00000000
00000010
00000000
00000100
00000001
00000000
00000010
,
00000100
00000000
00000010
00000000
00000001
00000100
00000000
00001000
,
00010000
00000000
00000000
00000000
00100000
00000000
00000000
00100000
00000000
00000000
10000000
00000000
00010000
00000000
00000000
00010000
,
00000000
01000000
00001000
00000000
00010000
00000000
00000100
00000000
,
00000010
00000000
00000001
00000000
00000010
00000001
00000000
00000100
,
00001000
00000000
00010000
00000000
00100000
10000000
00000000
01000000
,
00010000
00000000
00001000
00000000
00000100
00000000
00000001
00000010
,
00000100
00001000
00000001
00000000
00000100
00001000
00000000
00001000
,
00010000
00000000
01000000
00000000
10000000
01000000
00000000
01000000
,
00010000
00000000
00001000
00000000
00000100
00000001
00000000
00000010
,
00000100
00000000
00000000
00000000
00000010
00000000
00000000
00000010
00000000
00000000
00001000
00000000
00000010
00000000
00000000
00000010
,
00000000
00000001
00000200
00000000
00001000
00000000
00001300
00000000
,
00000000
00002000
00000000
00003000
00000000
00002000
00000000
00000000
,
00013000
01000000
00000000
21000000
00000000
30010000
00000000
00000000
,
00000000
10000000
00000000
10000000
00000000
10010000
00000000
10000000
,
01000000
00100000
00000000
00001000
00000000
00010000
00001000
00000000
,
00000000
00000200
00000000
00000300
00000000
00000200
00000000
00000300
,
00000001
00000000
00000010
00000000
00000001
00000000
00001000
00000001
,
00000000
00000100
00000000
00000100
00000000
00001000
00000000
00010000
,
00001000
00100000
00010000
00000000
10000000
00000000
01000000
10000000
,
01000000
00000000
00100000
00000000
00001000
00000000
00010000
00001000
,
00010000
00000000
00000100
00000000
00001000
00000000
00000001
00000100
,
00000001
00000000
00000010
00000000
00000100
00000000
00001000
00000100
,
00001000
00000000
00000100
00000000
00000010
00000000
00000001
00000010
,
00001000
00000000
00010000
00000000
01000000
00000000
10000000
01000000
,
00010000
00000000
00001000
00010000
00001000
00000000
00010000
00001000
,
00010000
00011000
00011000
00011000
,
00011000
00022000
00000000
00000000
,
00000000
00000000
00000000
00000000
,
00000000
00000000
00000000
00000000
,
00033000
00000000
00000000
00000000
;

//---------------dance-double - ----------------
#NOTES:
     dance-double:
     :
     Easy:
     4:
     0.220707,0.356171,0.009251,0.397802,0.000000,167.000000,166.000000,1.000000,43.000000,0.000000,0.000000,0.220707,0.356171,0.009251,0.397802,0.000000,167.000000,166.000000,1.000000,43.000000,0.000000,0.000000:
00000000
00000000
00000000
00000000
,
00000000
00000000
00000000
00000000
,
00000000
00000000
00000000
00000000
,
00000000
00000000
00000000
00000000
,
00000000
00000000
00000000
00000000
,
00000000
00000000
00000000
00000000
,
00000000
00000000
00000000
00000000
,
00000000
00000000
00000000
00000000
,
00000000
00020000
00000000
00032000
,
00000000
00003200
00000000
00000302
,
00000000
00002003
00000000
00003002
,
00000000
00000023
00000000
00002030
,
00000000
00023000
00000000
02030000
,
00000000
23000000
00000000
30020000
,
00000000
20030000
00000000
32000000
,
00000000
03020000
00000000
00032000
,
00000000
00013000
00000000
00000000
,
00000000
00010000
00000000
00000100
,
00001000
00000100
00000000
00000100
,
00000001
00000100
00000000
00000100
,
00000010
00000100
00000000
00000100
,
00010000
00001000
00000000
00100000
,
00000000
00010000
00000000
10000000
,
00000000
20000000
00000000
32000000
,
00000000
03020000
00000000
00032000
,
00000000
00013000
00000000
01000000
,
00010000
01000000
00000000
01000000
,
10000000
01000000
00000000
01000000
,
00100000
01000000
00000000
01000000
,
00010000
00001000
00000000
00000100
,
00000000
00000001
00000000
00000010
,
00000000
00000002
00000000
00000203
,
00000000
00002300
00000000
00023000
,
00000000
02030000
00000000
00000000
,
00000000
23000000
00000000
00000000
,
00000000
30020000
00000000
00000000
,
00000000
00200000
00030000
00002000
,
00303000
00000020
00000000
00000000
,
00000000
00002030
00000000
00000000
,
00000000
00003200
00000000
00000000
,
00000000
00020300
00000000
00000000
,
00000000
00030000
00000000
00000000
,
00000000
00001000
00010000
01000000
,
00010000
00001000
00000100
00000001
,
00001000
00000001
00000010
00001000
,
00010000
01000000
10000000
00010000
,
10000000
00000000
00010000
00000000
00000000
00010000
00000000
00000000
,
01000000
00000000
10000000
00000000
00000000
10000000
00000000
00000000
,
01000000
00000000
00010000
00000000
00000000
00010000
00000000
00000000
,
00100000
00002000
00000000
00003200
,
00000000
00000301
00000010
00000100
,
00000010
00000001
00000100
00001000
,
00010000
01000000
10000000
01000000
,
00100000
00001000
00010000
00000100
,
00001000
00000000
00000001
00000000
00000000
00000001
00000000
00000000
,
00000100
00000000
00001000
00000000
00000000
00001000
00000000
00000000
,
00000100
00000000
00000001
00000000
00000000
00000001
00000000
00000000
,
00000010
00002000
00000000
00023000
,
00000000
00230000
00000000
10000000
,
00000000
00010000
00000000
10000000
,
00300000
00000000
00000000
10000000
00000000
20000000
00000000
00000000
,
00000000
00000000
00000000
00000000
00000000
01000000
00000000
30000000
,
01000000
00000000
00010000
00002000
,
00000000
00000100
00000000
00000000
00000000
00010000
00003000
00000000
,
00000000
00000000
00000000
00010000
00000000
00020000
00000000
00000000
,
00000000
00000100
00000000
00000000
00000000
00031000
00000000
00000000
,
00000000
00010000
00001000
00010000
,
00001000
01000000
00010000
01000000
,
00000000
00010000
10000000
00010000
,
10000000
01000000
00100000
01000000
,
00000000
01000000
10000000
01000000
,
10000000
01000000
00010000
01000000
,
00000000
00010000
00001000
00010000
,
00001000
00010000
00001000
00010000
,
00001000
00022000
00000000
00000000
,
00000000
00000000
00000000
00000000
,
00000000
00000000
00000000
00000000
,
00033000
00000000
00000000
00000000
;
