#VERSION:0.83;
#TITLE:Caffeine (feat. Lamar Hall);
#SUBTITLE:;
#ARTIST:Jeff Williams and Casey Lee Williams;
#TITLETRANSLIT:;
#SUBTITLETRANSLIT:;
#ARTISTTRANSLIT:;
#GENRE:;
#ORIGIN:;
#CREDIT:;
#BANNER:Caffeine (feat. Lamar Hall).png;
#BACKGROUND:Caffeine (feat. Lamar Hall)-bg.png;
#PREVIEWVID:;
#JACKET:Caffeine (feat. Lamar Hall)-jacket.png;
#CDIMAGE:;
#DISCIMAGE:;
#LYRICSPATH:;
#CDTITLE:;
#MUSIC:Caffeine (feat. Lamar Hall).ogg;
#OFFSET:0.030499;
#SAMPLESTART:93.541954;
#SAMPLELENGTH:19.200005;
#SELECTABLE:YES;
#BPMS:0.000=200.000;
#STOPS:;
#DELAYS:;
#WARPS:;
#TIMESIGNATURES:0.000=4=4;
#TICKCOUNTS:0.000=4;
#COMBOS:0.000=1;
#SPEEDS:0.000=1.000=0.000=0;
#SCROLLS:0.000=1.000;
#FAKES:;
#LABELS:0.000=Song Start;
#BGCHANGES:0.500=Caffeine (feat. Lamar Hall).avi=1.000=1=0=1===CrossFade==,
408.000=Caffeine (feat. Lamar Hall)-bg.png=1.000=0=0=1=====,
99999=-nosongbg-=1.000=0=0=0 // don't automatically add -songbackground-
;
#KEYSOUNDS:;
#ATTACKS:
;

//---------------dance-single - ----------------
#NOTEDATA:;
#CHARTNAME:;
#STEPSTYPE:dance-single;
#DESCRIPTION:;
#CHARTSTYLE:;
#DIFFICULTY:Beginner;
#METER:2;
#RADARVALUES:0.110349,0.193112,0.075730,0.022719,0.000000,102.000000,92.000000,10.000000,3.000000,0.000000,0.000000,0.000000,0.000000,0.000000,0.110349,0.193112,0.075730,0.022719,0.000000,102.000000,92.000000,10.000000,3.000000,0.000000,0.000000,0.000000,0.000000,0.000000;
#CREDIT:;
#NOTES:
0000
0000
0000
0000
,
0000
0000
0000
0000
,
0000
0000
0000
0000
,
0000
0000
0000
0000
,
0000
0000
0000
0000
,
0000
0000
0000
0000
,
0000
0000
0000
0000
,
0000
0000
0000
0000
,
0000
0000
0000
0000
,
1000
0000
0000
0000
,
1000
0000
0000
0000
,
0001
0000
0000
0000
,
0001
0000
0000
0000
,
0100
0000
0000
0000
,
0100
0000
0000
0000
,
0010
0000
0000
0000
,
0010
0000
0000
0000
,
1000
0000
0000
0000
,
1000
0000
0000
0000
,
0100
0000
0000
0000
,
0100
0000
0000
0000
,
0010
0000
0000
0000
,
0010
0000
0000
0000
,
0001
0000
0000
0000
,
0001
0000
0000
0000
,
0100
0000
0000
0000
,
0100
0000
0000
0000
,
0010
0000
0000
0000
,
0010
0000
0000
0000
,
1000
0000
0000
0000
,
1000
0000
0000
0000
,
0001
0000
0000
0000
,
0001
0000
0000
0000
,
1001
0000
0000
0000
,
0000
0000
0000
0000
,
0110
0000
0000
0000
,
0000
0000
0000
0000
,
1001
0000
0000
0000
,
0000
0000
0000
0000
,
0110
0000
0000
0000
,
0000
0000
0000
0000
0000
0000
0000
0100
,
0000
0000
0000
0100
0000
0000
0000
0100
,
0000
0000
0000
0000
0000
0000
0000
0001
,
0000
0000
0000
0001
0000
0000
0000
0001
,
0000
0000
0000
0000
0000
0000
0000
1000
,
0000
0000
0000
1000
0000
0000
0000
1000
,
0000
0000
0000
0000
0000
0000
0000
0200
,
0000
0000
0000
0000
0000
0000
0000
0300
,
0000
0000
0000
0000
,
0010
0000
0000
0000
,
0001
0000
0000
0000
,
0100
0000
0000
0000
,
0010
0000
0000
0000
,
1000
0000
0000
0000
,
0100
0000
0000
0000
,
0020
0000
0000
0000
,
0030
0000
0000
0000
0000
0000
0000
1001
,
0000
0000
0000
0000
0000
0000
0000
0100
,
0000
0000
0000
0000
0000
0000
0000
0100
,
0000
0000
0000
0000
0000
0000
0000
0010
,
0000
0000
0000
0000
0000
0000
0000
0010
,
0000
0000
0000
0000
,
1000
0000
0000
0000
,
1000
0000
0000
0000
,
0001
0000
0000
0000
,
0001
0000
0000
0000
,
0100
0000
0000
0000
,
0100
0000
0000
0000
,
0010
0000
0000
0000
,
0010
0000
0000
0000
,
1000
0000
0000
0000
,
0001
0000
0000
0000
,
0010
0000
0000
0000
,
0100
0000
0000
0000
,
1000
0000
0000
0000
,
0100
0000
0000
0000
,
0010
0000
0000
0000
,
0001
0000
0000
0000
,
1001
0000
0000
0000
,
0000
0000
0000
0000
,
0110
0000
0000
0000
,
0000
0000
0000
0000
,
1001
0000
0000
0000
,
0000
0000
0000
0000
,
0110
0000
0000
0000
,
0000
0000
0000
0000
,
0001
0000
0001
0000
,
0001
0000
0001
0000
,
1000
0000
1000
0000
,
1000
0000
1000
0000
,
0010
0000
0010
0000
,
0010
0000
0010
0000
,
0200
0000
0000
0000
,
0300
0000
0000
0000
,
0010
0000
0000
0000
,
0000
0100
0000
0000
0000
0000
0000
0000
,
0000
0001
0000
0000
0000
0000
0000
0000
,
0000
1000
0000
0000
0000
0000
0000
0000
,
0000
0100
0000
0000
0000
0000
0000
0000
,
0000
0010
0000
0000
0000
0000
0000
0000
,
0000
0001
0000
0000
0000
0000
0000
0000
,
0000
1000
0000
0000
0000
0000
0000
0000
,
1001
0000
0000
0000
;

//---------------dance-single - ----------------
#NOTEDATA:;
#CHARTNAME:;
#STEPSTYPE:dance-single;
#DESCRIPTION:;
#CHARTSTYLE:;
#DIFFICULTY:Hard;
#METER:8;
#RADARVALUES:0.595022,0.656579,0.234763,0.022719,0.000000,550.000000,519.000000,31.000000,3.000000,0.000000,0.000000,0.000000,0.000000,0.000000,0.595022,0.656579,0.234763,0.022719,0.000000,550.000000,519.000000,31.000000,3.000000,0.000000,0.000000,0.000000,0.000000,0.000000;
#CREDIT:;
#NOTES:
0000
0000
0000
0000
,
0000
0000
0000
0000
,
0000
0000
0000
0000
,
0000
0000
0000
0000
,
0000
0000
0000
0000
,
0000
0000
0000
0000
,
0000
0000
0000
0000
,
0000
0000
0000
0000
,
0000
0000
0000
0000
,
0001
0000
0001
0000
1000
0010
0100
0000
,
0001
1000
0100
0000
0010
0001
1000
0010
,
0000
0010
1000
0000
0100
0010
0001
0000
,
1000
0010
0100
0000
0001
1000
0100
0010
,
0000
0010
0100
0000
1000
0010
0100
0000
,
0001
1000
0100
0000
0010
0001
1000
0010
,
0000
0010
1000
0000
0001
0010
0100
0000
,
0100
1000
0100
0000
1000
0001
1000
0000
,
0010
0000
0100
0000
0001
1000
0100
0000
,
0010
0000
0001
0000
1000
0010
0100
0000
,
0001
0000
0100
0000
1000
0100
0001
0000
,
0010
0000
0100
0000
0010
1000
0010
0000
,
0001
0000
1000
0000
0010
0100
0001
0000
,
1000
0000
0100
0000
0010
0001
1000
0000
,
0010
0000
0100
0000
0001
1000
0100
0000
,
0010
0000
0100
0000
1000
0001
0100
0000
,
0010
0000
1000
0000
0010
1000
0001
1000
,
0010
0000
0100
0000
0001
0010
0100
0000
,
1000
0000
0100
0000
0010
0001
1000
0001
,
0100
0000
0010
0000
1000
0001
0010
0000
,
0100
0000
1000
0000
0010
0100
0001
0100
,
0010
0000
1000
0000
0001
0010
0100
0000
,
1000
0000
0100
0000
0010
0001
1000
0000
,
0010
0000
0100
0000
0001
1000
0100
0000
,
0110
0000
1001
0000
0001
1000
0010
0000
,
0100
0001
0010
0000
0100
1000
0001
0000
,
0011
0000
1100
0000
1000
0100
0010
0000
,
0001
1000
0010
0000
0100
0001
1000
0000
,
0110
0000
1001
0000
0001
0100
0010
0000
,
1000
0001
0010
0000
0100
1000
0001
0000
,
0011
0000
1100
0000
1000
0100
0010
0000
,
0001
1000
0001
1000
0010
0000
0000
0100
,
0001
0100
0001
0100
0001
0100
0001
1000
,
0100
0010
0001
1000
0010
0100
0001
1000
,
0100
1000
0100
1000
0100
1000
0100
0010
,
0100
1000
0010
0100
0001
0010
0100
0010
,
0100
0010
0100
0010
0100
0010
0100
1000
,
0010
1000
0001
0010
0100
0010
0100
1000
,
0001
1000
0001
0100
0010
0100
0010
0000
,
0000
0000
0000
0000
0000
0000
0000
0110
,
0000
0100
0001
1000
0100
0010
0000
0011
,
0000
0001
1000
0100
1000
0010
0000
1010
,
0000
1000
0010
0100
0001
0010
0000
0110
,
0000
0100
1000
0001
1000
0010
0000
0110
,
0000
0100
0001
0010
0100
1000
0000
1100
,
0000
1000
0010
0100
0001
0010
0000
0120
,
0000
0000
1000
0000
0100
0000
0001
0030
,
0001
0010
0100
1000
0010
0100
0001
1000
,
0000
0000
0000
0000
0200
0000
0000
1300
,
0000
0000
0000
1000
0000
0000
0000
0010
,
0000
0000
0000
0100
0000
0000
0000
0001
,
0000
0000
0000
0001
0000
0000
0000
0010
,
0000
0000
0000
0100
0000
0000
0000
0000
,
1000
0000
0010
0000
0100
0001
0010
0000
,
0100
0000
1000
0000
0001
0100
0010
0000
,
1000
0000
0001
0000
0010
1000
0010
0000
,
0001
0000
1000
0000
0010
0100
0001
0000
,
1000
0000
0100
0000
0010
0001
1000
0000
,
0010
0000
0100
0000
1000
0100
0001
0000
,
1000
0000
0100
0000
0010
0001
1000
0000
,
0010
0000
0100
0000
0001
1000
0100
0000
,
0010
0000
0001
0000
1000
0010
1000
0001
,
0010
0000
0100
0000
1000
0001
0100
0000
,
0010
0000
1000
0000
0001
0010
0100
0010
,
0001
0000
1000
0000
0010
0100
0001
0000
,
1000
0000
0010
0000
0100
1000
0100
0001
,
0010
0000
0100
0000
1000
0001
0010
0000
,
0100
0000
1000
0000
0010
1000
0001
0010
,
0100
0000
1000
0000
0001
0100
0010
0000
,
0110
0000
1001
0000
0001
0010
0100
0000
,
1000
0001
0100
0000
0010
1000
0001
0000
,
0011
0000
1100
0000
1000
0100
0010
0000
,
0001
1000
0010
0000
0100
0001
1000
0000
,
1010
0000
0101
0000
0001
1000
0100
0000
,
0010
0001
1000
0000
0010
0100
0001
0000
,
1001
0000
0110
0000
0010
0001
1000
0000
,
0010
0100
0001
1000
0001
0010
0100
0000
,
1000
0100
0001
0100
1000
0100
0001
0100
,
1000
0010
0001
0010
1000
0100
0010
0001
,
1000
0010
0001
0010
1000
0010
0001
0010
,
1000
0100
0001
0100
1000
0010
0100
0001
,
0100
1000
0100
0001
0100
1000
0100
0001
,
0010
1000
0010
0001
1000
0010
0100
0001
,
1000
0100
0010
0001
1000
0010
0100
0001
,
0000
0000
0000
0000
,
0011
0000
0100
1000
0001
1000
0010
0000
,
0110
0000
0100
0001
1000
0100
1000
0000
,
1010
0000
0010
0100
0001
0010
0100
0000
,
1100
0000
1000
0100
0010
0001
1000
0000
,
1010
0000
0010
0100
0001
0010
0100
0000
,
1100
0000
1000
0100
0010
0001
1000
0000
,
2001
0000
0000
0010
0000
0100
0000
0001
,
3000
0010
0100
0001
0100
0010
1000
0001
,
0110
0000
0000
0000
;

//---------------dance-single - ----------------
#NOTEDATA:;
#CHARTNAME:;
#STEPSTYPE:dance-single;
#DESCRIPTION:;
#CHARTSTYLE:;
#DIFFICULTY:Easy;
#METER:4;
#RADARVALUES:0.272628,0.347601,0.143887,0.030292,0.000000,252.000000,233.000000,19.000000,4.000000,0.000000,0.000000,0.000000,0.000000,0.000000,0.272628,0.347601,0.143887,0.030292,0.000000,252.000000,233.000000,19.000000,4.000000,0.000000,0.000000,0.000000,0.000000,0.000000;
#CREDIT:;
#NOTES:
0000
0000
0000
0000
,
0000
0000
0000
0000
,
0000
0000
0000
0000
,
0000
0000
0000
0000
,
0000
0000
0000
0000
,
0000
0000
0000
0000
,
0000
0000
0000
0000
,
0000
0000
0000
0000
,
0000
0000
0000
0000
,
1000
0000
1000
0000
,
0001
0000
0001
0000
,
0100
0000
0010
0000
,
1000
0000
0001
0000
,
0010
0000
0010
0000
,
0100
0000
0100
0000
,
1000
0000
0001
0000
,
0100
0000
0010
0000
,
0110
0000
0100
0000
,
0001
0001
0001
0000
,
1000
0000
0100
0000
,
0010
0010
0010
0000
,
0001
0000
1000
0000
,
0100
0100
0100
0000
,
0010
0000
0001
0000
,
1000
1000
1000
0000
,
0010
0000
0100
0000
,
0001
0001
0001
0000
,
0010
0000
0100
0000
,
1000
1000
1000
0000
,
0001
0000
0100
0000
,
0010
0010
0010
0000
,
1000
0000
0001
0000
,
0100
0100
0100
0000
,
0110
0110
0000
0000
,
0100
0001
1000
0000
,
1100
1100
0000
0000
,
0100
0010
0001
0000
,
0011
0011
0000
0000
,
0001
1000
0010
0000
,
0110
0110
0000
0000
,
0100
0000
0001
0000
1000
0000
0000
0100
,
0000
1000
0000
0100
0000
1000
0000
0001
,
0000
1000
0000
0001
0000
0000
0000
0100
,
0000
0001
0000
0100
0000
0001
0000
1000
,
0000
0010
0000
1000
0000
0000
0000
0010
,
0000
0100
0000
0010
0000
0100
0000
0001
,
0000
1000
0000
0001
0000
0000
0000
0020
,
0000
0000
0000
0100
0000
0000
0000
0130
,
0000
0000
0000
0000
,
0010
0000
0100
0000
,
1000
0001
0100
0000
,
0010
0000
1000
0000
,
0100
1000
0010
0000
,
0100
0000
0001
0000
,
0010
0001
1000
0000
,
0020
0000
0100
0000
,
0100
0000
0000
0000
0130
0000
0000
0110
,
0000
0000
0000
0000
0000
0000
0000
0100
,
0000
0000
0000
0001
0000
0000
0000
0100
,
0000
0000
0000
0001
0000
0000
0000
1000
,
0000
0000
0000
0100
0000
0000
0000
0010
,
0000
0000
0000
0001
0000
0000
0000
0000
,
1000
0000
0010
0000
,
0100
0001
1000
0000
,
0100
0000
0010
0000
,
0001
1000
0010
0000
,
0100
0000
0010
0000
,
1000
0001
0010
0000
,
0100
0000
1000
0000
,
0001
0010
0100
0000
,
1000
0000
0010
0000
,
0100
1000
0100
0000
,
0001
0000
0010
0000
,
0100
0001
0100
0000
,
1000
0000
0001
0000
,
0010
1000
0010
0000
,
0001
0000
1000
0000
,
0010
0001
0010
0000
,
0110
0110
0000
0000
,
0100
0001
1000
0000
,
1100
1100
0000
0000
,
0100
0010
0001
0000
,
0011
0011
0000
0000
,
0001
1000
0010
0000
,
0110
0110
0000
0000
,
0100
0001
0010
0100
,
1000
0100
1000
0100
,
0010
0001
0010
0000
,
0001
0100
0001
0100
,
0001
1000
0001
0000
,
0010
0100
1000
0001
,
0100
0010
1000
0000
,
0020
0000
0100
0000
,
0130
0000
0000
0000
,
0001
0000
0000
0000
0000
0010
0000
0000
,
0000
0100
0000
1000
0000
0010
0000
0000
,
0000
0100
0000
0000
0000
0001
0000
0000
,
0000
0010
0000
0100
0000
1000
0000
0000
,
0000
0010
0000
0000
0000
0100
0000
0000
,
0000
0001
0000
1000
0000
0100
0000
0000
,
0020
0000
0000
0000
0000
0100
0000
0000
,
0000
0100
0000
0000
0000
0130
0000
0000
,
0110
0000
0000
0000
;

//---------------dance-single - ----------------
#NOTEDATA:;
#CHARTNAME:;
#STEPSTYPE:dance-single;
#DESCRIPTION:;
#CHARTSTYLE:;
#DIFFICULTY:Medium;
#METER:7;
#RADARVALUES:0.442480,0.463468,0.181752,0.037865,0.000000,409.000000,385.000000,24.000000,5.000000,0.000000,0.000000,0.000000,0.000000,0.000000,0.442480,0.463468,0.181752,0.037865,0.000000,409.000000,385.000000,24.000000,5.000000,0.000000,0.000000,0.000000,0.000000,0.000000;
#CREDIT:;
#NOTES:
0000
0000
0000
0000
,
0000
0000
0000
0000
,
0000
0000
0000
0000
,
0000
0000
0000
0000
,
0000
0000
0000
0000
,
0000
0000
0000
0000
,
0000
0000
0000
0000
,
0000
0000
0000
0000
,
0000
0000
0000
0000
,
0010
1000
0001
0010
,
0100
0000
1000
0000
0100
0000
1000
0001
,
0000
0100
0010
1000
,
0100
0000
0010
0000
0100
0000
1000
0010
,
0000
0100
0001
0010
,
0100
0000
1000
0000
0001
0000
0100
0010
,
0000
0100
0001
0010
,
0100
0000
1000
0000
0001
1000
0001
1000
,
0001
0100
0010
1000
,
0100
0000
0010
0000
0001
1000
0010
0000
,
0100
0001
0010
0001
,
1000
0000
0010
0000
0100
0001
1000
0000
,
0100
0010
0100
1000
,
0010
0000
0100
0000
0001
0010
0100
0000
,
1000
0100
0010
0001
,
1000
0000
0010
0000
1000
0001
0010
0000
,
0100
1000
0100
0010
,
0001
0000
0100
0000
0010
1000
0100
0000
,
0010
0001
1000
0010
,
0100
0000
0001
0000
0010
0001
1000
0000
,
0010
0100
0001
0010
,
0100
0000
1000
0000
0010
0100
0001
0000
,
1000
0100
0010
0100
,
1000
0000
0001
0000
0100
0010
0100
0010
,
0100
0010
0100
0010
,
1000
0100
0010
0001
,
1001
0001
1000
0010
,
0100
0001
0010
0100
,
1100
1000
0001
0100
,
0010
1000
0001
0010
,
0011
0010
0100
1000
,
0001
0000
1000
0000
1001
0000
0000
0001
,
0000
0100
0000
0010
0000
1000
0000
0100
,
0000
1000
0000
0010
0000
0100
0001
0010
,
0000
0100
0000
1000
0000
0100
0000
0010
,
0000
0001
0000
1000
0000
0010
0100
0001
,
0000
1000
0000
0100
0000
0010
0000
0001
,
0000
1000
0000
0010
0000
0100
0001
2000
,
0000
0100
0000
0100
0000
0100
3100
0000
,
0000
0000
0000
0000
0000
0000
0000
1000
,
0000
0000
1100
0000
1000
0001
0000
0100
,
0000
0000
0110
0000
0010
1000
0000
0001
,
0000
0000
1001
0000
0100
0010
0000
0001
,
0000
0000
0011
0000
0100
1000
0000
0100
,
0000
0000
1100
0000
1000
0001
0000
0100
,
0000
0000
0101
0000
0100
0010
0000
0210
,
0000
0010
0010
0010
,
0310
0000
1000
0000
0001
1000
0001
1000
,
0000
0000
0000
0000
0020
0000
0000
0130
,
0000
0000
0000
0100
0000
0000
0000
0001
,
0000
0000
0000
1000
0000
0000
0000
0100
,
0000
0000
0000
0100
0000
0000
0000
0010
,
0000
0000
0000
0001
0000
0000
0000
0000
,
1000
0001
0100
0010
,
1000
0000
0100
0000
1000
0001
0100
0000
,
0010
1000
0100
0010
,
0100
0000
1000
0000
0010
1000
0001
0000
,
0010
0100
1000
0100
,
0010
0000
0001
0000
1000
0010
0100
0000
,
0001
0100
0010
1000
,
0001
0010
0001
0010
0001
0000
0100
0000
,
0010
1000
0001
0010
,
0100
0000
1000
0000
0001
1000
0100
0000
,
0010
0001
0100
1000
,
0100
0000
0010
0000
1000
0001
0010
0000
,
0100
1000
0001
0100
,
0010
0000
0100
0000
0001
1000
0100
0000
,
0010
0001
0100
1000
,
0100
0000
0001
0000
0010
0001
0010
0001
,
0010
0100
1000
0001
,
0100
0010
1000
0001
,
0110
1000
0100
0010
,
0001
1000
0010
0100
,
1001
0001
0100
0010
,
1000
0100
0010
0001
,
1100
1000
0010
0100
,
0001
0010
0100
1000
,
0001
0100
0010
1000
,
0001
0000
0010
0000
0110
0000
0100
1000
,
0001
0100
0010
1000
,
0001
0000
0010
0000
0011
0000
0001
1000
,
0010
0100
1000
0100
,
0001
0000
0010
0000
1100
0000
1000
0001
,
0200
0000
0010
0000
0010
0000
0010
0310
,
0000
0000
0000
0000
,
0100
0000
0000
0110
0000
0100
0001
0000
,
0101
0000
0000
0001
0000
1000
0100
0000
,
1100
0000
0000
1000
0000
0010
0100
0000
,
0110
0000
0000
0100
0000
0001
1000
0000
,
1100
0000
0000
0100
0000
0010
0001
0000
,
0011
0000
0000
0100
0000
1000
0001
0000
,
0102
0000
0000
1000
0000
1000
0000
1000
,
0000
0010
0000
0010
0003
1000
0001
1000
,
0001
0000
0000
0000
;

//---------------dance-double - ----------------
#NOTEDATA:;
#CHARTNAME:;
#STEPSTYPE:dance-double;
#DESCRIPTION:;
#CHARTSTYLE:;
#DIFFICULTY:Hard;
#METER:9;
#RADARVALUES:0.670752,0.695202,0.181752,0.083303,0.037865,620.000000,596.000000,24.000000,11.000000,0.000000,0.000000,0.000000,0.000000,0.000000,0.670752,0.695202,0.181752,0.083303,0.037865,620.000000,596.000000,24.000000,11.000000,0.000000,0.000000,0.000000,0.000000,0.000000;
#CREDIT:;
#NOTES:
00000000
00000000
00000000
00000000
,
00000000
00000000
00000000
00000000
,
00000000
00000000
00000000
00000000
,
00000000
00000000
00000000
00000000
,
00000000
00000000
00000000
00000000
,
00000000
00000000
00000000
00000000
,
00000000
00000000
00000000
00000000
,
00000000
00000000
00000000
00000000
,
00000000
00000000
00000000
00000000
00000000
00000000
00000000
00010000
,
00000000
10000000
00100000
00000000
01000000
00000000
00010000
00000000
,
00100000
00000000
00001000
00000000
00010000
00000000
00000100
00001000
,
00000000
00000001
00000010
00000000
00000001
00000000
00000010
00000000
,
00000100
00000000
00010000
00000000
00001000
00000000
00100000
01000000
,
00000000
10000000
00010000
00000000
01000000
00000000
00100000
00000000
,
01000000
00000000
00001000
00000000
00010000
00000000
00000100
00000010
,
00000000
00000001
00000100
00000000
00000010
00000000
00010000
00000000
,
00001000
00100000
00001000
00100000
00001000
00000000
00000000
00000000
01000000
00000000
01000000
00000000
01000000
00000000
00100000
00000000
,
10000000
01000000
00100000
00000000
01000000
00000000
10000000
00000000
,
00010000
00100000
00010000
00100000
00001000
00000010
00000100
00000000
,
00000010
00000001
00000010
00000001
00000100
00000010
00001000
00000100
,
00010000
01000000
00010000
01000000
10000000
00100000
00010000
00000000
,
00100000
10000000
00100000
01000000
00010000
00000000
00010000
00100000
,
00010000
00100000
01000000
00100000
00001000
00010000
00000100
00000000
,
00000100
00001000
00000010
00000000
00000010
00000100
00000001
00000000
,
00001000
00000100
00010000
00001000
00100000
01000000
00100000
01000000
,
00100000
00010000
01000000
00000000
01000000
00100000
10000000
00010000
,
00100000
00001000
00010000
00000000
00010000
00000010
00001000
00000100
,
00000010
00000001
00000010
00000001
00001000
00000100
00001000
00000100
,
00010000
01000000
10000000
01000000
10000000
00000000
00000000
10000000
,
00100000
10000000
01000000
00000000
00100000
00010000
01000000
00000000
,
00100000
10000000
00100000
00000000
01000000
00010000
01000000
00000000
,
00010000
00100000
00001000
00010000
00000100
00001000
00000010
00000000
,
00001000
00000001
00001000
00000001
00001000
00000001
00001000
00000000
,
00000110
00000000
00001001
00000000
00000001
00000100
00000010
00000000
,
00000010
00001000
00000100
00000000
00000100
00010000
00001000
00000000
,
00011000
00000000
00110000
00000000
00100000
01000000
10000000
00000000
,
10000000
00100000
00010000
00000000
00010000
00100000
01000000
00000000
,
01100000
00000000
10010000
00000000
10000000
01000000
00100000
00000000
,
00100000
00010000
01000000
00000000
01000000
00010000
00100000
00001000
,
00011000
00000000
00001100
00000000
00000100
00000010
00000001
00000000
,
00001000
00000001
00001000
00000001
00001000
00000010
00000100
00000001
,
00001000
00000100
00001000
00000100
00001000
00000100
00001000
00000100
,
00010000
00001000
00010000
00001000
00010000
00001000
00010000
00001000
,
00100000
00010000
00100000
00010000
00100000
00010000
00100000
00010000
,
10000000
00100000
10000000
00100000
10000000
00100000
10000000
00100000
,
01000000
00010000
01000000
00010000
01000000
00010000
01000000
00010000
,
00100000
00001000
00100000
00001000
00100000
00001000
00100000
00001000
,
00010000
00001000
00010000
00001000
00010000
00001000
00010000
00011000
,
00000000
00000000
00000000
00000000
00000000
00000000
00000000
01200000
,
00000000
01300000
00010000
10000000
01000000
00100000
00001000
00010000
,
00000000
00010000
00000100
00000010
00000001
00000100
00000010
00001000
,
00000000
00001000
00000100
00010000
01000000
10000000
00100000
00010000
,
00000000
00010000
00100000
01000000
00010000
00100000
00001000
00000100
,
00000000
00000100
00001000
00100000
01000000
00010000
01000000
10000000
,
00000000
10000000
00010000
00100000
00001000
00010000
00000100
00000020
,
00000000
00000032
00001000
00000103
,
00001000
00000000
00001000
00000000
00001000
00000000
00000000
00000000
00000100
00000010
00000100
00000010
00000100
00000010
00000100
00000000
,
00000000
00000000
00000000
00000000
00020000
00000000
00000000
00030200
,
00000000
00000310
00000001
00000000
00001000
00000000
00000010
00000000
,
00010000
00000000
00000100
00000000
00100000
00000000
00001000
00010000
,
00000000
00001000
00100000
00000000
01000000
00000000
00100000
00000000
,
00010000
00000000
10000000
00000000
00010000
00010000
00010000
00010000
,
10000000
00100000
10000000
00100000
01000000
00010000
01000000
00010000
,
00100000
01000000
00100000
00001000
00010000
00000100
00000010
00000000
,
00000001
00000100
00000001
00000100
00000010
00001000
00000010
00001000
,
00000100
00000010
00000100
00010000
00001000
00100000
01000000
00000000
,
20000000
00000000
32000000
00000000
03100000
00010000
00100000
00000000
,
00010000
01000000
10000000
01000000
00020000
00000000
00130000
00000000
,
00001000
00010000
00001000
00010000
00000100
00010000
00000100
00000010
,
00000100
00001000
00000001
00000100
00001000
00000000
00000000
00001000
,
00100000
01000000
10000000
00000000
10000000
00100000
01000000
00000000
,
01000000
00010000
00100000
00010000
00001000
00000100
00000001
00000000
,
00000011
00001100
00001001
00000101
,
00000010
00000100
00000010
00000100
00000001
00001000
00000100
00000000
,
00010000
00000000
00100000
10000000
00010000
00000000
00100000
00010000
,
10000000
01000000
00100000
00010000
00100000
00000000
00100000
00001000
,
00010000
00000000
00010000
00000100
00001000
00000000
00001000
00000100
,
00010000
00001000
00010000
00001000
00010000
00001000
00010000
00000000
,
01100000
00000000
10010000
00000000
10000000
00100000
01000000
00000000
,
01000000
00010000
00100000
00000000
00100000
00001000
00010000
00000000
,
00011000
00000000
00001100
00000000
00000100
00000010
00000001
00000000
,
00000001
00000100
00001000
00000000
00001000
00000100
00000010
00000000
,
00000110
00000000
00001001
00000000
00000001
00000010
00000100
00000000
,
00000100
00001000
00000010
00000000
00000010
00001000
00000100
00010000
,
00011000
00000000
00110000
00000000
00100000
01000000
10000000
00000000
,
00010000
10000000
00010000
10000000
00010000
01000000
00100000
10000000
,
00010000
00001000
00000100
00001000
00010000
00001000
00000100
00001000
,
00010000
00100000
01000000
10000000
00010000
01000000
00100000
10000000
,
01000000
00010000
01000000
10000000
01000000
00010000
01000000
10000000
,
00100000
01000000
00010000
00100000
00001000
00000100
00000010
00001000
,
00000001
00000010
00001000
00000010
00000001
00000010
00001000
00000010
,
00000001
00000100
00000010
00010000
00001000
00100000
00010000
00100000
,
00001000
00010000
00001000
00010000
00001000
00010000
00001000
00011000
,
00000000
00000000
00000000
00000000
,
00000210
00000000
00000310
00001000
00000001
00000010
00000100
00010000
,
00001000
00000000
00001000
00100000
01000000
10000000
00100000
01000000
,
00010000
00000000
00010000
00100000
00001000
00000010
00000001
00000100
,
00001000
00000000
00001000
00000100
00000010
00001000
00000100
00010000
,
00100000
00000000
00100000
00010000
00000100
00000010
00001000
00000010
,
00000001
00000000
00000001
00001000
00000100
00010000
00001000
00100000
,
02000000
00000000
23000000
00000000
00000000
00010000
00000000
30100000
,
00000000
00000000
00010000
00000000
00000000
00000000
00100000
01000000
00100000
01000000
00100000
01000000
00100000
01000000
00100000
01000000
,
10000000
00000000
00000000
00000000
;

//---------------dance-double - ----------------
#NOTEDATA:;
#CHARTNAME:;
#STEPSTYPE:dance-double;
#DESCRIPTION:;
#CHARTSTYLE:;
#DIFFICULTY:Medium;
#METER:7;
#RADARVALUES:0.509555,0.579335,0.022719,0.143887,0.000000,471.000000,468.000000,3.000000,19.000000,0.000000,0.000000,0.000000,0.000000,0.000000,0.509555,0.579335,0.022719,0.143887,0.000000,471.000000,468.000000,3.000000,19.000000,0.000000,0.000000,0.000000,0.000000,0.000000;
#CREDIT:;
#NOTES:
// measure 0
00000000
00000000
00000000
00000000
,  // measure 1
00000000
00000000
00000000
00000000
,  // measure 2
00000000
00000000
00000000
00000000
,  // measure 3
00000000
00000000
00000000
00000000
,  // measure 4
00000000
00000000
00000000
00000000
,  // measure 5
00000000
00000000
00000000
00000000
,  // measure 6
00000000
00000000
00000000
00000000
,  // measure 7
00000000
00000000
00000000
00000000
,  // measure 8
00000000
00000000
00000000
00000000
,  // measure 9
00001000
00100000
00010000
00100000
,  // measure 10
01000000
00000000
00100000
00000000
00001000
00000000
00010000
00001000
,  // measure 11
00000000
00001000
00010000
00000000
00000100
00000000
00000010
00000000
,  // measure 12
00000100
00000000
00001000
00000000
00000001
00000000
00000010
00000001
,  // measure 13
00000000
00000001
00000100
00000000
00000010
00000000
00001000
00000000
,  // measure 14
00000100
00000000
00010000
00000000
00001000
00000000
00100000
01000000
,  // measure 15
00000000
01000000
00100000
00000000
00010000
00000000
01000000
00000000
,  // measure 16
00010000
10000000
00010000
00000000
01000000
01000000
01000000
00000000
,  // measure 17
00010000
00100000
00010000
00000000
01000000
00000000
10000000
00000000
,  // measure 18
01000000
00010000
00100000
01000000
,  // measure 19
00100000
00001000
00100000
00000000
00001000
00000000
00010000
00000000
,  // measure 20
00000100
00001000
00000010
00000001
,  // measure 21
00000010
00001000
00000010
00000000
00000100
00000000
00000001
00000000
,  // measure 22
00000010
00000100
00000010
00000000
00000001
00000000
00001000
00000000
,  // measure 23
00000100
00001000
00000100
00000000
00010000
00000000
00001000
00000000
,  // measure 24
00100000
01000000
00100000
00000000
01000000
00000000
10000000
00000000
,  // measure 25
00100000
10000000
00100000
00000000
01000000
00100000
01000000
00000000
,  // measure 26
00010000
01000000
00010000
00000000
00100000
00010000
00100000
00000000
,  // measure 27
00001000
00010000
00001000
00000000
00010000
00000100
00010000
00000000
,  // measure 28
00000010
00000100
00000010
00000100
00000010
00000000
00000000
00000010
,  // measure 29
00000100
00000001
00000100
00000000
00000001
00000010
00000001
00000000
,  // measure 30
00001000
00000010
00001000
00000000
00000100
00001000
00000100
00000000
,  // measure 31
00010000
00001000
00010000
00000000
00001000
00100000
00001000
00000000
,  // measure 32
01000000
00100000
01000000
00100000
01000000
00100000
01000000
00000000
,  // measure 33
00010000
00020000
10000000
10000000
,  // measure 34
00100000
00100000
01000000
01030000
,  // measure 35
00002000
00100000
00010000
01003000
,  // measure 36
00020000
00001000
00000010
00030100
,  // measure 37
00000010
00000020
00010000
00010000
,  // measure 38
00000100
00000100
00001000
00001030
,  // measure 39
00000002
00000010
00000100
00001003
,  // measure 40
00000001
00001000
00000001
00001000
00000001
00001000
00000001
00000000
,  // measure 41
00001000
00001000
00001000
00001000
,  // measure 42
00000100
00000100
00000100
00000100
,  // measure 43
00010000
00010000
00010000
00010000
,  // measure 44
01000000
01000000
01000000
01000000
,  // measure 45
10000000
10000000
10000000
10000000
,  // measure 46
00100000
00100000
00100000
00100000
,  // measure 47
10000000
00010000
10000000
00010000
10000000
00010000
10000000
00010000
,  // measure 48
00000000
00000000
00000000
00000000
00000000
00000000
00000000
10010000
,  // measure 49
00000000
00000000
10000000
00000000
00010000
00000000
00100000
00001000
,  // measure 50
00000000
00000000
01000000
00000000
00010000
00000000
00100000
00001000
,  // measure 51
00000000
00000000
00010000
00000000
00000100
00000000
00010000
00001000
,  // measure 52
00000000
00001000
00010000
00000000
00000100
00000000
00000010
00000001
,  // measure 53
00000000
00000000
00000001
00000000
00000100
00000000
00000001
00001000
,  // measure 54
00000000
00000000
00000010
00000000
00010000
00000100
00000000
00002000
,  // measure 55
00000000
00003200
00010000
00010300
,  // measure 56
00010000
00001000
00100000
00000000
00010000
10000000
00010000
10000000
,  // measure 57
00000000
00000000
00000000
00000000
02000000
00000000
00000000
23000000
,  // measure 58
00000000
30100000
01000000
00010000
,  // measure 59
01000000
00000000
00100000
00000000
10000000
00000000
00010000
01000000
,  // measure 60
00000000
00010000
00100000
00000000
01000000
00000000
00100000
00000000
,  // measure 61
00001000
00000000
00010000
00000000
00000100
00000100
00000100
00000010
,  // measure 62
00000001
00000000
00000100
00000010
00000100
00000000
00000001
00001000
,  // measure 63
00000100
00000000
00001000
00000000
00000001
00000010
00000001
00000000
,  // measure 64
00001000
00000100
00001000
00000000
00000100
00010000
00000100
00000000
,  // measure 65
00010000
00001000
00010000
00001000
00010000
00000000
00000000
00002000
,  // measure 66
00000000
00000000
01003000
00000000
00010000
00000000
10000000
01000000
,  // measure 67
10000000
00010000
00000000
10000000
00000000
00000000
01000000
00000000
,  // measure 68
00100000
00001000
00010000
00000000
00001000
00010000
00000100
00000000
,  // measure 69
00000010
00000001
00000010
00000001
00000010
00000000
00000000
00000001
,  // measure 70
00000100
00000001
00000100
00000000
00000010
00000100
00000010
00000000
,  // measure 71
00001000
00000010
00001000
00000000
00000100
00001000
00000100
00000000
,  // measure 72
00010000
00001000
00010000
00000000
00001000
00100000
00001000
00000000
,  // measure 73
01000000
00100000
01000000
00100000
01000000
00100000
01000000
00000000
,  // measure 74
00100000
10000000
00100000
00000000
10000000
01000000
10000000
00000000
,  // measure 75
00010000
10000000
00010000
00000000
00100000
00010000
00100000
00000000
,  // measure 76
00001000
00010000
00001000
00000000
00010000
00000100
00010000
00000000
,  // measure 77
00000010
00000100
00000010
00000100
00000010
00000100
00000010
00000010
,  // measure 78
00001000
00002000
00000001
00000001
,  // measure 79
00000100
00000100
00000010
00003010
,  // measure 80
00020000
00000100
00001000
00030010
,  // measure 81
00002000
00010000
01000000
00103000
,  // measure 82
01000000
02000000
00001000
00001000
,  // measure 83
00100000
00100000
00010000
03010000
,  // measure 84
20000000
01000000
00100000
30010000
,  // measure 85
10000000
00010000
10000000
00010000
10000000
00010000
10000000
00000000
,  // measure 86
00010000
00100000
00010000
00100000
00010000
00100000
00010000
00000000
,  // measure 87
00100000
00001000
00100000
00001000
00100000
00001000
00100000
00000000
,  // measure 88
00001000
00010000
00001000
00010000
00001000
00010000
00001000
00000000
,  // measure 89
00010000
00000100
00010000
00000100
00010000
00000100
00010000
00000000
,  // measure 90
00000010
00000100
00000010
00000100
00000010
00000100
00000010
00000000
,  // measure 91
00000100
00000001
00000100
00000001
00000100
00000001
00000100
00000000
,  // measure 92
00000001
00001000
00000001
00001000
00000001
00001000
00000001
00001000
,  // measure 93
00000000
00000000
00000000
00000000
,  // measure 94
00001001
00000000
00000001
00001000
00000000
00000100
00000000
00010000
,  // measure 95
00000010
00000000
00001000
00000010
00000000
00010000
00000000
00000100
,  // measure 96
00010000
00000000
00001000
00010000
00000000
00001000
00000000
00100000
,  // measure 97
00010000
00000000
00010000
00100000
00000000
01000000
00000000
10000000
,  // measure 98
00100000
00000000
00100000
10000000
00000000
00010000
00000000
01000000
,  // measure 99
00010000
00000000
00010000
00100000
00000000
00001000
00100000
00000000
,  // measure 100
00020000
00000000
00230000
00000000
00000000
00302000
00000000
00023000
,  // measure 101
00000000
00030100
00001000
00000001
00001000
00000001
00001000
00000001
,  // measure 102
00001001
00000000
00000000
00000000
;

//---------------dance-double - ----------------
#NOTEDATA:;
#CHARTNAME:;
#STEPSTYPE:dance-double;
#DESCRIPTION:;
#CHARTSTYLE:;
#DIFFICULTY:Easy;
#METER:4;
#RADARVALUES:0.295347,0.424846,0.143887,0.234763,0.000000,273.000000,254.000000,19.000000,31.000000,0.000000,0.000000,0.000000,0.000000,0.000000,0.295347,0.424846,0.143887,0.234763,0.000000,273.000000,254.000000,19.000000,31.000000,0.000000,0.000000,0.000000,0.000000,0.000000;
#CREDIT:;
#NOTES:
00000000
00000000
00000000
00000000
,
00000000
00000000
00000000
00000000
,
00000000
00000000
00000000
00000000
,
00000000
00000000
00000000
00000000
,
00000000
00000000
00000000
00000000
,
00000000
00000000
00000000
00000000
,
00000000
00000000
00000000
00000000
,
00000000
00000000
00000000
00000000
,
00000000
00000000
00000000
00000000
,
00010000
10000000
00010000
00000000
,
10000000
00000000
00010000
00000000
00100000
00000000
00000000
00001000
,
00000000
00010000
00001000
00000000
,
00001000
00000000
00010000
00000000
00000100
00000000
00000000
00000010
,
00000000
00000100
00000010
00000000
,
00000001
00000000
00001000
00000000
00000001
00000000
00000000
00000100
,
00000000
00000010
00001000
00000000
,
00001001
00000000
00001001
00001001
,
00001000
00001000
00000100
00000100
,
00010000
00001000
00010000
00001000
,
00100000
00100000
00010000
00010000
,
10000000
00100000
01000000
01000000
,
00010000
00010000
00100000
00100000
,
00001000
00010000
00001000
00010000
,
00000100
00000100
00001000
00001000
,
00000100
00000010
00000001
00000001
,
00000100
00000100
00000010
00000010
,
00001000
00001000
00000100
00000100
,
00010000
00010000
00001000
00001000
,
01000000
01000000
01000000
00000000
,
00100000
00100000
10000000
10000000
,
01000000
01000000
00010000
00010000
,
00001000
00001000
00010000
00010000
,
00000100
00000100
00000100
00000100
,
00001001
00001002
00000000
00000000
,
00000010
00000010
00000013
00000100
,
00002000
00000000
00000000
00000000
,
00003200
00000000
00000000
00000300
,
00011000
00012000
00000000
00000000
,
00100000
00100000
00103000
00010000
,
20000000
00000000
30010000
00000000
,
20020000
00000000
30030000
00010000
,
00020000
00000000
00000000
00000000
,
00230000
00000000
00000000
00001000
,
00302000
00000000
00000000
00000000
,
00003020
00000000
00000000
00000001
,
00000032
00000000
00000000
00000000
,
00000203
00000000
00000000
00000301
,
00000001
00000000
00001000
00000000
00000001
00000000
00001000
00000001
,
00000000
00000000
00000000
00000000
00000000
00000000
00000000
00001001
,
00000000
00000001
00000000
00001000
,
00000000
00000010
00001000
00000100
,
00000000
00010000
00000000
00001000
,
00000000
00100000
00010000
01000000
,
00000000
00100000
00000000
10000000
,
00000000
00000000
00010000
00000000
01000000
00000000
00000000
00020000
,
00000000
00230000
00000000
00000000
,
00001000
00000000
00001000
00000000
00301000
00000000
00000000
00022000
,
00000000
00000000
00033000
00000000
,
00000000
00000000
00000000
00000000
,
00000000
00000000
00000000
00000000
,
00000000
00000000
00000000
00000000
,
00000000
00000000
00011000
00011000
,
00001000
00001000
00100000
00100000
,
00001000
00001000
00001000
00000000
,
00010000
00010000
00000100
00000100
,
00001000
00001000
00001000
00000000
,
00000010
00000010
00000100
00000100
,
00000001
00001000
00000001
00000000
,
00001000
00001000
00000100
00000100
,
00010000
00100000
10000000
00000000
,
00100000
00100000
01000000
01000000
,
00010000
00010000
00100000
00100000
,
00001000
00001000
00010000
00010000
,
00000010
00000010
00000010
00000010
,
00000100
00000100
00000001
00000001
,
00000010
00000010
00001000
00001000
,
00010000
00010000
00001000
00001000
,
00100000
00100000
00100000
00100000
,
10010000
20010000
00000000
00000000
,
01000000
01000000
31000000
00100000
,
00020000
00000000
00000000
00000000
,
00230000
00000000
00000000
00300000
,
00011000
00021000
00000000
00000000
,
00000100
00000100
00030100
00001000
,
00000002
00000000
00001003
00000000
,
00002002
00000000
00003003
00001000
,
00002000
00000000
00000000
00000000
,
00003200
00000000
00000000
00010000
,
00020300
00000000
00000000
00000000
,
02030000
00000000
00000000
10000000
,
23000000
00000000
00000000
00000000
,
30200000
00000000
00000000
10300000
,
10000000
00000000
00010000
00000000
10000000
00000000
00010000
10000000
,
00000000
00000000
00000000
00000000
,
10010000
00000000
00000000
10000000
00000000
00000000
00000000
00010000
,
00000000
00000000
00000000
01000000
00000000
00010000
00000000
00100000
,
00000000
00000000
00000000
00001000
00000000
00000000
00000000
00010000
,
00000000
00000000
00000000
00000100
00000000
00001000
00000000
00000010
,
00000000
00000000
00000000
00000100
00000000
00000000
00000000
00000001
,
00000000
00000000
00000000
00001000
00000000
00000010
00000000
00000000
,
00002000
00000000
00000000
00000000
,
00000000
00000100
00000000
00000100
00000000
00003100
00000000
00000000
,
00000110
00000000
00000000
00000000
;
