#TITLE:CHAOS ~Theory Remix~;
#SUBTITLE:;
#ARTIST:λ;
#TITLETRANSLIT:;
#SUBTITLETRANSLIT:;
#ARTISTTRANSLIT:;
#GENRE:;
#CREDIT:;
#BANNER:CHAOS ~Theory Remix~.png;
#BACKGROUND:CHAOS ~Theory Remix~-bg.png;
#LYRICSPATH:;
#CDTITLE:;
#MUSIC:CHAOS ~Theory Remix~.ogg;
#OFFSET:-0.028000;
#SAMPLESTART:0.017000;
#SAMPLELENGTH:14.999994;
#SELECTABLE:YES;
#BPMS:0.000000=170.000000
,111.000000=85.000000
,123.000000=170.000000
,217.500000=340.000000
;
#DISPLAYBPM:*;
#STOPS:1.000000=0.176000,
8.500000=0.180000,
12.000000=0.180000,
33.000000=0.156000,
36.000000=0.176000,
36.250000=0.180000,
39.500000=0.180000,
44.500000=1.235000,
46.500000=0.353000,
88.500000=0.353000,
95.500000=0.353000,
102.500000=0.353000,
109.000000=0.176000,
109.500000=0.176000,
110.000000=0.176000,
110.500000=0.176000,
112.250000=0.529000,
112.500000=0.353000,
115.250000=0.353000,
115.500000=0.353000,
118.250000=0.353000,
118.500000=0.353000,
121.250000=0.176000,
121.500000=0.176000,
121.750000=0.176000,
128.500000=0.529000,
133.000000=0.706000,
141.000000=0.529000,
147.500000=0.265000,
147.750000=0.265000,
154.000000=0.618000,
158.250000=0.265000,
158.500000=0.265000,
158.750000=0.088000,
166.500000=0.265000,
166.750000=0.265000,
167.000000=0.088000,
172.750000=0.309000,
172.875000=0.309000,
173.000000=0.132000,
176.625000=0.309000,
176.750000=0.309000,
176.875000=0.309000,
182.000000=0.353000,
182.500000=0.040000,
182.625000=0.044000,
182.750000=0.044000,
182.875000=0.044000,
183.000000=0.044000,
183.125000=0.044000,
183.250000=0.044000,
183.375000=0.044000,
183.500000=0.044000,
183.625000=0.044000,
183.750000=0.044000,
183.875000=0.044000,
187.500000=0.265000,
187.750000=0.265000,
188.000000=0.265000,
188.250000=0.265000,
192.500000=0.265000,
192.750000=0.265000,
193.000000=0.265000,
193.250000=0.265000,
194.000000=1.235000,
196.000000=0.353000,
244.500000=0.309000,
247.750000=0.309000,
251.000000=0.309000
;
#BGCHANGES:;
#KEYSOUNDS:;
#ATTACKS:;

//---------------dance-single - ----------------
#NOTES:
     dance-single:
     :
     Easy:
     6:
     0.367834,0.569640,0.093785,0.085259,0.221675,302.000000,291.000000,11.000000,10.000000,0.000000,0.000000,0.367834,0.569640,0.093785,0.085259,0.221675,302.000000,291.000000,11.000000,10.000000,0.000000,0.000000:
0001
0000
1000
0010
0000
0100
0000
0001
,
0000
0010
0000
0100
0000
1000
0000
0010
,
0000
1000
0100
0000
1000
0000
0010
0000
,
1000
0010
0000
1000
0000
0001
0000
0001
,
0000
0010
0000
0010
0000
0100
0000
0100
,
0000
1000
0000
1000
0000
0001
0000
0001
,
0000
1000
0000
1000
0000
0010
0000
0010
,
0000
0100
0000
0100
0000
0001
0000
1000
,
0000
0100
0000
0000
1000
0000
0001
0000
,
0010
0100
1000
0010
,
0000
0100
0000
0010
0000
1000
0000
0001
,
0000
1001
0100
0000
0000
1001
0010
0000
,
0000
1001
0000
0000
0100
0000
1000
0000
,
0001
0000
0010
0000
0100
0010
0000
0000
,
0001
0000
0100
0000
0000
1000
0000
1000
,
0100
0000
0001
0000
0010
0100
0000
0000
,
1000
0000
0001
0000
0000
0001
0000
0001
,
0010
0000
0100
0000
1000
0001
0000
0000
,
0010
0000
0100
0000
0000
1000
0000
1000
,
0100
0000
1000
0000
0010
0100
0000
0000
,
0001
1000
0100
0001
,
1000
0000
0001
0000
0100
1000
0000
0000
,
0010
0100
0001
1000
,
0100
0000
0010
0100
0000
0000
1000
0000
,
0001
0100
1000
0001
,
0010
0100
0000
0000
0001
0000
0100
0000
,
0010
0100
0001
1000
,
0100
0000
0010
1000
0010
0001
0100
0001
,
1000
0001
1000
0001
0000
0100
0000
0010
0000
1000
0000
0100
0010
0000
1000
0001
,
0000
0100
0000
0001
0000
0100
0000
0010
0100
0000
0001
0100
0000
1000
0000
0001
,
0000
0010
0000
0100
0010
0000
0001
0001
0001
0000
0001
0000
1000
0000
0000
0000
,
0100
1000
0001
0100
,
0010
0000
0000
1000
0000
0001
0000
0010
,
0000
0100
0000
1000
0000
0100
0000
0001
,
0000
0100
0000
0010
0000
0001
0000
0010
,
0000
1000
0000
0000
0010
0000
0100
0000
,
1000
0000
0000
0000
0001
0000
0000
0000
0100
0000
0000
0000
0010
0000
0000
1000
,
0001
1000
0001
1000
0000
0010
0000
0001
,
0000
0000
1000
0000
0000
0000
0100
0000
0000
0000
0000
0010
0000
0100
0000
0010
,
0000
0000
0000
1000
0000
0000
0000
0001
0000
0010
0100
1000
0001
0000
0100
0000
,
0010
0000
1000
0010
1000
0000
0100
0000
,
0010
0000
0000
0000
0001
0000
0000
0000
0100
0000
0100
0001
1000
0100
0000
0001
,
0000
0100
0000
0000
0000
1000
0000
0010
0000
1000
0000
0000
0000
0001
0000
0000
,
0000
0000
0100
0000
0000
0000
0010
1000
0001
0100
0000
0000
0000
0010
0000
0000
0000
0100
0000
0000
0000
0000
0000
0000
0000
0001
0000
0000
0000
0000
0000
0000
,
0000
1000
0000
0000
0000
0100
1000
0001
0010
0000
0000
0000
0000
0000
0000
0000
0100
0000
0000
0000
0010
0000
0000
0000
0000
0000
0000
0000
0001
0000
0000
0000
,
0000
1000
0000
0010
0100
2000
0000
0000
,
3001
0000
0010
0000
1000
0000
0000
0000
1000
0000
0000
0000
0010
0000
0100
0001
,
1000
0010
0100
0000
0010
0000
0000
0000
1000
0000
0000
0000
0001
0000
0000
0000
,
0100
0000
0001
1000
0100
0010
0100
0000
0110
0000
1000
0000
0000
0000
0000
0000
,
1001
0001
0000
0000
1001
0000
0010
0100
,
0000
0001
0000
2100
0000
0100
0000
0010
,
0000
3001
0000
0102
0000
0100
0000
0010
,
0000
1003
0000
2001
0000
0001
0000
0010
,
0000
3100
0000
0120
0000
0100
0000
1000
,
0000
0031
0000
1000
0000
0000
0000
0100
,
0000
0000
0000
0010
0000
0000
0000
0001
,
0000
0000
0000
1000
0000
0000
0000
0010
,
0000
0000
0000
0100
0000
0000
0000
0001
,
0000
0000
0000
1000
0000
0001
0000
1000
,
0000
0001
0000
0010
0000
0100
0000
0010
,
0000
0000
0000
0002
0000
0000
0000
1003
,
0000
0000
0001
2000
0000
0000
0000
0000
0000
0000
0000
3001
0000
0000
0000
1000
,
0020
0000
0000
0000
0000
0000
0000
0000
0130
0000
0000
0000
0010
2002
0000
0000
,
0000
0000
0000
0000
,
0000
0000
0000
0000
,
0000
0000
0000
0000
,
0000
0000
0000
0000
0000
0000
0000
0000
0000
0000
0000
0000
0000
3003
0000
0000
;

//---------------dance-single - ----------------
#NOTES:
     dance-single:
     :
     Medium:
     8:
     0.535917,0.797496,0.247253,0.119363,0.306934,440.000000,411.000000,29.000000,14.000000,0.000000,0.000000,0.535917,0.797496,0.247253,0.119363,0.306934,440.000000,411.000000,29.000000,14.000000,0.000000,0.000000:
1000
0100
0001
0100
1000
0010
1000
0100
,
1000
0000
0001
0000
0100
0000
0010
0000
0000
0010
0000
0000
0010
0000
1000
0000
,
0001
0100
0010
0100
0001
1000
0100
0010
,
0001
0000
0100
0000
0000
0100
0000
0000
0100
0000
1000
0000
0100
0000
1000
0000
,
0000
0001
0100
0001
0000
0010
0100
0010
,
0000
0000
0011
0000
0000
0110
0000
0000
1001
0000
0001
0000
1000
0000
0100
0000
,
0000
1000
0001
0100
0000
0010
1000
0001
,
0000
0000
0011
0000
0000
0110
0000
0000
1100
0000
0100
0000
0010
0000
0100
0000
,
0000
1000
1001
1000
1010
0000
1000
0100
,
1000
1000
1000
0000
0001
0000
0010
0000
0001
0000
0000
0000
1100
0000
1000
0000
,
0101
0000
0001
0000
0000
2000
0010
0000
3000
0020
0100
0000
0030
0200
0001
0000
,
0300
0002
1003
0000
1001
0000
0000
0000
0000
0000
0101
0000
1100
0000
0000
0000
,
0000
1010
0000
0001
1000
0001
1000
0100
,
0001
0000
0100
1000
0001
0100
0000
0000
,
0001
0010
0001
0200
0000
1000
0000
0301
,
1000
0100
1000
0100
0010
0001
0000
0000
,
0010
0000
0100
0020
0000
1000
0000
0031
,
0010
0100
0001
0100
1000
0001
0000
0000
,
0001
0010
0100
2000
0000
0010
0000
3001
,
0010
0100
0001
0100
1000
0010
0000
0010
,
0100
0010
0100
0000
0001
1000
0001
0000
,
1000
0100
0010
0001
1000
0001
0000
0000
,
0000
1010
0101
0000
1000
0010
1000
0010
,
0000
0100
0001
1000
0000
0000
0000
0011
,
1100
0000
0010
0100
0010
0100
0000
1000
,
0010
0001
0000
0000
0000
1001
0110
0000
,
0001
1000
0001
1000
0000
0010
1000
0001
,
0100
0000
0000
0000
1010
0000
0011
0000
1100
0000
0101
0000
1000
0001
1000
0000
,
0010
0100
0001
1000
0100
1000
0000
0001
0100
0001
0000
0010
0100
0000
1000
0001
,
0100
0001
0000
0010
0100
0010
0000
1000
0010
0000
0001
0010
0100
1000
0000
0010
,
1000
0010
0000
0100
0001
1000
0001
0001
1000
0000
0001
0000
0001
0000
0100
0000
,
0010
0000
1000
0100
0010
0000
0001
0000
,
0010
0100
1000
0010
0001
0010
0000
1000
,
0100
1000
0010
1000
0100
0001
0000
0001
,
0100
1000
0000
0001
0100
1000
0000
1000
,
0100
0001
0010
0001
0010
0100
1000
0000
,
0001
0000
0010
0000
1000
0000
0000
0000
1000
0000
0010
0000
0001
0000
0001
1000
,
0001
0010
0100
0010
0000
0001
0100
0001
,
0000
0000
1000
0000
0001
0000
0010
0000
0100
0000
0000
1000
0000
0001
0000
1000
,
0000
0001
0000
1000
0000
0010
0000
0100
0000
0001
0001
0001
1000
0000
0100
0000
,
1000
0000
0001
0100
0001
0000
1000
0010
,
1000
0000
0000
0000
0001
0000
0010
0000
0001
0000
0100
0100
0100
0010
0000
0100
,
0000
0001
0000
0000
0000
0010
0000
0100
0000
1000
0000
0000
0000
1000
0000
0100
,
0000
0000
0010
0000
0000
0000
0001
0001
0001
1000
0000
0000
0000
0100
0000
0000
0000
0001
0000
0000
0000
0100
0000
0000
0000
1000
0000
0000
0000
0100
0000
0000
,
0000
0001
0000
0000
0000
0100
1000
0001
1000
0000
0000
0000
0000
0000
0000
0000
0010
0000
0000
0000
0100
0000
0000
0000
0001
0000
0000
0000
0100
0000
0000
0000
,
0010
0000
1000
0000
0100
0000
1000
0000
0010
0000
1000
0100
0010
0001
0010
0100
,
1000
0000
0100
0000
0001
0000
0000
0000
0100
0000
1000
0000
0001
0000
1000
1000
,
1000
1000
0001
0000
1000
0000
0100
0000
1000
0000
0000
0000
0001
0000
0100
0000
,
0001
0000
0010
0100
1000
0001
0020
0000
0130
0000
1100
0000
0000
0000
0000
0000
,
0101
0011
0000
0000
1010
0000
0001
0010
,
0100
1000
0001
2000
0000
0100
0100
0000
,
0010
0000
3010
0002
0000
0010
0000
0000
,
0010
0000
0013
0200
0000
0000
1000
0000
,
0301
0000
1000
0020
0100
0000
0001
0000
,
0130
0000
0000
1000
0000
0001
0000
0100
,
0000
0010
0000
1000
0000
0001
0000
1000
,
0000
0100
0000
1000
0000
0001
0000
0010
,
0000
0100
0000
0001
0000
0100
0000
1000
,
0000
0010
0000
0100
0000
0001
0000
0010
,
0000
0001
0000
1000
0000
0100
0000
0010
,
0000
0001
0000
0010
0000
0100
0000
0010
,
0000
0000
0100
1000
0000
0000
0000
0001
0000
0000
0000
1000
0000
0000
0000
0001
,
0100
0000
0000
0000
0010
0000
0000
0000
0100
0000
0000
0000
0010
2002
0000
0000
,
0000
0000
0000
0000
,
0000
0000
0000
0000
,
0000
0000
0000
0000
,
0000
0000
0000
0000
0000
0000
0000
0000
0000
0000
0000
0000
0000
3003
0000
0000
;

//---------------dance-single - ----------------
#NOTES:
     dance-single:
     :
     Hard:
     11:
     0.766117,1.167762,0.827017,0.426297,0.490242,629.000000,532.000000,97.000000,50.000000,0.000000,0.000000,0.766117,1.167762,0.827017,0.426297,0.490242,629.000000,532.000000,97.000000,50.000000,0.000000,0.000000:
1000
0010
0101
0001
0010
0110
1000
0001
,
0100
0000
0001
0000
0010
0000
0011
0000
0000
0110
0000
0000
1100
0000
0100
0000
,
0001
1001
0010
1000
1100
1000
0001
0100
,
0101
0000
0010
0000
0000
0110
0000
0000
1010
0000
1001
0000
2000
0000
3010
0000
,
0200
0301
0020
0130
0020
0031
0020
0130
,
2000
0000
3100
0000
0000
0110
0000
0000
0101
0000
0010
0000
0002
0000
0013
0000
,
0200
0310
2000
3100
0020
0130
0002
0013
,
0002
0000
0013
0000
0100
1000
0100
0000
1100
0000
1000
0000
0100
0000
1000
0000
,
0010
0000
0100
0000
0101
0000
0001
0010
0001
0000
0100
0000
0010
0000
1000
0000
,
1100
0110
0101
0000
0001
0000
0100
0000
0010
0000
1000
0000
0100
0000
1000
0000
,
0001
0000
1000
0000
0000
1100
0000
0000
0100
0010
0100
0000
0001
0010
0001
0000
,
0101
0000
2002
3003
1000
0000
0010
0000
0100
0000
0202
0303
0001
0000
0100
0000
,
0010
0000
1100
0000
0000
0000
1000
0000
0100
0000
0010
0000
0001
0010
0001
0010
,
0001
0100
0010
2000
0100
3010
0001
0100
,
0101
0000
0011
0100
0010
1010
0000
1001
,
0100
0010
0100
0002
0010
0103
1000
0100
,
1100
0000
0101
0000
1000
0101
0000
0101
,
0010
0001
1000
0200
0001
1300
0010
0001
,
0011
0000
1010
0001
1000
1100
0000
0110
,
0001
1000
0001
0020
1000
0031
0100
0001
,
0101
0000
0000
0000
0011
0000
0000
0000
0100
0000
1001
0000
0100
0010
0100
0010
,
0100
0002
0000
0103
0010
0200
1000
2300
,
3100
0000
1100
0000
0101
0000
0110
0000
1000
0010
1000
0001
1000
0000
0200
0000
,
0000
0000
0310
0000
0001
0010
0002
0000
0010
0000
0013
0000
0100
0000
1100
0000
,
0101
0000
1000
0000
0020
0000
0230
0000
0310
0000
0110
0000
1001
0000
0100
0001
,
1000
1100
0101
2000
3100
0101
1100
0001
,
1000
0001
2000
0000
3001
0000
0010
0000
1010
0000
0100
0000
2000
0000
3100
0000
,
0001
0000
0100
0000
1000
0000
0000
0000
2002
0000
3003
0000
2002
0000
3003
0000
2002
0000
3003
0000
2002
0000
3003
0000
1001
0000
0010
0000
1000
0000
0100
0001
,
1000
0000
1100
0000
0101
0000
1000
0000
0000
0000
0010
0000
0001
0000
0010
0000
0100
0000
1000
0000
0010
0001
0100
0000
0001
0000
0100
0000
0110
0000
1010
0000
,
0000
0000
0001
0000
0010
0000
1100
0000
1100
0000
1000
0000
0100
0000
0010
0001
0010
0000
0001
0000
1000
0000
1001
0000
0000
0000
0010
0000
0100
0000
0010
0000
,
0100
0000
0000
0000
0000
0000
0010
0000
0100
0000
0010
0000
0100
0000
0010
0000
0100
0000
0000
0000
0010
0100
0010
0100
0010
0000
0000
0000
0100
0000
0000
0000
,
0010
1000
0001
0100
0010
1000
0100
0010
,
0001
0100
0010
0010
0001
0010
0100
1000
,
0100
0010
0001
1000
0100
0010
0100
0010
,
0001
0100
1000
0100
0010
0100
0010
0001
,
0010
0000
0100
0000
1000
0000
0001
1000
0001
0000
1000
0000
0100
0000
0010
0000
,
0001
0000
1000
0000
0100
0000
0010
0000
0001
0000
0010
0000
0100
0000
1000
1001
,
0110
1000
0100
0010
0100
1000
0100
0010
,
0100
0000
1000
0000
0100
0000
0010
0000
0001
0100
1000
0100
0000
0010
0000
0001
,
0000
0010
0000
0100
0000
1000
0000
0100
0000
0010
0001
0010
0100
0000
1000
0000
,
0100
0010
0100
0001
0100
0010
0100
1000
,
0100
0000
0010
0000
0100
0000
0001
0000
0100
0000
0010
0100
0110
1001
0000
0100
,
0000
1000
0000
0010
0000
0100
0000
1000
0000
0001
0000
0010
0000
0100
0000
0001
,
0000
0000
0010
0000
0000
0000
1100
0110
0101
0010
0000
0000
0000
0001
0000
0000
0000
0010
0000
0000
0000
0100
0000
0000
0000
1000
0000
0000
0000
0100
0000
0000
,
0000
0010
0000
0000
0000
0011
0110
1100
1001
0000
0000
0000
0100
0000
0000
0000
0001
0000
0000
0000
0100
0000
0000
0000
1000
0000
0000
0000
0100
0000
0000
0000
,
0001
0000
0000
0000
0100
0000
0000
0000
1000
0000
0000
0000
0001
0000
0000
0000
1000
0000
0000
0000
1000
0100
0010
0001
1000
0100
0010
0001
1000
0100
0010
0001
,
1000
0000
0100
0000
1000
0000
0010
0000
0100
0000
0001
0000
0010
0000
0100
1100
,
1010
1001
0100
0000
0001
0000
0010
0000
0001
0000
0100
0000
0010
0000
1000
0000
,
0100
0000
1100
1010
0101
0110
1001
0000
2002
3003
1000
0000
0010
0000
0100
0000
,
0101
0000
0001
0000
0100
0000
0010
1000
1010
0000
0000
0000
1000
0000
0100
0000
,
0001
0000
0100
1000
0100
0001
0100
0000
1000
0000
0010
0000
0100
0001
0000
0100
,
0001
0000
0010
0000
0100
0000
1010
0000
0010
0000
0100
0000
0001
0010
0000
0001
,
0010
0000
0100
0000
1000
0000
1100
0000
0010
0000
0100
0000
0001
0100
0000
0001
,
0100
0000
0010
1000
0010
1000
0100
0000
1000
0000
0010
0000
0100
0010
0000
0100
,
0010
0000
1000
0100
0001
0100
2200
0000
0000
0000
0000
0000
3300
0000
2200
0000
,
0000
0000
3300
0202
0000
0000
0303
0202
,
0000
0000
0303
1000
0000
0010
0000
0001
,
0000
0010
0000
1000
0000
0100
0000
0001
,
0000
0100
0000
1000
0100
0010
0001
0100
,
0010
1000
0100
0010
0001
0010
0100
1000
,
0010
0100
0001
0010
0000
0100
0000
0110
,
0000
0000
1010
0100
0000
0000
0000
0010
0000
0000
0000
0110
0000
0000
0000
0101
,
1000
0000
0000
0000
0001
0000
0000
0000
0011
0000
0000
0000
1010
2002
0000
0000
,
0000
0000
0000
0000
,
0000
0000
0000
0000
,
0000
0000
0000
0000
,
0000
0000
0000
0000
0000
0000
0000
0000
0000
0000
0000
0000
0000
3003
0000
0000
;

//---------------dance-single - ----------------
#NOTES:
     dance-single:
     :
     Beginner:
     4:
     0.175391,0.256338,0.017052,0.059682,0.089522,144.000000,142.000000,2.000000,7.000000,0.000000,0.000000,0.175391,0.256338,0.017052,0.059682,0.089522,144.000000,142.000000,2.000000,7.000000,0.000000,0.000000:
0000
0000
0001
0000
0000
1000
0000
0000
,
0000
0010
0000
0000
0000
0100
0000
0000
,
0000
1000
0000
0000
0100
0000
0000
0000
,
0010
0000
0000
0100
0000
0000
0000
0001
,
0000
0000
0000
1000
0000
0000
0000
0100
,
0000
0000
0000
0010
0000
0000
0000
0001
,
0000
0000
0000
1000
0000
0000
0000
0001
,
0000
0000
0000
0100
0000
0000
0000
0001
,
0000
0001
0000
0000
0000
0000
0001
0000
,
0000
1000
0000
0001
,
0000
1000
0000
0000
0000
0010
0000
0000
,
0000
0100
0100
0000
0000
0000
0010
0000
,
0000
0000
1000
0000
,
1001
0000
0001
0000
,
0010
0010
0010
0000
,
0100
0000
1000
0000
,
0001
0001
0001
0000
,
1000
0000
1000
0000
,
0000
0100
0100
0000
,
0010
0000
0100
0000
,
1000
0000
0001
0000
,
0010
0000
0010
0000
,
0100
1000
0000
0010
,
0000
0100
0000
0010
,
0100
0000
0001
0000
,
0010
0000
0100
1000
,
0000
0100
0000
0010
,
0000
0001
1000
0001
,
0100
0000
0000
0000
0000
1000
0000
0000
0000
0010
0000
0000
0000
0100
0000
0000
,
0000
0001
0000
0000
0000
1000
0000
0000
0000
0001
0000
0000
0000
1000
0000
0000
,
0000
0001
0000
0000
0000
0020
0000
0000
0000
0000
0030
0000
1000
0000
0000
0000
,
0000
0010
0000
0001
,
0000
0000
0000
1000
0000
0000
0000
0001
,
0000
0000
0000
0100
0000
0000
0000
1000
,
0000
0000
0000
0010
0000
0000
0000
0001
,
0000
0000
0001
0000
,
1000
0000
0010
0000
,
0000
0100
0000
0000
0000
0001
0000
0000
,
0000
0000
1000
0000
0000
0000
0000
0000
0000
0000
0000
0010
0000
0000
0000
0000
,
0000
0000
0000
1000
0000
0000
0000
1000
0000
0000
0000
0000
0010
0000
0000
0000
,
0000
0100
0000
0001
,
0000
0000
0000
0000
1000
0000
0000
0000
0000
0000
0000
0000
0000
0001
0000
0000
,
0000
0000
0000
0000
0000
1000
0000
0000
0000
0000
0000
0000
0000
0001
0000
0000
,
0000
0000
0000
0000
0000
0000
0000
0000
0000
0001
0000
0000
0000
0000
0000
0000
0000
1000
0000
0000
0000
0000
0000
0000
0000
0001
0000
0000
0000
0000
0000
0000
,
0000
0000
0000
0000
0000
0100
0000
0010
,
0000
0100
0000
0100
0000
0020
0000
0000
,
1030
0000
1000
0100
,
0000
1000
0000
0001
,
0010
0000
0000
0000
1001
0010
0000
0000
,
0000
0100
0000
0000
0000
0000
0000
0001
,
0000
0000
0000
2000
0000
3000
0000
0100
,
0000
0000
0000
0020
0000
0030
0000
0001
,
0000
0000
0000
0002
0000
0003
0000
0100
,
0000
0000
0000
0200
0000
0300
0000
0010
,
0000
0000
0000
1000
0000
0000
0000
0001
,
0000
0000
0000
0100
0000
0000
0000
0010
,
0000
0000
0000
1000
0000
0000
0000
0100
,
0000
0000
0000
0010
0000
0000
0000
0001
,
0000
0000
0000
1000
0000
0000
0000
0010
,
0000
0000
0000
0100
0000
0000
0000
0010
,
0000
0000
0000
0100
0000
0000
0000
0100
,
0000
0000
0000
0000
0000
0000
0000
0001
0000
0000
0000
0000
0000
0000
0000
0001
,
1000
0000
0000
0000
0000
0000
0000
0000
1000
0000
0000
0000
0000
0020
0000
0000
,
0000
0000
0000
0000
,
0000
0000
0000
0000
,
0000
0000
0000
0000
,
0000
0000
0000
0000
0000
0000
0000
0000
0000
0000
0000
0000
0000
0030
0000
0000
;

//---------------dance-single - ----------------
#NOTES:
     dance-single:
     :
     Challenge:
     11:
     0.872083,1.281690,0.699128,0.153467,0.780124,716.000000,634.000000,82.000000,18.000000,0.000000,0.000000,0.872083,1.281690,0.699128,0.153467,0.780124,716.000000,634.000000,82.000000,18.000000,0.000000,0.000000:
0001
0010
1100
0010
0100
0101
0010
1000
,
0001
0000
1100
0000
0010
0000
0100
0010
0000
0100
1000
0000
0100
0000
0001
0000
,
0100
1001
0010
1000
0010
0001
1000
0100
,
1010
0000
0001
0100
0000
1000
0100
0000
0001
0000
0010
0000
1000
0000
0101
0000
,
1000
0010
0001
1100
0010
0001
0100
1010
,
0001
0000
1000
0100
0000
0010
0100
0000
0001
0000
0100
0000
1000
0000
0011
0000
,
1000
0100
0001
0110
1000
0100
0001
1001
,
0010
0000
0001
0010
0000
0010
1000
0000
0100
0000
0001
0000
0010
0000
0100
0000
,
1000
1100
1100
0101
0101
0010
1000
0001
,
1010
0110
0101
0000
1100
0000
0001
0000
0010
0000
1000
0000
1001
0000
0011
0000
,
1010
0000
1010
0000
1000
0100
0001
0000
0100
1000
0010
0000
0100
0010
1000
0001
,
0010
0000
2002
3003
1010
0000
0100
0001
0100
0000
0202
0303
0011
0000
0100
1000
,
0100
0000
1100
0000
0000
0000
0001
0000
1000
0000
0010
0000
1000
0001
1000
0001
,
1000
0000
0100
0000
0010
0001
0000
0001
0010
0000
0100
0000
1000
0010
1000
0000
,
0001
0000
0100
0000
0010
0100
0001
0100
0010
0000
1010
0000
0001
0000
0101
0000
,
1000
0000
0100
0000
0010
0001
0010
0100
1000
0000
1010
0000
0100
0000
0001
0000
,
1000
0000
0010
0000
1000
0001
0000
0001
1000
0000
1100
0000
0001
0000
0101
0000
,
0010
0000
1000
0000
0001
0010
0100
1000
0001
0000
1010
0000
0000
0000
0010
0000
,
1000
0000
0001
0000
0010
1000
0000
1000
0010
0000
0110
0000
0001
0000
0011
0000
,
0100
0000
0010
0000
0100
0001
0100
0010
1000
0000
0001
0000
0010
0000
0100
0000
,
1000
0001
0100
0000
0010
1000
0010
0000
0010
0100
0001
1000
0100
0010
0001
1000
,
0100
0000
1000
0000
0010
0000
0100
0001
1000
0000
1000
0000
0001
0000
0010
0000
,
0100
0000
1100
0000
0101
0000
0010
1000
0001
1000
0010
0000
1000
0000
0100
0010
,
0001
0000
1000
0100
1000
0000
0010
0000
1000
0000
0001
0000
0010
0000
0110
0000
,
0001
1000
0010
0000
1000
0100
1000
0001
1000
0000
0100
0000
0010
0000
0001
1000
,
0010
0000
0100
0000
0001
1000
0100
0000
0000
0000
0011
0000
1000
0100
0010
0000
,
0001
1000
0100
1000
0010
0000
1000
0000
0001
0000
0100
0000
0010
0000
0100
0000
,
0010
1000
0001
0000
0022
0033
2200
3300
0202
0303
2002
3003
1001
0001
0100
0010
,
1000
0100
1000
0000
0100
0000
1000
0001
0010
0000
0100
0000
0001
0000
0100
0000
1000
0000
0001
0010
0001
1000
0100
0000
0001
0000
0000
0000
0100
0000
1000
0010
,
1000
0000
0100
1000
0010
0000
0100
0001
1000
0000
0100
0000
0010
0000
0001
0100
0010
0000
0000
0000
1000
0000
0100
0000
0010
0001
0010
0000
0100
1000
0100
0000
,
1000
0001
0100
0000
0001
1000
0100
0000
0010
0000
0011
0000
1100
0000
1001
0000
0101
0000
0000
0000
1000
0001
1000
0001
1000
0000
0000
0000
0001
0000
0000
0000
,
0100
0010
1000
0001
0100
0010
1000
0001
,
0100
0010
0100
0000
0001
0000
1000
0000
0100
0000
0010
0000
0001
0000
1000
0000
,
0010
0000
0100
0010
0100
0000
0001
0000
0010
0000
1000
0000
0010
0000
0001
0000
,
0100
1000
0100
0001
0010
1000
0010
0001
,
1000
0000
0001
1000
0001
0000
0010
0000
1000
0000
0001
0000
0100
0000
0010
0000
,
0001
0000
0100
0000
1000
0000
0100
0000
0001
0000
0010
0000
0100
0010
0100
0010
,
0001
0000
0100
0000
0001
0100
0010
0000
1000
0010
0100
0000
0001
1000
0100
0000
,
0001
0000
0100
0000
1000
0000
0001
1000
0001
0010
1000
0010
0000
0001
0100
0001
,
0000
1000
0000
0010
0000
0100
0010
0100
0000
0101
0110
1010
0001
0000
0010
0100
,
1000
0000
0010
0100
0001
0000
1000
0100
0010
0000
0001
0100
0010
0000
1000
0100
,
1000
0000
0001
0100
0001
0000
0100
0010
0100
0000
1010
1001
0101
1000
0000
0001
,
1000
0100
0000
0001
0100
1000
0000
1000
0001
0100
0000
0010
1000
0100
0000
0010
,
0001
0000
1000
0000
0000
0000
0110
1001
0110
0001
0000
0000
0000
1000
0000
0010
0000
0100
0000
0000
0000
0001
0000
1000
0000
0100
0000
0000
0000
0010
0000
0001
,
0000
1000
0000
0000
0000
1100
0101
0110
0010
0000
0000
0000
0100
0000
0000
0000
1000
0000
0000
0000
0001
0000
0000
0000
0010
0000
1000
0000
0010
0000
0000
0000
,
0001
0000
0100
0000
0001
0000
0000
0000
1000
0000
0001
0000
1000
0000
0000
0000
0100
0000
0000
0000
1000
0010
0100
0001
1000
0010
0100
0010
1000
0001
0010
0001
,
0100
0001
0010
0100
1000
0000
0100
0010
0100
0000
0010
1000
0010
0000
1010
0011
,
0101
1001
0001
0000
0010
0100
1000
0001
1000
0000
0010
0100
0001
0000
1000
0010
,
0100
0000
1010
0011
1100
0101
1001
0000
1001
0000
0011
0000
0010
0100
1000
0000
,
1100
0000
1010
0000
1000
0010
0100
0000
0101
0000
0000
0000
0001
0000
0100
0000
,
0010
0000
0100
0001
1000
0001
0200
0000
0010
0000
0301
1000
0000
1000
0001
0000
,
1000
0000
0010
0000
0001
0000
0020
0000
0100
0000
1030
0001
0000
0001
1000
0000
,
0010
0000
0100
0000
0001
0000
2000
0000
0100
0000
3010
0100
0000
0100
0010
0000
,
0100
0000
1000
0000
0100
0000
0002
0000
0010
0000
0103
1000
0000
1000
0100
0000
,
0001
0000
0010
0100
0010
0000
1000
0000
0000
0000
0010
0000
0000
0000
0001
0000
,
0000
0100
0000
1000
0000
0001
0000
0010
,
0000
1000
0000
0001
0010
0001
0100
0010
,
1000
0100
0010
0100
1000
0010
1000
0001
,
0100
0010
0100
0001
0010
0100
1000
0001
,
0100
0010
0100
0001
0010
0100
1000
0001
,
0010
0100
0000
1000
0100
0010
0000
0011
,
0000
0000
1001
0001
0000
0100
0000
0010
0000
0000
0000
1010
0000
0000
0000
0101
,
1000
0000
0001
0000
1000
0000
0000
0000
0110
0000
0000
0000
1001
0220
0000
0000
,
0000
0000
0000
0000
,
0000
0000
0000
0000
,
0000
0000
0000
0000
,
0000
0000
0000
0000
0000
0000
0000
0000
0000
0000
0000
0000
0000
0330
0000
0000
;

//---------------dance-double - ----------------
#NOTES:
     dance-double:
     :
     Hard:
     11:
     0.750283,1.138214,0.784387,0.264304,0.477453,616.000000,524.000000,92.000000,31.000000,0.000000,0.000000,0.750283,1.138214,0.784387,0.264304,0.477453,616.000000,524.000000,92.000000,31.000000,0.000000,0.000000:
// measure 0
10000000
00100000
01010000
00010000
00100000
00101000
00001000
00010000
,  // measure 1
00000100
00000000
00000010
00000000
00000001
00000000
00000011
00000000
00000000
00000110
00000000
00000000
00001100
00000000
00000010
00000000
,  // measure 2
00000001
00001001
00000100
00010000
00011000
00001000
00100000
00010000
,  // measure 3
01010000
00000000
00100000
00000000
00000000
01100000
00000000
00000000
10100000
00000000
10010000
00000000
00020000
00000000
10030000
00000000
,  // measure 4
02000000
03010000
00002000
00003100
00000002
00000013
00000200
00001300
,  // measure 5
00000002
00000000
00000103
00000000
00000000
00000110
00000000
00000000
00010010
00000000
00001000
00000000
00020000
00000000
00130000
00000000
,  // measure 6
02000000
03100000
20000000
31000000
00200000
01300000
00020000
00031000
,  // measure 7
00010000
00000100
00010000
00000000
00000100
00001000
00000100
00000000
00000010
00000000
00000001
00000000
00001000
00000000
00001001
00000000
,  // measure 8
00000000
00000000
00000010
00000000
00001100
00000000
00010000
00001000
00010000
00000000
01000000
00000000
10000000
00000000
00010000
00000000
,  // measure 9
01010000
11000000
10010000
00000000
10000000
00000000
00100000
00000000
01000000
00000000
00010000
00000000
00100000
00000000
00001000
00000000
,  // measure 10
00010000
00000000
01000000
00000000
00000000
01010000
00000000
00000000
00010000
00001000
00010000
00000000
00000100
00001000
00000100
00000000
,  // measure 11
00000010
00000000
00002002
00003003
00000001
00000000
00000010
00000000
00000100
00000000
00020200
00030300
00010000
00000000
00001000
00000000
,  // measure 12
00100000
00000000
01010000
00000000
00000000
00000000
10000000
00000000
01000000
00000000
00010000
00000000
00001000
00100000
00001000
00100000
,  // measure 13
00001000
00010000
00000100
00000010
00001000
00000001
00000100
00001000
,  // measure 14
00001100
00000000
00010010
00000000
00101000
00010000
01010000
01000000
,  // measure 15
00100000
10000000
01000000
00010000
10000000
00100000
00010000
01000000
,  // measure 16
01010000
00000000
00101000
00000000
00010000
00001100
00000000
00000101
,  // measure 17
00000010
00000001
00001000
00000100
00000001
00001000
00000010
00000001
,  // measure 18
00000101
00000000
00010010
00000000
00101000
00010000
01000000
00100000
,  // measure 19
10000000
00010000
10000000
00100000
00010000
10000000
01000000
00010000
,  // measure 20
01010000
00000000
00000000
00000000
00101000
00000000
00000000
00000000
00010000
00000000
00001000
00000000
00000100
00000001
00000100
00000001
,  // measure 21
00000100
00000020
00000000
00000130
00000010
00000200
00001000
00001300
,  // measure 22
00010000
00000000
00011000
00000000
01001000
00000000
01010000
00000000
10000000
01000000
00100000
00010000
10000000
00000000
02000000
00000000
,  // measure 23
00000000
00000000
03100000
00000000
00001000
00010000
00002000
00000000
00100000
00000000
00103000
00000000
00001000
00000000
00011000
00000000
,  // measure 24
00010010
00000000
00000100
00000000
00000001
00000000
00000010
00000000
00000100
00000000
00000110
00000000
00001001
00000000
00000100
00001000
,  // measure 25
00000001
00000101
00001100
00010000
00001000
01001000
01010000
00100000
,  // measure 26
00010000
10000000
00010000
00000000
01000000
00000000
00100000
00000000
10100000
00000000
01000000
00000000
10000000
00000000
01000000
00000000
,  // measure 27
00010000
00000000
00001000
00000000
00000100
00000000
00000000
00000000
00000101
00000000
00000000
00000000
00001001
00000000
00000000
00000000
00001010
00000000
00000000
00000000
00010010
00000000
00000000
00000000
00011000
00000000
00000000
00000000
00100000
00000000
00001000
00010000
,  // measure 28
00001000
00000000
00101000
00000000
00110000
00000000
00010000
00000000
00000000
00000000
01000000
00000000
00100000
00000000
01000000
00000000
10000000
00000000
01000000
00000000
00010000
00100000
00001000
00000000
00010000
00000000
00000100
00000000
00000110
00000000
00000011
00000000
,  // measure 29
00000000
00000000
00001000
00000000
00000010
00000000
00000101
00000000
00000101
00000000
00000001
00000000
00000100
00000000
00000010
00001000
00000010
00000000
00010000
00000000
00001000
00000000
00011000
00000000
00000000
00000000
01000000
00000000
00100000
00000000
01000000
00000000
,  // measure 30
00100000
00000000
00000000
00000000
00000000
00000000
10000000
00000000
01000000
00000000
00010000
00000000
00001000
00000000
00000100
00000000
00000001
00000000
00000000
00000000
00000010
00000100
00000010
00000100
00000010
00000000
00000000
00000000
00000001
00000000
00000000
00000000
,  // measure 31
00000100
00000010
00001000
00000001
00000010
00001000
00010000
00000100
,  // measure 32
00000010
00000100
00010000
00001000
00100000
01000000
10000000
00100000
,  // measure 33
00010000
00001000
01000000
00010000
00100000
01000000
10000000
01000000
,  // measure 34
00010000
00001000
00000100
00000001
00000010
00000001
00001000
00000100
,  // measure 35
00010000
00001000
00000100
00000001
00000010
00000100
00001000
00000001
,  // measure 36
00000100
00000000
00001000
00000000
00010000
00000000
01000000
00000000
10000000
00000000
00100000
00000000
10000000
00000000
00010000
10010000
,  // measure 37
01100000
10000000
01000000
00100000
01000000
10000000
01000000
00010000
,  // measure 38
00001000
00000000
00010000
00000000
01000000
00000000
00010000
00000000
00001000
00000100
00000000
00000010
00000000
00000100
00000000
00001000
,  // measure 39
00000000
00000100
00000000
00000001
00000000
00000010
00000000
00000100
00000000
00010000
00001000
00010000
00100000
00000000
10000000
00000000
,  // measure 40
00100000
01000000
00100000
00010000
00001000
00010000
01000000
00010000
,  // measure 41
00001000
00000000
00000010
00000000
00001000
00000000
00010000
00000000
00001000
00000000
00000100
00000010
00000110
00000001
00000000
00000100
,  // measure 42
00000000
00000010
00000000
00000100
00000000
00000001
00000000
00000100
00000000
00001000
00000000
00010000
00000000
00001000
00000000
00000010
,  // measure 43
00000000
00000000
00001000
00000000
00000000
00000000
00010000
00110000
10100000
01000000
00000000
00000000
00000000
10000000
00000000
00000000
00000000
01000000
00000000
00000000
00000000
00100000
00000000
00000000
00000000
01000000
00000000
00000000
00000000
00010000
00000000
00000000
,  // measure 44
00000000
00001000
00000000
00000000
00000000
00011000
00010100
00000110
00001001
00000000
00000000
00000000
00000100
00000000
00000000
00000000
00000001
00000000
00000000
00000000
00000100
00000000
00000000
00000000
00001000
00000000
00000000
00000000
00000100
00000000
00000000
00000000
,  // measure 45
00000001
00000000
00000000
00000000
00000100
00000000
00000000
00000000
00001000
00000000
00000000
00000000
00010000
00000000
00000000
00000000
00100000
00000000
00000000
00000000
10000000
01000000
00100000
00010000
10000000
01000000
00100000
00010000
10000000
01000000
00100000
00010000
,  // measure 46
10000000
00000000
01000000
00000000
00010000
00000000
01000000
00000000
10000000
00000000
01000000
00000000
00010000
00000000
00001000
00011000
,  // measure 47
00010010
00001010
00000100
00000000
00000001
00000000
00000010
00000000
00000001
00000000
00000100
00000000
00000010
00000000
00010000
00000000
,  // measure 48
00001000
00000000
00011000
01001000
01010000
10010000
01100000
00000000
20020000
30030000
10000000
00000000
00100000
00000000
01000000
00000000
,  // measure 49
01001000
00000000
00001000
00000000
00010000
00000000
00000100
00001000
00000010
00000000
00000000
00000000
00001000
00000000
00000100
00000000
,  // measure 50
00000001
00000000
00000100
00010000
00001000
00010000
01000000
00000000
10000000
00000000
00100000
00000000
01000000
00010000
00000000
01000000
,  // measure 51
00001000
00000000
00010000
00000000
00000100
00000000
00000110
00000000
00000001
00000000
00000100
00000000
00000001
00001000
00000000
00000010
,  // measure 52
00001000
00000000
00000100
00000000
00010000
00000000
00011000
00000000
00100000
00000000
00010000
00000000
10000000
01000000
00000000
10000000
,  // measure 53
00010000
00000000
00100000
00000000
00001000
00000000
00010000
00000000
00000100
00000000
00000010
00000000
00000001
00001000
00000000
00000100
,  // measure 54
00010000
00000000
00001000
00010000
01000000
10000000
22000000
00000000
00000000
00000000
00000000
00000000
33000000
00000000
22000000
00000000
,  // measure 55
00000000
00000000
33000000
02020000
00000000
00000000
03030000
02020000
,  // measure 56
00000000
00000000
03030000
00001000
00000000
00000010
00000000
00000001
,  // measure 57
00000000
00000010
00000000
00001000
00000000
00010000
00000000
01000000
,  // measure 58
00000000
10000000
00000000
00010000
01000000
00100000
00000000
10000000
,  // measure 59
01000000
00010000
00000000
00001000
00000100
00000001
00000000
00000100
,  // measure 60
00000010
00001000
00000010
00001000
00000000
00010100
00000000
00101000
,  // measure 61
00000000
00000000
01010000
00100000
00000000
00000000
00000000
01000000
00000000
00000000
00000000
01100000
00000000
00000000
00000000
10010000
,  // measure 62
00100000
00000000
00000000
00000000
10000000
00000000
00000000
00000000
10100000
00000000
00000000
00000000
01001000
00022000
00000000
00000000
,  // measure 63
00000000
00000000
00000000
00000000
,  // measure 64
00000000
00000000
00000000
00000000
,  // measure 65
00000000
00000000
00000000
00000000
,  // measure 66
00000000
00000000
00000000
00033000
;

//---------------dance-double - ----------------
#NOTES:
     dance-double:
     :
     Challenge:
     11:
     0.868429,1.280491,0.733232,0.119363,0.741758,713.000000,627.000000,86.000000,14.000000,0.000000,0.000000,0.868429,1.280491,0.733232,0.119363,0.741758,713.000000,627.000000,86.000000,14.000000,0.000000,0.000000:
// measure 0
00000001
00000010
00001100
00000010
00000100
00000101
00000010
00010000
,  // measure 1
00001000
00000000
00011000
00000000
00100000
00000000
01000000
00100000
00000000
01000000
10000000
00000000
01000000
00000000
00100000
00000000
,  // measure 2
00010000
10010000
00100000
00010000
00001000
00000010
00000001
00000100
,  // measure 3
00001010
00000000
00000001
00000100
00000000
00001000
00010000
00000000
00000010
00000000
00001000
00000000
00000100
00000000
00010100
00000000
,  // measure 4
00001000
00100000
01000000
10100000
00010000
01000000
00100000
11000000
,  // measure 5
00010000
00000000
10000000
01000000
00000000
00010000
00001000
00000000
00100000
00000000
00010000
00000000
01000000
00000000
01001000
00000000
,  // measure 6
00010000
00000010
00000100
00000011
00001000
00000001
00000100
00001010
,  // measure 7
00010000
00000000
00001000
00000000
00100000
00010000
00100000
00000000
10000000
00000000
00010000
00000000
01000000
00000000
10000000
00000000
,  // measure 8
00100000
00110000
00110000
00011000
00011000
00000100
00000001
00001000
,  // measure 9
00000011
00000110
00001100
00000000
00001001
00000000
00000001
00000000
00000010
00000000
00001000
00000000
00011000
00000000
00110000
00000000
,  // measure 10
10100000
00000000
10010000
00000000
10000000
01000000
00010000
00000000
00001000
00100000
00010000
00000000
01000000
00001000
00010000
00000100
,  // measure 11
00000010
00000000
00002002
00003003
00000011
00000000
00000100
00001000
00000100
00000000
00020200
00030300
00101000
00000000
01000000
10000000
,  // measure 12
01000000
00000000
11000000
00000000
00000000
00000000
00010000
00000000
10000000
00000000
00100000
00000000
01000000
00001000
01000000
00001000
,  // measure 13
01000000
00000000
00010000
00000000
00001000
00000000
00000010
00000000
00000100
00000000
00000001
00000000
00000010
00000001
00000010
00000000
,  // measure 14
00001000
00000000
00010000
00000000
00000100
00010000
00001000
00010000
00000100
00000000
00010100
00000000
00001000
00000000
00101000
00000000
,  // measure 15
00010000
00000000
01000000
00000000
00100000
10000000
00100000
01000000
00010000
00000000
00110000
00000000
01000000
00000000
10000000
00000000
,  // measure 16
00010000
00100000
00101000
00000000
00010000
00010100
00000010
00000011
,  // measure 17
00000100
00000000
00001000
00000000
00000001
00000100
00000010
00001000
00000001
00000000
00001010
00000000
00000000
00000000
00000100
00000000
,  // measure 18
00010000
00001000
00101000
00000000
10000000
11000000
00100000
00110000
,  // measure 19
10000000
00000000
01000000
00000000
00100000
00010000
00100000
01000000
10000000
00000000
00010000
00000000
00100000
00000000
00001000
00000000
,  // measure 20
00010000
00000100
00001000
00000000
00000010
00000100
00000010
00000000
00000010
00000100
00000001
00001000
00000100
00000010
00000001
00000100
,  // measure 21
00001000
00000000
00010000
00000000
00100000
00000000
10000000
00010000
01000000
00000000
01000000
00000000
00001000
00000000
00010000
00000000
,  // measure 22
00100000
00000000
10100000
00000000
01010000
00000000
00100000
00001000
00010000
00001000
00100000
00000000
00001000
00000000
00010000
00000100
,  // measure 23
00000010
00000000
00000001
00000100
00000001
00000000
00000010
00000000
00001000
00000000
00010000
00000000
00000100
00000000
00010100
00000000
,  // measure 24
00001000
00100000
01000000
00000000
10000000
00100000
10000000
00010000
10000000
00000000
01000000
00000000
00100000
00000000
00010000
10000000
,  // measure 25
00100000
00000000
00010000
00000000
00001000
00100000
00010000
00000000
00000000
00000000
01001000
00000000
00010000
00000100
00000010
00000000
,  // measure 26
00000001
00000010
00000100
00001000
00000001
00000000
00000100
00000000
00000010
00000000
00010000
00000000
00001000
00000000
00100000
00000000
,  // measure 27
01000000
10000000
00010000
00000000
02020000
03030000
20200000
30300000
00220000
00330000
20020000
30030000
10000000
01000000
00100000
00010000
,  // measure 28
01000000
00100000
01000000
00000000
00001000
00000000
00010000
00000100
00001000
00000000
00000010
00000000
00000001
00000000
00000010
00000000
00001000
00000000
00000001
00000100
00000001
00000100
00000010
00000000
00010000
00000000
00000000
00000000
00000100
00000000
00010000
00001000
,  // measure 29
00100000
00000000
01000000
10000000
00100000
00000000
01000000
00010000
10000000
00000000
01000000
00000000
00100000
00000000
00001000
00010000
00001000
00000000
00000000
00000000
00010000
00000000
00000100
00000000
00000010
00000001
00000010
00000000
00000100
00001000
00000100
00000000
,  // measure 30
00001000
00000001
00000100
00000000
00000010
00010000
00001000
00000000
00100000
00000000
00110000
00000000
11000000
00000000
10010000
00000000
01010000
00000000
00000000
00000000
10000000
00010000
10000000
00010000
10000000
00000000
00000000
00000000
00010000
00000000
00000000
00000000
,  // measure 31
01000000
00100000
10000000
01000000
00010000
00001000
00000100
00000001
,  // measure 32
00000010
00000100
00000010
00000000
00000001
00000000
00001000
00000000
00000010
00000000
00010000
00000000
00001000
00000000
01000000
00000000
,  // measure 33
00010000
00000000
00100000
01000000
00100000
00000000
00010000
00000000
01000000
00000000
10000000
00000000
01000000
00000000
00001000
00000000
,  // measure 34
00010000
00000100
00000010
00000001
00000100
00001000
00010000
01000000
,  // measure 35
10000000
00000000
00010000
10000000
00010000
00000000
00100000
00000000
10000000
00000000
00010000
00000000
00001000
00000000
01000000
00000000
,  // measure 36
00010000
00000000
00001000
00000000
00000010
00000000
00000100
00000000
00000001
00000000
00000010
00000000
00001000
00000000
00100000
01100000
,  // measure 37
10010000
00000000
01000000
00000000
10000000
01000000
00100000
00000000
00010000
01000000
00100000
00000000
00010000
00001000
00000010
00000000
,  // measure 38
00000001
00000000
00000100
00000000
00001000
00000000
00010000
00000100
00010000
00000010
00001000
00000010
00000000
00010000
00001000
00010000
,  // measure 39
00000000
01000000
00000000
10000000
00000000
00100000
01000000
00100000
00000000
11000000
01100000
00110000
00001000
00000000
00010000
00001000
,  // measure 40
00000100
00000000
00001000
00010000
01000000
00000000
00010000
00001000
00000010
00000000
00001000
00010000
00100000
00000000
00010000
00000100
,  // measure 41
00000010
00000000
00000001
00000100
00000010
00000000
00001000
00000100
00001000
00000000
00010100
00011000
00101000
00010000
00000000
10000000
,  // measure 42
00010000
01000000
00000000
10000000
01000000
00010000
00000000
00100000
00001000
00010000
00000000
00001000
00000100
00000001
00000000
00000010
,  // measure 43
00000001
00000000
00001000
00000000
00000000
00000000
00000110
00001001
00000110
00001000
00000000
00000000
00000000
00000001
00000000
00000010
00000000
00000100
00000000
00000000
00000000
00001000
00000000
00000010
00000000
00010000
00000000
00000000
00000000
00001000
00000000
00100000
,  // measure 44
00000000
00010000
00000000
00000000
00000000
11000000
01100000
00110000
00100000
00000000
00000000
00000000
01000000
00000000
00000000
00000000
10000000
00000000
00000000
00000000
00100000
00000000
00000000
00000000
00010000
00000000
00001000
00000000
00010000
00000000
00000000
00000000
,  // measure 45
00000100
00000000
00001000
00000000
00000100
00000000
00000000
00000000
00000010
00000000
00000001
00000000
00000010
00000000
00000000
00000000
00000100
00000000
00000000
00000000
00001000
00000010
00000100
00000001
00001000
00000010
00010000
00001000
01000000
00010000
01000000
00010000
,  // measure 46
00100000
00010000
00100000
01000000
10000000
00000000
01000000
00100000
01000000
00000000
00010000
00001000
00010000
00000000
00011000
00010100
,  // measure 47
00000110
00000011
00000001
00000000
00000010
00000100
00001000
00000001
00001000
00000000
00000010
00000100
00001000
00000000
00010000
00001000
,  // measure 48
00100000
00000000
01010000
11000000
10100000
00110000
10010000
00000000
10010000
00000000
10100000
00000000
00100000
01000000
00010000
00000000
,  // measure 49
01010000
00000000
01001000
00000000
00010000
00000100
00001000
00000000
00001010
00000000
00000000
00000000
00000001
00000000
00000100
00000000
,  // measure 50
00000010
00000000
00001000
00000100
00000010
00000001
00001000
00000000
00000100
00000000
00010000
01000000
00000000
01000000
10000000
00000000
,  // measure 51
00010000
00000000
00100000
00000000
10000000
00000000
00100000
00000000
01000000
00000000
00010000
00001000
00000000
00001000
00000010
00000000
,  // measure 52
00000001
00000000
00000100
00000000
00001000
00000000
01000000
00000000
00010000
00000000
00100000
01000000
00000000
01000000
00100000
00000000
,  // measure 53
01000000
00000000
10000000
00000000
01000000
00000000
00010000
00000000
00001000
00000000
00100000
00010000
00000000
00010000
00001000
00000000
,  // measure 54
00000100
00000010
00000001
00001000
00000000
00000001
00000000
00000100
,  // measure 55
00000000
00001000
00000000
00010000
00000000
00100000
00000000
10000000
,  // measure 56
00000000
00010000
00000000
10000000
00100000
10000000
00100000
01000000
,  // measure 57
00010000
01000000
00010000
00100000
00001000
00100000
00001000
00010000
,  // measure 58
00000100
00010000
00000100
00001000
00000010
00000100
00000001
00000010
,  // measure 59
00000100
00001000
00000010
00000100
00001000
00010000
00100000
01000000
,  // measure 60
00010000
00100000
01000000
10000000
00000000
10100000
00000000
01100000
,  // measure 61
00000000
00000000
01001000
00010000
00000000
00001000
00000000
00010000
00000000
00000000
00000000
00010010
00000000
00000000
00000000
00000101
,  // measure 62
00001000
00000000
00000001
00000000
00001000
00000000
00000000
00000000
00000110
00000000
00000000
00000000
00010010
00022000
00000000
00000000
,  // measure 63
00000000
00000000
00000000
00000000
,  // measure 64
00000000
00000000
00000000
00000000
,  // measure 65
00000000
00000000
00000000
00000000
,  // measure 66
00000000
00000000
00000000
00033000
;

//---------------dance-double - ----------------
#NOTES:
     dance-double:
     :
     Medium:
     8:
     0.537135,0.796750,0.255778,0.085259,0.306934,441.000000,411.000000,30.000000,10.000000,0.000000,0.000000,0.537135,0.796750,0.255778,0.085259,0.306934,441.000000,411.000000,30.000000,10.000000,0.000000,0.000000:
00001000
00010000
01000000
00100000
00001000
00010000
00000010
00000100
,
00000001
00000000
00000010
00000000
00001000
00000000
00010000
00000000
00000000
00010000
00000000
00000000
00010000
00000000
00001000
00000000
,
00100000
01000000
10000000
01000000
00010000
00001000
00000100
00000001
,
00001000
00000000
00000100
00000000
00000000
00000100
00000000
00000000
00000100
00000000
00010000
00000000
00001000
00000000
00010000
00000000
,
00000000
00100000
01000000
00100000
00000000
10000000
01000000
10000000
,
00000000
00000000
10100000
00000000
00000000
01100000
00000000
00000000
01010000
00000000
00010000
00000000
00100000
00000000
00001000
00000000
,
00000000
00010000
00000010
00001000
00000000
00000001
00000100
00000010
,
00000000
00000000
00010010
00000000
00000000
00011000
00000000
00000000
01001000
00000000
01000000
00000000
00100000
00000000
01000000
00000000
,
00000000
00010000
10010000
10000000
10100000
00000000
00010000
00001000
,
00010000
00010000
00010000
00000000
00000100
00000000
00000010
00000000
00000100
00000000
00000000
00000000
00001100
00000000
00001000
00000000
,
00000101
00000000
00000001
00000000
00000000
00001000
00000010
00000000
00000000
00010000
00001000
00000000
00000000
01000000
00010000
00000000
,
00000000
00010000
10000000
00000000
10010000
00000000
00000000
00000000
00000000
00000000
11000000
00000000
01010000
00000000
00000000
00000000
,
00000000
00011000
00000000
00000100
00000001
00000100
00000001
00000010
,
00001000
00000000
00010000
00000100
00001000
00000010
00000000
00000000
,
00010000
00001000
00100000
00020000
00000000
10000000
00000000
01030000
,
00001000
00010000
00001000
00010000
01000000
10000000
00000000
00000000
,
00100000
00000000
01000000
00200000
00000000
10000000
00000000
00310000
,
00100000
01000000
00001000
00010000
00000100
00000010
00000000
00000000
,
00000001
00000010
00000100
00002000
00000000
00000010
00000000
00003001
,
00000010
00001000
00010000
01000000
10000000
00100000
00000000
00100000
,
01000000
00100000
01000000
00000000
00001000
00010000
00001000
00000000
,
00010000
00000010
00000100
00000001
00001000
00000001
00000000
00000000
,
00000000
00001010
00000101
00000000
00010000
00000010
00010000
00000010
,
00000000
00001000
00000100
00010000
00000000
00000000
00000000
01100000
,
10010000
00000000
00100000
01000000
00100000
01000000
00000000
10000000
,
00100000
00010000
00000000
00000000
00000000
00011000
00001100
00000000
,
00000010
00000001
00000010
00000001
00000000
00001000
00000100
00000010
,
00001000
00000000
00000000
00000000
00011000
00000000
00110000
00000000
10100000
00000000
10010000
00000000
00010000
10000000
00010000
00000000
,
00100000
01000000
10000000
00010000
01000000
00001000
00000000
00010000
00000100
00001000
00000000
00000010
00000100
00000000
00000001
00000010
,
00000100
00001000
00000000
00000010
00010000
00001000
00000000
00100000
00010000
00000000
10000000
00100000
01000000
00010000
00000000
00100000
,
00001000
00100000
00000000
00001000
00010000
00000100
00001000
00001000
00000001
00000000
00000100
00000000
00000100
00000000
00001000
00000000
,
00010000
00000000
01000000
00010000
00001000
00000000
00000010
00001000
,
00010000
00100000
10000000
00010000
10000000
01000000
00000000
00010000
,
00001000
00010000
00000100
00001000
00000010
00000100
00000000
00000001
,
00000010
00001000
00000000
00010000
01000000
10000000
00000000
10000000
,
00100000
00010000
00001000
00100000
00010000
01000000
00001000
00000000
,
00010000
00000000
00001000
00000000
00000100
00000000
00000000
00000000
00001000
00000000
00000100
00000000
00000001
00000000
00000001
00001000
,
00000001
00000010
00000100
00000010
00000000
00001000
00010000
00001000
,
00000000
00000000
00100000
00000000
00010000
00000000
01000000
00000000
00100000
00000000
00000000
10000000
00000000
00010000
00000000
10000000
,
00000000
01000000
00000000
00100000
00000000
00001000
00000000
00010000
00000000
00000100
00000100
00000100
00001000
00000000
00000010
00000000
,
00001000
00000000
00000001
00000010
00000001
00000000
00001000
00000100
,
00001000
00000000
00000000
00000000
00000010
00000000
00010000
00000000
00001000
00000000
00100000
00100000
00100000
00010000
00000000
10000000
,
00000000
01000000
00000000
00000000
00000000
00010000
00000000
00001000
00000000
00000100
00000000
00000000
00000000
00000100
00000000
00001000
,
00000000
00000000
00010000
00000000
00000000
00000000
00001000
00001000
00001000
00000100
00000000
00000000
00000000
00000001
00000000
00000000
00000000
00000100
00000000
00000000
00000000
00001000
00000000
00000000
00000000
00010000
00000000
00000000
00000000
01000000
00000000
00000000
,
00000000
10000000
00000000
00000000
00000000
01000000
00010000
00001000
00010000
00000000
00000000
00000000
00000000
00000000
00000000
00000000
00000010
00000000
00000000
00000000
00001000
00000000
00000000
00000000
00000001
00000000
00000000
00000000
00001000
00000000
00000000
00000000
,
00000010
00000000
00010000
00000000
00001000
00000000
01000000
00000000
00001000
00000000
00010000
00100000
01000000
10000000
01000000
00100000
,
00010000
00000000
00001000
00000000
00000100
00000000
00000000
00000000
00000001
00000000
00000100
00000000
00000010
00000000
00010000
00010000
,
00010000
00010000
00001000
00000000
00100000
00000000
00010000
00000000
00100000
00000000
00000000
00000000
01000000
00000000
10000000
00000000
,
01000000
00000000
00100000
00001000
00010000
00000100
00000020
00000000
00000031
00000000
00000101
00000000
00000000
00000000
00000000
00000000
,
00001010
00001100
00000000
00000000
00011000
00000000
00110000
00000000
,
10000000
01000000
00100000
00020000
00000000
01000000
01000000
00000000
,
00100000
00000000
00130000
00002000
00000000
00010000
00000000
00000000
,
00000010
00000000
00003010
00000200
00000000
00001000
00000000
00000001
,
00000000
00001300
00000010
00020000
00000000
00001000
00000000
00000000
,
01030000
00000000
00000000
10000000
00000000
00010000
00000000
01000000
,
00000000
00100000
00000000
10000000
00000000
01000000
00000000
00100000
,
00000000
00001000
00000000
00010000
00000000
00000100
00000000
00000010
,
00000000
00000001
00000000
00000100
00000000
00001000
00000000
00010000
,
00000000
00100000
00000000
00010000
00000000
00001000
00000000
01000000
,
00000000
00100000
00000000
10000000
00000000
01000000
00000000
00010000
,
00000000
00001000
00000000
00100000
00000000
00001000
00000000
00010000
,
00000000
00000000
00000100
00000010
00000000
00000000
00000000
00000001
00000000
00000000
00000000
00001000
00000000
00000000
00000000
00000001
,
00000100
00000000
00000000
00000000
00000010
00000000
00000000
00000000
00010000
00000000
00000000
00000000
00001000
00022000
00000000
00000000
,
00000000
00000000
00000000
00000000
,
00000000
00000000
00000000
00000000
,
00000000
00000000
00000000
00000000
,
00000000
00000000
00000000
00033000
;

//---------------dance-double - ----------------
#NOTES:
     dance-double:
     :
     Easy:
     6:
     0.367834,0.569107,0.093785,0.085259,0.213149,302.000000,291.000000,11.000000,10.000000,0.000000,0.000000,0.367834,0.569107,0.093785,0.085259,0.213149,302.000000,291.000000,11.000000,10.000000,0.000000,0.000000:
10000000
00000000
00010000
00100000
00000000
01000000
00000000
10000000
,
00000000
00100000
00000000
01000000
00000000
00001000
00000000
00010000
,
00000000
00000010
00001000
00000000
00000001
00000000
00000010
00000000
,
00000001
00000010
00000000
00000001
00000000
00000100
00000000
00000100
,
00000000
00000010
00000000
00000010
00000000
00010000
00000000
00010000
,
00000000
00001000
00000000
00001000
00000000
00100000
00000000
00100000
,
00000000
00010000
00000000
00010000
00000000
01000000
00000000
01000000
,
00000000
00100000
00000000
00100000
00000000
10000000
00000000
00010000
,
00000000
01000000
00000000
00000000
00001000
00000000
00010000
00000000
,
00000100
00000010
00000001
00000010
,
00000000
00001000
00000000
00010000
00000000
00100000
00000000
10000000
,
00000000
10010000
01000000
00000000
00000000
10010000
00100000
00000000
,
00000000
00101000
00000000
00000000
00010000
00000000
00001000
00000000
,
00000100
00000000
00000001
00000000
00000010
00000100
00000000
00000000
,
00010000
00000000
00001000
00000000
00000000
00100000
00000000
00100000
,
00010000
00000000
10000000
00000000
01000000
00100000
00000000
00000000
,
00010000
00000000
10000000
00000000
00000000
01000000
00000000
01000000
,
00010000
00000000
00001000
00000000
00000100
00000001
00000000
00000000
,
00001000
00000000
00000001
00000000
00000000
00000010
00000000
00000010
,
00000100
00000000
00010000
00000000
00001000
00100000
00000000
00000000
,
00010000
10000000
01000000
00010000
,
00001000
00000000
00000100
00000000
00000001
00001000
00000000
00000000
,
00000010
00000100
00000001
00001000
,
00000100
00000000
00010000
00001000
00000000
00000000
00100000
00000000
,
00010000
01000000
10000000
01000000
,
00010000
00100000
00000000
00000000
00001000
00000000
00010000
00000000
,
00000100
00000010
00000100
00001000
,
00000001
00000000
00000100
00000010
00010000
00001000
00100000
00010000
,
10000000
00010000
10000000
00010000
00000000
01000000
00000000
00100000
00000000
10000000
00000000
01000000
00010000
00000000
00001000
00100000
,
00000000
00001000
00000000
00010000
00000000
00000100
00000000
00000010
00000100
00000000
00000001
00000100
00000000
00001000
00000000
00000001
,
00000000
00000010
00000000
00000100
00000010
00000000
00001000
00001000
00001000
00000000
00001000
00000000
00010000
00000000
00000000
00000000
,
01000000
00010000
00001000
00100000
,
01000000
00000000
00000000
10000000
00000000
00010000
00000000
00100000
,
00000000
01000000
00000000
10000000
00000000
01000000
00000000
00010000
,
00000000
00001000
00000000
00000010
00000000
00000001
00000000
00000010
,
00000000
00001000
00000000
00000000
00000010
00000000
00000100
00000000
,
00010000
00000000
00000000
00000000
00001000
00000000
00000000
00000000
01000000
00000000
00000000
00000000
00100000
00000000
00000000
10000000
,
00010000
10000000
00010000
10000000
00000000
00100000
00000000
00010000
,
00000000
00000000
00001000
00000000
00000000
00000000
00000100
00000000
00000000
00000000
00000000
00000010
00000000
00000100
00000000
00000010
,
00000000
00000000
00000000
00001000
00000000
00000000
00000000
00000001
00000000
00000010
00000100
00001000
00000001
00000000
00000100
00000000
,
00000010
00000000
00010000
00001000
00010000
00000000
01000000
00000000
,
10000000
00000000
00000000
00000000
00100000
00000000
00000000
00000000
01000000
00000000
01000000
00001000
00010000
00000100
00000000
00000010
,
00000000
00000001
00000000
00000000
00000000
00001000
00000000
00000010
00000000
00001000
00000000
00000000
00000000
00000100
00000000
00000000
,
00000000
00000000
00010000
00000000
00000000
00000000
00001000
00000000
00100000
00000000
00000000
00000000
00000000
00010000
00000000
00000000
00000000
01000000
00000000
00000000
00000000
00000000
00000000
00000000
00000000
10000000
00000000
00000000
00000000
00000000
00000000
00000000
,
00000000
01000000
00000000
00000000
00000000
00010000
00100000
00001000
00010000
00000000
00000000
00000000
00000000
00000000
00000000
00000000
00000100
00000000
00000000
00000000
00000010
00000000
00000000
00000000
00000000
00000000
00000000
00000000
00000001
00000000
00000000
00000000
,
00000000
00001000
00000000
00000010
00000100
00002000
00000000
00000000
,
00013000
00000000
00100000
00000000
10000000
00000000
00000000
00000000
10000000
00000000
00000000
00000000
00100000
00000000
01000000
00010000
,
10000000
00100000
01000000
00000000
00010000
00000000
00000000
00000000
00100000
00000000
00000000
00000000
00001000
00000000
00000000
00000000
,
00000010
00000000
00000001
00001000
00000100
00000010
00000100
00000000
00000110
00000000
00010000
00000000
00000000
00000000
00000000
00000000
,
00011000
00001000
00000000
00000000
01010000
00000000
10000000
01000000
,
00000000
00010000
00000000
00012000
00000000
00100000
00000000
01000000
,
00000000
00013000
00000000
00021000
00000000
00000010
00000000
00000100
,
00000000
00031000
00000000
00020010
00000000
00001000
00000000
00000010
,
00000000
00031000
00000000
00102000
00000000
00010000
00000000
00100000
,
00000000
00013000
00000000
00001000
00000000
00000000
00000000
00000100
,
00000000
00000000
00000000
00000001
00000000
00000000
00000000
00001000
,
00000000
00000010
00000000
00010000
00000000
00001000
00000000
00100000
,
00000000
00000000
00000000
01000000
00000000
00000000
00000000
10000000
,
00000000
00000000
00000000
00010000
00000000
10000000
00000000
00010000
,
00000000
10000000
00000000
00100000
00000000
01000000
00000000
00100000
,
00000000
00000000
00000000
00020000
00000000
00000000
00000000
00031000
,
00000000
00000000
00000100
00000002
00000000
00000000
00000000
00000000
00000000
00000000
00000000
00001003
00000000
00000000
00000000
00000100
,
00000020
00000000
00000000
00000000
00000000
00000000
00000000
00000000
00001030
00000000
00000000
00000000
00010000
00022000
00000000
00000000
,
00000000
00000000
00000000
00000000
,
00000000
00000000
00000000
00000000
,
00000000
00000000
00000000
00000000
,
00000000
00000000
00000000
00033000
;
