#TITLE:Beginning of life (THE GROUND PULSE MIX);
#SUBTITLE:;
#ARTIST:QUADRA;
#TITLETRANSLIT:;
#SUBTITLETRANSLIT:;
#ARTISTTRANSLIT:;
#GENRE:;
#CREDIT:;
#BANNER:Beginning of life (THE GROUND PULSE MIX).png;
#BACKGROUND:Beginning of life (THE GROUND PULSE MIX)-bg.png;
#LYRICSPATH:;
#CDTITLE:;
#MUSIC:Beginning of life (THE GROUND PULSE MIX).ogg;
#OFFSET:-1.322714;
#SAMPLESTART:15.037000;
#SAMPLELENGTH:15.000000;
#SELECTABLE:YES;
#BPMS:0.000000=140.000000
;
#STOPS:
;
#BGCHANGES:;
#KEYSOUNDS:;
#ATTACKS:;

//---------------dance-single - ----------------
#NOTES:
     dance-single:
     :
     Beginner:
     1:
     0.064135,0.080082,0.000000,0.000000,0.000000,37.000000,37.000000,0.000000,0.000000,0.000000,0.000000,0.064135,0.080082,0.000000,0.000000,0.000000,37.000000,37.000000,0.000000,0.000000,0.000000,0.000000:
0000
0000
0000
0000
,
0000
0000
0000
0000
,
0000
0000
0000
0000
,
0000
0000
0000
0000
,
1000
0000
0000
0000
,
0001
0000
0000
0000
,
1000
0000
0000
0000
,
0001
0000
0000
0000
,
0100
0000
0000
0000
,
1000
0000
0000
0000
,
0001
0000
0000
0000
,
0100
0000
0000
0000
,
0010
0000
0000
0000
,
1000
0000
0000
0000
,
0001
0000
0000
0000
,
0010
0000
0000
0000
,
1000
0000
0000
0000
,
0001
0000
0000
0000
,
1000
0000
0000
0000
,
0001
0000
0000
0000
,
0010
0000
0000
0000
,
0100
0000
0000
0000
,
0010
0000
0000
0000
,
0100
0000
0000
0000
,
0001
0000
0000
0000
,
0000
0000
0000
0000
,
1000
0000
0000
0000
,
0000
0000
0000
0000
,
0001
0000
0000
0000
,
1000
0000
0000
0000
,
0010
0000
0000
0000
,
0100
0000
0000
0000
,
0001
0000
0000
0000
,
1000
0000
0000
0000
,
0010
0000
0000
0000
,
0001
0000
0000
0000
,
1000
0000
0000
0000
,
0100
0000
0000
0000
,
0010
0000
0000
0000
,
1000
0000
0000
0000
,
0001
0000
0000
0000
,
0000
0000
0000
0000
,
1000
0000
0000
0000
,
0000
0000
0000
0000
,
0100
0000
0000
0000
;

//---------------dance-single - ----------------
#NOTES:
     dance-single:
     :
     Easy:
     3:
     0.178537,0.242975,0.048534,0.036401,0.000000,103.000000,99.000000,4.000000,3.000000,0.000000,0.000000,0.178537,0.242975,0.048534,0.036401,0.000000,103.000000,99.000000,4.000000,3.000000,0.000000,0.000000:
0000
0000
0000
0000
,
0000
0000
0000
0000
,
0000
0000
0000
0000
,
0000
0000
0000
0000
,
0001
1000
0001
0000
,
0001
1000
0001
0000
,
0100
0001
1000
0000
,
0020
0000
0100
0130
,
0001
0000
1000
0000
,
0010
0000
1000
0100
,
1000
0000
0100
0000
,
0010
0000
0001
1000
,
0001
0000
0010
0000
,
0001
0000
1000
0100
,
1000
0000
0010
0000
,
0100
0000
0001
1000
,
0010
0000
0100
0000
,
0010
0000
1000
0000
,
0001
1000
0000
0100
,
0000
0010
0000
1000
,
0001
0000
1000
0000
,
0001
0010
0000
0100
,
1000
0000
0010
0000
,
0100
0000
0100
0000
,
1001
0000
0001
0000
,
1000
0100
1000
0001
,
1001
0000
0001
0000
,
0020
0000
0000
0000
,
0031
0000
0010
0000
,
1000
0000
0001
1000
,
1001
0000
0100
0000
,
1000
0000
0001
0100
,
0110
0000
0100
0000
,
1000
0000
0001
0000
,
0010
0000
0100
0000
,
0001
0000
1000
1000
,
0001
0000
0010
0000
,
0100
1000
0100
0000
,
0010
0000
0100
0000
,
0100
0001
0100
0000
,
1000
0000
0001
0000
,
1000
0000
0001
1000
,
0010
0000
0100
0000
,
0010
0000
1000
0001
,
0200
0000
0300
0000
;

//---------------dance-single - ----------------
#NOTES:
     dance-single:
     :
     Medium:
     6:
     0.355340,0.404958,0.060668,0.024267,0.139536,205.000000,200.000000,5.000000,2.000000,0.000000,0.000000,0.355340,0.404958,0.060668,0.024267,0.139536,205.000000,200.000000,5.000000,2.000000,0.000000,0.000000:
0000
0000
0000
0000
,
0000
0000
0000
0000
,
0000
0000
0000
0000
,
0000
0000
0000
0000
,
0010
1000
0001
1000
,
0100
0010
0001
1000
,
0010
0000
0000
0000
0001
0000
0000
0000
0100
0000
0000
0100
0000
0000
0200
0000
,
0000
0000
0010
0310
,
0001
0000
0000
0100
0000
0000
0001
0000
0000
0100
0000
0000
0001
0000
0000
0000
,
1000
0100
0010
0001
,
1000
0000
0000
0010
0000
0000
1000
0000
0000
0010
0000
0000
1000
0000
0000
0000
,
0100
1000
0001
0100
,
0010
0000
0000
0100
0000
0000
0010
0000
0000
0100
0000
0000
0010
0000
0000
0000
,
1000
0100
0010
0001
,
1000
0000
0000
0001
0000
0000
1000
0000
0000
0001
0000
0000
1000
0000
0000
0000
,
0010
0100
0001
1000
,
0100
0000
1000
0000
0010
1000
0001
0000
,
0100
0001
1000
0000
0100
1000
0001
0000
,
0010
0100
0010
0000
0001
0000
1000
0000
,
0010
0000
1000
0001
0000
1000
0100
0000
,
1000
0001
1000
0000
0010
0000
0100
0000
,
0001
0000
0010
0100
0000
1000
0001
1000
,
0010
0000
0000
1000
0000
0000
0100
0000
0000
0010
0000
0000
0001
0000
0000
0000
,
0100
0010
1000
0001
,
0110
0000
0001
1000
0001
0000
0010
0000
,
0100
0000
1000
0001
0010
0000
0100
0000
,
0110
0000
0010
0001
1000
0000
0010
1000
,
0001
0000
0000
1000
0000
1000
0000
0000
0010
0000
0000
0100
0000
0100
0000
0000
,
1001
0000
0100
0001
1000
0000
0010
0000
,
0100
0001
0010
0000
0100
0000
1000
0000
,
0100
0010
0001
0000
1000
0000
0010
0000
,
0100
0001
1000
0000
0100
1000
0001
0010
,
0100
0000
1000
0000
0010
1000
0001
0000
,
0100
0000
0001
0000
1000
0100
1000
0001
,
0010
0100
1000
0010
,
0100
0001
1001
0110
,
0001
0000
0000
1000
0000
0000
0100
0000
0000
0010
0000
0000
0001
0000
0000
0000
,
1000
0010
1000
0000
0001
0010
0001
0000
,
1000
0000
0000
0100
0000
0000
0001
0000
0000
0100
0000
0000
1000
0000
0000
0000
,
0010
0100
0010
0000
1000
0001
1000
0000
,
0001
0000
0000
0010
0000
0000
1000
0000
0000
0100
0000
0000
0001
0000
0000
0000
,
1000
0000
0010
0000
0100
0001
0100
0000
,
1000
0000
0000
0010
0000
0000
0001
0000
0000
0100
0000
0000
1000
0000
0000
0000
,
0100
0010
0100
0000
0001
1000
0001
1000
,
0200
0000
0300
0000
;

//---------------dance-single - ----------------
#NOTES:
     dance-single:
     :
     Hard:
     8:
     0.523477,0.593938,0.145603,0.024267,0.509610,302.000000,290.000000,12.000000,2.000000,0.000000,0.000000,0.523477,0.593938,0.145603,0.024267,0.509610,302.000000,290.000000,12.000000,2.000000,0.000000,0.000000:
0000
0000
0000
0000
,
0000
0000
0000
0000
,
0000
0000
0000
0000
,
0000
0000
0000
0000
,
0010
0000
1000
0000
0001
0000
0000
0000
0100
0000
0000
0100
0000
0000
0100
0000
,
0001
0000
0010
0000
1000
0000
0000
0000
0010
0000
0000
0001
0000
0000
1000
0000
,
0010
0000
0000
0000
1000
0000
0000
0000
0100
0000
0000
0010
0000
0000
0002
0000
,
0000
0000
0000
0000
0000
0003
0000
1000
0001
1000
0001
1000
0001
1000
0001
1000
,
0010
0000
0000
0010
0000
0000
0100
0000
0000
0001
0000
0000
1000
0000
0000
0000
,
0100
0000
1000
0000
0001
0000
0010
0000
1000
0000
0000
1000
0000
0000
1000
0000
,
0010
0000
0000
0001
0000
0000
0100
0000
0000
0001
0000
0000
1000
0000
0000
0000
,
0001
0000
0100
0000
1000
0000
0100
0000
0010
0000
0000
0010
0000
0000
1000
0000
,
0001
0000
0000
0010
0000
0000
0001
0000
0000
1000
0000
0000
0100
0000
0000
0000
,
1000
0000
0001
0000
0010
0000
0100
0000
0010
0000
0000
0010
0000
0000
0010
0000
,
0001
0000
0000
0100
0000
0000
0010
0000
0000
1000
0000
0000
0100
0000
0000
0000
,
0010
0000
0100
0000
1000
0000
0001
0000
1001
0000
0000
1001
0000
0000
1001
0000
,
0001
0000
1000
0000
0001
0000
0100
0010
0000
0100
0001
0000
0010
0000
0100
0000
,
1000
0000
0001
0000
0100
0000
0001
1000
0000
0001
1000
0000
0010
0000
1000
0000
,
0100
0000
0010
0000
0001
0000
1000
0010
0000
1000
0001
0000
0100
0000
0010
0000
,
1000
0000
0100
0000
1000
0000
0001
0010
0000
0100
0010
0000
0001
0000
1000
0000
,
0100
0000
0001
0000
0100
0000
1000
0001
0000
1000
0001
0000
0100
0000
0001
0000
,
1000
0000
0100
0000
0010
0000
0001
0000
1000
0000
1000
0000
0001
0010
0000
0010
,
0100
0000
0000
1000
0000
0000
0010
0000
0000
0100
0000
0000
0001
0000
1000
0000
,
0000
1000
0000
0000
1000
0000
0000
1000
0000
0000
1100
0000
0000
0110
0000
0000
,
0011
0000
0000
0000
0001
0000
0100
0000
1000
0000
0000
0100
0000
0000
0010
0000
,
1000
0000
0100
0000
1000
0000
0001
0000
0100
0000
0000
0010
0000
0000
1000
0000
,
1010
0000
0000
0000
0100
0000
1000
0000
0001
0000
0000
0100
0000
0000
0001
0000
,
1000
0000
0100
0010
0000
0001
0000
1000
0001
0000
0010
0100
0000
1000
0000
0001
,
1000
0000
0001
0000
0011
0000
1000
0100
0000
1000
0001
0000
1000
0000
0010
0000
,
0101
0000
0010
0000
1000
0000
0100
1000
0000
1000
0001
0000
0100
0000
0010
0000
,
1001
0000
0010
0101
0000
0010
0100
0010
,
0001
0000
0010
0000
0100
0000
1000
0001
0000
0001
1000
0000
0010
0000
1000
0000
,
0001
0000
0000
0010
0000
0000
1000
0000
0000
0010
0000
0000
0001
0000
0000
0000
,
0100
0000
1000
0000
0100
0000
0010
1000
0000
1000
0001
0000
0100
0000
0010
0000
,
1000
0000
0000
0001
0000
0000
0010
0000
0000
0001
0000
0000
0100
0000
0000
0000
,
0001
0010
0001
0000
1000
0100
1000
0000
0001
0000
0010
0000
0100
0000
1000
0000
,
1001
0000
0000
0000
0010
1000
0000
0100
0000
0010
0000
0001
0100
0000
1000
0000
,
0001
0000
0010
0000
1000
0001
0000
0010
0000
0001
0000
1000
0010
0000
1000
0000
,
0001
0000
0100
0000
0001
0010
0000
0100
0000
1000
0000
0001
1000
0000
0010
0000
,
1000
0000
0100
0000
0010
0001
0000
0100
0000
0010
0000
1000
0001
0000
0010
0000
,
0001
0000
0000
1000
0000
0000
0010
0000
0000
1000
0000
0000
0100
0000
0000
0000
,
0001
0000
0100
0000
1000
0000
0000
0000
0100
0000
0000
1000
0000
0000
0010
0000
,
0001
0000
0000
0010
0000
0000
1000
0000
0000
0001
0000
0000
0100
0000
0000
0000
,
0001
0000
1000
0000
0010
0100
0000
0001
0000
1000
0000
0000
0001
0000
1000
0000
,
0020
0000
0030
0000
;

//---------------dance-double - ----------------
#NOTES:
     dance-double:
     :
     Hard:
     8:
     0.490543,0.566941,0.097069,0.036401,0.515677,283.000000,275.000000,8.000000,3.000000,0.000000,0.000000,0.490543,0.566941,0.097069,0.036401,0.515677,283.000000,275.000000,8.000000,3.000000,0.000000,0.000000:
00000000
00000000
00000000
00000000
,
00000000
00000000
00000000
00000000
,
00000000
00000000
00000000
00000000
,
00000000
00000000
00000000
00000000
,
00000010
00000000
00001000
00000000
00000001
00000000
00000000
00000000
00000100
00000000
00000000
00000010
00000000
00000000
00000100
00000000
,
00000001
00000000
00000010
00000000
00001000
00000000
00000000
00000000
00010000
00000000
00000000
01000000
00000000
00000000
10000000
00000000
,
00100000
00000000
00000000
00000000
10000000
00000000
00000000
00000000
01000000
00000000
00000000
00100000
00000000
00000000
00002000
00000000
,
00000000
00000000
00000000
00000000
00000000
00000000
00003000
00010000
00000100
00010000
00000100
00010000
00000100
00010000
00000100
00010000
,
00001000
00000000
00000000
00000100
00000000
00000000
00000001
00000000
00000000
00001000
00000000
00000000
00000001
00000000
00000100
00000000
,
00001000
00000000
00000000
00000000
00010000
00000000
00100000
00000000
10000000
00000000
00000000
10000000
00000000
00000000
01000000
00000000
,
00010000
00000000
00000000
01000000
00000000
00000000
10000000
00000000
00000000
00010000
00000000
00000000
10000000
00000000
01000000
00000000
,
00010000
00000000
00000000
00000000
00001000
00000000
00000010
00000000
00000001
00000000
00000000
00000001
00000000
00000000
00000001
00000000
,
00000100
00000000
00000000
00000100
00001000
00000000
00010000
00000000
00100000
00000000
00000000
10000000
00000000
00000000
00010000
00000000
,
10000000
00000000
00000000
00000000
01000000
00000000
00010000
00000000
00001000
00000000
00000000
00000010
00000000
00000000
00001000
00000000
,
00010000
00000000
00000000
00000000
00000010
00000000
00001000
00000000
00000001
00000000
00000000
00000100
00000000
00000000
00001000
00000000
,
00010000
00000000
00000000
00000000
01000000
00000000
10000000
00000000
00010000
00000000
00000000
10000000
00000000
00000000
00100000
00000000
,
00010000
00000000
00001000
00000000
00100000
01000000
00000000
10000000
00000000
00010000
00000000
00000000
10000000
00000000
01000000
00000000
,
00010000
00000000
00001000
00000000
00000010
00000001
00000000
00001000
00000000
00000100
00000000
00000000
00000010
00000000
00000001
00000000
,
00000100
00000000
00001000
00000000
00010000
01000000
00000000
00100000
00000000
00001000
00000000
00000000
00010000
00000000
01000000
00000000
,
10000000
00000000
00100000
00000000
00010000
00001000
00000000
00000010
00000000
00000001
00000000
00000000
00000001
00000000
00000100
00000000
,
00001000
00000000
00010000
00000000
00000010
00000100
00000000
00000001
00000000
00001000
00000000
00000000
00000001
00000000
00000100
00000000
,
00001000
00000000
00010000
00000000
01000000
00000000
10000000
00000000
00010000
00000000
00000000
00100000
00000000
00000000
00001000
00000000
,
00000000
00010000
00000000
00000000
00001000
00000000
00000100
00000000
00000001
00000000
00000000
00000010
00000000
00000000
00000100
00000000
,
00000000
00010000
00000000
00000000
00001000
00000000
00000000
00100000
00000000
00000000
01000000
00000000
00000000
10000000
00000000
00000000
,
10010000
00000000
00000000
00010000
01000000
00000000
10000000
00000000
01000000
00000000
00000000
00100000
00000000
00000000
01000000
00000000
,
00010000
00000000
00000000
00000000
00100000
00000000
00000000
00001000
00000000
00001000
00010000
00000000
00000100
00000000
00000010
00000000
,
00000011
00000000
00000000
00000000
00001000
00000000
00000000
00000100
00000000
00000000
00010000
00000000
00000000
00001000
00100000
00000000
,
00020000
00000000
00000000
00030000
,
10010000
00000000
00000000
00000000
01100000
00000000
00000000
10000000
00000000
00010000
10000000
00000000
01000000
00100000
00000000
00100000
,
00001000
00000000
00010000
00000000
00010000
00000000
00000000
00001000
00000000
00000000
00000100
00000000
00000001
00000000
00000010
00000000
,
00001001
00000000
00000000
00000000
00000110
00000000
00000000
00001000
00000000
00000001
00001000
00000000
00000100
00000000
00010000
00000000
,
00001000
00100000
00000000
00100000
00010000
00000000
01000000
00100000
00000000
00000000
10000000
00010000
10000000
00000000
01000000
00000000
,
10010000
00000000
00010000
00000000
10000000
00000000
00000000
01000000
00000000
00010000
00001000
00000000
00100000
00000000
00001000
00000000
,
00010000
00000000
00000100
00000000
00000010
00000000
00000000
00000001
00000000
00001000
00000001
00000000
00000100
00000000
00000010
00000000
,
00001000
00000000
00000000
00000100
00000000
00000000
00000010
00000000
00000000
00001000
00000000
00000000
00100000
00000000
00010000
00000000
,
10000000
01000000
10000000
00000000
00010000
00000000
00000000
00100000
00000000
00100000
01000000
00000000
10000000
00000000
00100000
00000000
,
10010000
00000000
00010000
00000000
10000000
00000000
00000000
00100000
00000000
00010000
00001000
00000000
01000000
00000000
00001000
00000000
,
00010000
00000000
00000010
00000000
00000100
00000000
00000000
00000001
00000000
00001000
00000001
00000000
00000010
00000000
00000100
00000000
,
00001000
00000000
00000000
00000010
00000000
00000000
00000100
00000000
00000000
00001000
00000000
00000000
01000000
00000000
00010000
00000000
,
10000000
00000000
01000000
00000000
00010000
00001000
00000000
00000010
00000000
00000010
00000000
00000010
00000001
00000000
00000100
00000010
,
00001000
00000000
00000000
00000001
00000000
00000000
00000100
00000000
00000000
00001000
00000000
00000000
00010000
00000000
01000000
00000000
,
10000000
00000000
00010000
00000000
10000000
00000000
00000000
00000000
01000000
00000000
00000000
00010000
00000000
00000000
00001000
00000000
,
00000100
00000000
00000000
00000001
00000000
00000000
00000010
00000000
00000000
00001000
00000000
00000000
00010000
00000000
01000000
00000000
,
00000000
10000000
00000000
00000000
00010000
00000000
10000000
00000000
00100000
00000000
00010000
00000000
00001000
00000010
00000000
00000200
,
00000000
00000000
00000300
00000000
;

//---------------dance-double - ----------------
#NOTES:
     dance-double:
     :
     Medium:
     7:
     0.414275,0.409508,0.060668,0.048534,0.242671,239.000000,234.000000,5.000000,4.000000,0.000000,0.000000,0.414275,0.409508,0.060668,0.048534,0.242671,239.000000,234.000000,5.000000,4.000000,0.000000,0.000000:
00000000
00000000
00000000
00000000
,
00000000
00000000
00000000
00000000
,
00000000
00000000
00000000
00000000
,
00000000
00000000
00000000
00000000
,
00100000
00000000
00000000
00000000
10000000
00000000
00000000
00000000
00010000
00000000
00000000
00010000
00000000
00000000
00010000
00000000
,
01000000
00000000
00001000
00000000
00010000
00000000
00000000
00000000
00000100
00000000
00000000
00000100
00000000
00000000
00000100
00000000
,
00000010
00000000
00000000
00000000
00000001
00000000
00000000
00000000
00001000
00000000
00000000
00001000
00000000
00000000
00001000
00000000
,
00000000
00000000
00000000
00000000
00000000
00000000
00000000
00000200
00000000
00000000
00000000
00000000
00000000
00000000
00000300
00000000
,
00010000
00001000
00000000
00100000
00010000
00000000
10000000
00010000
,
00000000
00000000
10000000
00000000
01000000
00000000
00000000
00000000
00010000
00000000
00000000
00001000
00000000
00000000
00100000
00000000
,
00001000
00010000
00000010
00001000
00000000
00000001
00000100
00000000
,
00000001
00000000
00001000
00000000
00000000
00000000
00000100
00000000
00010000
00000000
00000000
00001000
00000000
00000000
00010000
00000000
,
00001000
00000000
00100000
01000000
00000000
10000000
01000000
10000000
,
00010000
00000000
00000000
00000000
00100000
00000000
00001000
00000000
00010000
00000000
00000000
00000100
00000000
00000000
00001000
00000000
,
00000000
00000001
00000100
00000000
00000010
00001000
00000000
00000100
,
00010000
00000000
00001000
00100000
00000000
00010000
10000000
01000000
,
00010000
00000000
00000000
00000000
00001000
00000000
00100000
00000000
00010000
00000000
00000000
01000000
00000000
00000000
00001000
00000000
,
00010000
00000000
00000100
00000000
00001000
00000000
00000001
00000000
00000100
00000000
00000000
00001000
00000000
00000000
00010000
00000000
,
00001000
00000000
00000000
00000000
00100000
00000000
00010000
00000000
10000000
00000000
00000000
01000000
00000000
00000000
00010000
00000000
,
00001000
00000000
00000000
00100000
00000000
00000000
00010000
00000000
01000000
00000000
00000000
10000000
00000000
00000000
01000000
00000000
,
00100000
00000000
00000000
00000000
00010000
00000000
00001000
00000000
00000100
00000000
00000000
00000001
00000000
00000000
00000010
00000000
,
00000000
00000001
00001000
00000000
00000100
00000000
00010000
00000000
00001000
00000000
00000000
00100000
00000000
00000000
00010000
00000000
,
00000000
10000000
00000000
00000000
01000000
00000000
00100000
00000000
00010000
00000000
00000000
00001000
00000000
00000000
00001000
00000000
,
00000000
00000100
00000000
00000000
00000100
00000000
00000000
00000010
00000000
00000000
00000010
00000000
00000001
00000000
00001000
00000000
,
00000001
00000000
00000000
00000000
00000100
00000000
00001000
00000000
00010000
00000000
00000000
00001000
00000000
00000000
00100000
00000000
,
00110000
00000000
00000000
00000000
10010000
00000000
00000000
01000000
00000000
00000000
00010000
00000000
10000000
00000000
01000000
00000000
,
10000000
00000000
00000000
00000000
01000000
00000000
00000000
00010000
00000000
00000000
00001000
00000000
00000000
00000100
00000000
00000000
,
00000002
00000000
00000000
00000003
,
00001001
00000000
00000000
00000000
00001000
00000000
00000000
00000001
00000000
00000000
00000010
00000000
00000100
00000000
00010000
00000000
,
00001000
00000000
00100000
00000000
00010000
00000000
00000000
10000000
00000000
00000000
00010000
00000000
01000000
00000000
00000000
00000000
,
10010000
00000000
00000000
00000000
00010000
00000000
00000000
10000000
00000000
00000000
00100000
00000000
10000000
00000000
01000000
00000000
,
00010000
00000000
00000000
00000000
00001000
00000000
00000000
00000010
00000000
00000000
00000001
00000000
00001000
00000000
00000001
00000000
,
00000100
00000000
00001000
00000000
00010000
00000000
00000000
00000010
00000000
00000000
00010000
00000000
00001000
00000000
00100000
00000000
,
00010000
00000000
10000000
00000000
01000000
00000000
00000000
00010000
00000000
00000000
00001000
00000000
00000100
00000000
00000001
00000000
,
00001000
00000000
00000001
00000000
00000010
00000000
00000000
00000100
00000000
00000000
00001000
00000000
00000100
00000000
00010000
00000000
,
00001000
00000000
01000000
00000000
00010000
00000000
00000000
10000000
00000000
00000000
00010000
00000000
00100000
00000000
01000000
00000000
,
10000000
00000000
00010000
00000000
10000000
00000000
00000000
01000000
00000000
00000000
00100000
00000000
00001000
00000000
00010000
00000000
,
00000100
00000000
00000010
00000000
00000001
00000000
00000000
00000000
00000010
00000000
00000000
00000010
00000000
00000000
00000001
00000000
,
00000100
00000000
00001000
00000000
00010000
00000000
00000000
01000000
00000000
00000000
10000000
00000000
00100000
00000000
01000000
00000000
,
00010000
00000000
10000000
00000000
01000000
00000000
00000000
00100000
00000000
00000000
00001000
00000000
00010000
00000000
00000100
00000000
,
00000010
00000000
00000000
00000000
00000010
00000000
00000000
00000000
00000001
00000000
00000000
00000100
00000000
00000000
00001000
00000000
,
00010000
00000000
00100000
00000000
10000000
00000000
00000000
00000000
00010000
00000000
00000000
00010000
00000000
00000000
10000000
00000000
,
01000000
00000000
10000000
00000000
00100000
00000000
00000000
00000000
10000000
00000000
00000000
01000000
00000000
00000000
00010000
00000000
,
00000000
00001000
00000000
00000000
00000010
00000000
00000001
00000000
00000100
00000000
00000010
00000000
00010000
00000000
00000000
00022000
,
00000000
00000000
00000000
00000000
,
00033000
00000000
00000000
00000000
;

//---------------dance-double - ----------------
#NOTES:
     dance-double:
     :
     Easy:
     3:
     0.176803,0.218404,0.036401,0.036401,0.000000,102.000000,99.000000,3.000000,3.000000,0.000000,0.000000,0.176803,0.218404,0.036401,0.036401,0.000000,102.000000,99.000000,3.000000,3.000000,0.000000,0.000000:
// measure 0
00000000
00000000
00000000
00000000
,  // measure 1
00000000
00000000
00000000
00000000
,  // measure 2
00000000
00000000
00000000
00000000
,  // measure 3
00000000
00000000
00000000
00000000
,  // measure 4
00010000
00001000
00010000
00000000
,  // measure 5
00001000
00010000
00001000
00000000
,  // measure 6
00100000
00010000
10000000
00000000
,  // measure 7
02000000
00000000
00000000
03000000
,  // measure 8
00010000
00000000
00001000
00000000
,  // measure 9
00000100
00000000
00000010
00000100
,  // measure 10
00001000
00000000
00010000
00000000
,  // measure 11
01000000
00000000
10000000
00010000
,  // measure 12
01000000
00000000
00001000
00000000
,  // measure 13
00010000
00000000
00000100
00000010
,  // measure 14
00000001
00000000
00001000
00000000
,  // measure 15
00000100
00000000
00010000
00001000
,  // measure 16
00100000
00000000
01000000
00000000
,  // measure 17
00100000
00000000
00010000
10000000
,  // measure 18
01000000
00000000
00010000
00000000
,  // measure 19
00001000
00000100
00000100
00000000
,  // measure 20
00000010
00000000
00000100
00000000
,  // measure 21
00000010
00000000
00001000
00000001
,  // measure 22
00000100
00000000
00001000
00000000
,  // measure 23
00010000
00000000
01000000
00000000
,  // measure 24
10010000
00000000
01000000
00000000
,  // measure 25
00010000
00001000
00000000
00000100
,  // measure 26
00001001
00000000
00000010
00000000
,  // measure 27
00002000
00000000
00000000
00003000
,  // measure 28
00000001
00000000
00000010
00000000
,  // measure 29
00001000
00000000
00010000
01000000
,  // measure 30
10000000
00000000
00100000
00000000
,  // measure 31
00010000
00000000
00001000
00000100
,  // measure 32
00000001
00000000
00001000
00001000
,  // measure 33
00000010
00000000
00010000
00010000
,  // measure 34
00001000
00000000
00100000
00000000
,  // measure 35
00010000
00010000
00000000
10000000
,  // measure 36
10010000
00000000
00100000
00000000
,  // measure 37
10000000
00010000
01000000
00000000
,  // measure 38
00001000
00000000
00010000
00000000
,  // measure 39
00000100
00001000
00000001
00000000
,  // measure 40
00000010
00000000
00000001
00000000
,  // measure 41
00001000
00000100
00001000
00000000
,  // measure 42
00000100
00000000
00010000
00000000
,  // measure 43
00001000
01000000
00010000
00000000
,  // measure 44
00200000
00000000
00000000
00000000
,  // measure 45
00300000
00000000
00000000
00000000
;
