#TITLE:All Night;
#SUBTITLE:;
#ARTIST:Fracus;
#TITLETRANSLIT:;
#SUBTITLETRANSLIT:;
#ARTISTTRANSLIT:;
#GENRE:;
#CREDIT:;
#BANNER:All Night.png;
#BACKGROUND:All Night-bg.png;
#LYRICSPATH:;
#CDTITLE:;
#MUSIC:All Night.ogg;
#OFFSET:-0.012000;
#SAMPLESTART:55.383427;
#SAMPLELENGTH:17.314289;
#SELECTABLE:YES;
#BPMS:0.000000=175.000000
;
#STOPS:
;
#BGCHANGES:;
#KEYSOUNDS:;
#ATTACKS:;

//---------------dance-single - ----------------
#NOTES:
     dance-single:
     :
     Beginner:
     1:
     0.100099,0.138244,0.056813,0.009469,0.000000,74.000000,68.000000,6.000000,1.000000,0.000000,0.000000,0.100099,0.138244,0.056813,0.009469,0.000000,74.000000,68.000000,6.000000,1.000000,0.000000,0.000000:
0000
0000
0000
0000
,
0000
0000
0000
0000
,
0000
0000
0000
0000
,
0000
0000
0000
0000
,
0000
0000
0000
0000
,
0001
0000
0000
0000
,
0001
0000
0000
0000
,
1000
0000
0000
0000
,
1000
0000
0000
0000
,
0010
0000
0000
0000
,
0010
0000
0000
0000
,
0100
0000
0000
0000
,
0100
0000
0000
0000
,
0010
0000
0000
0000
,
0010
0000
0000
0000
,
1000
0000
0000
0000
,
1000
0000
0000
0000
,
0001
0000
0000
0000
,
0001
0000
0000
0000
,
0100
0000
0000
0000
,
0100
0000
0000
0000
,
0010
0000
0000
0000
,
0010
0000
0000
0000
,
1000
0000
0000
0000
,
1000
0000
0000
0000
,
1001
0000
0000
0000
,
0100
0000
0000
0000
,
0010
0000
0000
0000
,
0001
0000
0000
0000
,
0100
0000
0000
0000
,
0010
0000
0000
0000
,
1000
0000
0000
0000
,
0001
0000
0000
0000
,
1001
0000
0000
0000
,
0100
0000
0000
0000
,
0100
0000
0000
0000
,
0100
0000
0000
0000
,
0010
0000
0000
0000
,
0010
0000
0000
0000
,
0020
0000
0000
0000
,
0030
0000
0000
0000
,
0110
0000
0000
0000
,
0100
0000
0000
0000
,
1000
0000
0000
0000
,
0001
0000
0000
0000
,
0100
0000
0000
0000
,
0010
0000
0000
0000
,
1000
0000
0000
0000
,
0001
0000
0000
0000
,
0010
0000
0000
0000
,
0100
0000
0000
0000
,
1000
0000
0000
0000
,
0001
0000
0000
0000
,
0100
0000
0000
0000
,
0010
0000
0000
0000
,
1000
0000
0000
0000
,
0001
0000
0000
0000
,
1001
0000
0000
0000
,
0100
0000
0000
0000
,
0010
0000
0000
0000
,
0100
0000
0000
0000
,
1000
0000
0000
0000
,
0001
0000
0000
0000
,
0100
0000
0000
0000
,
0010
0000
0000
0000
,
1001
0000
0000
0000
,
0100
0000
0000
0000
,
0010
0000
0000
0000
,
0001
0000
0000
0000
,
1000
0000
0000
0000
,
0010
0000
0000
0000
,
0100
0000
0000
0000
,
0001
0000
0000
0000
,
1001
0000
0000
0000
;

//---------------dance-single - ----------------
#NOTES:
     dance-single:
     :
     Hard:
     8:
     0.541074,0.595588,0.378752,0.416627,0.000000,400.000000,360.000000,40.000000,44.000000,0.000000,0.000000,0.541074,0.595588,0.378752,0.416627,0.000000,400.000000,360.000000,40.000000,44.000000,0.000000,0.000000:
0000
0000
0000
0000
,
0000
0000
0000
0000
,
0000
0000
0000
0000
,
0000
0000
0000
0000
,
0000
0000
0000
0000
,
0010
1000
0100
1000
,
0001
0100
0010
1000
,
0001
0010
0001
1000
,
0010
0100
0001
0010
,
0100
0000
1000
0000
0001
1000
0000
0010
,
1000
0000
0100
0010
0000
0100
1000
0000
,
0010
0000
0100
0000
0001
0010
0000
0001
,
1000
0000
0100
1000
0000
0010
0100
0000
,
0001
0000
0010
0000
0100
1000
0000
0001
,
1000
0000
0010
0100
0000
0001
0100
0000
,
0010
0000
1000
0000
0100
0010
0000
0100
,
1000
0000
0000
0001
1000
0001
1000
0000
,
1001
0000
0000
0001
1000
0000
0010
0000
,
0010
0100
0001
0100
0000
0010
1000
0001
,
0010
0100
1100
0011
,
0001
1000
0010
0100
0000
0001
0100
0010
,
1000
0000
0000
0010
0100
0000
0001
0000
,
1000
0100
0010
0001
0000
1000
0010
1000
,
0100
0011
1100
1001
,
0001
0100
0010
1000
0000
0010
0100
0001
,
1000
0100
1000
0001
,
0100
0010
0100
0001
0000
1000
0100
1000
,
0010
0100
0001
1000
,
0001
0010
0100
1000
0000
0001
1000
0010
,
0100
0001
0100
0010
,
1000
0100
0010
0001
0000
1000
0010
1000
,
0100
0010
0100
1000
,
0010
0100
0001
1000
0000
0100
0000
1000
,
0000
0001
0000
0100
0000
0010
0000
1000
,
0000
0001
0000
0010
0000
0100
0000
1000
,
0000
0001
0000
0100
0000
0010
0000
1000
,
0000
0010
0000
0100
0000
0001
0000
1000
,
0100
0010
0100
0010
0100
0010
0100
0010
,
0001
1000
0001
1000
0001
1000
0001
1000
,
0001
0100
0010
1000
0001
0100
0010
1000
,
0002
0000
0000
1003
0001
1000
0001
0000
,
0101
0101
1010
1010
,
0010
1000
0100
1000
0000
0001
0010
0100
,
1100
1100
0011
0011
,
0001
1000
0010
0100
0000
0010
1000
0001
,
0011
0011
0110
0110
,
0100
1000
0001
1000
0000
0010
0100
0001
,
0101
0101
0110
0110
,
0010
0100
0001
1000
0000
0100
0010
0100
,
1100
1100
0011
0011
,
0001
1000
0010
0100
0000
0010
1000
0001
,
0011
0011
1100
1100
,
1000
0100
0010
0001
0000
0100
0010
1000
,
1010
1010
0101
0101
,
0001
1000
0100
0010
0000
0100
1000
0010
,
1010
1010
0101
0101
,
0001
1000
0001
2000
0000
0000
3000
0000
,
0002
0203
0320
2030
,
3100
0001
0100
2000
0000
3010
0100
0001
,
0020
0032
2003
3020
,
0031
0010
1000
0200
0000
0310
0001
1000
,
0200
0320
0032
2003
,
3100
0001
0100
2000
0000
3010
0100
0001
,
0020
0032
2003
3020
,
0130
0001
0100
0020
0000
1030
0100
0010
,
0002
2003
3020
2030
,
3001
0100
1000
0200
0000
0310
1000
0001
,
0020
0230
2300
3002
,
0013
1000
0010
0002
0000
0103
0010
1000
,
0200
0320
0032
2003
,
3010
1000
0100
2000
0000
3001
0100
0010
,
0200
0302
0023
0130
,
2002
0000
3003
0000
0010
1000
0001
0100
,
0220
0000
0000
0000
,
0330
0000
0000
0000
;

//---------------dance-single - ----------------
#NOTES:
     dance-single:
     :
     Easy:
     3:
     0.213724,0.276489,0.028406,0.009469,0.000000,158.000000,155.000000,3.000000,1.000000,0.000000,0.000000,0.213724,0.276489,0.028406,0.009469,0.000000,158.000000,155.000000,3.000000,1.000000,0.000000,0.000000:
0000
0000
0000
0000
,
0000
0000
0000
0000
,
0000
0000
0000
0000
,
0000
0000
0000
0000
,
0000
0000
0000
0000
,
0001
0000
0100
0000
,
0010
0000
1000
0000
,
0010
0000
0100
0000
,
0001
0000
0000
0000
,
1000
0000
0100
0000
,
1000
0000
0001
0000
,
0100
0000
0001
0000
,
0010
0000
0000
0000
,
0001
0000
0010
0000
,
0001
0000
1000
0000
,
0010
0000
1000
0000
,
0100
0000
0000
0000
,
0010
0000
0000
0000
,
0010
0000
0100
0000
,
1000
0000
1000
0000
,
0001
0000
0100
0000
,
0010
0000
0000
0000
,
0010
0000
0100
0000
,
0001
0000
1000
0000
,
0100
0000
0010
0000
,
0001
0000
0001
0000
,
1000
0000
1000
0000
,
0010
0000
0010
0000
,
0100
0000
0100
0000
,
0001
0000
0010
0000
,
0100
0000
1000
0000
,
0010
0010
0100
0100
,
0001
0000
1000
0000
,
0100
0000
0100
0000
,
0010
0000
0010
0000
,
0001
0000
0001
0000
,
1000
0000
1000
0000
,
0020
0000
0000
0000
,
0000
0000
0000
0000
,
0100
0100
0100
0100
,
0130
0000
1001
0000
,
0100
0000
0010
0000
,
0100
0001
1000
0100
,
0010
0000
0001
0000
,
0010
0100
1000
0000
,
0010
0000
0100
0000
,
0001
1000
0010
0100
,
0001
0000
0010
0000
,
0100
1000
0010
0000
,
1000
0000
0001
0000
,
0010
0001
1000
0010
,
0100
0000
0010
0000
,
1000
0001
0010
0000
,
0100
0000
1000
0000
,
0010
1000
0100
0010
,
0001
0000
0100
0000
,
0110
0000
0000
0000
,
0010
0000
0100
0000
,
0001
1000
0100
0010
,
0001
0000
0100
0000
,
0010
1000
0001
0010
,
0100
0000
1000
0000
,
0100
0010
0001
1000
,
0010
0000
0100
0000
,
0001
0000
0000
0000
,
1000
0000
0100
0000
,
0010
0001
1000
0010
,
0100
0000
0010
0000
,
1000
0100
0010
0001
,
0010
0000
1000
0000
,
0010
0001
0100
1000
,
0100
0000
0010
0000
,
1000
0000
0001
1000
,
1001
0000
0000
0000
;

//---------------dance-single - ----------------
#NOTES:
     dance-single:
     :
     Medium:
     5:
     0.374694,0.449295,0.160970,0.009469,0.000000,277.000000,260.000000,17.000000,1.000000,0.000000,0.000000,0.374694,0.449295,0.160970,0.009469,0.000000,277.000000,260.000000,17.000000,1.000000,0.000000,0.000000:
0000
0000
0000
0000
,
0000
0000
0000
0000
,
0000
0000
0000
0000
,
0000
0000
0000
0000
,
0000
0000
0000
0000
,
0010
0000
0100
0000
,
0001
0000
1000
0000
,
0001
0000
0010
0000
,
0100
0000
1000
0000
,
0000
0000
0001
0000
0000
0100
0000
0000
,
0001
0000
0000
1000
0000
0000
0100
0000
,
0000
0000
0010
0000
0000
0001
0000
0000
,
1000
0000
0000
0010
0000
0000
0100
0000
,
0000
0000
0010
0000
0000
1000
0000
0000
,
0001
0000
0000
0010
0000
0000
0100
0000
,
0000
0000
1000
0000
0000
0001
0000
0000
,
0100
0000
0010
0000
,
0100
0000
0000
0100
0010
0000
0100
0000
,
0001
0000
0000
1000
0000
0000
0100
0000
,
0010
0001
1000
0010
,
0100
0000
0000
0001
0000
0000
1000
0000
,
0100
0000
0000
0100
1000
0000
0010
0000
,
0100
0000
0000
0010
0000
0000
1000
0000
,
0001
0010
0100
1000
,
0010
0000
0000
0100
0000
0000
0010
0000
,
0010
1000
0001
1000
,
0001
0000
0000
0010
0000
0000
0100
0000
,
1000
0001
0100
0010
,
1000
0000
0000
0010
0000
0000
0100
0000
,
0001
0010
0100
1000
,
0001
0000
0000
0100
0000
0000
0010
0000
,
0100
0001
0010
0100
,
1000
0000
0000
0001
0000
0000
0100
0000
,
0010
0100
0010
0100
,
0001
1000
0001
1000
,
0100
0010
0001
1000
,
0010
0100
0001
1000
,
0100
0100
0100
0100
,
0010
0010
0010
0010
,
0001
0010
0001
0010
0001
0010
0001
0010
,
0002
0000
1000
1003
,
0100
1000
0100
0010
,
0100
0000
1000
0001
0000
1000
0010
0000
,
0100
0001
0100
0010
,
1000
0001
0000
0010
0000
0100
1000
0000
,
0100
0010
0001
1000
,
0010
0000
0100
0001
0000
1000
0100
0000
,
0010
0100
1000
0010
,
0100
0001
0000
1000
0000
0100
1000
0000
,
0010
0100
0010
1000
,
0001
0000
0010
0001
0000
1000
0000
0010
,
0100
0001
0100
0010
,
1000
0100
0000
1000
0000
0001
0100
0000
,
0010
0100
0001
0010
,
0100
0000
1000
0010
0000
1000
0000
0001
,
0010
0100
1000
0100
,
0010
0001
0000
1000
0000
0000
0000
0000
,
0010
0100
0110
0110
,
0010
0000
1000
0010
0000
1000
0001
0000
,
0010
0001
0011
0011
,
0001
1000
0000
0001
0000
0100
0010
0000
,
0100
0001
1001
1001
,
0001
0010
0000
0001
0000
0100
0010
0000
,
1000
0100
1100
1100
,
1000
0010
0000
0100
0000
0001
1000
0000
,
0100
0010
0110
1001
,
0001
0100
0000
0010
0000
1000
0100
0000
,
0010
0001
1100
1100
,
1000
0001
0000
0100
0000
0010
1000
0000
,
0010
0100
1001
0110
,
0010
0001
0000
1000
0000
0010
0100
0000
,
0001
1000
1001
0110
,
0010
0000
0000
0000
0100
1000
0001
0000
,
1001
0000
0000
0000
;

//---------------dance-double - ----------------
#NOTES:
     dance-double:
     :
     Hard:
     8:
     0.539722,0.622100,0.321939,0.435565,0.000000,399.000000,365.000000,34.000000,46.000000,0.000000,0.000000,0.539722,0.622100,0.321939,0.435565,0.000000,399.000000,365.000000,34.000000,46.000000,0.000000,0.000000:
00000000
00000000
00000000
00000000
,
00000000
00000000
00000000
00000000
,
00000000
00000000
00000000
00000000
,
00000000
00000000
00000000
00000000
,
00000000
00000000
00000000
00000000
,
00000000
00100000
10000000
01000000
00000000
10000000
00000000
10000000
,
00000000
00100000
00000000
00100000
00000000
01000000
00010000
01000000
,
00000000
00010000
00100000
00001000
00000000
00000010
00000000
00000010
,
00000000
00000001
00000000
00000001
00000000
00000100
00001000
00010000
,
00200000
00000000
10300000
00000000
01000000
10000000
00000000
01000000
,
00100000
00000000
00010000
10000000
00000000
00010000
00100000
00000000
,
00001000
00000000
00010000
00000000
00001000
00000100
00000000
00000010
,
00001000
00000000
00000001
00000010
00000000
00000100
00001000
00001000
,
00000100
00000000
00010000
00000000
00001000
00010000
00000000
00001000
,
00100000
00000000
00010000
10000000
00000000
01000000
10000000
00000000
,
01000000
00000000
00100000
00000000
00001000
00010000
00000000
00001000
,
00021000
00000000
00000000
00031000
01000000
00100000
10000000
00000000
,
11000000
00000000
00000000
01000000
00100000
00000000
00100000
00000000
,
00010000
00100000
00010000
10000000
00000000
00100000
10000000
00010000
,
01000000
01000000
00100000
00100000
,
01000000
00100000
01000000
00010000
00000000
00010000
00100000
00001000
,
00000100
00000000
00000000
00000100
00000001
00000000
00000001
00000000
,
00001000
00000010
00001000
00000100
00000000
00000100
00001000
00000001
,
00000100
00000100
00000010
00000010
,
00000100
00000010
00001000
00000100
00010000
00001000
00100000
00010000
,
00210000
00010000
00001000
00301000
,
01000000
00100000
10000000
00010000
00000000
00010000
10000000
00100000
,
02100000
00100000
00010000
03010000
,
01000000
00010000
00100000
00001000
00000000
00001000
00010000
00000100
,
00001200
00001000
00000010
00000310
,
00000001
00000010
00000100
00001000
00000000
00000100
00010000
00001000
,
00012000
00010000
00100000
00103000
,
00010000
00100000
00001000
00100000
00000000
00100000
00000000
00100000
,
00110000
00010000
00000000
00000010
00000000
00000001
00000000
00000100
,
00000000
00001000
00000000
00100000
00000000
10000000
00000000
01000000
,
00000000
00010000
00000000
00001000
00000000
00000010
00000000
00001000
,
00000000
01000000
00000000
10000000
00000000
00100000
00000000
10000000
,
01000000
10000000
00010000
00100000
00001000
00010000
00000010
00000100
,
00000001
00001000
00000100
00010000
00001000
00100000
00010000
10000000
,
00100000
01000000
00100000
01000000
00010000
10000000
00010000
10000000
,
10020000
00000000
00000000
01030000
00100000
10000000
02000000
00000000
,
13000000
11000000
00010000
00110000
,
00100000
10000000
00100000
01000000
00000000
01000000
00100000
00010000
,
01000000
01010000
00001000
00011000
,
00010000
00100000
00010000
00001000
00000000
00001000
00000100
00000001
,
00000100
00000101
00000010
00000011
,
00000010
00000001
00000100
00000010
00000000
00000010
00001000
00000100
,
00001000
00001100
00010000
00011000
,
00001000
00100000
01000000
00010000
00000000
00010000
01000000
10000000
,
11000000
11000000
01100000
01100000
,
00100000
00001000
00010000
00001000
00000000
00001000
00010000
00000100
,
00001100
00001100
00000011
00000011
,
00000001
00000010
00000100
00000010
00000000
00000010
00000001
00000100
,
00000110
00001010
00011000
00101000
,
00010000
00100000
01000000
10000000
00000000
10000000
00100000
01000000
,
01010000
00011000
00001010
00000011
,
00000100
00020000
00000000
00002000
00000000
00000000
00033000
00000000
,
02000000
03020000
00230000
00302000
,
00013000
00100000
10000000
01000000
00000000
01000000
10000000
00010000
,
02000000
03020000
00032000
00003020
,
00001030
00000001
00000010
00000100
00000000
00000100
00000010
00000001
,
00000200
00000320
00002030
00003200
,
00010300
00100000
00010000
00001000
00000000
00001000
00100000
00010000
,
02000000
03020000
00230000
20300000
,
30100000
00001000
00010000
00000100
00000000
00000100
00000010
00000001
,
00000200
00020300
00230000
02300000
,
03100000
00010000
10000000
00020000
00000000
00130000
01000000
10000000
,
02000000
03020000
00030020
00002030
,
00003010
00000001
00000010
00000200
00000000
00000310
00001000
00000100
,
00200000
02300000
23000000
30020000
,
00130000
00010000
00100000
00002000
00000000
00013000
00000100
00010000
,
00002000
00023000
00030200
00001300
,
00002200
00000000
00003300
00000000
00010000
00010000
00010000
00000000
,
00011000
00000000
00000000
00000000
;

//---------------dance-double - ----------------
#NOTES:
     dance-double:
     :
     Medium:
     6:
     0.408511,0.518417,0.227251,0.056813,0.000000,302.000000,278.000000,24.000000,6.000000,0.000000,0.000000,0.408511,0.518417,0.227251,0.056813,0.000000,302.000000,278.000000,24.000000,6.000000,0.000000,0.000000:
00000000
00000000
00000000
00000000
,
00000000
00000000
00000000
00000000
,
00000000
00000000
00000000
00000000
,
00000000
00000000
00000000
00000000
,
00000000
00000000
00000000
00000000
,
10000000
00000000
00100000
00000000
,
01000000
00000000
00010000
00000000
,
00100000
00000000
00001000
00000000
,
00010000
00000000
00000100
00000000
,
00000010
00000000
00000001
00000000
00000000
00000100
00000000
00000000
,
00000010
00000000
00000000
00001000
00000000
00000000
00000001
00000000
,
00000100
00000000
00000010
00000000
00000000
00001000
00000000
00000000
,
00000100
00000000
00000000
00000010
00000000
00000000
00000100
00000100
,
00001000
00000000
00000010
00000000
00000000
00001000
00000000
00000000
,
00000100
00000000
00000000
00010000
00000000
00000000
00001000
00000000
,
00100000
00000000
00010000
00000000
00000000
00100000
00000000
00000000
,
01100000
00000000
00000000
00100000
00001000
00000000
00010000
00000000
,
00011000
00000000
00000000
00010000
00001000
00000000
00001000
00000000
,
00000100
00000000
00000000
00000001
00000000
00000000
00000010
00000000
,
00000100
00000100
00000010
00000010
,
00000001
00000000
00000000
00000100
00000000
00000000
00000010
00000000
,
00010000
00000000
00000000
00010000
00001000
00000000
00001000
00000000
,
00100000
00000000
00000000
01000000
00000000
00000000
10000000
00000000
,
00010000
00010000
00100000
00100000
,
01000000
10000000
00000000
01000000
10000000
00000000
00100000
00000000
,
01100000
01000000
00010000
00010000
,
00100000
00000000
00000000
00001000
00000000
00000000
00010000
00000000
,
00000100
00000100
00000010
00000010
,
00000001
00000000
00000000
00001000
00000000
00000000
00000100
00000000
,
00001100
00000100
00010000
00010000
,
00001000
00000000
00000000
01000000
00000000
00000000
00100000
00000000
,
10000000
10000000
00010000
00010000
,
00100000
00000000
00000000
00001000
00000000
00000000
00010000
00000000
,
00011000
00010000
00001000
00001000
,
00000100
00000100
00000010
00000010
,
00001000
00001000
00010000
00010000
,
00100000
00100000
01000000
01000000
,
10000000
00100000
01000000
00010000
,
00100000
00001000
00010000
00000100
,
00000010
00000001
00000010
00000001
00000010
00000001
00000010
00000001
,
00000022
00000033
00001100
00100000
,
00110000
00100000
01000000
01000000
,
10000000
00000000
00100000
10000000
00000000
00010000
00100000
00000000
,
01000000
01000000
00100000
00100000
,
00001000
00010000
00000000
00010000
00000000
00000100
00001000
00000000
,
00000100
00000100
00000010
00000010
,
00000100
00000000
00001000
00000010
00000000
00001000
00000001
00000000
,
00000100
00000100
00000010
00000010
,
00001000
00000100
00000000
00000100
00000000
00010000
00001000
00100000
,
00010000
01010000
10000000
11000000
,
01000000
00000000
10000000
00100000
00000000
10000000
00010000
00000000
,
00100000
00110000
00001000
00011000
,
00010000
00000100
00000000
00000100
00000000
00000010
00000001
00000000
,
00000100
00000101
00000001
00001001
,
00001000
00000000
00000100
00010000
00000000
00001000
00100000
00000000
,
01000000
01000000
00100000
00100000
,
00001000
00020000
00000000
00002000
00000000
00000000
00033000
00000000
,
01000000
01000000
01100000
01100000
,
00100000
00000000
01000000
00010000
00000000
00100000
00001000
00000000
,
00000100
00000100
00000110
00000110
,
00000010
00000000
00001000
00000100
00000000
00100000
00010000
00100000
,
01000000
01000000
11000000
11000000
,
10000000
00000000
00100000
01000000
00000000
00010000
00100000
00000000
,
00001000
00001000
00011000
00011000
,
00010000
00000000
00001000
00010000
00000000
00000100
00001000
00000100
,
00000010
00000010
00000001
00000001
,
00000100
00000010
00000100
00000010
00000000
00000010
00001000
00000010
,
00001000
00001000
00000100
00000100
,
00010000
00001000
00010000
00001000
00000000
00001000
00100000
00001000
,
00100000
00100000
01000000
01000000
,
10000000
01000000
10000000
01000000
00000000
01000000
00100000
01000000
,
00100000
00100000
00010000
00010000
,
00220000
00000000
00330000
00000000
00001000
00001000
00001000
00000000
,
00011000
00000000
00000000
00000000
;

//---------------dance-double - ----------------
#NOTES:
     dance-double:
     :
     Easy:
     3:
     0.236720,0.311050,0.047344,0.104157,0.000000,175.000000,170.000000,5.000000,11.000000,0.000000,0.000000,0.236720,0.311050,0.047344,0.104157,0.000000,175.000000,170.000000,5.000000,11.000000,0.000000,0.000000:
00000000
00000000
00000000
00000000
,
00000000
00000000
00000000
00000000
,
00000000
00000000
00000000
00000000
,
00000000
00000000
00000000
00000000
,
00000000
00000000
00000000
00000000
,
00010000
00000000
00100000
00000000
,
00001000
00000000
00010000
00000000
,
00000100
00000000
00001000
00000000
,
00000010
00000000
00000100
00000000
,
00000001
00000000
00001000
00000000
,
00000100
00000000
00000100
00000000
,
00010000
00000000
00001000
00000000
,
00100000
00000000
00100000
00000000
,
00010000
00000000
01000000
00000000
,
00010000
00000000
00010000
00000000
,
00100000
00000000
00001000
00000000
,
00011000
00000000
00000000
00000000
,
00000100
00000000
00000010
00000000
,
00000002
00000000
00000000
00000003
,
00001000
00000000
00000010
00000000
,
00002000
00000000
00000000
00003000
,
00000100
00000000
00010000
00000000
,
00002000
00000000
00000000
00003000
,
00100000
00000000
00010000
00000000
,
20000000
00000000
00100000
30100000
,
01000000
00000000
00010000
00010000
,
00100000
00000000
00001000
00000000
,
00010000
00000000
00000100
00000100
,
00000010
00000000
00000001
00000000
,
00001000
00000000
00000100
00000100
,
00010000
00000000
00001000
00000000
,
00100000
00000000
01000000
01000000
,
10000000
00000000
00100000
00000000
,
10000000
10000000
00100000
00100000
,
01000000
01000000
00010000
00010000
,
00100000
00100000
00001000
00001000
,
00010000
00010000
00000100
00000100
,
00020000
00000000
00000000
00000000
,
00000000
00000000
00000000
00000000
,
00001000
00001000
00001000
00031000
,
00022000
00000000
00033000
00000000
,
00100000
00000000
00001000
00000000
,
00010000
00001000
00010000
00000100
,
00001000
00000000
00000100
00000000
,
00010000
00001000
00100000
00010000
,
00100000
00000000
01000000
00000000
,
10000000
00100000
01000000
00010000
,
10000000
00000000
01000000
00000000
,
00100000
00010000
02000000
03000000
,
00001000
00000000
00010000
00000000
,
00001000
00010000
00001000
00100000
,
00010000
00000000
00100000
00000000
,
00001000
00010000
00000010
00001000
,
00000010
00000000
00000100
00000000
,
00000010
00001000
00000100
00010000
,
00001000
00000000
00010000
00000000
,
00022000
00000000
00000000
00033000
00000000
00000000
00000000
00000000
,
01000000
01000000
00100000
00100000
,
10000000
00000000
01000000
00000000
,
00100000
00100000
00010000
00010000
,
01000000
00000000
00010000
00000000
,
00100000
00100000
00001000
00001000
,
00010000
00000000
00000100
00000000
,
00000010
00000010
00000001
00000001
,
00002000
00000000
00000000
00003000
,
00000100
00000000
00010000
00000000
,
00001000
00100000
01000000
10000000
,
00010000
00000000
01000000
00000000
,
00100000
01000000
00010000
00100000
,
00001000
00000000
00010000
00000000
,
00000100
00010000
00001000
00100000
,
00010000
00000000
00100000
00000000
,
00110000
00000000
00001000
00001000
,
00011000
00000000
00000000
00000000
;

//---------------dance-single - ----------------
#NOTES:
     dance-single:
     :
     Challenge:
     10:
     0.766973,1.156141,0.350346,0.435565,0.359814,567.000000,530.000000,37.000000,46.000000,0.000000,0.000000,0.766973,1.156141,0.350346,0.435565,0.359814,567.000000,530.000000,37.000000,46.000000,0.000000,0.000000:
0000
0000
0000
0000
,
0000
0000
0000
0000
,
0000
0000
0000
0000
,
0000
0000
0000
0000
,
0000
0000
0000
0000
,
0100
1000
0001
1000
0000
0010
0000
0010
,
0000
0100
0000
0100
0000
0001
0010
0100
,
1000
0100
0010
0001
0000
1000
0000
1000
,
0000
0010
0000
0010
0000
0100
0001
1000
,
0200
0000
0000
0000
2300
0000
0000
3001
0100
0001
0100
0000
0010
0100
0010
0000
,
2000
0000
0000
0000
3200
0000
0000
0310
0001
0010
0001
0000
0100
0001
0100
0000
,
0002
0000
0000
0000
2003
0000
0000
3100
0010
0100
0010
0000
0001
0010
0001
0000
,
0200
0000
0000
0000
0302
0000
0000
0013
0100
0010
0100
0000
1000
0100
1000
0000
,
0002
0000
0000
0000
2003
0000
0000
3001
0100
0001
0100
0000
0010
0100
0010
0000
,
2000
0000
0000
0000
3020
0000
0000
0130
0001
0100
0001
0000
1000
0010
1000
0000
,
0002
0000
0000
0000
2003
0000
0000
3001
0010
0001
0010
0000
0100
1000
0100
0000
,
0210
0000
0000
1300
0010
0001
0100
0000
,
0120
0000
0000
0130
1000
0000
1000
0000
,
0200
0010
0301
0100
0000
0200
0001
0310
,
0100
0100
0010
0010
,
0100
1000
0001
1000
0000
0001
0100
1000
,
0200
0000
0300
0100
0010
0000
0010
0000
,
0002
0010
1003
0001
0000
0002
1000
0013
,
0100
0100
0001
0001
,
1000
0100
1000
0010
0100
0001
0010
0001
,
0012
0000
0000
0000
0010
0000
0000
0000
0103
0000
0000
0000
0100
0000
0001
1000
,
0100
0000
1000
0000
0100
0000
1000
0000
0010
0000
1000
0000
0010
0100
0010
0100
,
0001
0001
1000
2000
,
3001
0010
0001
0010
0100
0010
0200
0000
,
1300
0000
0000
0000
1000
0000
0000
0000
0010
0000
0000
0000
0010
0000
1000
0001
,
0010
0000
0001
0000
0010
0000
0001
0000
0100
0000
0001
0000
0100
0010
0100
0010
,
1000
1000
0001
0002
,
1003
0100
1000
0100
1000
0001
1000
0001
,
1001
0000
1000
0000
0010
0000
0100
0000
0010
0000
0001
0000
0010
0000
1000
0100
,
0010
0000
0001
0000
0010
0000
0100
0000
0010
0000
1000
0000
0010
0000
0001
1000
,
0100
0000
0010
0000
0100
0000
0001
0000
0100
0000
0010
0000
0100
0000
1000
0001
,
0100
0000
0010
0000
0100
0000
1000
0000
0100
0000
0001
0000
0100
0000
0001
0010
,
0100
1000
0100
1000
0001
1000
0001
1000
0001
0100
0001
0100
0010
0100
0010
0100
,
0010
1000
0010
1000
0100
1000
0100
1000
0100
0010
0100
0010
0001
0010
0001
0010
,
0100
0010
0100
0010
0001
1000
0001
1000
,
2001
0000
0000
0001
3000
0001
1000
0000
0100
0000
0010
0000
0002
0000
0000
0000
,
1003
1010
0100
1001
,
0010
0100
0101
0001
0000
0010
0011
0001
,
1000
1100
0001
0011
,
1000
0010
0110
0100
0000
0001
0101
0100
,
1000
1100
0001
0101
,
1000
0001
0011
0100
0000
1000
1010
0100
,
0001
1001
0010
1001
,
1000
0000
0100
0000
1100
0000
1000
0000
0000
0000
0001
0000
0011
0000
0001
0010
,
0001
1000
1100
0100
1000
0010
0110
0010
,
0001
0010
1010
1000
0100
0010
0110
0100
,
1000
0001
0101
0001
1000
0010
1010
1000
,
0010
0100
0110
0010
0100
0001
0011
0100
,
1000
0001
0110
0001
1000
0100
0011
0100
,
1000
0010
0101
0010
1000
0001
1100
0010
,
0100
0001
0110
1000
0001
1000
0110
0001
,
0100
0020
0000
0002
0000
0000
0033
0000
,
0020
1000
2030
0001
3002
0010
0023
0100
,
0130
0001
0100
1000
0010
0001
0010
1000
,
0200
1000
2300
0010
3020
0100
0230
1000
,
1300
0100
0001
1000
0100
0001
0100
1000
,
0002
0100
0203
0010
0320
1000
2030
0001
,
3001
0010
1000
0010
0001
0100
0010
0001
,
0020
1000
2030
0001
3002
0100
0203
0010
,
0310
1000
0100
0001
1000
0010
0001
0100
,
0001
0000
1000
0000
0100
0000
1000
0010
0100
0000
0001
0000
1000
0000
0100
0010
,
0001
0000
1000
0000
0001
0000
0010
0100
1000
0000
0001
0000
0100
0000
0010
1000
,
0001
0000
0010
0000
0001
0000
0100
0001
0010
0000
0100
0000
1000
0000
0001
0100
,
0010
0000
0100
0000
0001
0000
1000
0100
0010
0000
0001
0000
1000
0000
0010
0100
,
0001
0000
1000
0100
1000
0000
0001
0100
0001
0000
1000
0010
1000
0000
0001
0010
,
0001
0000
0100
0010
0100
0000
0001
1000
0001
0000
0010
0100
0010
0000
0001
1000
,
0100
1000
0100
1000
0010
1000
0010
1000
0010
0100
0010
0100
0001
0100
0001
0100
,
0101
0000
0000
0000
0011
0000
0000
0000
1000
0000
1000
0000
0010
0100
0010
0100
,
0002
0000
0000
0000
,
0003
0000
0000
0000
;

//---------------dance-double - ----------------
#NOTES:
     dance-double:
     :
     Challenge:
     10:
     0.711513,1.148329,0.132563,0.416627,0.250923,526.000000,512.000000,14.000000,44.000000,0.000000,0.000000,0.711513,1.148329,0.132563,0.416627,0.250923,526.000000,512.000000,14.000000,44.000000,0.000000,0.000000:
// measure 0
00000000
00000000
00000000
00000000
,  // measure 1
00000000
00000000
00000000
00000000
,  // measure 2
00000000
00000000
00000000
00000000
,  // measure 3
00000000
00000000
00000000
00000000
,  // measure 4
00000000
00000000
00000000
00000000
,  // measure 5
00010000
10000000
00010000
00100000
00000000
00100000
00000000
00100000
,  // measure 6
00000000
00010000
00000000
00010000
00000000
00100000
01000000
00100000
,  // measure 7
00010000
00001000
00000010
00001000
00000000
00000001
00000000
00000001
,  // measure 8
00000000
00000010
00000000
00000010
00000000
00000100
00001000
00000001
,  // measure 9
00002000
00000000
00000000
00000000
00003020
00000000
00000000
00000130
00000001
00000000
00001000
00000000
00000100
00001000
00000100
00000000
,  // measure 10
00000020
00000000
00000000
00000000
00000032
00000000
00000000
00001003
00000010
00000000
00001000
00000000
00000001
00000010
00000001
00000000
,  // measure 11
00002000
00000000
00000000
00000000
00003200
00000000
00000000
00010300
00001000
00000000
00100000
00000000
00010000
01000000
00010000
00000000
,  // measure 12
02000000
00000000
00000000
00000000
03020000
00000000
00000000
00130000
01000000
00000000
10000000
00000000
00010000
10000000
00010000
00000000
,  // measure 13
02000000
00000000
00000000
00000000
03200000
00000000
00000000
01300000
00010000
00000000
00100000
00000000
00010000
01000000
00010000
00000000
,  // measure 14
00200000
00000000
00000000
00000000
00302000
00000000
00000000
00013000
00000100
00000000
00001000
00000000
00000001
00000010
00000001
00000000
,  // measure 15
00000200
00000000
00000000
00000000
00000320
00000000
00000000
00001030
00000100
00000000
00010000
00000000
00001000
00010000
00001000
00000000
,  // measure 16
00011000
00000000
00000000
00010000
01000000
10000000
00100000
00000000
,  // measure 17
01200000
00000000
00000000
01300000
00010000
00000000
00010000
00000000
,  // measure 18
00100000
00010000
10000000
00100000
00000000
01000000
00010000
10000000
,  // measure 19
01000000
01000000
00100000
00100000
,  // measure 20
00010000
00100000
00001000
00100000
00000000
00100000
00001000
00010000
,  // measure 21
00000200
00000000
00000000
00000310
00000001
00000000
00000001
00000000
,  // measure 22
00000010
00000001
00001000
00000100
00000000
00001000
00000010
00010000
,  // measure 23
00001000
00001000
00010000
00010000
,  // measure 24
01000000
10000000
00010000
00100000
00001000
00010000
00000100
00000010
,  // measure 25
00000021
00000000
00000000
00000000
00000001
00000000
00000000
00000000
00000100
00000000
00000000
00000000
00000130
00000000
00001000
00000001
,  // measure 26
00000100
00000000
00001000
00000000
00000100
00000000
00001000
00000000
00100000
00000000
00010000
00000000
00100000
01000000
00100000
01000000
,  // measure 27
20000000
00010000
00100000
30200000
,  // measure 28
00310000
00001000
00010000
00001000
00000010
00000001
00000010
00000001
,  // measure 29
00000102
00000000
00000000
00000000
00000100
00000000
00000000
00000000
00000010
00000000
00000000
00000000
00000013
00000000
00000001
00001000
,  // measure 30
00000010
00000000
00000001
00000000
00000010
00000000
00000001
00000000
00000010
00000000
00001000
00000000
00000100
00010000
00000100
00010000
,  // measure 31
00002000
00010000
00100000
00203000
,  // measure 32
01300000
10000000
01000000
10000000
00010000
01000000
00010000
01000000
,  // measure 33
01100000
00000000
00100000
00000000
01000000
00000000
10000000
00000000
01000000
00000000
00010000
00000000
01000000
00000000
00010000
00100000
,  // measure 34
00001000
00000000
00010000
00000000
00001000
00000000
00000100
00000000
00001000
00000000
00100000
00000000
00001000
00000000
00100000
00001000
,  // measure 35
00010000
00000000
00000100
00000000
00010000
00000000
00100000
00000000
00010000
00000000
00001000
00000000
00010000
00000000
00001000
00010000
,  // measure 36
00000010
00000000
00000100
00000000
00000010
00000000
00000001
00000000
00000010
00000000
00001000
00000000
00000010
00000000
00000100
00000010
,  // measure 37
00000100
00000001
00000100
00000001
00000010
00000001
00000010
00000001
00001000
00000001
00001000
00000001
00001000
00000100
00001000
00000100
,  // measure 38
00010000
00000100
00010000
00000100
00010000
00001000
00010000
00001000
00100000
00001000
00100000
00001000
00100000
01000000
00100000
01000000
,  // measure 39
10000000
00010000
10000000
00010000
01000000
00100000
01000000
00100000
,  // measure 40
01200000
00000000
00000000
10000000
00000000
10300000
00010000
00000000
00100000
00000000
00001000
00000000
00020000
00000000
00000000
00000000
,  // measure 41
00031000
00011000
00001000
00101000
,  // measure 42
00001000
01000000
00100000
00010000
00100000
10000000
00010000
00100000
,  // measure 43
01000000
11000000
10000000
10010000
,  // measure 44
10000000
00010000
00100000
00001000
00010000
00100000
00010000
00000100
,  // measure 45
00000010
00000110
00000010
00000011
,  // measure 46
00000001
00000100
00000010
00000001
00000010
00001000
00000100
00010000
,  // measure 47
00001000
00101000
00001000
00011000
,  // measure 48
00001000
00010000
00001000
00100000
00000000
00100000
00010000
10000000
,  // measure 49
00010000
10000000
01000000
10000000
00010000
10000000
00100000
10000000
,  // measure 50
00010000
00100000
01000000
10000000
00100000
01000000
00010000
00100000
,  // measure 51
00001000
00000100
00000010
00000100
00001000
00000100
00000001
00000100
,  // measure 52
00000010
00001000
00000100
00010000
00000100
00001000
00000010
00000100
,  // measure 53
00000001
00001000
00000001
00000010
00000001
00001000
00000001
00000100
,  // measure 54
00000010
00001000
00000100
00000010
00000100
00010000
00001000
00100000
,  // measure 55
00010000
01000000
10000000
01000000
00010000
00100000
10000000
00100000
,  // measure 56
00010000
00000000
20000000
00000000
00000000
00000000
30020000
00000000
00000000
00000000
10000000
00000000
10030000
00000000
00100000
01000000
,  // measure 57
00020000
10000000
20030000
00100000
30200000
00010000
00320000
00001000
,  // measure 58
00031000
00000100
00000010
00001000
00000001
00000010
00000100
00001000
,  // measure 59
00000200
00000010
00000320
00000001
00000032
00001000
00002003
00000010
,  // measure 60
00003010
00001000
00000100
00010000
00001000
00100000
00001000
00010000
,  // measure 61
00000200
00001000
00002300
00010000
00023000
00100000
00230000
10000000
,  // measure 62
10300000
00100000
00010000
01000000
00100000
10000000
01000000
10000000
,  // measure 63
00020000
01000000
02030000
00100000
03200000
00010000
00320000
00001000
,  // measure 64
00031000
00000100
00000010
00001000
00000000
00001000
00000001
00000010
,  // measure 65
00001000
00010000
00001000
00000100
00001000
00100000
00001000
00000100
,  // measure 66
00001000
00100000
00010000
00001000
00010000
01000000
00100000
10000000
,  // measure 67
00010000
00100000
00010000
00001000
00010000
01000000
00010000
00001000
,  // measure 68
00000010
00000001
00000010
00000100
00001000
00000100
00000001
00001000
,  // measure 69
00000100
00000001
00000100
00000001
00000100
00010000
00000100
00010000
,  // measure 70
00100000
00010000
00100000
00010000
00100000
10000000
00100000
10000000
,  // measure 71
00010000
00100000
00010000
00100000
01000000
10000000
01000000
10000000
00010000
01000000
00010000
01000000
00100000
10000000
00100000
10000000
,  // measure 72
00020000
00000000
00000000
00000000
00000000
00000000
00000000
00000000
00130000
00000000
00100000
00000000
00001000
00100000
00001000
00100000
,  // measure 73
00000200
00000000
00000300
00000000
;
