#TITLE:ℵ0;
#SUBTITLE:;
#ARTIST:LeaF & Optie;
#TITLETRANSLIT:Aleph-0;
#SUBTITLETRANSLIT:;
#ARTISTTRANSLIT:;
#GENRE:MUSIC;
#CREDIT:;
#BANNER:Aleph-0.png;
#BACKGROUND:Aleph-0-bg.png;
#LYRICSPATH:;
#CDTITLE:;
#MUSIC:Aleph-0.ogg;
#OFFSET:0.012000;
#SAMPLESTART:46.099430;
#SAMPLELENGTH:15.000000;
#SELECTABLE:YES;
#BPMS:0.000000=249.999985
,24.000000=124.999992
,32.000000=249.999985
,93.000000=140.000000
,125.000000=70.000000
,126.000000=124.999992
,134.000000=249.999985
,135.000000=251.000000
,136.000000=251.999985
,137.000000=253.000000
,138.000000=253.999985
,139.000000=255.000000
,140.000000=256.000000
,141.000000=257.000000
,142.000000=258.000000
,143.000000=259.000000
,144.000000=260.000000
,145.000000=261.000000
,146.000000=262.000000
,147.000000=263.000000
,148.000000=264.000000
,149.000000=265.000000
,150.000000=266.000000
,151.000000=267.000000
,152.000000=268.000000
,153.000000=269.000000
,154.000000=270.000000
,155.000000=271.000000
,156.000000=272.000000
,157.000000=273.000000
,158.000000=274.000000
,159.000000=275.000000
,160.000000=276.000000
,161.000000=277.000000
,162.000000=278.000000
,163.000000=279.000000
,164.000000=280.000000
,165.000000=281.000000
,166.000000=282.000000
,167.000000=283.000000
,168.000000=284.000000
,169.000000=285.000000
,170.000000=286.000000
,171.000000=287.000000
,172.000000=288.000000
,173.000000=289.000000
,174.000000=290.000000
,175.000000=291.000000
,176.000000=292.000000
,177.000000=293.000000
,178.000000=294.000000
,179.000000=295.000000
,180.000000=296.000000
,181.000000=297.000000
,182.000000=298.000000
,183.000000=299.000000
,184.000000=300.000000
,185.000000=301.000000
,186.000000=302.000000
,187.000000=303.000000
,188.000000=304.000000
,189.000000=305.000000
,190.000000=306.000000
,191.000000=307.000000
,192.000000=308.000000
,193.000000=309.000000
,194.000000=310.000000
,195.000000=311.000000
,196.000000=312.000000
,197.000000=313.000000
,198.000000=314.000000
,199.000000=315.000000
,200.000000=316.000000
,201.000000=317.000000
,202.000000=318.000000
,203.000000=319.000000
,204.000000=320.000000
,205.000000=321.000000
,206.000000=322.000000
,207.000000=323.000000
,208.000000=324.000000
,209.000000=325.000000
,210.000000=326.000000
,211.000000=327.000000
,212.000000=328.000000
,213.000000=329.000000
,214.000000=330.000000
,215.000000=331.000000
,216.000000=332.000000
,217.000000=333.000000
,218.000000=334.000000
,219.000000=335.000000
,220.000000=336.000000
,221.000000=337.000000
,222.000000=338.000000
,223.000000=339.000000
,224.000000=340.000000
,225.000000=341.000000
,226.000000=342.000000
,227.000000=343.000000
,228.000000=344.000000
,229.000000=345.000000
,230.000000=346.000000
,231.000000=347.000000
,232.000000=348.000000
,233.000000=349.000000
,234.000000=350.000000
,235.000000=351.000000
,236.000000=352.000000
,237.000000=353.000000
,238.000000=354.000000
,239.000000=355.000000
,240.000000=356.000000
,241.000000=357.000000
,242.000000=358.000000
,243.000000=359.000000
,244.000000=360.000000
,245.000000=361.000000
,246.000000=362.000000
,247.000000=363.000000
,248.000000=364.000000
,249.000000=365.000000
,250.000000=366.000000
,251.000000=367.000000
,252.000000=368.000000
,253.000000=369.000000
,254.000000=370.000000
,255.000000=371.000000
,256.000000=372.000000
,257.000000=373.000000
,258.000000=374.000000
,259.000000=375.000000
,260.000000=376.000000
,261.000000=377.000000
,262.000000=378.000000
,263.000000=379.000000
,264.000000=380.000000
,265.000000=381.000000
,266.000000=382.000000
,267.000000=383.000000
,268.000000=384.000000
,269.000000=385.000000
,270.000000=386.000000
,271.000000=387.000000
,272.000000=388.000000
,273.000000=389.000000
,274.000000=390.000000
,275.000000=391.000000
,276.000000=392.000000
,277.000000=393.000000
,278.000000=394.000000
,279.000000=395.000000
,280.000000=396.000000
,281.000000=397.000000
,282.000000=398.000000
,283.000000=399.000000
,284.000000=400.000000
,316.000000=249.999985
,347.000000=124.999992
,383.000000=249.999985
,391.000000=124.999992
,393.000000=249.999985
,409.000000=124.999992
,411.000000=249.999985
,419.000000=124.999992
,421.000000=249.999985
,437.000000=124.999992
,439.000000=62.499996
;
#STOPS:24.000000=0.960000,
60.000000=0.720000,
126.000000=1.800000,
316.000000=1.680000,
320.000000=0.960000,
324.000000=0.240000,
331.000000=0.960000,
335.000000=0.240000
;
#BGCHANGES:-1.000=Aleph-0.avi=1.000=1=0=0=StretchNoLoop==CrossFade==,
99999=-nosongbg-=1.000=0=0=0 // don't automatically add -songbackground-
;
#KEYSOUNDS:;
#ATTACKS:;

//---------------dance-single - ----------------
#NOTES:
     dance-single:
     :
     Easy:
     6:
     0.289946,0.442361,0.179931,0.115156,0.000000,282.000000,257.000000,25.000000,16.000000,0.000000,0.000000,0.289946,0.442361,0.179931,0.115156,0.000000,282.000000,257.000000,25.000000,16.000000,0.000000,0.000000:
0000
0000
0000
0000
,
0000
0000
0000
0000
,
0000
0000
0000
0000
,
0000
0000
0000
0000
,
0000
0000
0000
0000
,
0000
0000
0000
0000
,
1001
0000
0000
0001
,
0100
0010
1000
1001
,
0001
0010
0100
1000
,
0001
0000
0100
0000
,
0010
0100
0001
1000
,
0100
0000
0110
0000
,
0010
0001
1000
0010
,
0100
0000
0010
0000
,
1000
0100
0010
0001
,
1001
0010
0100
0001
,
0100
0010
0000
1000
,
0000
0001
0010
0100
,
1000
0001
0000
1001
,
0000
0010
1000
0001
,
0010
0100
0000
0010
,
0000
0001
1000
0010
,
0100
0001
0000
1001
,
0000
0110
0000
0001
,
0000
0000
1000
0000
1001
0000
0001
0100
,
0000
0000
1010
0000
0000
0100
0001
0000
,
0010
0100
1000
0001
,
0100
0110
0000
0100
,
0001
0000
1000
0000
1100
0000
0010
0001
,
0000
0000
0101
0000
0000
0100
0001
0000
,
1000
0000
0100
0000
0010
0000
0001
0010
,
0100
1000
0000
0000
1001
0000
0000
0000
,
0000
0000
0000
0000
,
0000
0000
1000
0000
,
0001
0000
0100
0000
,
0001
0000
1000
0000
,
0100
0000
0010
0001
,
0010
0001
0010
0000
,
0100
0000
1000
0000
,
0010
0000
0100
0000
,
0001
0000
0010
0100
,
0010
0100
1000
0000
,
0010
0000
0100
0000
,
0001
0000
0100
0000
,
0010
0000
1000
0001
,
1000
0001
0010
0000
,
0100
0000
1000
0000
,
0100
0000
0010
0000
,
0001
0000
1000
0001
,
1000
0001
0100
0000
,
1000
0000
0100
0000
,
0001
0000
0010
0000
,
1000
0000
0010
0100
,
0010
0100
1000
0000
,
0010
0000
0001
0000
,
0010
0000
1000
0000
,
0100
0000
0010
0001
,
0010
0001
0100
0000
,
1000
0000
0100
0000
,
0001
0000
1000
0000
,
0100
0000
0010
0001
,
0010
0001
0010
0000
,
1000
0000
0010
0000
,
0001
0000
1000
0000
,
0010
0000
0100
0001
,
0100
0001
2000
0000
,
3000
0002
0000
0003
,
0200
0000
0300
0020
,
0000
0030
2000
0000
,
3000
0020
0000
0030
,
0100
0000
0010
0000
,
0110
0000
0000
0000
,
0000
0000
0000
0000
,
0000
0000
0000
0000
,
0000
0000
0000
0000
,
2002
0000
0000
0000
,
0000
0000
0000
0000
,
0000
0000
0000
0000
,
0000
0000
0000
0000
,
3003
0000
1000
0000
0000
0001
0000
0000
,
0101
0000
0010
0000
0000
1000
0000
0000
,
1010
0000
0001
0000
0000
0100
0000
0000
,
0010
0000
0000
1000
0000
0000
1001
0000
,
0100
0000
0000
0010
0000
0000
0110
0000
,
0011
0000
0000
1100
0000
0000
0002
0000
,
0000
0000
0000
1000
,
0000
1000
0000
1003
,
0010
0000
0100
0001
1000
0010
0100
0000
,
0001
0010
0100
1000
,
0000
0001
0100
0010
,
0000
0100
0001
1000
,
0100
0010
0001
1000
,
0000
0010
0100
0001
,
1000
0200
0000
0020
,
0000
0000
0330
0200
,
0000
1300
0001
0100
,
0000
0001
0000
1000
,
0000
0100
0000
0020
,
0000
0031
0000
0010
,
0000
0100
0000
1000
,
0000
0010
0000
0100
,
0000
0001
0000
1000
,
0000
0110
1001
0010
,
0000
0100
0000
0001
,
0000
1000
0000
0002
,
0100
0103
0000
0010
,
0000
1000
0000
0001
,
0000
0010
0000
0100
,
0000
1000
0000
0001
,
0000
0010
0100
2002
,
0000
0000
0000
0000
,
0000
0000
0000
0000
0000
3003
1001
0000
;

//---------------dance-single - ----------------
#NOTES:
     dance-single:
     :
     Medium:
     8:
     0.390708,0.563005,0.122353,0.151142,0.000000,380.000000,363.000000,17.000000,21.000000,0.000000,0.000000,0.390708,0.563005,0.122353,0.151142,0.000000,380.000000,363.000000,17.000000,21.000000,0.000000,0.000000:
0000
0000
0000
0000
,
0000
0000
0000
0000
,
0000
0000
0000
0000
,
0000
0000
0000
0000
,
0000
0000
0000
0000
,
0000
0000
0000
0000
,
1001
0000
0000
0001
,
0101
0000
0010
1000
0100
1000
0001
0000
,
0100
0010
0100
0001
,
1000
0000
0100
1000
0000
1000
0001
0000
,
0100
0010
0100
0001
,
0201
0000
0310
0000
,
1000
0001
0010
0100
,
1000
0000
0010
0100
0000
0100
0010
0000
,
1000
0001
0010
0100
,
1001
0001
0100
0010
,
0100
0000
0001
0000
1000
0100
0000
0100
,
1000
0010
0100
0001
,
1000
2100
0000
3001
,
0000
0001
0100
0010
,
0100
0000
0001
0000
0010
0001
0000
0001
,
0100
0010
1000
0001
,
0010
0100
0000
1001
,
0000
0102
1000
0103
,
0001
1000
0100
0000
0010
0000
0001
0010
,
0000
0100
1000
0000
0001
0100
0110
0000
,
0010
0000
1000
0001
0010
0000
0110
2000
,
0000
0000
3001
0000
0010
0001
1000
0100
,
1000
0001
0100
0000
0110
0000
0100
0001
,
0000
1000
0100
0000
0010
0100
1000
0001
,
0100
0010
0100
0000
0001
0000
1000
0100
,
0010
0001
0000
0000
1001
0000
0000
0000
,
0000
0000
0000
0000
,
0000
0000
0001
0100
,
0001
1000
0100
1000
,
0010
0000
0100
0001
,
1000
0100
0010
0010
,
0100
0100
1000
0001
,
0100
0001
0010
0100
,
1000
0000
0001
0100
,
0010
0100
0001
0001
,
0010
0010
0100
1000
,
0001
1000
0010
0100
,
0001
0000
1000
0100
,
0010
0001
1000
1000
,
0100
0100
1000
0001
,
0100
0010
0100
0001
,
0010
0000
0100
1000
,
0100
0010
0001
0001
,
1000
1000
0001
0100
,
0001
0000
1000
0100
,
1000
0000
0001
0100
,
0001
0000
0010
0100
,
1000
0001
0100
0010
,
0100
0000
0001
0010
,
0001
0000
1000
0010
,
1000
0000
0001
0010
,
0100
1000
0010
1000
,
0010
0000
0100
0001
,
0100
0000
0001
1000
,
0001
0000
1000
0100
,
0010
0001
1000
0010
,
1000
0000
0001
0010
,
0001
0000
1000
0100
,
1000
0000
0001
0100
,
0001
0100
0001
0000
,
0001
1000
0000
1000
,
0010
0000
0010
0100
,
0000
0100
0001
0000
,
0001
0010
0000
0010
,
0100
0000
0010
0000
,
0110
0000
0000
0000
,
0000
0000
0000
0000
,
0000
0000
0000
0000
,
0000
0000
0000
0000
,
2002
0000
0000
0000
,
0000
0000
0000
0000
,
0000
0000
0000
0000
,
0000
0000
0000
0000
,
3003
0000
1000
0000
1000
0001
0000
0001
,
0100
0000
0010
0000
0010
0100
0000
0100
,
0001
0000
1000
0000
0100
1000
0000
1000
,
0001
0000
0001
0100
0000
0100
0010
0000
,
0100
0001
0000
0001
0000
1000
0100
0000
,
0010
0000
0100
1000
0000
1000
0002
0000
,
0000
0003
0100
0010
,
1000
0001
0010
0200
,
1300
0100
0001
0100
1000
0010
0200
0000
,
1000
0010
0001
0320
,
0000
0001
0100
2030
,
0000
0100
0010
3002
,
0010
1000
0100
0023
,
0000
1000
0100
0032
,
0100
1000
0000
0020
,
0000
0000
0003
0230
,
0000
1300
0001
1000
,
0001
1000
0100
1000
,
0001
0100
0001
2000
,
0000
3010
0100
0001
,
0100
0010
0100
0001
,
1000
0001
0100
0010
,
0100
0001
1000
0001
,
0100
0101
1010
0100
,
0001
1000
0001
0010
,
0001
1000
0001
0020
,
0230
1300
0100
0010
,
0100
1000
0010
0100
,
0010
1000
0001
0010
,
0001
1000
0010
0100
,
0001
1000
0001
2002
,
0000
0000
0000
0000
,
0000
0000
0000
0000
0000
3003
0110
0000
;

//---------------dance-single - ----------------
#NOTES:
     dance-single:
     :
     Hard:
     9:
     0.520258,0.723863,0.237509,0.136748,0.007197,506.000000,473.000000,33.000000,19.000000,0.000000,0.000000,0.520258,0.723863,0.237509,0.136748,0.007197,506.000000,473.000000,33.000000,19.000000,0.000000,0.000000:
0000
0000
0000
0000
,
0000
0000
0000
0000
,
0000
0000
0000
0000
,
0000
0000
0000
0000
,
0000
0000
0000
0000
,
0000
0000
0000
0000
,
1001
0000
0000
0100
,
1001
0100
0001
0100
1000
0010
0100
0001
,
1001
0000
0001
0100
0010
0000
0100
0000
,
0101
0000
0001
1000
0000
1000
0100
0000
,
0010
0001
0000
1000
0100
0000
1000
0001
,
0100
0010
1001
0100
,
1000
0000
0100
1000
0001
0000
0100
0000
,
1001
0000
0001
1000
0000
1000
0100
0000
,
0010
0001
0000
0001
0100
0000
0010
0000
,
1001
0000
1100
0000
1000
0001
0100
0000
,
0001
0000
1001
0000
1000
0010
0000
0010
,
0100
0000
0001
1000
0000
0100
0010
0000
,
0001
0000
0011
0000
0100
1000
0001
0000
,
0100
0000
1010
0000
0100
0001
1000
0000
,
0100
0000
0011
0000
0100
1000
0000
1000
,
0010
0000
0100
0001
0000
1000
0100
0000
,
0010
0011
0100
1100
,
0001
0000
1001
0000
0001
0100
0010
0100
,
0001
1000
1100
0000
0011
0000
0100
0110
,
0000
0010
0002
0000
0000
1003
1100
0000
,
1000
0001
0100
0010
0100
0001
1000
0100
,
0020
0000
0130
0000
1000
0001
0100
1000
,
0100
0010
0100
0000
0101
0000
0001
1001
,
0000
1000
0100
0000
0010
0100
1000
0010
,
1000
0001
0100
0001
0010
1000
0001
0100
,
1000
0001
1000
0001
0000
0000
0000
0000
1001
0000
0000
0000
0000
0000
0000
0000
,
0000
0000
0000
0000
,
0000
0000
1000
0001
1000
0000
0010
0000
,
0100
0001
1000
0100
,
0010
0001
0010
0100
,
1000
0001
0100
0100
,
0010
0010
0100
0001
,
0100
0010
0100
0001
,
1000
0001
0100
0010
,
1000
0010
0100
0100
,
0001
0001
1000
0100
,
0001
0100
0010
0001
,
0010
1000
0010
0100
,
1000
0010
1000
1000
,
0001
0001
0100
0010
,
0100
0001
0100
0010
,
1000
0010
0100
0001
,
1000
0001
0100
0100
,
0001
0001
1000
0100
,
0001
0100
1000
0010
,
0001
0010
0100
0001
,
0010
0100
1000
1000
,
0001
0001
0100
1000
,
0100
0010
1000
0001
,
0010
1000
0010
0100
,
1000
0001
0100
0100
,
0001
0001
0010
1000
,
0010
0100
1000
0001
,
0100
1000
0001
0010
,
0100
0001
1000
1000
,
0001
0001
0010
1000
,
0010
0100
1000
0001
,
0100
0010
0100
0001
,
1000
0100
0010
0001
,
1000
0000
0010
0000
0100
0010
0100
0000
,
0010
0000
0100
0001
0100
0000
0001
0000
,
1000
0010
1000
0000
0010
0000
1000
0001
,
1000
0000
0001
0000
0010
0100
0010
0000
,
0001
0000
1000
0010
1000
0000
0001
0000
,
0100
0001
0100
0001
0100
0000
0010
0000
,
0110
0000
0000
0000
,
0000
0000
0000
0000
,
0000
0000
0000
0000
,
0000
0000
0000
0000
,
2002
0000
0000
0000
,
0000
0000
0000
0000
,
0000
0000
0000
0000
,
0000
0000
0000
0000
,
3003
0000
1000
0001
0000
0101
0000
0001
,
1000
0000
0100
1000
0000
1001
0000
0001
,
0100
0000
0010
0000
0100
0001
0000
1000
,
0100
0010
0000
0011
0000
0100
1000
0000
,
0001
0100
0000
1010
0000
0100
0001
0000
,
1100
0000
1000
0001
0100
0010
2002
0000
,
0003
3001
0100
0010
,
1000
0010
0100
0002
,
0013
1000
0001
1000
0010
0100
2000
0000
,
0010
0001
0100
3002
,
0000
0010
0100
2003
,
0000
0010
0001
3200
,
0001
0010
1000
0320
,
0000
1000
0100
0032
,
0010
0100
0000
2000
,
0000
0000
3003
0020
,
0000
0000
0130
0000
0001
0000
1000
0100
,
1000
0001
1000
0100
0010
0001
1000
0100
,
1000
0001
1000
0100
0010
0001
2000
0000
,
0000
0000
3001
0100
0001
1000
0001
0100
,
0010
1000
0001
0100
0001
1000
0001
0100
,
0010
1000
0001
0100
0001
1000
0001
0100
,
0010
1000
0001
0100
0001
1000
0001
0100
,
0010
1000
0001
0000
1001
0000
1000
0100
,
0010
0001
1000
0010
0100
0001
1000
0100
,
0010
0001
1000
0010
0100
0001
1000
0000
,
1001
0000
0001
0100
0010
0100
0001
0010
,
0100
0010
0001
1000
0100
1000
0010
1000
,
0100
0010
0100
1000
0010
0100
0001
0100
,
0010
1000
0001
0010
0100
1000
0010
0100
,
0001
0010
0200
0000
2300
0000
0002
0000
,
0000
0000
0000
0000
,
0000
0000
0000
0000
0000
3003
0110
0000
;

//---------------dance-single - ----------------
#NOTES:
     dance-single:
     :
     Beginner:
     2:
     0.126466,0.241288,0.064775,0.057578,0.000000,123.000000,114.000000,9.000000,8.000000,0.000000,0.000000,0.126466,0.241288,0.064775,0.057578,0.000000,123.000000,114.000000,9.000000,8.000000,0.000000,0.000000:
0000
0000
0000
0000
,
0000
0000
0000
0000
,
0000
0000
0000
0000
,
0000
0000
0000
0000
,
0000
0000
0000
0000
,
0000
0000
0000
0000
,
1001
0000
0000
1000
,
0000
0001
0000
0000
,
0100
0000
0100
0000
,
0100
0000
0000
0000
,
0010
0000
0000
0000
,
0010
0000
0000
0000
,
1000
0000
1000
0000
,
1000
0000
0000
0000
,
0001
0000
0000
0000
,
0001
0010
0000
0010
,
0000
0010
0000
0000
,
0000
0100
0000
0000
,
0000
0100
0000
0000
,
0000
1000
0000
1000
,
0000
1000
0000
0000
,
0000
0001
0000
0000
,
0000
0001
0000
0000
,
0000
1001
0000
0000
,
0000
0100
0000
0100
,
0000
0010
0000
0000
,
0000
1000
0000
1000
,
0000
0001
0000
0000
,
0000
0010
0000
0100
,
0000
1000
0000
0000
,
0000
0010
0000
0100
,
0000
0000
1001
0000
,
0000
0000
0000
0000
,
0000
0000
0001
0000
,
0000
0000
1000
0000
,
0000
0000
0001
0000
,
0000
0000
1000
0000
,
0000
0000
0010
0000
,
0000
0000
0100
0000
,
0000
0000
0010
0000
,
0000
0000
0100
0000
,
0000
0000
0001
0000
,
0000
0000
0010
0000
,
0000
0000
0001
0000
,
0000
0000
0010
0000
,
0000
0000
0100
0000
,
0000
0000
1000
0000
,
0000
0000
0100
0000
,
0000
0000
1000
0000
,
0000
0000
0010
0000
,
0000
0000
0100
0000
,
0000
0000
0001
0000
,
0000
0000
1000
0000
,
0000
0000
0100
0000
,
0000
0000
0010
0000
,
0000
0000
0001
0000
,
0000
0000
1000
0000
,
0000
0000
0010
0000
,
0000
0000
1000
0000
,
0000
0000
0001
0000
,
0000
0000
0100
0000
,
0000
0000
0010
0000
,
0000
0000
1000
0000
,
0000
0000
0001
0000
,
0000
0000
0100
0000
,
0000
0000
0010
0000
,
0000
0010
0000
0000
,
0010
0000
0000
0010
,
0000
0000
0010
0000
,
0000
0010
0000
0000
,
0010
0000
0000
0000
,
0110
0000
0000
0000
,
0000
0000
0000
0000
,
0000
0000
0000
0000
,
0000
0000
0000
0000
,
2002
0000
0000
0000
,
0000
0000
0000
0000
,
0000
0000
0000
0000
,
0000
0000
0000
0000
,
3003
0000
0000
0000
,
1000
0000
0000
0000
,
0001
0000
0000
0000
,
0000
0000
0000
0100
,
0000
0000
0000
0010
,
0000
0000
0000
0110
,
0000
0000
0000
0100
,
0000
0000
0000
0001
,
0000
1000
0000
1001
,
0000
0100
0000
0010
,
0000
0001
0000
0200
,
0000
0300
0000
0020
,
0000
0030
0000
0100
,
0000
0001
0000
0010
,
0000
0100
0000
2000
,
0000
3000
0000
0002
,
0000
0003
0000
1000
,
0000
0000
0000
1000
,
0000
0000
0000
1000
,
0000
0001
0000
0000
,
0000
0001
0000
0000
,
0000
0001
0000
0000
,
0000
0001
0000
0000
,
0000
1001
0000
0100
,
0000
0000
0000
0100
,
0000
0000
0000
0010
,
0000
0010
0000
0000
,
0000
1000
0000
0000
,
0000
0010
0000
0000
,
0000
0100
0000
0000
,
0000
0001
0000
2002
,
0000
0000
0000
0000
,
0000
0000
0000
3003
;

//---------------dance-single - ----------------
#NOTES:
     dance-single:
     :
     Challenge:
     10:
     0.651865,0.804293,0.496610,0.266298,0.014394,634.000000,565.000000,69.000000,37.000000,0.000000,0.000000,0.651865,0.804293,0.496610,0.266298,0.014394,634.000000,565.000000,69.000000,37.000000,0.000000,0.000000:
0000
0000
0000
0000
,
0000
0000
0000
0000
,
0000
0000
0000
0000
,
0000
0000
0000
0000
,
0000
0000
0000
0000
,
0000
0000
0000
0000
,
1001
0000
0000
0010
,
1001
0010
0001
0010
1000
0100
0010
0001
,
1001
0000
0001
0100
0010
0000
1010
0000
,
0110
0000
0001
0010
0000
0100
0010
0000
,
0001
0100
1000
0100
0001
0000
1000
0000
,
1001
0000
0100
0000
0010
1000
0010
1000
,
0100
0000
0010
0001
0100
0000
0101
0000
,
1001
0000
1000
0100
0000
0010
0100
0000
,
1000
0010
0001
0010
1000
0000
1001
0000
,
0110
0000
1000
0100
0010
0100
1000
0000
,
1010
0000
1001
0000
0100
1000
0000
0010
,
0100
0000
1000
0100
0001
0100
1000
0000
,
0100
0000
0110
0000
1000
0000
0001
0010
,
0001
0010
0100
0000
1000
0010
0100
0000
,
0101
0000
0110
0000
0001
0100
0000
0010
,
0100
0000
0001
0010
1000
0010
0001
0000
,
0100
0110
0001
0101
,
1100
0000
1002
0000
1003
0100
0010
1000
,
0010
0000
0001
0000
0102
0000
0013
2100
,
0000
0000
3001
0000
0001
0010
0100
0010
,
0001
0100
0010
1000
0001
0010
1000
0001
,
0100
1000
1020
0000
0130
0010
1000
0100
,
0001
0010
1000
0000
1010
0000
0100
0012
,
0000
0000
1003
0000
0001
0100
1000
0001
,
0010
0000
1000
0000
0001
0000
0010
0000
0100
0000
1000
0000
0010
1000
0010
1000
,
0001
0100
0001
0100
0000
0000
0000
0000
0110
0000
0000
0000
0000
0000
0000
0000
,
0000
0000
0000
0000
,
0000
0000
0001
1000
1001
0000
0001
0000
,
0100
0000
0010
0000
1000
0100
0000
1000
,
0001
0000
0100
0000
0001
0010
0000
0100
,
0010
0001
0101
0101
,
1010
1010
1100
1000
,
0100
0000
1000
0000
0001
0100
0000
0010
,
0100
0000
0001
0000
1000
0100
0000
0010
,
0100
1000
1010
1010
,
0101
0101
1001
0010
,
1000
0000
0001
0000
0010
0100
0000
1000
,
0100
0000
0010
0000
0001
0100
0000
0010
,
0100
0001
0101
0101
,
1100
1100
0110
0010
,
0001
0000
0100
0000
0010
0100
0000
1000
,
0100
0000
0010
0000
1000
0100
0000
0010
,
0001
1000
1010
1010
,
1001
0000
1001
0000
0001
0100
0001
0000
,
1000
0000
0100
1000
0001
1000
0100
0000
,
0010
0000
0001
0000
0100
0010
0000
0100
,
0010
1000
1001
1001
,
0101
0000
0101
0000
0001
1000
0001
0000
,
0100
0000
0010
0000
1000
0100
1000
0100
,
0010
0000
0001
0000
0100
0010
0000
0100
,
0010
1000
1010
1010
,
1001
0000
1001
0000
0001
0010
0001
0000
,
0100
0000
0010
1000
0100
1000
0010
0000
,
0100
0000
0001
0000
1000
0001
0000
1000
,
0001
0100
0110
0110
,
0101
0000
0101
0000
0100
0010
0100
0000
,
0001
0000
0010
0000
0100
1000
0001
0100
,
0001
0000
1000
0000
0010
1000
0000
0010
,
1000
0001
0101
0101
,
1001
0000
1001
0000
1000
0100
1000
0100
,
1000
0000
0001
0100
0001
0100
0001
0000
,
1000
0010
1000
0010
1000
0000
0001
0010
,
0001
0010
0001
0000
1000
0001
1000
0001
,
1000
0000
0010
0100
0010
0100
0010
0000
,
1000
0100
0010
0001
0100
0010
0100
0001
,
2000
0000
0000
0000
,
0000
0000
0000
0000
,
0000
0000
0000
0000
,
0000
0000
3000
0000
,
0001
0100
0001
0100
0010
1000
0010
1000
,
0100
1000
0100
0010
0001
0010
0001
1000
,
0001
1000
0001
0100
0010
0100
0010
1000
,
0100
0010
0001
0100
0010
1000
0100
0010
,
0001
0000
1000
0100
1000
0001
0100
0010
,
1010
0000
1000
0001
0010
0001
0100
0001
,
0101
0000
0010
1000
0100
1000
0001
0100
,
1000
0100
0001
1000
0010
0001
0011
0000
,
1000
0010
0100
0010
1000
0100
1100
0000
,
1000
0010
0001
0010
1000
0100
2002
0000
,
3000
1003
0100
0010
,
0001
0010
0100
2000
,
3001
0100
1000
0010
0001
1000
0200
0000
,
1000
0320
0032
0203
,
1000
0302
2003
3200
,
0010
0302
0203
2300
,
3020
0230
0302
0203
,
0001
0320
2030
3200
,
0302
0023
1000
0230
,
0001
0010
1000
0320
,
2030
0000
3200
0000
0320
0000
0031
0100
,
0001
0010
0100
1000
0010
0001
0010
1000
,
0001
0100
1000
0100
0001
1000
0020
0000
,
0000
0000
1030
0100
1000
0001
0100
0001
,
0010
0100
1000
0100
0001
0100
0010
0100
,
1000
0100
0010
0001
0100
0001
1000
0010
,
0001
1000
0100
0001
0100
0001
1000
0100
,
1000
0001
0100
0000
0110
0000
0010
1000
,
0100
1000
0010
0100
0001
0010
1000
0001
,
0100
1000
0100
1000
0010
0100
0001
0000
,
1001
0000
1000
0010
1000
0010
0001
0010
,
0001
0010
0001
0100
0001
0100
1000
0100
,
1000
0001
0100
1000
0100
0001
0010
1000
,
0010
0001
1000
0010
0100
0001
1000
0100
,
0001
0010
2000
0000
3002
0000
2000
0000
,
0000
0000
0000
0000
,
0000
0000
0000
0000
0000
3003
0110
0000
;

//---------------dance-double - ----------------
#NOTES:
     dance-double:
     :
     Hard:
     9:
     0.504835,0.723863,0.172734,0.179931,0.007197,491.000000,467.000000,24.000000,25.000000,0.000000,0.000000,0.504835,0.723863,0.172734,0.179931,0.007197,491.000000,467.000000,24.000000,25.000000,0.000000,0.000000:
00000000
00000000
00000000
00000000
,
00000000
00000000
00000000
00000000
,
00000000
00000000
00000000
00000000
,
00000000
00000000
00000000
00000000
,
00000000
00000000
00000000
00000000
,
00000000
00000000
00000000
00000000
,
00011000
00000000
00000000
00010000
,
00000110
00001000
00000001
00000100
00001000
00010000
00000100
00001000
,
00001001
00000000
00000010
00010000
00001000
00000000
00010000
00000000
,
00001000
00000000
00000000
00100000
00000000
00000000
00010000
00000000
,
10000000
01000000
00000000
00100000
00010000
00000000
01000000
00000000
,
00100000
00000000
00000000
10000000
01000000
00000000
00010000
00000000
,
00001000
00000000
00000100
00000001
00001000
00000000
00000100
00000000
,
00010000
00000000
00000000
00000010
00000000
00000000
00001000
00000000
,
00000001
00000100
00000000
00000010
00001000
00000000
00000100
00000000
,
00010100
00000000
00011000
00000000
00001000
01000000
00010000
00000000
,
10000000
00000000
10010000
00000000
00000000
01010000
00000000
00000000
,
01001000
00000000
00001000
00010000
00000000
00010000
00000100
00000000
,
00000010
00000000
00000011
00000000
00000000
00000001
00000100
00000000
,
00001000
00000000
00011000
00000000
00010000
00000100
00001000
00000000
,
00000001
00000000
00001001
00000000
00000000
00001100
00000000
00000000
,
00010100
00000000
00010000
00001000
00000000
00001000
01000000
00000000
,
00100000
10100000
01000000
01010000
,
10000000
00000000
10010000
00000000
10000000
01000000
00010000
00001000
,
00000100
00000001
00001000
00000000
00000001
00000010
00001000
00010000
,
00100000
10000000
00020000
00000000
00030000
01000000
00001000
00000000
,
00010000
00000000
00000010
00001000
00000100
00000000
00000010
00000001
,
00000200
00000000
00000301
00000000
00001000
00000001
00000100
00001000
,
00000100
00000010
00010000
00000000
00011000
00000000
00001000
02000000
,
00000000
03000000
00010000
00100000
01000000
10000000
00100000
01000000
,
00010000
00100000
00001000
00010000
00000100
00001000
00000010
00000100
,
00000001
00001000
00000001
00001000
00000000
00000000
00000000
00000000
00001001
00000000
00000000
00000000
00000000
00000000
00000000
00000000
,
00000000
00000000
00000000
00000000
,
00000000
00000000
00000100
00010000
00000100
00000000
00010000
00000000
,
00001000
00100000
01000000
10000000
,
00100000
00010000
00100000
10000000
,
00010000
00100000
00001000
00010000
,
00000100
00001000
00000001
00000100
,
00001000
00000100
00000001
00000010
,
00000100
00010000
00001000
00000010
,
00000100
00001000
00000010
00010000
,
00001000
00100000
00010000
01000000
,
10000000
01000000
00100000
10000000
,
01000000
00010000
00001000
00000100
,
00000001
00001000
00000010
00000100
,
00000001
00000010
00001000
00000010
,
00000100
00010000
00001000
00100000
,
00010000
01000000
10000000
01000000
,
00010000
00100000
00001000
00010000
,
00000100
00000010
00000001
00000100
,
00001000
00000100
00000010
00010000
,
00001000
00000010
00001000
00010000
,
01000000
10000000
00010000
00100000
,
10000000
00100000
01000000
10000000
,
01000000
00010000
00001000
00000100
,
00000001
00001000
00000010
00000001
,
00000010
00000100
00000001
00000010
,
00001000
00010000
00100000
10000000
,
00010000
01000000
10000000
01000000
,
00100000
10000000
01000000
00010000
,
00001000
00000100
00000001
00001000
,
00000100
00010000
00001000
00001000
,
00100000
00010000
10000000
10000000
,
00100000
00010000
00001000
00001000
,
00100000
00010000
01000000
00001000
,
00010000
00000000
00000100
00000000
00000010
00000100
00000010
00000000
,
00000001
00000000
00001000
00000100
00001000
00000000
00000010
00000000
,
00010000
00001000
00010000
00000000
00001000
00000000
01000000
00100000
,
01000000
00010000
10000000
00100000
,
01000000
00000000
00001000
00010000
00001000
00000000
00010000
00000000
,
00000100
00000010
00000100
00000010
00000100
00000000
00001000
00000000
,
00001001
00000000
00000000
00000000
,
00000000
00000000
00000000
00000000
,
00000000
00000000
00000000
00000000
,
00000000
00000000
00000000
00000000
,
00022000
00000000
00000000
00000000
,
00000000
00000000
00000000
00000000
,
00000000
00000000
00000000
00000000
,
00000000
00000000
00000000
00000000
,
00033000
00000000
00001000
00000100
00000000
00000001
00000000
00000100
,
00001000
00000000
00010000
01000000
00000000
10000000
00000000
01000000
,
00010000
00000000
00001000
00000000
00000010
00000001
00000000
00001000
,
00000100
00010000
00000100
00010000
00000000
00000000
00011000
00000000
,
00010000
00100000
00000000
10000000
00000000
00100000
00010000
00000000
,
00001000
00000010
00000001
00001000
00000100
00000010
00000002
00000000
,
00000000
00000000
00000000
00000000
,
00001003
00000010
00000100
00002000
,
00013000
01000000
10000000
00010000
01000000
00100000
20000000
00000000
,
00100000
00010000
01000000
30020000
,
00100000
10000000
01000000
00032000
,
00000010
00000001
00000100
00003002
,
00000023
00000230
00002300
00003002
,
00000010
00001000
00000100
00002003
,
00000010
00000001
00000100
00023000
,
00100000
10000000
01030000
02200000
,
03300000
00000000
00100000
00000000
01000000
00000000
00010000
01000000
,
00010000
10000000
00010000
00100000
00001000
00100000
00001000
00010000
,
00000100
00001000
00000001
00000100
00000010
00001000
00000002
00000000
,
00000000
00000000
00001003
00000100
00001000
00000001
00001000
00000010
,
00010000
00000010
00010000
00001000
01000000
00010000
10000000
01000000
,
00100000
00010000
10000000
00100000
01000000
00010000
10000000
00010000
,
01000000
00001000
00010000
00001000
00010000
00000010
00010000
00000010
,
00000100
00000001
00002000
00000000
00003002
00000000
00000103
00000010
,
00000100
00000001
00001000
00000010
00000100
00000010
00010000
00000100
,
00001000
00000100
00010000
00001000
00100000
00010000
10000000
00000000
,
10010000
00000000
00010000
01000000
00100000
01000000
00010000
10000000
,
00100000
10000000
00010000
01000000
00001000
01000000
00010000
00100000
,
00001000
00100000
00010000
00100000
00001000
00010000
00000010
00010000
,
00001000
00010000
00000010
00001000
00000100
00000010
00000001
00000100
,
00000010
00001000
00000002
00000000
00000023
00000000
00000200
00000000
,
00000000
00000000
00000000
00000000
,
00000000
00000000
00000000
00000000
00000000
00000330
00001001
00000000
;

//---------------dance-double - ----------------
#NOTES:
     dance-double:
     :
     Challenge:
     10:
     0.637471,0.804293,0.460624,0.287890,0.014394,620.000000,556.000000,64.000000,40.000000,0.000000,0.000000,0.637471,0.804293,0.460624,0.287890,0.014394,620.000000,556.000000,64.000000,40.000000,0.000000,0.000000:
00000000
00000000
00000000
00000000
,
00000000
00000000
00000000
00000000
,
00000000
00000000
00000000
00000000
,
00000000
00000000
00000000
00000000
,
00000000
00000000
00000000
00000000
,
00000000
00000000
00000000
00000000
,
00011000
00000000
00000000
00001000
,
01100000
00010000
10000000
01000000
00010000
00001000
01000000
00010000
,
10010000
00000000
00100000
00001000
00010000
00000000
00011000
00000000
,
00001010
00000000
00000000
00000011
00000000
00000000
00001001
00000000
,
00000001
00000100
00000000
00000010
00001000
00000000
00000001
00000000
,
00000110
00000000
00000000
00010000
00001000
00000000
00011000
00000000
,
00000100
00000000
00000010
00010000
00001000
00000000
00011000
00000000
,
00110000
00000000
00000000
10100000
00000000
00000000
10010000
00000000
,
10000000
01000000
00000000
00100000
00010000
00000000
10000000
00000000
,
01100000
00000000
00001000
00010000
01000000
00010000
00001000
00000000
,
00011000
00000000
00010010
00000000
00000100
00000001
00000000
00000100
,
00001000
00000000
00010000
00001000
00000010
00001000
00010000
00000000
,
00001000
00000000
01001000
00000000
00000000
01000000
00010000
00000000
,
00100000
00000000
00001000
00010000
00100000
00010000
00001000
00000000
,
00011000
00000000
00010100
00000000
00000010
00000001
00000000
00000010
,
00001000
00000000
00010000
00001000
00000100
00001000
00010000
00000000
,
00001000
00101000
00100000
00110000
,
10010000
00000000
12000000
00000000
03100000
00001000
00000010
00000001
,
00001000
00000100
00000010
00000000
00000001
00000100
00001000
01000000
,
10000000
01000000
00010000
10000000
00100000
00010000
00001000
00100000
,
00010000
00001000
00000100
00000010
00000001
00000100
00001000
00010000
,
00000010
00000100
00000201
00000000
00000310
00010000
00100000
10000000
,
00010000
01000000
00100000
00000000
10000000
01000000
00010000
00000100
,
00000001
00000100
00001000
00000001
00000010
00001000
00010000
00000010
,
00001000
00000000
00010000
00000000
01000000
00000000
00100000
00000000
10000000
00000000
00010000
00000000
00100000
00010000
00100000
00010000
,
10000000
01000000
10000000
01000000
00000000
00000000
00000000
00000000
10010000
00000000
00000000
00000000
00000000
00000000
00000000
00000000
,
00000000
00000000
00000000
00000000
,
00000000
00000000
01001000
00001000
,
00100000
00000000
00010000
00000000
00100000
00001000
00000000
00010000
,
00000100
00000000
00000010
00000000
00000001
00000100
00000000
00000100
,
00001000
00010000
00010010
00011000
,
00101000
00011000
00010100
00010000
,
00000010
00000000
00001000
00000000
00000010
00010000
00000000
00001000
,
01000000
00000000
00100000
00000000
10000000
01000000
00000000
01000000
,
00010000
00001000
00101000
00011000
,
00010010
00000000
00011000
00000000
01001000
00000000
00000000
10010000
,
00000000
00000000
10000000
00000000
01000000
00010000
01000000
00010000
,
00001000
00000000
00000100
00000000
00000001
00001000
00000000
00001000
,
00000010
00010000
00010100
00011000
,
01001000
00000000
00011000
00000000
00010100
00000000
00000000
00001001
,
00000000
00000000
00000001
00000000
00000100
00001000
00000100
00001000
,
00010000
00000000
01000000
00000000
10000000
00010000
00000000
00010000
,
00100000
00001000
01001000
00011000
,
00010100
00000000
00011000
00000000
00100000
00010000
00100000
00000000
,
01000000
00000000
10000000
00000000
00010000
01000000
00001000
00000000
,
00010000
00000000
00000100
00000000
00000010
00000001
00000000
00000001
,
00000100
00000010
00010010
00011000
,
00101000
00000000
00011000
00000000
00000010
00001000
00000010
00000000
,
00000100
00000000
00000001
00000000
00001000
00000100
00010000
00000000
,
00001000
00000000
01000000
00000000
00100000
10000000
00000000
10000000
,
01000000
00100000
00101000
00011000
,
00010010
00000000
00011000
00000000
00000100
00001000
00000100
00001000
,
00000100
00000000
00000010
00000000
00000001
00000100
00000001
00000000
,
00001000
00000000
00000100
00000000
00010000
00001000
00000000
00010000
,
00001000
01000000
01001000
00011000
,
00010100
00000000
00011000
00000000
01000000
00010000
01000000
00010000
,
01000000
00000000
00100000
00000000
10000000
01000000
10000000
00000000
,
00010000
00000000
01000000
00000000
00001000
00010000
00000000
00001000
,
00010000
00000000
00000100
00000000
00000010
00000001
00000010
00000001
,
00001000
00000001
00001000
00000000
00000001
00000100
00000001
00000100
,
00000001
00000000
00001000
00000010
00001000
00000010
00001000
00000000
,
00000100
00010000
00000100
00010000
00000100
00000000
00010000
00001000
,
00010000
00001000
00010000
00000000
00001000
01000000
00001000
01000000
,
00001000
00000000
01000000
00010000
01000000
00010000
01000000
00000000
,
00100000
10000000
00100000
10000000
00010000
01000000
00010000
01000000
,
00020000
00000000
00000000
00000000
,
00000000
00000000
00000000
00000000
,
00000000
00000000
00000000
00000000
,
00000000
00000000
00030000
00000000
,
10000000
00100000
10000000
00100000
01000000
00010000
01000000
00010000
,
00100000
00001000
00100000
00001000
00010000
00000100
00010000
00000100
,
00001000
00000010
00001000
00000010
00000100
00000001
00000100
00000001
,
00001000
00000100
00001000
00000010
00010000
00000100
00001000
00000010
,
00010000
00000000
00001000
00000100
00000001
00000010
00000000
00001000
,
00011000
00000000
00010000
01000000
10000000
00100000
00000000
00010000
,
00011000
00000000
00000010
00000001
00001000
00000001
00000000
00000100
,
00001000
00010000
01000000
00000000
00100000
00010000
10010000
00000000
,
00100000
10000000
00010000
10000000
00000000
01000000
00010000
00000000
,
00001000
00000010
00000001
00000010
00001000
00010000
00022000
00000000
,
00000000
00000000
00000000
00033000
,
00100000
00010000
10000000
00020000
,
10030000
01000000
00010000
00001000
00000100
00000001
00002000
00000000
,
00000010
00000001
00000100
00023000
,
00100000
10000000
01000000
00032000
,
00003002
00000023
00000230
00002300
,
00023000
00230000
02300000
23000000
,
30200000
00320000
00032000
02003000
,
03020000
00032000
00003020
00020030
,
00032000
00003200
00000302
00000023
,
00002030
00000000
00023000
00000000
00230000
00000000
10300000
01000000
,
10000000
00100000
00010000
00001000
00000100
00000001
00001000
00000100
,
00000001
00001000
00000010
00000100
00010000
00001000
00000200
00000000
,
00000000
00000000
00000301
00000010
00001000
00010000
00000100
00001000
,
00000010
00010000
00001000
00100000
01000000
10000000
00100000
00010000
,
00001000
00000100
00000001
00001000
00000001
00000010
00001000
00010000
,
00000100
00010000
00001000
01000000
00100000
10000000
01000000
00010000
,
00001000
00100000
02000000
00000000
23000000
00000000
30010000
00100000
,
00001000
00100000
00010000
10000000
01000000
00010000
00001000
00000100
,
00000001
00000010
00000100
00010000
00001000
00000010
00000002
00000000
,
00000203
00000000
00001300
00010000
00001000
01000000
00010000
00100000
,
10000000
00010000
01000000
10000000
00100000
00010000
00001000
01000000
,
00100000
01000000
00001000
00010000
00000010
00000100
00000010
00001000
,
00000001
00000100
00001000
00010000
01000000
10000000
00100000
00010000
,
10000000
01000000
00020000
00000000
00230000
00000000
02000000
00000000
,
00000000
00000000
00000000
00000000
,
00000000
00000000
00000000
00000000
00000000
03300000
10010000
00000000
;

//---------------dance-double - ----------------
#NOTES:
     dance-double:
     :
     Medium:
     8:
     0.380426,0.603219,0.100761,0.165537,0.000000,370.000000,356.000000,14.000000,23.000000,0.000000,0.000000,0.380426,0.603219,0.100761,0.165537,0.000000,370.000000,356.000000,14.000000,23.000000,0.000000,0.000000:
// measure 0
00000000
00000000
00000000
00000000
,  // measure 1
00000000
00000000
00000000
00000000
,  // measure 2
00000000
00000000
00000000
00000000
,  // measure 3
00000000
00000000
00000000
00000000
,  // measure 4
00000000
00000000
00000000
00000000
,  // measure 5
00000000
00000000
00000000
00000000
,  // measure 6
00011000
00000000
00000000
00010000
,  // measure 7
00010100
00000000
00000010
00000001
00000010
00000100
00010000
00000000
,  // measure 8
00001000
00010000
01000000
10000000
,  // measure 9
00010000
00000000
00000000
00100000
00000000
00000000
00001000
00000000
,  // measure 10
00010000
00000100
00000000
00000100
00001000
00000000
00000001
00000000
,  // measure 11
00000010
00000000
00000110
00000000
,  // measure 12
00010000
00001000
00000100
00000001
,  // measure 13
00001000
00000000
00000000
00000010
00000000
00000000
00010000
00000000
,  // measure 14
00001000
01000000
00000000
01000000
00010000
00000000
10000000
00000000
,  // measure 15
10010000
01000000
00001000
00010000
,  // measure 16
00001000
00000000
00100000
00000000
00000000
00010000
00000000
00000000
,  // measure 17
00001000
00000001
00000010
00001000
,  // measure 18
00000010
00000000
00000001
00000000
00000000
00000100
00000010
00000000
,  // measure 19
00001000
00000100
00010000
00001000
,  // measure 20
00010000
00000000
00000010
00000000
00000000
00001000
00000000
00000000
,  // measure 21
00010000
10000000
00100000
00010000
,  // measure 22
00100000
10000000
00000000
10010000
,  // measure 23
00000000
01002000
00010000
00103000
,  // measure 24
00001000
00010000
00000010
00000000
00000100
00000000
00001000
00000100
,  // measure 25
00000001
00000010
00000001
00000000
00001000
00000000
00000100
00010000
,  // measure 26
00001000
01000000
00010000
00000000
10010000
00000000
01100000
20000000
,  // measure 27
00000000
00000000
30010000
00000000
00100000
00001000
00010000
00000010
,  // measure 28
00001000
00000001
00000100
00000000
00000110
00000000
00000001
00002000
,  // measure 29
00000000
00003000
00000100
00000000
00010000
00001000
01000000
00010000
,  // measure 30
10000000
01000000
00100000
00000000
01000000
00000000
00010000
00001000
,  // measure 31
00010000
00001000
00000000
00000000
00011000
00000000
00000000
00000000
,  // measure 32
00000000
00000000
00000000
00001000
,  // measure 33
00000100
00000001
00001000
00000001
,  // measure 34
00000100
00000001
00001000
00000010
,  // measure 35
00010000
00000010
00001000
00000010
,  // measure 36
00010000
00001000
01000000
00001000
,  // measure 37
00010000
01000000
10000000
00000000
,  // measure 38
00010000
01000000
00010000
00100000
,  // measure 39
00001000
00100000
00010000
00100000
,  // measure 40
00001000
00010000
00000100
00010000
,  // measure 41
00001000
00000100
00000001
00000000
,  // measure 42
00001000
00000010
00001000
00000001
,  // measure 43
00000010
00000001
00001000
00000100
,  // measure 44
00010000
00001000
01000000
00010000
,  // measure 45
10000000
00000000
00010000
00100000
,  // measure 46
00010000
10000000
00100000
10000000
,  // measure 47
00010000
01000000
00001000
00010000
,  // measure 48
00000100
00001000
00000001
00000100
,  // measure 49
00000010
00001000
00000001
00000010
,  // measure 50
00000001
00000000
00001000
00000100
,  // measure 51
00001000
00000000
00000010
00010000
,  // measure 52
00000010
00000000
00010000
00001000
,  // measure 53
00100000
00010000
10000000
00100000
,  // measure 54
10000000
00000000
00010000
01000000
,  // measure 55
00010000
00000000
00100000
00001000
,  // measure 56
00100000
00000000
00001000
00010000
,  // measure 57
00000010
00001000
00000001
00000000
,  // measure 58
00000010
00000001
00001000
00000000
,  // measure 59
00000010
00010000
00001000
00000000
,  // measure 60
00100000
00010000
10000000
00100000
,  // measure 61
10000000
00010000
01000000
00000000
,  // measure 62
00100000
10000000
00010000
00000000
,  // measure 63
00100000
00001000
00010000
00000000
,  // measure 64
00000010
00001000
00000001
00000010
,  // measure 65
00000001
00000010
00000001
00000000
,  // measure 66
00000001
00000100
00000000
00000100
,  // measure 67
00001000
00000000
00001000
00010000
,  // measure 68
00000000
00010000
01000000
00000000
,  // measure 69
01000000
10000000
00000000
10000000
,  // measure 70
00100000
00000000
01000000
00000000
,  // measure 71
01100000
00000000
00000000
00000000
,  // measure 72
00000000
00000000
00000000
00000000
,  // measure 73
00000000
00000000
00000000
00000000
,  // measure 74
00000000
00000000
00000000
00000000
,  // measure 75
00022000
00000000
00000000
00000000
,  // measure 76
00000000
00000000
00000000
00000000
,  // measure 77
00000000
00000000
00000000
00000000
,  // measure 78
00000000
00000000
00000000
00000000
,  // measure 79
00033000
00000000
00000100
00000000
00000100
00000001
00000000
00000000
,  // measure 80
00001000
00000000
00000100
00010000
00000000
00010000
00000000
00000000
,  // measure 81
00001000
00000000
00100000
00000000
00010000
01000000
00000000
01000000
,  // measure 82
00100000
00000000
00100000
10000000
00000000
00000000
00010000
00000000
,  // measure 83
01000000
00001000
00000000
00001000
00000000
00000000
00010000
00000000
,  // measure 84
00000010
00000000
00000000
00001000
00000000
00000100
00000020
00000000
,  // measure 85
00000000
00000000
00000000
00000000
,  // measure 86
00000031
00001000
00000001
00000200
,  // measure 87
00001300
00010000
01000000
10000000
00010000
01000000
00200000
00000000
,  // measure 88
00010000
10000000
01000000
00320000
,  // measure 89
00000000
00100000
00001000
00030200
,  // measure 90
00000000
00010000
00001000
00000320
,  // measure 91
00000001
00001000
00000100
00000032
,  // measure 92
00000000
00000010
00001000
00000203
,  // measure 93
00000010
00002000
00000300
00020000
,  // measure 94
00000000
00000000
00003000
02030000
,  // measure 95
00000000
13000000
00010000
10000000
,  // measure 96
00100000
10000000
00010000
00100000
,  // measure 97
00001000
00010000
00000010
00002000
,  // measure 98
00000000
00003001
00000100
00001000
,  // measure 99
00000100
00000010
00010000
00001000
,  // measure 100
00100000
00010000
10000000
01000000
,  // measure 101
00010000
00001000
00100000
00010000
,  // measure 102
00100000
00002000
00023000
00030100
,  // measure 103
00000010
00000001
00001000
00000010
,  // measure 104
00001000
00000100
00000010
00002000
,  // measure 105
00023000
01030000
10000000
00010000
,  // measure 106
10000000
01000000
00010000
00001000
,  // measure 107
00000010
00000001
00001000
00000010
,  // measure 108
00010000
00000010
00010000
00001000
,  // measure 109
00100000
00010000
10000000
20020000
,  // measure 110
00000000
00000000
00000000
00000000
,  // measure 111
00000000
00000000
00000000
00000000
00000000
30030000
01100000
00000000
;

//---------------dance-double - ----------------
#NOTES:
     dance-double:
     :
     Easy:
     6:
     0.276580,0.482575,0.143945,0.179931,0.000000,269.000000,249.000000,20.000000,25.000000,0.000000,0.000000,0.276580,0.482575,0.143945,0.179931,0.000000,269.000000,249.000000,20.000000,25.000000,0.000000,0.000000:
// measure 0
00000000
00000000
00000000
00000000
,  // measure 1
00000000
00000000
00000000
00000000
,  // measure 2
00000000
00000000
00000000
00000000
,  // measure 3
00000000
00000000
00000000
00000000
,  // measure 4
00000000
00000000
00000000
00000000
,  // measure 5
00000000
00000000
00000000
00000000
,  // measure 6
00011000
00000000
00000000
00000000
,  // measure 7
00100000
10000000
00010000
10010000
,  // measure 8
10000000
00000000
00100000
00010000
,  // measure 9
00001000
00000000
00000010
00000000
,  // measure 10
00000001
00000000
00000100
00001000
,  // measure 11
00010000
00000000
01000000
00000000
,  // measure 12
10000000
00010000
10000000
00100000
,  // measure 13
01000000
00000000
00001000
00000000
,  // measure 14
00010000
00000100
00000010
00000001
,  // measure 15
00001001
00000010
00000100
00000001
,  // measure 16
00001000
00000100
00000000
00010000
,  // measure 17
00000000
00001000
00100000
00010000
,  // measure 18
10000000
01000000
00000000
01100000
,  // measure 19
00000000
10000000
00010000
01000000
,  // measure 20
00001000
00010000
00000000
00000100
,  // measure 21
00000000
00000010
00000001
00000100
,  // measure 22
00000010
00001000
00000000
00001001
,  // measure 23
00000000
00000000
00000110
00000000
00010010
00000000
00010000
00001000
,  // measure 24
00000000
00000000
01001000
00000000
00010000
00000000
00010000
01000000
,  // measure 25
00000000
10000000
01000000
00010000
,  // measure 26
00001000
00000100
00000001
00000020
,  // measure 27
00000030
00000110
00000000
00000001
,  // measure 28
00001000
00000000
00000100
00000000
00010100
00000000
00010000
00001000
,  // measure 29
00000000
00000000
01001000
00000000
00000000
01000000
00100000
00000000
,  // measure 30
10000000
00000000
01000000
00000000
00100000
00000000
00001000
00010000
,  // measure 31
00001000
00010000
00000000
00000000
00011000
00000000
00000000
00000000
,  // measure 32
00000000
00000000
00000000
00000000
,  // measure 33
00000000
00000000
00000100
00000000
,  // measure 34
00000010
00000000
00000001
00000000
,  // measure 35
00001000
00000000
00000001
00000000
,  // measure 36
00000100
00000000
00000010
00010000
,  // measure 37
00000010
00010000
00001000
00000000
,  // measure 38
01000000
00000000
00010000
00000000
,  // measure 39
10000000
00000000
00100000
00000000
,  // measure 40
01000000
00000000
00001000
00010000
,  // measure 41
00001000
00010000
00000100
00000000
,  // measure 42
00000010
00000000
00000001
00000000
,  // measure 43
00001000
00000000
00000100
00000000
,  // measure 44
00010000
00000000
00001000
00010000
,  // measure 45
00001000
00010000
00100000
00000000
,  // measure 46
10000000
00000000
00010000
00000000
,  // measure 47
01000000
00000000
00010000
00000000
,  // measure 48
00100000
00000000
00001000
00010000
,  // measure 49
00000100
00010000
00001000
00000000
,  // measure 50
00001000
00000000
00000100
00000000
,  // measure 51
00000001
00000000
00000010
00000000
,  // measure 52
00001000
00000000
00010000
00001000
,  // measure 53
01000000
00001000
00010000
00000000
,  // measure 54
00010000
00000000
01000000
00000000
,  // measure 55
10000000
00000000
00100000
00000000
,  // measure 56
00010000
00000000
00001000
00010000
,  // measure 57
00000010
00010000
00001000
00000000
,  // measure 58
00001000
00000000
00000010
00000000
,  // measure 59
00000001
00000000
00000100
00000000
,  // measure 60
00001000
00000000
00010000
00001000
,  // measure 61
00100000
00001000
00010000
00000000
,  // measure 62
00010000
00000000
00100000
00000000
,  // measure 63
10000000
00000000
01000000
00000000
,  // measure 64
00010000
00000000
00001000
00010000
,  // measure 65
00001000
00010000
00000200
00000000
,  // measure 66
00000300
00000020
00000000
00000030
,  // measure 67
00000002
00000000
00000003
00002000
,  // measure 68
00000000
00003000
00000200
00000000
,  // measure 69
00000300
00020000
00000000
00030000
,  // measure 70
00002000
00000000
00000000
00000000
,  // measure 71
00013000
00000000
00000000
00000000
,  // measure 72
00000000
00000000
00000000
00000000
,  // measure 73
00000000
00000000
00000000
00000000
,  // measure 74
00000000
00000000
00000000
00000000
,  // measure 75
00022000
00000000
00000000
00000000
,  // measure 76
00000000
00000000
00000000
00000000
,  // measure 77
00000000
00000000
00000000
00000000
,  // measure 78
00000000
00000000
00000000
00000000
,  // measure 79
00033000
00000000
00100000
00000000
00000000
10000000
00000000
00000000
,  // measure 80
01010000
00000000
00100000
00000000
00000000
00001000
00000000
00000000
,  // measure 81
00011000
00000000
00000100
00000000
00000000
00000001
00000000
00000000
,  // measure 82
00000010
00000000
00000000
00000001
00000000
00000000
00001100
00000000
,  // measure 83
00000010
00000000
00000000
00010000
00000000
00000000
00011000
00000000
,  // measure 84
01010000
00000000
00000000
01100000
00000000
00000000
20000000
00000000
,  // measure 85
00000000
00000000
00000000
00000000
,  // measure 86
00000000
00000000
00000000
30010000
,  // measure 87
10000000
01000000
00010000
00000020
,  // measure 88
00000000
00001030
00000100
00000020
,  // measure 89
00000030
00000100
00001000
00200000
,  // measure 90
00300000
10000000
00100000
00010000
,  // measure 91
00001000
00100000
01000000
20000000
,  // measure 92
30000000
01000000
00010000
00001000
,  // measure 93
00000100
00000002
00000000
00002000
,  // measure 94
00000000
00000000
00000003
00003020
,  // measure 95
00000000
00010030
00001000
01000000
,  // measure 96
00000000
00010000
00000000
10000000
,  // measure 97
00000000
00010000
00000000
00200000
,  // measure 98
00000000
00301000
00000000
00010000
,  // measure 99
00000000
00001000
00000000
00000100
,  // measure 100
00000000
00000010
00000000
00001000
,  // measure 101
00000000
00000001
00000000
00000010
,  // measure 102
00000000
00000200
00020300
00031000
,  // measure 103
00000000
00100000
00000000
00010000
,  // measure 104
00000000
10000000
00000000
02000000
,  // measure 105
03200000
00301000
00000000
00010000
,  // measure 106
00000000
00000010
00000000
00000100
,  // measure 107
00000000
00000001
00000000
00001000
,  // measure 108
00000000
00000100
00000000
00000010
,  // measure 109
00000000
00000100
00020000
00002000
,  // measure 110
00000000
00000000
00000000
00000000
,  // measure 111
00000000
00000000
00033000
00011000
;
