#TITLE:ACID VISION;
#SUBTITLE:;
#ARTIST:L.E.D.;
#TITLETRANSLIT:;
#SUBTITLETRANSLIT:;
#ARTISTTRANSLIT:;
#GENRE:;
#CREDIT:;
#BANNER:ACID VISION.png;
#BACKGROUND:ACID VISION-bg.png;
#LYRICSPATH:;
#CDTITLE:;
#MUSIC:ACID VISION.ogg;
#OFFSET:0.010000;
#SAMPLESTART:87.042931;
#SAMPLELENGTH:15.824181;
#SELECTABLE:YES;
#DISPLAYBPM:182.000000;
#BPMS:0.000000=91.000000
,22.000000=182.000000
;
#STOPS:150.000000=3.296000,
167.500000=0.330000,
198.500000=0.330000,
294.000000=2.307000,
310.500000=0.330000
;
#BGCHANGES:0.000=ACID VISION.avi=1.000=0=0=0=StretchNoLoop====,
99999=-nosongbg-=1.000=0=0=0 // don't automatically add -songbackground-
;
#KEYSOUNDS:;
#ATTACKS:;

//---------------dance-single - ----------------
#NOTES:
     dance-single:
     :
     Beginner:
     2:
     0.124119,0.159944,0.063188,0.094781,0.000000,110.000000,102.000000,8.000000,12.000000,0.000000,0.000000,0.124119,0.159944,0.063188,0.094781,0.000000,110.000000,102.000000,8.000000,12.000000,0.000000,0.000000:
0000
0000
0000
0000
,
0000
0000
0000
0000
,
0000
0000
0000
0000
,
0000
0000
0000
0000
,
0000
0000
0000
0000
,
0000
0000
1000
0000
,
1000
0000
0001
0000
,
0001
0000
0100
0000
,
0000
0000
0010
0000
,
0000
0000
1000
0000
,
1000
0000
0010
0000
,
0010
0000
0100
0000
,
0000
0000
0001
0000
,
0000
0000
0010
0000
,
0010
0000
0001
0000
,
0001
0000
1000
0000
,
0000
0000
0100
0000
,
0000
0000
0010
0000
,
0010
0000
0100
0000
,
0100
0000
1000
0000
,
0000
0000
0001
0000
,
0000
0000
1000
0000
,
0100
0000
1000
0000
,
0100
0000
0010
0000
,
0001
0000
0010
0000
,
0000
0000
0110
0000
,
0000
0000
1001
0000
,
0000
0000
0001
0000
,
1000
0000
0001
0000
,
0000
0000
1000
0000
,
0010
0000
1000
0000
,
0010
0000
0100
0000
,
0001
0000
0100
0000
,
0001
0000
0000
0000
,
0000
0000
0000
0000
,
0000
0000
1001
0000
,
0000
0000
1001
0000
,
0000
0000
0000
0000
,
1000
0000
0001
0000
,
1000
0000
0001
0000
,
0200
0000
0300
0000
,
0020
0000
0030
0000
,
1000
0000
0000
0001
,
0000
0000
0000
2000
,
0000
3000
0000
0002
,
0000
0003
0000
0100
,
0000
0010
0000
0100
,
0000
0100
0000
0002
,
0000
0003
0000
0020
,
0000
0030
0000
0000
,
0100
0000
1000
0000
,
0100
0000
2000
0000
,
0000
3000
0002
0000
,
0000
0003
0000
0000
,
0000
0000
0000
0000
,
0000
0000
0000
0000
,
0000
0000
0000
0000
,
0000
0000
1001
0000
,
0001
0000
0100
0000
,
0000
0000
0001
0000
,
1000
0000
0100
0000
,
0000
0000
0000
0110
,
0000
0000
0100
0000
,
0000
0000
0100
0000
,
1000
0000
0001
0000
,
0000
0000
0110
0000
,
0010
0000
1000
0000
,
0000
0000
0001
0000
,
0010
0000
0100
0000
,
0000
0000
2002
0000
,
3003
0000
0001
0000
,
0000
0000
1000
0000
,
0010
0000
0100
0000
,
0000
0000
0000
0001
,
0000
0100
0000
0010
,
0000
1000
0000
0001
,
0000
0010
0000
0100
,
0000
1000
0000
0000
,
0001
0000
1000
0000
,
0010
0000
0200
0000
,
0300
0000
0020
0000
,
0030
0000
0000
0000
;

//---------------dance-single - ----------------
#NOTES:
     dance-single:
     :
     Easy:
     5:
     0.306911,0.354048,0.181665,0.110578,0.000000,272.000000,249.000000,23.000000,14.000000,0.000000,0.000000,0.306911,0.354048,0.181665,0.110578,0.000000,272.000000,249.000000,23.000000,14.000000,0.000000,0.000000:
0000
0000
0000
0000
,
0000
0000
0000
0000
,
0000
0000
0000
0000
,
0000
0000
0000
0000
,
0000
0000
0000
0000
,
0000
0000
0001
1000
,
0010
0100
0010
1000
,
0001
0010
0000
0110
,
0000
0110
0000
0000
0000
0000
0001
0000
,
0000
1000
0000
0000
0000
0000
0010
0000
,
1000
0001
0010
0100
,
1000
0001
0000
0101
,
0000
0101
0000
0000
0000
0000
0010
0000
,
0000
1000
0000
0000
0010
0000
0100
0000
,
0001
0010
0100
1000
,
0001
0100
0000
0110
,
0000
1001
0000
0000
0000
0000
0100
0000
,
0000
0010
0000
0000
0000
0000
0001
0000
,
0010
0100
1000
0001
,
0100
0010
0000
1010
,
0000
1010
0000
0000
0100
0000
0001
0000
,
0000
1000
0000
0000
0001
0000
1000
0000
,
0100
1000
0001
1000
,
0010
1000
0001
0010
,
0001
1000
0001
0100
,
0001
0010
0100
1100
,
0000
0011
0000
0000
1100
0000
0001
0000
,
0000
1000
0000
0000
0001
0000
0100
0000
,
0000
1010
0000
0000
0101
0000
0010
0000
,
1000
0001
0100
0010
,
1000
0001
0010
0100
,
1000
0001
0100
0010
,
0100
0001
1000
0100
,
0010
0000
0001
0000
1000
0000
0000
1001
,
0000
0001
0000
0100
0000
0001
0000
1000
,
0000
0100
0000
0000
0110
0000
0000
1001
,
0000
0001
1000
0010
,
0100
0001
0000
0000
,
0010
0100
0010
0001
,
1000
0010
0100
0001
,
1000
0100
0010
0002
,
0100
1000
0013
0000
,
0001
0010
0100
1000
,
0010
0100
0001
0100
,
0010
0100
0002
1000
,
0100
0013
0000
0001
,
0010
0100
1000
0010
,
1000
0100
0010
0001
,
0100
0010
2000
0100
,
0001
0010
3100
0100
,
0010
0100
1000
0010
,
0100
0001
0010
0001
,
0010
0200
0010
0010
,
0310
0000
0000
0000
,
0000
0000
0000
0000
,
0000
0000
0000
0000
,
0000
0000
0000
0000
,
0000
0000
2000
0100
,
0000
0001
0000
0000
3100
0000
0010
0000
,
0001
1000
0020
0100
,
0000
1000
0000
0000
0130
0000
0001
0000
,
0010
0100
0000
0220
,
0000
0330
0001
0010
,
0100
1000
0002
0100
,
0000
1000
0000
0000
0013
0000
0001
0000
,
1000
0010
0200
1000
,
0000
0010
0000
0000
0301
0000
0010
0000
,
0100
1000
0002
0010
,
0000
1000
0000
0000
0103
0000
0010
0000
,
1000
0001
2002
0000
,
0000
3003
0100
0010
,
0001
1000
0020
0001
,
0000
0100
0000
0000
1030
0000
0100
0000
,
0010
0001
0000
1000
,
0010
1010
0100
0001
,
0010
0011
0100
1000
,
0010
0001
0010
1000
,
0100
0001
0100
0010
,
0011
0001
0100
1000
,
1100
0100
0010
1000
,
0001
0010
0100
1000
,
0001
0100
1001
0000
;

//---------------dance-single - ----------------
#NOTES:
     dance-single:
     :
     Medium:
     7:
     0.449084,0.482793,0.347532,0.000000,0.023695,398.000000,354.000000,44.000000,0.000000,0.000000,0.000000,0.449084,0.482793,0.347532,0.000000,0.023695,398.000000,354.000000,44.000000,0.000000,0.000000,0.000000:
0000
0000
0000
0000
,
0000
0000
0000
0000
,
0000
0000
0000
0000
,
0000
0000
0000
0000
,
0000
0000
0000
0000
,
0000
0000
1000
0100
,
1000
0001
0100
0000
0010
0000
0100
0000
,
0001
1000
0100
0000
0010
0000
0011
0000
,
0000
0100
0000
0000
1000
0000
1100
0000
,
0000
1000
0000
0000
0001
0000
0100
0000
,
0010
0100
0001
0000
1000
0000
0100
0000
,
0010
0001
1000
0000
0010
0000
1010
0000
,
0000
0100
0000
0000
0001
0000
0101
0000
,
0000
0001
0000
1000
0100
0000
0010
0000
,
0100
1000
0010
0000
0100
0000
0001
0000
,
0010
0001
1000
0000
0100
0000
0110
0000
,
0000
0001
1000
0000
0100
0000
1100
0000
,
0000
1000
0001
0000
0100
0000
0010
0000
,
0100
0001
0010
0000
0100
0000
1100
0000
,
0010
0001
1000
0000
0010
0000
0100
0001
,
0000
0100
0001
0000
1100
0000
0000
0011
,
0000
1100
1000
0100
,
1000
0001
0100
0001
1000
0000
1100
0000
,
0100
0010
0001
0000
1000
0000
0010
0000
,
0100
0010
1000
0010
0100
0000
0101
0000
,
0001
1000
0100
0000
0010
0000
0100
0010
,
0000
0100
0010
0000
1001
0000
0001
0100
,
0000
0010
0000
1000
0001
0010
0100
1000
,
0000
1000
0001
0000
0101
0000
0000
1010
,
0000
0101
0010
1000
,
0001
0010
0100
1000
0010
0000
0110
0000
,
0100
0001
1000
0000
0100
0000
0110
0000
,
0010
0100
1000
0000
0001
0000
0101
0000
,
0100
0010
1000
0001
0000
0000
0000
0011
,
0000
0010
0001
0000
1000
0100
0000
0110
,
0000
0010
0001
0000
1001
0000
0000
1100
,
0000
0000
0000
0000
1000
0000
0000
0000
0001
0000
0000
0100
0000
0000
0010
0000
,
0000
1000
0000
0000
0001
0000
0000
0000
0000
0000
0000
0000
0000
0000
0000
0000
,
0100
0000
0001
0000
1000
0100
0010
0000
,
0001
0000
0010
0000
0100
1000
0001
0000
,
0100
0000
0010
0000
0100
0001
1000
0000
,
1100
0000
1001
0000
0001
0100
0010
1000
,
0010
0000
0100
0001
0000
1000
0100
0000
,
0011
0000
0100
1000
0010
0000
0100
0000
,
1001
0000
0001
0010
0100
0000
1000
0000
,
0001
0101
1010
0010
,
0100
0000
0001
1000
0100
0000
0010
0000
,
0100
0000
1000
0010
0100
0000
0001
0000
,
0010
0000
0001
1000
0100
0000
0010
0000
,
0011
0000
0100
1000
0001
0100
0110
0000
,
0010
0100
0001
0000
1000
0000
0100
0000
,
0010
0100
1000
0000
0001
0000
0101
0000
,
0010
1000
0100
0000
0010
0000
0100
0000
,
1000
0001
0100
0000
0000
0000
0000
0000
,
0000
0000
0000
0000
,
0000
0000
0000
0000
,
0000
0000
0000
0000
,
0000
0000
0101
0010
,
1000
0001
0000
0010
0100
0000
0010
0001
,
0000
1100
0000
0011
0001
1000
0010
0000
,
0100
0001
0000
1000
0100
0000
0010
0100
,
0000
1000
0000
0001
0000
0000
0001
0000
,
1000
0000
0000
0000
0001
0000
0000
0000
0000
1000
0000
0000
0010
0000
0000
0000
0000
0000
0100
0000
0000
0000
0000
0000
,
0001
1000
0100
0000
0010
0000
0011
0000
,
0100
1000
0000
0001
0100
0000
0010
0100
,
0000
0101
0000
1010
0010
0100
0001
0000
,
1000
0100
0000
0010
0100
0000
1000
0001
,
0000
0101
0000
1100
0100
0010
0001
0000
,
1000
0010
0000
0100
0001
0000
0100
0010
,
0000
0000
1000
0000
0001
0000
0000
0000
0000
0010
0000
0000
0100
0000
0000
0010
,
0000
0000
0000
0100
0000
0000
0000
0000
0010
0000
0000
0000
0001
0000
0000
0000
0000
0000
0101
0000
0000
0000
0000
0000
,
0100
0001
1000
0000
0100
0000
0010
0000
,
0001
1000
0000
0100
1000
0000
0001
0100
,
0000
1010
0000
0101
0000
0000
1000
0000
,
0100
0000
0010
0001
1000
0000
0010
0000
,
0100
0000
0001
1000
0100
0010
0001
0000
,
0100
0000
0010
0100
0001
0000
0010
0000
,
0100
0000
1000
0001
0100
1000
0100
0000
,
0001
1000
0100
0000
0010
0000
0001
0000
,
1000
0010
0100
0000
0001
0010
0001
0000
,
1000
0010
1000
0000
0001
0010
0100
1000
,
0010
0100
0001
0000
1001
0000
0000
0000
;

//---------------dance-single - ----------------
#NOTES:
     dance-single:
     :
     Hard:
     9:
     0.583357,0.579352,0.363329,0.000000,0.023695,517.000000,471.000000,46.000000,0.000000,0.000000,0.000000,0.583357,0.579352,0.363329,0.000000,0.023695,517.000000,471.000000,46.000000,0.000000,0.000000,0.000000:
0000
0000
0000
0000
,
0000
0000
0000
0000
,
0000
0000
0000
0000
,
0000
0000
0000
0000
,
0000
0000
0000
0000
,
0000
0000
0001
0101
,
0001
1000
0100
0010
0001
0000
1001
0000
,
1000
0010
0100
0001
1000
0000
1100
0001
,
0000
0101
0010
0000
1000
0000
0011
0100
,
0000
1100
0001
0100
0010
1000
0100
0001
,
0100
1000
0010
0000
0100
0001
0010
0100
,
1000
0001
0100
0000
0010
0000
0110
0100
,
0000
0101
0100
0000
0010
0000
1000
0001
,
0000
0010
0100
1000
0100
0000
0010
0000
,
0100
1000
0001
0100
0010
0000
1010
0000
,
0100
0001
1000
0100
0010
0000
0011
0100
,
0000
1100
0001
0000
0100
0000
1010
0100
,
0000
0101
0010
1000
0001
0010
0100
0010
,
0001
1000
0100
0000
0010
0100
1000
0010
,
0100
0001
1000
0000
0100
0000
0011
0100
,
0000
1000
0001
0000
0101
0000
0000
1010
,
0000
0000
1001
0000
0001
0100
1000
0100
,
0001
1000
0100
0000
1000
0100
0001
0100
,
1000
0001
0100
0000
0001
0010
1000
0010
,
0001
1000
0010
0000
1000
0010
0001
0010
,
1000
0001
0010
0000
0110
0000
0011
0100
,
0000
1100
0001
0000
0101
0000
0010
1000
,
0000
0011
0000
0100
1000
0001
0100
0110
,
0000
1010
0100
0001
1000
0000
1100
0001
,
0000
0010
0100
1000
0001
0100
1000
0100
,
0001
1000
0100
0000
0010
0001
0010
1000
,
0010
0001
1000
0000
0010
0001
0010
0100
,
0001
1000
0100
0000
0001
0100
1000
0010
,
0100
0001
1000
1001
0000
0000
0000
1000
,
0100
0001
0100
1000
0001
0100
0010
0010
,
0100
0001
1000
0100
0011
0000
0000
1100
,
0000
0000
0000
0000
0001
0000
1000
0000
0010
0000
0000
0101
0000
0000
1000
0000
,
0000
0001
0000
0000
0110
0000
0000
0000
0000
0000
0000
0000
0000
0000
0000
0000
,
1000
0010
0001
0010
0100
0001
0100
0010
,
1000
0001
0010
1000
0010
0100
1000
0001
,
0100
0010
1000
0001
0010
0100
1000
0100
,
0010
0001
1000
0010
0100
0001
1000
1100
,
0010
0001
0100
1000
0100
0001
0010
1000
,
0010
0100
1000
0001
0100
1000
0100
0010
,
1000
0001
0010
0100
1000
0010
0001
1000
,
0100
0001
1000
0100
0010
0001
1000
0010
,
0001
0010
0100
0001
0010
0100
1000
0001
,
0010
1000
0010
0100
1000
0001
0100
0010
,
1000
0001
0010
0100
0010
0001
1000
0010
,
0100
0001
0100
0010
0100
1001
0001
0010
,
1000
0010
0100
1000
0001
0100
0010
1000
,
0001
0010
1000
0010
0100
1000
0010
0100
,
0001
1000
0100
0001
1000
0010
0001
1000
,
0010
0100
0001
1001
0000
0000
0000
0000
,
0000
0000
0000
0000
,
0000
0000
0000
0000
,
0000
0000
0000
0000
,
0000
0000
0000
0000
0001
0100
1000
0000
,
0100
0001
0000
1000
0100
0000
0001
0100
,
0000
0110
0000
1001
0001
0100
1000
0000
,
0001
0010
0000
1000
0001
0000
0010
1000
,
0000
1010
0000
0110
0000
0000
0011
0000
,
1000
0000
0000
0000
0001
0000
0000
0000
0000
1000
0000
0000
0001
0000
0000
1000
0000
0000
0100
0000
0000
0000
0000
0000
,
1000
0001
0100
0010
0100
0001
1000
0000
,
0100
0010
0000
0001
1000
0000
0010
0001
,
0000
0011
0000
1010
1000
0001
0010
0000
,
0100
1000
0000
0100
0001
0000
0100
0010
,
0000
0011
0000
1100
1000
0001
0100
0000
,
1000
0100
0000
0010
1000
0000
0001
0010
,
0000
0000
1000
0000
0010
0000
0000
0000
0000
1001
0000
0000
0100
0000
0000
0001
,
0000
0000
0000
0100
0000
0000
0000
0000
0010
0000
0000
0000
0100
0000
0000
1000
0000
0000
0010
0000
0000
1000
0000
0000
,
0001
0100
0010
0100
0001
0010
0100
0000
,
1000
0001
0000
0100
0010
0000
0100
0001
,
0000
1100
0000
0011
0000
0000
0001
0010
,
1000
0010
0100
0001
1000
0010
0100
1000
,
0001
0100
1000
0001
0010
0100
0010
1000
,
0001
0010
1000
0010
0100
1000
0001
0100
,
0010
0100
0001
1000
0100
0011
0001
0010
,
0100
0100
0010
0001
0100
1000
0100
0001
,
1000
0100
0010
0001
1000
0010
0001
1000
,
0100
0001
0010
1000
0001
1000
0010
0100
,
1000
0001
0100
0000
0010
0000
0000
0000
;

//---------------dance-single - ----------------
#NOTES:
     dance-single:
     :
     Challenge:
     10:
     0.765022,0.901214,0.971510,0.015797,0.339634,678.000000,555.000000,123.000000,2.000000,0.000000,0.000000,0.765022,0.901214,0.971510,0.015797,0.339634,678.000000,555.000000,123.000000,2.000000,0.000000,0.000000:
0000
0000
0000
0000
,
0000
0000
0000
0000
,
0000
0000
0000
0000
,
0000
0000
0000
0000
,
0000
0000
0000
0000
,
0000
0000
0000
0000
1100
0010
0001
0101
,
0000
0000
0110
0000
0010
0000
1000
0001
1000
0000
0010
0000
0100
0000
0001
1000
,
0010
1000
0001
1000
0010
0000
0110
0000
0100
0000
0010
0000
1010
0000
0100
0000
,
0000
0011
0100
0000
0010
0010
1100
0010
,
0000
0000
0101
0000
0010
0000
0000
0000
1000
0000
0001
0000
1000
0000
0010
1000
,
0001
1000
0010
1000
0001
0000
0100
0000
0010
0000
0000
0000
1010
0000
0000
1000
,
0001
0010
0000
0001
0100
0010
1010
0100
,
0000
0000
0011
0000
0100
0000
1000
0001
1000
0000
0100
0000
0010
0000
0001
0000
,
0010
0100
1000
0000
0010
0000
0100
0000
1001
0000
0000
0000
0101
0000
0010
0000
,
1000
0000
1100
0000
0000
0000
0110
0000
0010
0000
0001
1000
0001
0000
0010
0000
,
0100
0000
1000
0001
0010
0001
1000
0001
0010
0000
0110
0000
0100
0000
0010
0000
,
0011
0100
0000
1010
0100
0000
0101
0001
,
1000
0000
1010
0000
0000
0000
0100
0001
1000
0000
0000
0000
0001
0000
1000
0000
,
0001
0000
1000
0001
0010
0001
1000
0001
0010
0000
0100
0000
0010
0000
0000
0000
,
0011
0001
0100
0110
0000
0001
0101
1000
,
0000
0000
1010
0000
0100
0001
0100
0001
0100
0000
0000
0000
0000
0000
0110
0000
,
0000
0000
0000
0000
1001
0000
0000
0011
0000
0000
1100
0000
1000
0000
0010
0100
,
0001
1000
0001
0011
1000
0000
0010
0100
,
0001
0000
1000
0000
0010
0000
1000
0000
0001
0000
0100
0000
0001
0000
1000
0010
,
1000
0010
0100
0010
1000
0000
0100
0000
0010
0000
0001
0000
0100
0000
0010
0000
,
1000
0001
1000
0000
0010
0000
0110
0000
0000
0000
0000
0000
1001
0000
0010
0000
,
0000
1001
0010
0000
0220
0000
0330
0001
,
0000
0000
1001
0000
1000
0000
0010
0000
0100
0001
0100
0001
1000
0100
0010
0000
,
0000
0000
0101
0000
0010
0000
0001
0100
0001
0000
0000
0000
1010
0000
1000
0000
,
0100
0010
0100
0000
1000
0000
0101
0000
0001
0000
0100
0010
0100
0000
0001
0000
,
1100
0000
1000
0000
0010
0000
1000
0001
0010
0000
0000
0000
0110
0000
1000
0000
,
0001
0100
0001
0000
0000
0000
0101
0000
0010
0000
0010
0000
1000
0000
0001
0100
,
0001
0100
0001
0000
1000
0000
1010
0000
0010
0000
0100
0000
0001
0000
1000
0100
,
0010
0110
0000
1001
0000
0000
0000
0110
,
0000
0000
1001
0000
0100
0000
0010
0001
0010
0000
0100
1000
0100
0000
1000
0000
,
0000
0000
0001
0100
0001
0100
0010
0000
0110
0000
0000
0000
0000
0000
1001
0000
,
0000
0000
0000
0000
1000
0100
1000
0100
0010
0000
0000
0011
0000
0000
1001
0000
,
0000
1100
0000
0000
0110
0000
0000
0000
0000
0000
0000
0000
0000
0000
0000
0000
,
0011
0000
0010
0000
0001
0000
0100
0000
0010
0000
1000
0001
1000
0001
1000
0000
,
0010
0000
0110
0000
0110
0000
0000
0000
1000
0100
0010
0000
0000
0000
0011
0000
,
0001
0100
0110
0010
0100
1010
0000
1001
,
0000
0001
0011
0100
1000
1010
0000
1001
,
1010
0010
1000
0100
0010
0001
0110
0110
,
0110
0000
0000
0000
1000
0000
1001
0000
0000
0000
0011
0000
0001
0100
0010
0000
,
0000
1000
0100
1100
0010
0001
0100
0010
,
1010
0000
0100
0001
0100
0000
0110
0000
0000
0000
0010
0000
1001
0000
0001
0100
,
0001
0100
0010
0000
0110
0000
0110
0000
0000
0000
0000
0000
0001
0000
1001
0000
,
1001
0000
0100
0010
0100
0000
0110
0000
0000
0000
0010
0000
1010
0000
0000
0000
,
1000
0000
1001
0000
0010
0000
1000
0000
0100
0010
0100
0000
1000
0000
0001
0000
,
0100
0010
0100
0000
0001
0000
1100
0000
0000
0000
0011
0000
1001
0000
0100
0000
,
0010
0000
0010
0000
1000
0000
0100
0000
0001
0000
0100
0000
1000
0000
0010
0100
,
0010
0110
0000
0100
0101
0000
0001
1001
,
0000
1000
1100
0010
0001
0100
1000
0100
,
0001
0010
0100
1001
0000
0000
0000
0000
,
0000
0000
0000
0000
,
0000
0000
0000
0000
,
0000
0000
0000
0000
,
0000
0000
0000
0000
0011
0001
0100
0010
,
1000
0000
0100
0010
0100
0000
0000
0000
0010
0000
0110
0000
1001
0000
0000
0000
,
1000
0110
0000
0101
0010
0010
1000
0100
,
0001
0000
0100
0000
1000
0001
0010
0000
0000
0000
0100
0000
1001
0000
0001
0000
,
0000
0000
1010
0000
0000
0000
0101
0000
0000
0000
0000
0000
0011
0000
0000
1100
,
0000
0000
0000
0000
0000
1010
0000
0000
0000
0000
0000
0000
0101
0000
0000
0000
0010
0000
0000
0000
1000
0000
0000
0000
0100
0000
0000
0000
0010
0000
0001
0000
,
0010
0110
0000
1000
0001
0100
1000
0001
,
0010
0000
1000
0000
0100
0010
0100
0000
1000
0000
0010
0000
0001
0000
1000
0000
,
0100
0000
0101
0000
0000
0000
0010
0000
1001
0000
0001
0000
0100
0000
0010
1000
,
0010
0000
0100
0000
0001
1000
0001
0000
0010
0000
0110
0000
1001
0000
0000
0000
,
1000
0100
0010
0000
0000
0000
0011
0000
0001
0000
1000
0000
0100
0000
1000
0000
,
0001
0000
0101
0000
0000
0000
1000
0000
0010
0000
1000
0000
0001
0000
0100
0010
,
0100
0000
0110
0000
0000
0000
1000
0000
0000
1010
0000
0000
0101
0000
0000
0110
,
0000
0000
1001
0000
0000
0011
0000
0000
0100
0000
1000
0000
1010
0000
0000
0000
,
0010
0000
0100
0000
0001
0000
1000
0100
0010
0000
0001
0000
0101
0000
0100
0000
,
0010
0000
1010
0000
0000
0000
1000
0001
1000
0000
0100
0000
0110
0000
0000
0000
,
0001
0101
0000
1010
0000
0000
0001
0010
,
0010
0000
0001
0100
0010
0000
0010
0000
0000
0000
1000
0000
0100
0000
0010
0000
,
0010
0000
0001
0100
0010
0000
1010
0000
0000
0000
0001
0000
0110
0000
0000
0000
,
1001
0000
1000
0100
0010
0001
0100
0010
,
1000
0000
0001
0010
0100
0000
0110
0000
0000
0000
1001
0000
1000
0000
0010
0000
,
0010
0000
1000
0100
0010
0000
0010
0000
0000
0000
0001
0000
0100
0000
0010
0000
,
0010
0000
1000
0100
0010
0000
0001
0000
1001
0000
0100
0010
0100
0000
0010
1000
,
0010
0000
1000
0001
1000
0000
0001
0100
0010
0000
1000
0100
0010
0000
0001
1000
,
0100
1000
0001
0100
0010
1000
0100
0010
0001
0000
0000
0000
0000
0000
0000
0000
;

//---------------dance-double - ----------------
#NOTES:
     dance-double:
     :
     Hard:
     9:
     0.561919,0.579352,0.165868,0.031594,0.027645,498.000000,477.000000,21.000000,4.000000,0.000000,0.000000,0.561919,0.579352,0.165868,0.031594,0.027645,498.000000,477.000000,21.000000,4.000000,0.000000,0.000000:
00000000
00000000
00000000
00000000
,
00000000
00000000
00000000
00000000
,
00000000
00000000
00000000
00000000
,
00000000
00000000
00000000
00000000
,
00000000
00000000
00000000
00000000
,
00000000
00000000
00000000
00000000
00010000
00000000
00001000
00010000
,
00000000
00000100
00001000
00000001
00000010
00000000
00001001
00000000
,
00000100
00010000
00001000
01000000
00010000
00000000
10000000
01000000
,
00000000
01000000
00010000
00000000
00011000
00000000
00001000
00010000
,
00000000
01000000
00100000
00000000
00001000
00000000
00010000
00001000
,
00000000
01000000
00010000
10000000
00100000
00000000
10010000
00000000
,
01000000
00001000
00010000
00000100
00001000
00000000
00000001
00000100
,
00000000
00000100
00001000
00000000
00011000
00000000
00010000
00001000
,
00000100
00000001
00001000
00000100
00010000
00001000
00100000
00000000
,
00010000
10000000
01000000
00100000
00010000
00000000
10000000
00100000
,
00010000
00001000
00000100
00000001
00001000
00000000
00000001
00000100
,
00000000
00000100
00001000
00010000
00011000
00000000
00010000
01000000
,
00000000
01000000
10000000
00100000
00010000
00000000
00001000
00010000
,
01000000
10000000
00010000
01000000
00001000
00010000
00000010
00000000
,
00001000
00000001
00000100
00000010
00001000
00000000
00000001
00000010
,
00000000
00001000
00010000
00001000
00000100
00000000
00000000
00000101
,
00000000
00000000
00001001
00000000
00000001
00000100
00001000
00010000
,
01000000
10000000
00010000
00000000
10000000
01000000
00010000
00001000
,
00000100
00000001
00001000
00000000
00000001
00000010
00001000
00010000
,
00100000
10000000
00010000
00000000
10000000
00100000
00010000
00001000
,
00000010
00000001
00001000
00000010
00000100
00000000
00000001
00000100
,
00000000
00000100
00001000
00000000
00022000
00033000
00000000
01001000
,
00000000
01000000
00010000
10000000
00100000
00010000
00001000
00000010
,
00000000
00000100
00001000
00000010
00000000
00000100
00000001
00000010
,
00001000
00010000
00100000
10000000
00010000
01000000
00100000
10000000
,
00010000
00100000
01000000
10000000
00010000
00000000
10000000
01000000
,
00100000
00001000
00010000
00000100
00000010
00000001
00001000
00000010
,
00010000
00001000
00000100
00000001
00000100
00001000
00010000
01000000
,
10000000
00100000
10000000
01000000
00000000
00000000
10010000
00000000
,
00000000
10000000
01000000
00100000
00001000
00000000
00010000
00000100
,
00000010
00000001
00000100
00000010
00001010
00000000
00000000
00011000
,
00000000
00000000
00000000
00000000
01010000
00000000
00000000
00000000
00100000
00000000
00000000
10000000
00000000
00000000
01000000
00000000
,
00000000
00100000
00000000
00000000
00010000
00000000
00000000
00000000
00000000
00000000
00000000
00000000
00000000
00000000
00000000
00000000
,
10000000
00100000
00010000
00001000
00010000
01000000
00010000
00001000
,
00000100
00001000
00010000
00001000
00000010
00000001
00000000
00001000
,
00000001
00000100
00001000
00000000
00010000
01000000
10000000
00010000
,
10000000
00000000
00000000
00000000
00000000
00000000
00000000
00000000
00100000
00000000
00000000
00000000
00000000
00000000
00000000
00000000
01000000
00000000
00000000
00000000
00000000
00000000
00000000
00000000
00001000
00000000
00000000
00000000
00000000
00000000
00000000
00000000
00010000
00000000
00000000
00000000
00000000
00000000
00000000
00000000
00000100
00000000
00000000
00000000
00000000
00000000
00000000
00000000
00000010
00000000
00000000
00000000
00000000
00000000
00000000
00000000
00000022
00000033
00000000
00000000
00000000
00000000
00000000
00000000
,
00000001
00000100
00001000
00010000
00001000
00000010
00001000
00010000
,
00100000
00010000
00001000
00010000
01000000
10000000
00100000
10000000
,
00010000
00100000
10000000
00100000
00010000
01000000
00001000
00010000
,
00000010
00001000
00000100
00000001
00000100
00001000
00000010
00000100
,
00000001
00000010
00001000
00010000
00001000
00000100
00000010
00001000
,
00000010
00010000
00001000
00100000
00010000
01000000
10000000
01000000
,
00100000
00010000
00001000
00000100
00000001
00000010
00000001
00000100
,
00001000
00010000
01000000
10000000
00010000
10010000
10000000
01000000
,
00100000
00001000
00010000
01000000
00100000
00001000
00010000
00001000
,
00000010
00000001
00001000
00000001
00000100
00001000
00010000
00001000
,
00000010
00000100
00010000
00001000
00100000
01000000
00010000
00001000
,
01000000
00100000
10000000
01000000
00000000
00000000
00000000
00000000
,
00000000
00000000
00000000
00000000
,
00000000
00000000
00000000
00000000
,
00000000
00000000
00000000
00000000
,
00000000
00000000
00000000
00000000
00010000
00001000
00000100
00000000
,
00001000
00010000
00000000
00001000
00000010
00000001
00000010
00000000
,
00000100
00010000
00000000
00011000
00001000
00010000
01000000
00000000
,
00010000
00001000
00000000
00010000
00100000
10000000
00100000
00000000
,
10000000
00000000
01000000
00000000
00010000
00000000
00001000
00000000
00000000
00000000
00000000
00000000
00000100
00000000
00000000
00000001
,
00000000
00000000
00000000
00000010
00000000
00000000
00000100
00000000
00001000
00000000
00000100
00000000
00000010
00000000
00000000
00000000
,
00001000
00010000
00001000
00100000
00010000
10000000
01000000
00000000
,
00010000
00001000
00010000
00000010
00001000
00000001
00000100
00000000
,
00001000
00010000
01000000
10000000
00010000
10000000
00100000
00000000
,
01000000
00010000
00000000
00100000
00001000
00010000
00000100
00000000
,
00000010
00000001
00000000
00001001
00001000
00000001
00000010
00000000
,
00000100
00001000
00000000
00000010
00010000
00000000
00001000
00000000
,
00010000
00000000
00000000
00000000
01000000
00000000
00000000
00000000
10000000
00000000
00000000
10010000
00000000
00000000
00000000
00110000
,
00000000
00000000
10000000
00000000
00000000
01000000
00000000
00000000
00010000
00000000
00001000
00000000
00010000
00000000
00000000
00000000
,
00000100
00000010
00000000
00000001
00000100
00000010
00010000
00000000
,
00001000
00000100
00000000
00001000
00010000
00100000
10000000
00000000
,
00010000
10000000
00000000
10010000
00000000
00000000
10000000
01000000
,
00100000
01000000
10000000
01000000
00010000
00001000
00010000
00100000
,
00010000
00001000
00010000
00000100
00010000
00001000
00000010
00001000
,
00010000
00001000
00000100
00000001
00000100
00001000
00010000
00001000
,
00000010
00000001
00000010
00000100
00000010
00001000
00010000
01000000
,
10000000
01000000
00100000
01000000
00010000
00001000
00100000
00001000
,
00010000
00001000
01000000
00001000
00010000
00000010
00010000
00001000
,
00010000
00000100
00000010
00000001
00000100
00001000
00010000
01000000
,
10000000
00100000
00010000
00000000
00011000
00000000
00000000
00000000
;

//---------------dance-double - ----------------
#NOTES:
     dance-double:
     :
     Medium:
     7:
     0.423132,0.482793,0.244852,0.000000,0.027645,375.000000,344.000000,31.000000,0.000000,0.000000,0.000000,0.423132,0.482793,0.244852,0.000000,0.027645,375.000000,344.000000,31.000000,0.000000,0.000000,0.000000:
00000000
00000000
00000000
00000000
,
00000000
00000000
00000000
00000000
,
00000000
00000000
00000000
00000000
,
00000000
00000000
00000000
00000000
,
00000000
00000000
00000000
00000000
,
00000000
00000000
00010000
10000000
,
01000000
00100000
01000000
00000000
00010000
00000000
00001000
00000000
,
00000100
00000000
00000001
00000010
00000000
00000000
00000110
00000000
,
00000000
00010100
00000000
00000000
00000000
00000000
00001010
00000000
,
00000000
00010010
00000000
00000000
00001000
00000000
00000001
00000000
,
00000100
00000010
00000100
00000000
00001000
00000000
00010000
00000000
,
01000000
00000000
10000000
00100000
00000000
00000000
01100000
00000000
,
00000000
01001000
00000000
00000000
00010000
00000000
00100000
01000000
,
10000000
01000000
00010000
00000000
00001000
00000100
00000001
00000000
,
00000010
00000001
00000010
00000001
00001000
00000000
00000100
00000000
,
00010000
00001000
00010000
00001000
00000000
00000000
01001000
00000000
,
00000000
10010000
00000000
00000000
00000000
00000000
10100000
00000000
,
00000000
01010000
00000000
00000000
00001000
00000000
00000010
00000100
,
00000001
00000100
00001000
00000000
00010000
01000000
10000000
00000000
,
00100000
10000000
00100000
10000000
00000000
00000000
01001000
00000000
,
00000000
00010000
00001000
00000010
00000001
00000000
00000000
00001001
,
00000000
00000000
00000001
00000000
00000100
00000000
00000010
00001000
,
00000010
00010000
00001000
00000000
00011000
00000000
00100000
01000000
,
10000000
00000000
10000000
01000000
00010000
00000000
01000000
00000000
,
00100000
00000000
00001000
00010000
00001000
00000000
00000100
00000000
,
00000001
00000010
00000001
00000010
00000000
00000000
00001001
00000000
,
00000000
00010100
00000000
00000000
00001000
00000000
00000000
01001000
,
00000000
01000000
00010000
00000000
10000000
01000000
00100000
00010000
,
10000000
01000000
00010000
00000000
00011000
00000000
00000010
00000100
,
00000010
00000100
00000001
00000000
00001000
00000100
00010000
00000000
,
00001000
00000000
00000100
00000000
00000001
00000010
00000100
00000000
,
00010000
00000000
00001000
00100000
00010000
00000000
10000000
01000000
,
00100000
00010000
10000000
01000000
00010000
00000000
00011000
00000000
,
00000010
00000100
00000010
00000100
00000000
00000000
00001001
00000000
,
00000000
00000001
00000010
00000100
00001000
00000000
00000100
00010000
,
00001000
00000000
00100000
00000000
10010000
00000000
00000000
11000000
,
00000000
00000000
00000000
00000000
01010000
00000000
00000000
00000000
00001000
00000000
00000000
00010000
00000000
00000000
00001000
00000000
,
00000000
00010000
00000000
00000000
00011000
00000000
00000000
00000000
00000000
00000000
00000000
00000000
00000000
00000000
00000000
00000000
,
00000100
00000000
00000001
00000000
00001000
00000100
00000010
00000000
,
00000001
00000100
00000010
00000000
00010000
00000000
00001000
00000000
,
00100000
00000000
00010000
00000000
10000000
01000000
00010000
01000000
,
10000000
00000000
00010000
00000000
00100000
00001000
00000000
00011000
,
00000000
00000000
01000000
10000000
01000000
00000000
00100000
00010000
,
00100000
00000000
00000000
00101000
00000000
00000000
00010100
00000000
,
00000010
00000000
00000001
00001000
00000001
00000000
00000100
00000000
,
00001000
00000000
00010000
00001000
00000000
01000000
00010000
00000000
,
10000000
00000000
00100000
01000000
00010000
00000000
00000000
00100000
,
00001000
00010000
00000000
00011000
00000000
00000000
00001100
00000000
,
00000000
00000110
00000000
00000001
00000000
00001000
00000000
00000000
,
00000010
00000000
00000100
00001000
00000000
00011000
00000000
00000000
,
01000000
01000000
00000000
00000000
00000000
00000000
10000000
00000000
,
01000000
00010000
00000000
00010000
00001000
00000000
00000100
00000000
,
00000010
00000010
00000000
00000000
00000000
00000000
00001000
00000000
,
00000010
00000100
00000001
00000010
00000000
00000000
00000000
00000000
,
00000000
00000000
00000000
00000000
,
00000000
00000000
00000000
00000000
,
00000000
00000000
00000000
00000000
,
00000000
00000000
00000100
00000001
,
00000010
00000100
00000010
00000000
00001000
00000000
00010000
00000000
,
00100000
10000000
00000000
10000000
01000000
00000000
10000000
00000000
,
00100000
01000000
00100000
00000000
00010000
00000000
00001000
00000000
,
00000100
00000000
00000001
00000000
00000100
00000000
00000001
00000000
00000000
00000000
00000000
00000000
00000010
00000000
00000000
00000010
,
00000000
00000000
00000000
00000001
00000000
00000000
00000100
00000000
00000010
00000000
00001000
00000000
00000010
00000000
00000000
00000000
,
00010000
00001000
00010000
00000000
00001000
00000000
00100000
00000000
,
00010000
01000000
00010000
00000000
10000000
00000000
01000000
00000000
,
00010000
00001000
00000000
00001000
00000010
00000000
00000001
00000000
,
00000100
00000010
00000100
00000000
00001000
00000000
00010000
00000000
,
01000000
10000000
00000000
10000000
00100000
00000000
10000000
00000000
,
01000000
00100000
01000000
00000000
00010000
00000000
00001000
00000000
,
00000010
00000000
00000001
00000000
00000010
00000000
00000001
00000000
00001000
00000000
00000000
00001000
00000000
00000000
00000000
00000100
,
00000000
00000000
00010000
00000000
00000000
00001000
00000000
00000000
00100000
00000000
00010000
00000000
00100000
00000000
00000000
00000000
,
01000000
10000000
00000000
00000000
01000000
00000000
00010000
00000000
,
00001000
00000000
00000100
00000000
00000010
00001000
00000010
00000000
,
00000100
00000001
00000000
00001000
00000000
00000000
00000001
00000000
,
00000010
00000000
00001000
00010000
00001000
00000000
01000000
00010000
,
00010000
00000000
10000000
01000000
00000000
00010000
00001000
00000000
,
00010000
00000000
00100000
10000000
01000000
00000000
00010000
00000000
,
00001000
00000000
00000010
00000001
00000100
00000010
00000000
00000000
,
00001000
00001000
00000000
00000000
00000100
00000000
00010000
00000000
,
00001000
00100000
00000000
01000000
10000000
00100000
00010000
00000000
,
00001000
00000010
00000001
00000000
00000100
00000000
00001000
00000000
,
00010000
01000000
10010000
00000000
;

//---------------dance-double - ----------------
#NOTES:
     dance-double:
     :
     Easy:
     5:
     0.301270,0.354048,0.118477,0.094781,0.000000,267.000000,252.000000,15.000000,12.000000,0.000000,0.000000,0.301270,0.354048,0.118477,0.094781,0.000000,267.000000,252.000000,15.000000,12.000000,0.000000,0.000000:
00000000
00000000
00000000
00000000
,
00000000
00000000
00000000
00000000
,
00000000
00000000
00000000
00000000
,
00000000
00000000
00000000
00000000
,
00000000
00000000
00000000
00000000
,
00000000
00000000
00000001
00001000
,
00000010
00010000
00001000
01000000
,
00010000
00100000
01100000
10000000
,
00000000
10000000
00000000
00000000
01100000
00000000
00010000
00000000
,
00000000
00010000
00000000
00000000
10000000
00000000
00010000
00000000
,
00100000
00001000
00010000
00000100
,
00001000
00000010
00000110
00000001
,
00000000
00000001
00000000
00000000
00000110
00000000
00001000
00000000
,
00000001
00000100
00001000
00000100
,
00000010
00001000
00010000
01000000
,
00100000
10000000
00000000
00010000
,
00000000
01010000
00000000
00000000
00000000
00000000
10000000
00000000
,
00000000
11000000
00000000
00000000
00000000
00000000
01000000
00000000
,
00100000
00010000
00001000
00000100
,
00000010
00000001
00000000
00001000
,
00000000
00001100
00000000
00000000
00000001
00000000
00000000
00000101
,
00000000
00000000
00000001
00001000
,
00000100
00001000
00000001
00000010
,
00001000
00010000
00000100
00010000
,
00001000
01000000
00010000
10000000
,
00100000
10000000
00000000
00010000
,
00000000
00010000
00000000
00000000
01100000
00000000
00000000
00010000
,
00000000
10000000
00010000
00000000
01000000
00000000
00100000
00000000
,
00000000
10000000
00000000
00000000
01000000
00000000
00010000
00000000
,
00001000
00000100
00000001
00000010
,
00000001
00001000
00000010
00010000
,
00001000
00100000
00010000
10000000
,
00100000
10000000
00010000
01000000
,
00100000
00000000
10000000
00000000
00000000
00000000
00000000
10010000
,
00000000
10000000
00000000
01000000
00000000
00010000
00000000
00001000
,
00000000
00000100
00000000
00000000
00000110
00000000
00000000
00001001
,
00000000
00000001
00000100
00001000
,
00010000
01000000
00000000
00000000
,
00100000
01000000
00100000
10000000
,
00010000
00100000
01000000
00010000
,
00001000
00000100
00000010
00001000
,
00000001
00000100
00000010
00000000
,
00010000
00001000
00010000
00000100
,
00001000
00000001
00000010
00001000
,
00010000
00100000
10000000
00010000
,
01000000
00100000
00000000
10000000
,
01000000
00100000
00010000
01000000
,
00001000
00010000
00000100
00000010
,
00000001
00001000
00000100
00010000
,
00001000
00000000
01000000
00000000
00200000
00300000
10000000
00000000
,
00010000
10000000
01000000
00010000
,
00001000
00000100
00000001
00000010
,
00000001
00001000
00000001
00000010
,
00001000
00000000
00000000
00000000
,
00000000
00000000
00000000
00000000
,
00000000
00000000
00000000
00000000
,
00000000
00000000
00000000
00000000
,
00000000
00000000
00020000
01000000
,
00000000
00001000
00000000
00000000
01030000
00000000
00100000
00000000
,
10000000
00010000
00200000
00001000
,
00000000
00010000
00000000
00000000
00301000
00000000
00010000
00000000
,
00000010
00001000
00000000
00002002
,
00000000
00003003
00000001
00000010
,
00000100
00010000
00002000
00000100
,
00000000
00010000
00000000
00000000
00003100
00000000
00000010
00000000
,
00000001
00001000
00000020
00010000
,
00000000
00001000
00000000
00000000
00010030
00000000
00001000
00000000
,
00100000
00010000
20000000
00100000
,
00000000
00010000
00000000
00000000
31000000
00000000
00100000
00000000
,
00010000
20020000
00000000
00000000
,
00000000
30030000
10000000
00100000
,
01000000
00001000
00020000
01000000
,
00000000
00001000
00000000
00000000
01030000
00000000
00100000
00000000
,
10000000
00010000
00000000
10000000
,
00100000
00010000
00100000
10000000
,
01000000
00100000
00010000
00001000
,
00000100
00000001
00000100
00001000
,
00000010
00000000
00000100
00000000
00000002
00000003
00000001
00000000
,
00000010
00001000
00000010
00000001
,
00000100
00000010
00001000
00010000
,
01000000
10000000
01000000
00010000
,
00100000
01000000
10010000
00000000
;

//---------------dance-double - ----------------
#NOTES:
     dance-double:
     :
     Challenge:
     10:
     0.711990,0.869028,0.489704,0.015797,0.244852,631.000000,569.000000,62.000000,2.000000,0.000000,0.000000,0.711990,0.869028,0.489704,0.015797,0.244852,631.000000,569.000000,62.000000,2.000000,0.000000,0.000000:
// measure 0
00000000
00000000
00000000
00000000
,  // measure 1
00000000
00000000
00000000
00000000
,  // measure 2
00000000
00000000
00000000
00000000
,  // measure 3
00000000
00000000
00000000
00000000
,  // measure 4
00000000
00000000
00000000
00000000
,  // measure 5
00000000
00000000
00000000
00000000
00110000
01000000
10000000
01000000
,  // measure 6
00100000
00010000
00001000
00000000
00001010
00000100
00000001
00000010
,  // measure 7
00000100
00001000
00010000
00100000
01000000
10000000
10100000
01000000
,  // measure 8
00000000
00110000
01000000
00000000
00100000
00100000
11000000
00010000
,  // measure 9
00000000
00001000
00000110
00000001
00000010
00001000
00010000
00000100
,  // measure 10
00001000
00000000
00010000
00000000
00100000
00000000
10000000
00000000
00100000
00000000
00010000
00000000
01000000
00100000
10000000
00100000
,  // measure 11
10000000
01000000
00010000
00011000
00000000
00000100
00000101
00000010
,  // measure 12
00000000
00000000
00001100
00000000
00000010
00000000
00000001
00001000
00000001
00000000
00000100
00000000
00000010
00000000
00001000
00000100
,  // measure 13
00010000
00000000
01000000
00000000
00100000
00000000
00010000
01000000
00001000
00000000
00010000
00000000
00100000
00000000
10000000
00000000
,  // measure 14
01000000
00000000
00100000
00001000
00010000
00001000
00100000
00001000
00010000
00000000
00000100
00000000
00001000
00000001
00001000
00000000
,  // measure 15
00000001
00000010
00001000
00011000
00000000
01000000
11000000
00100000
,  // measure 16
00000000
00000000
01010000
00000000
00100000
00000000
10000000
00010000
10000000
00000000
01000000
00000000
00010000
00000000
00011000
00000000
,  // measure 17
00000000
00000000
00000100
00000000
00000110
00000000
00000001
00001000
00000100
00000000
00000000
00000000
00000011
00000000
00000100
00000000
,  // measure 18
00001000
00000000
00000010
00000000
00001000
00000000
00010000
00000000
01000000
00000000
00100000
00000000
10000000
00000000
01000000
00100000
,  // measure 19
01000000
10000000
00100000
00010000
00001000
00000100
00000001
00000011
,  // measure 20
00000000
00000000
00001000
00000000
00001100
00000000
00010000
00001000
00010000
00000000
00000000
00000000
00000000
00000000
01010000
00000000
,  // measure 21
00000000
00000000
00000000
00000000
11000000
00000000
00000000
00110000
00000000
00000000
10000000
00000000
01000000
00100000
01000000
00100000
,  // measure 22
00010000
00000000
00001000
00000000
00000100
00000000
00001000
00000000
00000010
00000000
00000100
00000000
00000001
00000000
00000010
00000001
,  // measure 23
00001000
00000001
00000010
00000000
00001000
00000000
00010000
00000000
00000100
00000000
00000010
00000000
00000100
00000000
00010000
00001000
,  // measure 24
01000000
00010000
01000000
00010000
10000000
00000000
01000000
00000000
00100000
00000000
00010000
00000000
00001000
00000000
00000100
00010000
,  // measure 25
00001000
00010000
00000100
00010000
00001000
00000000
00000010
00000000
00000001
00000000
00000000
00000000
00001010
00000000
00000100
00000000
,  // measure 26
00000000
00101000
00010000
00000000
20020000
00000000
30030000
01100000
,  // measure 27
00000000
00000000
10000000
00000000
01000000
00100000
01000000
00100000
01000000
00100000
01000000
00100000
01000000
00100000
01000000
00000000
,  // measure 28
00000000
00000000
10000000
00000000
01000000
00100000
01000000
00100000
00010000
00000000
00000000
00000000
00001000
00000000
00000100
00000010
,  // measure 29
00000100
00000010
00000100
00000000
00001000
00000000
00000001
00000000
00000010
00000100
00000010
00000100
00000010
00000000
00000001
00000000
,  // measure 30
00000100
00001000
00010000
00001000
00000010
00001000
00010000
00000100
,  // measure 31
00001000
00010000
00100000
01000000
10000000
00100000
00010000
00001000
,  // measure 32
00010000
01000000
00100000
10000000
00100000
00010000
00001000
00000100
,  // measure 33
00000001
00000100
00001000
00000010
00000100
00000000
00000000
00000101
,  // measure 34
00000000
00000000
00001000
00000000
00000100
00000010
00000100
00000010
00000001
00000000
00000000
00000000
00001100
00000000
00000010
00000000
,  // measure 35
00000000
00000000
00000001
00000100
00000001
00001000
00000100
00010000
00001000
00000000
00000000
00000000
00000000
00000000
00011000
00000000
,  // measure 36
00000000
00000000
00000000
00000000
00100000
10000000
00100000
10000000
01000000
00000000
00000000
01010000
00000000
00000000
00011000
00000000
,  // measure 37
00000000
00001100
00000000
00000000
00011000
00000000
00000000
00000000
00000000
00000000
00000000
00000000
00000000
00000000
00000000
00000000
,  // measure 38
00100000
10000000
01000000
00010000
00001000
00000100
00000001
00000010
,  // measure 39
00010000
00001000
00000100
00001000
00000010
00000110
00000000
00001000
,  // measure 40
00010000
01000000
10000000
00000000
00100000
10100000
10000000
01000000
,  // measure 41
00010000
00001000
00000110
00000000
00000001
00000010
00001000
00011000
,  // measure 42
00000010
00000001
00000100
00001000
00010000
01000000
10000000
00100000
,  // measure 43
00001000
00010000
01000000
00010000
00100000
01000000
10000000
01000000
,  // measure 44
00001000
00010000
00100000
00010000
00001000
00000100
00000010
00000001
,  // measure 45
00000100
00010000
00001000
00000010
00000100
00001000
00010000
01000000
,  // measure 46
10000000
00100000
01000000
00010000
00001000
00000010
00001000
00000100
,  // measure 47
00010000
00001000
00000010
00000011
00000000
00001000
00011000
00000000
,  // measure 48
10100000
10000000
01000000
01010000
00010000
00001000
00000100
00000001
,  // measure 49
00000011
00000100
00001000
00000010
00000000
00010010
00000000
00010000
,  // measure 50
00001000
00000010
00010000
00001000
00000010
00010000
00000100
00000001
,  // measure 51
00000100
00001000
00000010
00001000
00010000
01000000
00010000
00100000
,  // measure 52
01000000
10000000
10100000
00100000
01000000
00010000
00001000
00000010
,  // measure 53
00000100
00000001
00000010
00000110
00000000
00000000
00000000
00000000
,  // measure 54
00000000
00000000
00000000
00000000
,  // measure 55
00000000
00000000
00000000
00000000
,  // measure 56
00000000
00000000
00000000
00000000
,  // measure 57
00000000
00000000
00000000
00000000
00000001
00000100
00010000
00001000
,  // measure 58
00000010
00000001
00001000
00000100
00000001
00000010
00010000
01000000
,  // measure 59
10000000
01000000
00010000
00100000
00001000
00000010
00000001
00001000
,  // measure 60
00000100
00010000
01000000
10000000
00010000
00001000
00000100
00000001
,  // measure 61
00000100
00000000
00001000
00000000
00000010
00000000
00010010
00000000
00000000
00000000
00000000
00000000
01001000
00000000
00000000
01010000
,  // measure 62
00000000
10010000
00000000
10000000
00100000
01000000
00010000
00001000
,  // measure 63
00000010
00010000
00001000
00000100
00010000
00001000
00000010
00000001
,  // measure 64
00001000
00000100
00000001
00000010
00001000
00010000
00100000
10000000
,  // measure 65
00010000
10010000
00000000
00100000
01100000
10000000
01000000
00010000
,  // measure 66
00001000
00100000
01000000
00010000
00001000
00000010
00010000
00001000
,  // measure 67
00000100
00010000
00001000
00000010
00000001
00000100
00000010
00001000
,  // measure 68
00010000
01000000
00001000
00010000
00100000
00001000
00010000
01000000
,  // measure 69
01100000
00000000
00000000
00000000
00000000
00000000
00000000
00000000
10100000
00000000
00000000
00000000
10000000
00000000
00000000
00000000
10010000
00000000
00000000
00000000
00000000
00000000
00110000
00000000
00000000
00000000
00000000
00000000
00000000
00101000
00000000
00000000
,  // measure 70
00000000
00000000
00011000
00000000
00000000
00010100
00000000
00000000
00000010
00000000
00000001
00000000
00000100
00000000
00001000
00000000
,  // measure 71
01000000
00010000
00001000
00010000
00100000
01000000
10000000
00100000
,  // measure 72
00001000
00010000
01000000
00010000
00000010
00000100
00001000
00000010
,  // measure 73
00000001
00001000
00000100
00000001
00000000
00000000
00001100
00000010
,  // measure 74
00000010
00000000
00000001
00000100
00000010
00000000
00000010
00000000
00000000
00000000
00010000
00001000
00010000
00000000
00000100
00000000
,  // measure 75
00000100
00010000
00001000
00101000
00000000
01000000
01100000
00000000
,  // measure 76
10010000
00000000
10000000
01000000
00100000
00010000
01000000
00100000
,  // measure 77
10000000
00000000
00010000
00100000
01000000
00000000
01010000
00000000
00000000
00000000
00011000
00000000
01000000
00000000
00100000
00000000
,  // measure 78
00100000
00000000
10000000
01000000
00100000
00000000
00100000
00000000
00010000
00000000
00001000
00000000
00000100
00000000
00000010
00000000
,  // measure 79
00000001
00000000
00000100
00000000
00001000
00000000
00010000
00000000
00100000
00000000
10000000
00100000
10000000
00000000
00010000
00100000
,  // measure 80
00010000
00000000
10000000
01000000
10000000
00000000
00010000
01000000
00010000
00000000
00100000
00001000
00100000
00000000
00001000
00010000
,  // measure 81
00000100
00010000
00000100
00001000
00000001
00000100
00000010
00001000
00000001
00000000
00000000
00000000
00000000
00000000
00000000
00000000
;
