#TITLE:A.L.F. (Reconstructed By Accessory);
#SUBTITLE:;
#ARTIST:Terrorfakt;
#TITLETRANSLIT:;
#SUBTITLETRANSLIT:;
#ARTISTTRANSLIT:;
#GENRE:;
#CREDIT:;
#BANNER:A.L.F. (Reconstructed By Accessory).png;
#BACKGROUND:A.L.F. (Reconstructed By Accessory)-bg.png;
#LYRICSPATH:;
#CDTITLE:;
#MUSIC:A.L.F. (Reconstructed By Accessory).ogg;
#OFFSET:-0.002000;
#SAMPLESTART:24.002001;
#SAMPLELENGTH:15.999998;
#SELECTABLE:YES;
#BPMS:0.000000=120.000000
;
#STOPS:
;
#BGCHANGES:;
#KEYSOUNDS:;
#ATTACKS:;

//---------------dance-single - ----------------
#NOTES:
     dance-single:
     :
     Hard:
     9:
     0.617123,0.738349,0.037728,0.018864,0.872460,458.000000,454.000000,4.000000,2.000000,0.000000,0.000000,0.617123,0.738349,0.037728,0.018864,0.872460,458.000000,454.000000,4.000000,2.000000,0.000000,0.000000:
0000
0000
0000
0000
,
0000
0000
0000
0000
,
0000
0000
0000
0000
,
0000
0000
0000
0000
,
1000
0100
0000
0100
1000
0000
0000
0000
1000
0001
0000
0001
1000
0000
0000
0000
,
1000
0010
0000
0010
1000
0000
0000
0000
1000
0001
0000
0001
1000
0000
0000
0000
,
0001
0100
0000
0100
0001
0000
0000
0000
0001
1000
0000
1000
0001
0000
0000
0000
,
0001
0010
0000
0010
0001
0000
0000
0000
0001
1000
0000
1000
0001
0000
0000
0000
,
1000
0100
0000
0010
0001
0000
0000
0000
0000
0000
0001
0000
0100
0001
0000
0100
,
0010
1000
0000
0100
0010
0000
0000
0000
0000
0000
0001
0000
0010
0100
0000
1000
,
0010
0100
0000
0001
0010
0000
0000
0000
0000
0000
0001
0000
1000
0010
0000
0100
,
0001
0010
0000
0100
0010
0000
0000
0000
0000
0000
0001
0000
1000
0100
0000
0010
,
0001
0100
0001
0000
0100
0001
0000
0100
0000
0001
0100
0000
0001
0100
0000
0010
,
0000
1000
0100
0000
1000
0100
0000
0010
0000
0001
0100
0000
0001
0100
0000
0010
,
0000
1000
0001
0000
1000
0001
0000
0010
0000
0001
1000
0000
0001
1000
0000
0100
,
0000
1000
0010
0000
1000
0010
0000
0100
0000
0001
0010
0000
0001
0010
0000
0100
,
0000
1000
0010
0000
0100
0001
0000
0100
0000
0001
0010
0000
0100
1000
0000
0100
,
0000
1000
0010
0000
0100
0001
0000
0100
0000
0001
0010
0000
0100
1000
0000
0100
,
0000
0010
0001
0000
1000
0100
0000
0010
0000
0100
1000
0000
0001
0010
0000
0100
,
0000
0010
0001
0000
1000
0100
0000
0010
0000
0100
1000
0000
0001
0010
0000
0100
,
1000
0000
0000
1000
0010
0000
0000
0010
0100
0000
0001
0100
0000
0010
0100
0000
,
1000
0100
0000
0100
0001
0000
0000
0001
0100
0000
0100
0010
0000
0010
1000
0000
,
1001
0000
0000
1000
0001
0000
0000
0001
0010
0000
0100
0010
0000
1000
0010
0000
,
0100
0010
0000
0010
0001
0000
0000
0001
1000
0000
0001
0000
1000
0001
1000
0001
,
0010
0000
0000
0010
0001
0000
0000
0001
0010
0000
0100
1000
0000
0010
0100
0000
,
0001
0010
0000
0010
0001
0000
0000
0001
0100
0000
0100
0010
0000
0010
1000
0000
,
1001
0000
0000
1000
0100
0000
0000
0100
1000
0000
0010
0100
0000
0001
0010
0000
,
0100
1000
0000
1000
0010
0000
0000
0010
0100
0000
0001
0000
0010
0100
0010
0100
,
1000
0010
1000
0000
0100
0000
0010
0000
0001
0010
0001
0000
0010
0000
0100
0000
,
1000
0100
1000
0000
0100
0000
0010
0000
0001
0100
0001
0000
0010
0000
0100
0000
,
1000
0001
1000
0000
0100
0000
0010
0000
0001
1000
0001
0000
0100
0000
0010
0000
,
1000
0100
0010
0000
0001
0000
1000
0000
0001
0100
0010
0000
1000
0000
0100
0000
,
0010
0001
1000
0000
0001
0000
0100
0000
0010
1000
0001
0000
0010
0000
0001
0000
,
1000
0010
0100
0000
0001
0000
1000
0000
0001
0010
0100
0000
1000
0000
0001
0000
,
0010
0100
0001
0000
0100
0000
1000
0000
0010
0100
1000
0000
0100
0000
0001
0000
,
1000
0001
1000
0000
0100
0000
0010
0000
0001
1000
0001
1000
0100
0010
0100
0010
,
0001
0010
0001
0010
0001
0010
0001
0000
0010
0001
0010
0001
0010
0001
0010
0000
,
0100
0010
0100
0010
0100
0010
0100
0000
0010
0100
0010
0100
0010
0100
0010
0000
,
0100
1000
0100
1000
0100
1000
0001
0000
0100
0001
0100
0001
0100
0001
1000
0000
,
0010
1000
0010
1000
0010
1000
0001
0000
0010
0001
0010
0001
0010
0001
1000
0000
,
0001
0100
0010
0100
0001
0100
0010
0000
1000
0100
0010
0100
1000
0100
0010
0000
,
0001
0100
0010
0100
0001
0100
0010
0000
1000
0100
0010
0100
1000
0100
0010
0000
,
0001
0100
0010
0100
0001
0100
1000
0000
0100
1000
0100
0010
0100
1000
0100
0000
,
0100
0001
0010
0001
0100
0001
1000
0000
0100
1000
0010
1000
0100
1000
0001
0000
,
2001
0001
0001
0001
,
0001
0001
0001
0001
,
0010
0010
0010
0010
,
0010
0100
0100
3100
,
1002
1000
1000
1000
,
1000
1000
1000
1000
,
0010
0010
0010
0010
,
0100
0100
0100
0100
,
0103
0001
1000
0010
0000
0000
0000
0000
0000
0000
0000
0000
0000
0000
0000
0000
;

//---------------dance-single - ----------------
#NOTES:
     dance-single:
     :
     Medium:
     6:
     0.386712,0.416895,0.339552,0.037728,0.117900,287.000000,251.000000,36.000000,4.000000,0.000000,0.000000,0.386712,0.416895,0.339552,0.037728,0.117900,287.000000,251.000000,36.000000,4.000000,0.000000,0.000000:
0000
0000
0000
0000
,
0000
0000
0000
0000
,
0000
0000
0000
0000
,
0000
0000
0000
0000
,
1000
1100
0100
1100
,
1000
1100
0100
1100
,
0001
0101
0100
0101
,
0001
0101
0100
0101
,
1000
0000
1010
0000
0010
0000
1010
0010
,
1000
0000
1010
0000
0010
0000
1010
1000
,
0001
0000
0011
0000
0010
0000
0011
0010
,
0001
0000
0011
0000
0010
0000
0011
0001
,
1000
0001
0010
0000
0010
0001
1000
0000
,
1000
0001
0100
0000
0100
0001
1000
0000
,
1000
0100
0010
0000
0010
0100
1000
0000
,
0001
0100
0010
0000
0010
0100
0001
0000
,
1000
0100
0001
0000
0001
0100
1000
0000
,
1000
0010
0001
0000
0001
0010
1000
0000
,
1000
0100
1100
0000
0100
0010
0110
0000
,
0010
0001
0011
0000
0001
1000
1001
0000
,
1000
0000
0000
0000
0100
0000
0000
0000
1000
0000
0000
1000
0000
0000
1000
0000
,
0100
0000
0000
0000
0001
0000
0000
0000
0100
0000
0000
0100
0000
0000
0100
0000
,
1000
0000
0000
0000
0100
0000
0000
0000
1000
0000
0000
1000
0000
0000
1000
0000
,
0100
0000
0000
0000
0001
0000
0000
0000
0100
0000
0000
0100
0000
0000
0100
0000
,
1000
0000
0000
0000
0010
0000
0000
0000
0001
0000
0000
0001
0000
0000
0001
0000
,
0010
0000
0000
0000
1000
0000
0000
0000
0010
0000
0000
0010
0000
0000
0010
0000
,
1000
0000
0000
0000
0010
0000
0000
0000
0001
0000
0000
0001
0000
0000
0001
0000
,
0010
0000
0000
0000
1000
0000
0000
0000
0010
0000
0000
0010
0000
0000
0010
0000
,
1000
1100
1000
1001
,
0001
0101
0001
1001
,
1000
1010
1000
1001
,
0001
0011
0001
1001
,
1000
1010
1000
1001
,
0001
0110
1000
1001
,
1000
0101
0001
1001
,
1000
0000
0110
0000
0001
0100
0010
1000
,
0100
0010
0100
0010
0100
0010
0100
0010
,
0100
0010
0100
0010
0100
0010
0100
0010
,
0001
1000
0001
1000
0001
1000
0001
1000
,
0001
1000
0100
1000
0100
1000
0100
1000
,
0100
0010
0001
0010
0100
0010
0001
0010
,
0100
0010
0001
0010
0100
0010
0001
0010
,
0100
1000
0010
1000
0100
1000
0010
1000
,
0100
0001
0100
1000
0100
0001
0100
1000
,
1000
0000
0000
0100
0000
0000
1000
0000
0000
0001
0100
0001
0000
0000
0010
0000
,
0001
0000
0000
0100
0000
1000
0100
0000
0000
0000
0000
0000
0001
0000
0020
0000
,
0030
0000
0000
0100
0000
0000
0000
0000
0000
0000
1000
0000
0000
0000
0000
0000
0001
0000
0000
0000
0000
0000
0000
0000
0000
0000
0000
0000
1000
0000
0000
0000
0000
0000
0100
0000
0000
0000
0000
0010
0000
0000
0000
0000
0000
0000
0100
0000
,
0000
0000
0000
0000
0000
0000
0000
0000
0000
0000
0000
0000
0000
0000
0000
0000
1000
0000
0000
0000
0000
0000
0000
0000
0000
0000
0000
0000
0000
0000
0000
0000
0000
0000
0000
0000
0010
0000
0000
0000
0000
0000
0000
0000
0000
0000
0000
0000
0000
0000
0000
0000
0000
0000
0000
0000
0000
0000
0000
0000
0100
0000
0000
0000
0000
0000
0000
0000
0000
0000
0000
0000
0000
0000
0000
0000
0000
0000
0001
0000
0000
0000
0000
0000
0000
0000
0000
0000
0000
0000
0000
0000
0000
0000
0000
0000
1000
0000
0000
0000
0000
0000
0000
0000
0000
0000
0000
0000
0000
0000
0000
0000
0000
0000
0000
0000
0000
0000
0000
0000
0000
0000
0000
0000
0000
0000
0000
0000
0000
0000
0000
0000
1001
0000
0000
0000
0000
0000
0000
0000
0000
0000
0000
0000
0000
0000
0000
0000
0000
0000
0000
0000
0000
0000
0000
0000
0000
0000
0000
0000
0000
0000
0000
0000
0000
0000
0000
0000
0000
0000
0000
0000
0000
0000
0000
0000
0000
0000
0000
0000
0000
0000
0000
0000
0000
0000
0000
0000
0000
0000
0000
0000
,
2000
0000
0000
0000
,
0000
0000
0000
0000
,
3020
0000
0000
0000
,
0230
0000
0000
0000
,
0300
0000
0000
0000
;

//---------------dance-single - ----------------
#NOTES:
     dance-single:
     :
     Easy:
     4:
     0.246580,0.367848,0.160344,0.056592,0.000000,183.000000,166.000000,17.000000,6.000000,0.000000,0.000000,0.246580,0.367848,0.160344,0.056592,0.000000,183.000000,166.000000,17.000000,6.000000,0.000000,0.000000:
0000
0000
0000
0000
,
0000
0000
0000
0000
,
0000
0000
0000
0000
,
0000
0000
0000
0000
,
1000
1000
0100
0100
,
0010
0010
0001
0001
,
0100
0100
0010
0010
,
1000
1000
0001
0001
,
0010
0010
0100
1000
,
0001
0001
0100
0010
,
1000
1000
0100
0010
,
0001
0001
0100
1000
,
0100
0100
0001
0010
,
0001
0001
0010
1000
,
0010
1000
1000
0100
,
1000
0100
0100
0001
,
0100
0001
0001
0010
,
0001
0010
0010
1000
,
0010
1000
1000
0100
,
1000
0100
0100
0001
,
0100
0100
0100
0000
,
0001
1000
0100
0000
,
0010
0010
0010
0000
,
0001
1000
0010
0000
,
1000
0100
0001
0100
,
1000
0010
1000
0100
,
1000
0010
0001
0010
,
1000
0100
0010
0100
,
1000
1100
0100
1100
,
1000
1001
0001
1001
,
1000
1010
0010
1010
,
1000
1001
0001
1001
,
0001
0101
0100
0101
,
0001
1001
1000
1001
,
0001
0011
0010
0011
,
1001
0100
1001
1001
,
0001
0100
0001
0000
1000
0000
0100
0000
,
0010
0001
0010
0000
0001
0000
1000
0000
,
0010
1000
0001
0010
,
0100
1000
0001
1000
,
0100
1000
0100
0000
1000
0000
0010
0000
,
1000
0010
1000
0000
0001
0000
0100
0000
,
0010
1000
0001
0010
,
0100
1000
0001
0100
,
0002
0000
0000
0000
,
0000
0000
0000
0000
,
0023
0000
0000
0000
,
0000
0230
0000
0000
,
2300
0000
0000
0000
,
0000
0000
0000
0000
,
3020
0000
0000
0000
,
0230
0000
0000
0000
,
0300
0000
0000
0000
;

//---------------dance-single - ----------------
#NOTES:
     dance-single:
     :
     Beginner:
     2:
     0.133395,0.192413,0.028296,0.000000,0.000000,99.000000,96.000000,3.000000,0.000000,0.000000,0.000000,0.133395,0.192413,0.028296,0.000000,0.000000,99.000000,96.000000,3.000000,0.000000,0.000000,0.000000:
// measure 0
0000
0000
0000
0000
,  // measure 1
0000
0000
0000
0000
,  // measure 2
0000
0000
0000
0000
,  // measure 3
0000
0000
0000
0000
,  // measure 4
0000
1000
0000
0100
,  // measure 5
0000
0010
0000
0001
,  // measure 6
0000
0100
0000
0010
,  // measure 7
0000
1000
0000
0001
,  // measure 8
0000
1000
0000
0100
,  // measure 9
0000
0010
0000
0100
,  // measure 10
0000
1000
0000
0100
,  // measure 11
0000
0010
0000
1001
,  // measure 12
0000
0001
0000
0100
,  // measure 13
0000
0010
0000
0100
,  // measure 14
0000
0001
0000
0010
,  // measure 15
0000
0100
0000
1001
,  // measure 16
0000
1000
0000
0010
,  // measure 17
0000
0100
0000
0001
,  // measure 18
0000
0001
0000
0010
,  // measure 19
0000
0100
0000
1001
,  // measure 20
0001
0001
0001
0000
,  // measure 21
0100
0100
0100
0000
,  // measure 22
0010
0010
0010
0000
,  // measure 23
1000
1000
1000
0000
,  // measure 24
1000
1000
1000
0000
,  // measure 25
0100
0100
0100
0000
,  // measure 26
0010
0010
0010
0000
,  // measure 27
0001
0001
0001
0000
,  // measure 28
0001
0001
0000
1000
,  // measure 29
0000
0100
0000
0010
,  // measure 30
0000
0001
0000
0100
,  // measure 31
0000
0010
0000
1000
,  // measure 32
0000
0100
0000
0010
,  // measure 33
0000
0001
0000
0100
,  // measure 34
0000
0010
0000
1000
,  // measure 35
0000
0100
0000
1000
,  // measure 36
1000
1000
0000
1000
,  // measure 37
0000
1000
0000
1000
,  // measure 38
0000
0010
0000
0010
,  // measure 39
0000
0100
0000
0100
,  // measure 40
0000
0001
0000
0001
,  // measure 41
0000
0001
0000
0001
,  // measure 42
0000
0010
0000
0010
,  // measure 43
0000
0100
0000
0100
,  // measure 44
1000
0000
0000
0000
,  // measure 45
0000
0000
0000
0000
,  // measure 46
0010
0000
0000
0000
,  // measure 47
0000
0100
0000
0000
,  // measure 48
0001
0000
0000
0000
,  // measure 49
0000
0000
0000
0000
,  // measure 50
0010
0000
0000
0000
,  // measure 51
0100
0000
0000
0000
;

//---------------dance-double - ----------------
#NOTES:
     dance-double:
     :
     Hard:
     8:
     0.547056,0.590679,0.018864,0.018864,0.646092,406.000000,404.000000,2.000000,2.000000,0.000000,0.000000,0.547056,0.590679,0.018864,0.018864,0.646092,406.000000,404.000000,2.000000,2.000000,0.000000,0.000000:
00000000
00000000
00000000
00000000
,
00000000
00000000
00000000
00000000
,
00000000
00000000
00000000
00000000
,
00000000
00000000
00000000
00000000
,
00001000
00010000
00000000
00010000
00001000
00000000
00000000
00000000
00010000
00001000
00000000
00001000
00010000
00000000
00000000
00000000
,
00010000
00000100
00000000
00000100
00010000
00000000
00000000
00000000
00000100
00010000
00000000
00010000
00000100
00000000
00000000
00000000
,
00000100
00000010
00000000
00000010
00000100
00000000
00000000
00000000
00000010
00000100
00000000
00000100
00000010
00000000
00000000
00000000
,
00000010
00000001
00000000
00000001
00000010
00000000
00000000
00000000
00000001
00000010
00000000
00000010
00000001
00000000
00000000
00000000
,
00000001
00000100
00000000
00000100
00000001
00000000
00000000
00000000
00000000
00000000
00000001
00000000
00001000
00000100
00000000
00010000
,
00001000
00100000
00000000
00100000
00010000
00000000
00000000
00000000
00000000
00000000
00010000
00000000
10000000
01000000
00000000
00100000
,
00001000
00010000
00000000
00010000
00001000
00000000
00000000
00000000
00000000
00000000
00010000
00000000
00000100
00001000
00000000
00000010
,
00000100
00000001
00000000
00000001
00000010
00000000
00000000
00000000
00000000
00000000
00000010
00000000
00000100
00010000
00000000
00001000
,
00000000
00100000
00010000
00000000
00100000
00010000
00000000
01000000
00000000
00010000
01000000
00000000
00010000
01000000
00000000
00100000
,
00000000
10000000
01000000
00000000
10000000
01000000
00000000
10000000
00000000
00100000
10000000
00000000
00100000
10000000
00000000
01000000
,
00000000
00010000
00001000
00000000
00010000
00001000
00000000
00000100
00000000
00000001
00000010
00000000
00000001
00000010
00000000
00000100
,
00000000
00001000
00000010
00000000
00001000
00000010
00000000
00000100
00000000
00000001
00000100
00000000
00000001
00000100
00000000
00001000
,
00000000
00000100
00001000
00000000
00000100
00001000
00000000
00000100
00000000
00000001
00000100
00000000
00000001
00000100
00000000
00000001
,
00000000
00001000
00000001
00000000
00001000
00000001
00000000
00001000
00000000
00000001
00001000
00000000
00000001
00001000
00000000
00000100
,
00000000
00010000
00001000
00000000
00010000
00001000
00000000
00010000
00000000
00001000
00010000
00000000
00001000
00010000
00000000
00001000
,
00000000
00100000
00010000
00000000
00100000
00010000
00000000
10000000
00000000
00010000
10000000
00000000
00010000
10000000
00000000
10000000
,
00100000
00000000
00000000
00100000
01000000
00000000
00000000
01000000
00001000
00000000
00000100
00001000
00000000
00010000
00001000
00000000
,
00010000
00000010
00000000
00010000
00001000
00000000
00000000
00001000
00000100
00000000
00000001
00000100
00000000
00001000
00000100
00000000
,
00000010
00000000
00000000
00000010
00010000
00000000
00000000
00010000
00001000
00000000
00010000
01000000
00000000
00010000
00001000
00000000
,
00001000
00100000
00000000
00100000
00010000
00000000
00000000
00010000
01000000
00000000
10000000
01000000
00000000
00100000
01000000
00000000
,
00010000
00000000
00000000
00010000
10000000
00000000
00000000
10000000
01000000
00000000
00100000
01000000
00000000
10000000
01000000
00000000
,
00010000
01000000
00000000
01000000
00100000
00000000
00000000
00100000
00001000
00000000
00001000
00010000
00000000
00010000
00000010
00000000
,
00001000
00000000
00000000
00001000
00000001
00000000
00000000
00000001
00000010
00000000
00001000
00000010
00000000
00000100
00000010
00000000
,
00000001
00000100
00000000
00000100
00001000
00000000
00000000
00001000
00010000
00000000
00001000
00000000
00010000
00001000
00010000
00001000
,
00010000
00001000
00010000
00000000
00001000
00000000
00100000
00000000
00010000
00100000
00010000
00000000
10000000
00000000
00100000
00000000
,
10000000
00100000
10000000
00000000
00010000
00000000
01000000
00000000
00010000
01000000
00010000
00000000
01000000
00000000
00001000
00000000
,
00010000
00001000
00010000
00000000
00000100
00000000
00001000
00000000
00000100
00001000
00000100
00000000
00001000
00000000
00000010
00000000
,
00000100
00000001
00000100
00000000
00000001
00000000
00000010
00000000
00001000
00010000
00001000
00000000
00100000
00000000
00010000
00000000
,
10000000
01000000
00100000
00000000
00001000
00000000
00010000
00000000
00000100
00001000
00000010
00000000
00000100
00000000
00000001
00000000
,
00000010
00000100
00001000
00000000
00000100
00000000
00010000
00000000
00001000
00100000
00010000
00000000
10000000
00000000
00100000
00000000
,
10000000
00100000
01000000
00000000
00010000
00000000
00100000
00000000
00001000
00010000
00000100
00000000
00001000
00000000
00000001
00000000
,
00000010
00000100
00001000
00000000
00000100
00000000
00000010
00000000
00000001
00001000
00000001
00001000
00000100
00000010
00000100
00000010
,
00000100
00001000
00000001
00000100
00001000
00010000
00100000
10000000
,
01000000
00100000
01000000
10000000
00100000
01000000
00001000
00010000
,
00000010
00010000
00001000
00010000
01000000
00010000
00001000
00000100
,
00000001
00001000
00000001
00000010
00000100
00010000
00001000
00100000
,
00010000
01000000
10000000
01000000
00010000
10000000
00100000
01000000
,
00001000
00010000
00000100
00000010
00000001
00000100
00000001
00000010
,
00001000
00010000
00100000
10000000
01000000
00100000
01000000
00010000
,
01000000
10000000
00100000
01000000
00001000
00010000
00000100
00000010
,
00001002
00001000
00001000
00001000
,
00001000
00001000
00001000
00001000
,
00000010
00000010
00000010
00000010
,
00000103
00001000
00010000
01000000
,
20010000
00010000
00010000
00010000
,
00010000
00010000
00010000
00010000
,
00100000
00100000
00100000
00100000
,
31000000
00010000
00001000
00010000
,
00001000
00010000
00001000
00010000
00000000
00000000
00000000
00000000
00000000
00000000
00000000
00000000
00000000
00000000
00000000
00000000
;

//---------------dance-double - ----------------
#NOTES:
     dance-double:
     :
     Medium:
     6:
     0.402881,0.441418,0.311256,0.037728,0.117900,299.000000,266.000000,33.000000,4.000000,0.000000,0.000000,0.402881,0.441418,0.311256,0.037728,0.117900,299.000000,266.000000,33.000000,4.000000,0.000000,0.000000:
00000000
00000000
00000000
00000000
,
00000000
00000000
00000000
00000000
,
00000000
00000000
00000000
00000000
,
00000000
00000000
00000000
00000000
,
00010000
00011000
00001000
00011000
,
00001000
00101000
00100000
00101000
,
00100000
00110000
00010000
00110000
,
00010000
10010000
10000000
10010000
,
10000000
00000000
11000000
00000000
01000000
00000000
00100000
01000000
,
10010000
00000000
01010000
00000000
01000000
00000000
00001000
00010000
,
00011000
00000000
00011000
00000000
00010000
00000000
00000100
00000010
,
00001001
00000000
00001001
00000000
00001000
00000000
00000010
00010000
,
00011000
00000000
00011000
00000000
00001000
00010000
01000000
00000000
,
00010000
01000000
10000000
00000000
01000000
10000000
00100000
00000000
,
10000000
00100000
00010000
00000000
00100000
00010000
00001000
00000000
,
00010000
00001000
00000010
00000000
00001000
00000010
00000001
00000000
,
00000010
00000001
00000100
00000000
00000001
00000100
00001000
00000000
,
00000100
00001000
00010000
00000000
00001000
00010000
01000000
00000000
,
00010000
01000000
10000000
00000000
01000000
10000000
00100000
00000000
,
10000000
00100000
00010000
00000000
00010000
00001000
00000100
00001000
,
00010000
00000000
00000000
00000000
00000100
00000000
00000000
00000000
00001000
00000000
00000000
00000001
00000000
00000000
00001000
00000000
,
00000100
00000000
00000000
00000000
00010000
00000000
00000000
00000000
01000000
00000000
00000000
01000000
00000000
00000000
01000000
00000000
,
10000000
00000000
00000000
00000000
01000000
00000000
00000000
00000000
10000000
00000000
00000000
10000000
00000000
00000000
10000000
00000000
,
01000000
00000000
00000000
00000000
00010000
00000000
00000000
00000000
00000100
00000000
00000000
00000100
00000000
00000000
00000100
00000000
,
00001000
00000000
00000000
00000000
00000001
00000000
00000000
00000000
00001000
00000000
00000000
00000100
00000000
00000000
00010000
00000000
,
00001000
00000000
00000000
00000000
00100000
00000000
00000000
00000000
00010000
00000000
00000000
10000000
00000000
00000000
01000000
00000000
,
10000000
00000000
00000000
00000000
00010000
00000000
00000000
00000000
10000000
00000000
00000000
00100000
00000000
00000000
00010000
00000000
,
00001000
00000000
00000000
00000000
00010000
00000000
00000000
00000000
00001000
00000000
00000000
00000100
00000000
00000000
00000001
00000000
,
00001000
00000100
00001100
00000000
00000100
00010000
00011000
00000000
,
00010000
00001000
01001000
00000000
01000000
00010000
01010000
00000000
,
00010000
10000000
10010000
00000000
10000000
01000000
11000000
00000000
,
01000000
00100000
01100000
00000000
00100000
00001000
00011000
00000000
,
00010000
00000100
00001100
00000000
00001000
00000001
00001001
00000000
,
00000001
00000100
00000101
00000000
00000100
00001000
00001100
00000000
,
00000100
00001000
00011000
00000000
00001000
00010000
00011000
00000000
,
00010000
01000000
01010000
00000000
00010000
01000000
10000000
00010000
,
10000000
01000000
10000000
01000000
10000000
01000000
10000000
01000000
,
10000000
01000000
10000000
01000000
10000000
01000000
10000000
01000000
,
00100000
00010000
00100000
00010000
00100000
00010000
00100000
00010000
,
00100000
00010000
00001000
00000100
00001000
00000100
00001000
00000001
,
00000100
00000001
00000100
00000001
00000100
00000001
00000100
00000001
,
00000100
00000001
00000100
00000001
00000100
00000001
00000100
00000001
,
00000010
00001000
00000010
00001000
00000010
00001000
00000010
00001000
,
00000010
00001000
00010000
00001000
00010000
00001000
00010000
00001000
,
00010000
00000000
00000000
00001000
00000000
00000000
01000000
00000000
00000000
00010000
01000000
00010000
00000000
00000000
00100000
00000000
,
00010000
00000000
00000000
01000000
00000000
10000000
01000000
00000000
00000000
00000000
00000000
00000000
00010000
00000000
00200000
00000000
,
00000000
00000000
00000000
00301000
00000000
00000000
00000000
00000000
00000000
00000000
00010000
00000000
00000000
00000000
00000000
00000000
00000100
00000000
00000000
00000000
00000000
00000000
00000000
00000000
00000000
00000000
00000000
00000000
00001000
00000000
00000000
00000000
00000000
00000000
00000100
00000000
00000000
00000000
00000000
00000010
00000000
00000000
00000000
00000000
00000000
00000000
00000100
00000000
,
00000000
00000000
00000000
00000000
00000000
00000000
00000000
00000000
00000000
00000000
00000000
00000000
00000000
00000000
00000000
00000000
00001000
00000000
00000000
00000000
00000000
00000000
00000000
00000000
00000000
00000000
00000000
00000000
00000000
00000000
00000000
00000000
00000000
00000000
00000000
00000000
00000010
00000000
00000000
00000000
00000000
00000000
00000000
00000000
00000000
00000000
00000000
00000000
00000000
00000000
00000000
00000000
00000000
00000000
00000000
00000000
00000000
00000000
00000000
00000000
00000100
00000000
00000000
00000000
00000000
00000000
00000000
00000000
00000000
00000000
00000000
00000000
00000000
00000000
00000000
00000000
00000000
00000000
00000001
00000000
00000000
00000000
00000000
00000000
00000000
00000000
00000000
00000000
00000000
00000000
00000000
00000000
00000000
00000000
00000000
00000000
00001000
00000000
00000000
00000000
00000000
00000000
00000000
00000000
00000000
00000000
00000000
00000000
00000000
00000000
00000000
00000000
00000000
00000000
00000000
00000000
00000000
00000000
00000000
00000000
00000000
00000000
00000000
00000000
00000000
00000000
00000000
00000000
00000000
00000000
00000000
00000000
00001001
00000000
00000000
00000000
00000000
00000000
00000000
00000000
00000000
00000000
00000000
00000000
00000000
00000000
00000000
00000000
00000000
00000000
00000000
00000000
00000000
00000000
00000000
00000000
00000000
00000000
00000000
00000000
00000000
00000000
00000000
00000000
00000000
00000000
00000000
00000000
00000000
00000000
00000000
00000000
00000000
00000000
00000000
00000000
00000000
00000000
00000000
00000000
00000000
00000000
00000000
00000000
00000000
00000000
00000000
00000000
00000000
00000000
00000000
00000000
,
00000002
00000000
00000000
00000000
,
00000000
00000000
00000000
00000000
,
00000023
00000000
00000000
00000000
,
00000200
00000030
00000000
00000000
,
00000300
00000000
00000000
00000000
;

//---------------dance-double - ----------------
#NOTES:
     dance-double:
     :
     Easy:
     4:
     0.258706,0.343325,0.264096,0.075456,0.000000,192.000000,164.000000,28.000000,8.000000,0.000000,0.000000,0.258706,0.343325,0.264096,0.075456,0.000000,192.000000,164.000000,28.000000,8.000000,0.000000,0.000000:
00000000
00000000
00000000
00000000
,
00000000
00000000
00000000
00000000
,
00000000
00000000
00000000
00000000
,
00000000
00000000
00000000
00000000
,
00010000
00010000
00001000
00001000
,
00100000
00100000
00010000
00010000
,
10000000
10000000
00100000
00100000
,
00010000
00010000
00001000
00001000
,
00000100
00000100
00000000
00000001
,
00001001
00001000
00000000
00000100
,
00010100
00010000
00000000
00010000
,
00011000
00001000
00000000
00001000
,
00101000
00100000
00010000
10000000
,
10010000
00010000
01000000
00100000
,
10100000
10000000
01000000
00100000
,
00101000
00001000
00010000
00000100
,
00000110
00000010
00000001
00000100
,
00000110
00000010
00001000
00000100
,
00010100
00010000
00001000
00100000
,
00110000
00010000
10000000
01000000
,
00100000
01000000
00100000
00100000
,
00001000
00010000
00000100
00000100
,
00000010
00000001
00000010
00000010
,
00001000
00010000
01000000
01000000
,
00100000
00010000
00100000
00100000
,
00001000
00010000
00000100
00000100
,
00000010
00000001
00000010
00000010
,
00000100
00010000
00001000
00001000
,
00100000
00110000
00010000
10010000
,
10000000
11000000
10000000
10010000
,
00010000
01010000
01000000
01001000
,
00001000
00011000
00010000
00010100
,
00000100
00001100
00001000
00001001
,
00000001
00000101
00000100
00001100
,
00001000
00011000
00010000
01010000
,
01000000
00000000
11000000
00000000
10000000
00010000
10000000
00010000
,
10000000
01000000
00010000
01000000
,
10000000
00100000
00010000
00100000
,
10000000
01000000
00100000
01000000
,
10000000
00100000
01000000
00001000
,
00000100
00000001
00000100
00001000
,
00000100
00000001
00000010
00001000
,
00000010
00000001
00000100
00000001
,
00000010
00000100
00010000
00001000
,
00022000
00000000
00000000
00000000
,
00000000
00000000
00000000
00030000
,
00200000
00000000
00000000
00000000
,
00300000
02000000
00000000
03003000
,
00022000
00000000
00000000
00000000
,
00000000
00000000
00000000
00003000
,
00000020
00000000
00000000
00000000
,
00000030
00000200
00000000
00000000
,
00030300
00000000
00000000
00000000
;
