#TITLE:残酷な天使のテーゼ;
#SUBTITLE:;
#ARTIST:高橋洋子;
#TITLETRANSLIT:A Cruel Angel's Thesis;
#SUBTITLETRANSLIT:;
#ARTISTTRANSLIT:Yoko Takahashi;
#GENRE:;
#CREDIT:;
#BANNER:A Cruel Angel's Thesis.png;
#BACKGROUND:A Cruel Angel's Thesis-bg.png;
#LYRICSPATH:;
#CDTITLE:;
#MUSIC:A Cruel Angel's Thesis.ogg;
#OFFSET:-0.038853;
#SAMPLESTART:66.432495;
#SAMPLELENGTH:18.678497;
#SELECTABLE:YES;
#BPMS:0.000000=78.791000
,16.000000=128.149002
;
#STOPS:
;
#BGCHANGES:0.250=A Cruel Angel's Thesis.avi=1.000=1=0=0=StretchNoLoop==CrossFade==,
99999=-nosongbg-=1.000=0=0=0 // don't automatically add -songbackground-
;
#KEYSOUNDS:;
#ATTACKS:;

//---------------dance-single - ----------------
#NOTES:
     dance-single:
     :
     Beginner:
     1:
     0.065211,0.096730,0.010869,0.000000,0.000000,42.000000,41.000000,1.000000,0.000000,0.000000,0.000000,0.065211,0.096730,0.010869,0.000000,0.000000,42.000000,41.000000,1.000000,0.000000,0.000000,0.000000:
0000
0000
0000
0000
,
0000
0000
0000
0000
,
0000
0000
0000
0000
,
0000
0000
0000
0000
,
0000
0000
0000
0000
,
0001
0000
0000
0000
,
0100
0000
0000
0000
,
0010
0000
0000
0000
,
1000
0000
0000
0000
,
0100
0000
0000
0000
,
0100
0000
0000
0000
,
0010
0000
0000
0000
,
0010
0000
0000
0000
,
0001
0000
0000
0000
,
0001
0000
0000
0000
,
1000
0000
0000
0000
,
1000
0000
0000
0000
,
0010
0000
0000
0000
,
0100
0000
0000
0000
,
0001
0000
0000
0000
,
1000
0000
0000
0000
,
0100
0000
0000
0000
,
0010
0000
0000
0000
,
0001
0000
0000
0000
,
1000
0000
0000
0000
,
1001
0000
0000
0000
,
0100
0000
0000
0000
,
0010
0000
0000
0000
,
1000
0000
0000
0000
,
0001
0000
0000
0000
,
0010
0000
0000
0000
,
0100
0000
0000
0000
,
1000
0000
0000
0000
,
0010
0000
0000
0000
,
0100
0000
0000
0000
,
0001
0000
0000
0000
,
1000
0000
0000
0000
,
0100
0000
0000
0000
,
0010
0000
0000
0000
,
0001
0000
0000
0000
,
0100
0000
0000
0000
,
0010
0000
0000
0000
,
0100
0000
0000
0000
,
0001
0000
0000
0000
,
1000
0000
1000
0000
;

//---------------dance-single - ----------------
#NOTES:
     dance-single:
     :
     Hard:
     7:
     0.371082,0.412833,0.282581,0.195633,0.255410,239.000000,213.000000,26.000000,18.000000,0.000000,0.000000,0.371082,0.412833,0.282581,0.195633,0.255410,239.000000,213.000000,26.000000,18.000000,0.000000,0.000000:
0000
0000
0000
0000
,
0000
0000
0000
0000
,
0000
0000
0000
0000
,
0000
0000
0000
0000
,
0000
0000
0000
0000
,
0110
0000
0000
0000
1001
0000
0000
0000
0001
0000
0000
0010
0000
0000
0100
0000
,
1000
0000
0010
0000
1000
0000
0001
0000
0100
0010
0000
0200
0000
0000
0300
0000
,
0101
0000
0000
0000
0011
0000
0000
0000
1100
0000
0000
1000
0000
0000
0001
0000
,
0100
0000
0010
0000
0100
0000
0001
0000
1001
0000
0000
0110
0000
0000
0000
0000
,
0020
1000
1000
1030
,
0002
0010
0010
0013
,
0001
0000
0000
0010
0000
0000
0001
0000
1000
0000
0000
0100
0000
0000
1000
0000
,
0010
0000
0000
0100
0000
0000
0010
0000
2000
0000
0000
0000
3001
0000
0000
0000
,
0010
0000
0000
0001
0000
0000
0010
0000
0002
0000
0000
0000
0003
0000
0100
0000
,
0010
0000
0000
0100
0000
0000
0010
0000
0020
0000
0000
0000
0030
0000
1000
0000
,
0100
0000
0000
1000
0000
0000
0100
0000
0010
0000
0000
0000
0100
0000
0000
0000
,
2002
0000
3000
1000
1003
0000
0000
0000
,
1002
0100
0100
0103
,
0120
1000
1000
1030
,
1000
0000
0000
0010
0000
0000
1000
0000
0001
0000
0000
0010
0000
0000
0001
0000
,
0100
0000
0000
0010
0000
0000
0100
0000
0002
0000
0000
0000
0013
0000
0000
0000
,
0100
0000
0000
1000
0000
0000
0100
0000
2000
0000
0000
0000
3000
0000
0010
0000
,
0100
0000
0000
0010
0000
0000
0100
0000
0020
0000
0000
0000
0030
0000
0100
0000
,
0001
0000
0000
0100
0000
0000
0001
0000
1000
0000
0000
0001
0000
0000
1000
0000
,
0100
0110
1001
0110
,
0010
0000
0000
1000
0000
0000
0010
0000
0100
0000
0000
0001
0000
0000
0100
0000
,
0010
0000
0000
1000
0000
0000
0010
0000
1000
0000
0000
0001
0000
0000
1000
0000
,
0100
0000
0000
0010
0000
0000
0001
0000
1000
0000
0000
0010
0000
0000
0100
0000
,
0001
0101
1010
1001
,
0001
0000
0000
0010
0000
0000
0001
0000
1000
0000
0000
0100
0000
0000
1000
0000
,
0010
0000
0000
0100
0000
0000
0010
0000
1000
0000
0000
0010
0000
0000
1000
0000
,
0001
0000
0000
0010
0000
0000
0001
0000
1000
0000
0000
0100
0000
0000
1000
0000
,
0020
0000
0000
0000
0000
0000
0000
0000
0130
0000
0000
0010
0000
0000
0100
0000
,
0001
0000
0000
0000
0101
0000
0000
0000
0010
0000
0000
1000
0000
0000
0100
0000
,
1000
0000
0010
0000
0100
0000
0001
0000
1000
0100
0000
2000
0000
0000
3000
0000
,
0010
0000
0000
0000
0101
0000
0000
0000
0001
0000
0000
0010
0000
0000
0001
0000
,
1000
0000
0010
0000
1000
0000
0100
0000
0010
0100
0000
0020
0000
0000
0030
0000
,
0001
0000
0000
0000
0011
0000
0000
0000
0001
0000
0000
1000
0000
0000
0010
0000
,
1000
0000
0100
0000
0010
0000
0100
0000
1000
0010
0000
0200
0000
0000
0300
0000
,
0010
0000
0000
0000
1010
0000
0000
0000
1000
0000
0000
0001
0000
0000
0010
0000
,
0001
0000
1000
0000
0001
0000
0100
0000
0010
0000
0000
0110
0000
0000
0000
0000
,
1010
0000
0000
0000
0101
0000
0000
0000
0001
0000
0000
0010
0000
0000
0100
0000
,
1000
0000
0010
0000
0100
0000
0001
0000
1000
0100
0000
0020
0000
0000
0030
0000
,
0011
0000
0000
0000
1100
0000
0000
0000
1000
0000
0000
0001
0000
0000
1000
0000
,
0010
0000
0001
0000
0100
0000
1000
0000
0010
0000
0000
0110
0000
0000
0000
0000
;

//---------------dance-single - ----------------
#NOTES:
     dance-single:
     :
     Easy:
     3:
     0.175449,0.218559,0.010869,0.000000,0.005434,113.000000,112.000000,1.000000,0.000000,0.000000,0.000000,0.175449,0.218559,0.010869,0.000000,0.005434,113.000000,112.000000,1.000000,0.000000,0.000000,0.000000:
0000
0000
0000
0000
,
0000
0000
0000
0000
,
0000
0000
0000
0000
,
0000
0000
0000
0000
,
0000
0000
0000
0000
,
1000
0100
0010
0000
,
0001
1000
0010
0000
,
0100
0001
1000
0000
,
0100
0010
0001
0000
,
1000
0000
1000
0000
,
0010
0000
0010
0000
,
0100
0000
0001
0000
,
0010
0000
0100
0000
,
1000
0000
1000
0000
,
0001
0000
0001
0000
,
0100
0000
0010
0000
,
1000
0000
0001
0000
,
0010
0000
0010
0000
,
0100
0000
0100
0000
,
1000
0000
0001
0000
,
0100
0000
0010
0000
,
1000
0000
1000
0000
,
0001
0000
0001
0000
,
0100
0000
0010
0000
,
1000
0000
0001
0000
,
0010
0001
1000
0000
,
0010
1000
0100
0100
,
1000
0001
0010
0000
,
0001
1000
0010
0100
,
0001
1000
0010
0000
,
0100
0010
1000
0000
,
0001
0010
0100
0000
,
1000
0000
0001
0000
,
0100
0010
1000
0001
,
0010
0001
0100
0000
,
0010
0100
0001
1000
,
0100
0010
0001
0000
,
0010
0100
1000
0001
,
0100
0010
1000
0000
,
0010
1000
0001
0100
,
0010
0100
0001
0000
,
0010
0100
1000
0001
,
0100
0010
1000
0000
,
0010
0100
0001
0010
,
0100
0000
0000
0000
1000
0000
0000
0000
0001
0000
0000
1001
0000
0000
0000
0000
;

//---------------dance-single - ----------------
#NOTES:
     dance-single:
     :
     Medium:
     5:
     0.270160,0.291412,0.032606,0.000000,0.048908,174.000000,171.000000,3.000000,0.000000,0.000000,0.000000,0.270160,0.291412,0.032606,0.000000,0.048908,174.000000,171.000000,3.000000,0.000000,0.000000,0.000000:
0000
0000
0000
0000
,
0000
0000
0000
0000
,
0000
0000
0000
0000
,
0000
0000
0000
0000
,
0000
0000
0000
0000
,
0010
0100
0001
1000
,
0100
0000
1000
0000
0100
0000
0000
0000
1000
0000
0000
0001
0000
0000
0000
0000
,
0100
0010
1000
0100
,
0010
0000
0001
0000
0010
0000
0000
0000
0001
0000
0000
1000
0000
0000
0000
0000
,
0010
0100
0001
1000
,
0100
0010
0001
1000
,
0010
0000
0000
0010
1000
0000
0000
1000
,
0100
0000
0000
0100
0010
0000
0000
0000
,
0001
0010
0100
1000
,
0010
1000
0001
0010
,
0100
0000
0000
0100
1000
0000
0010
0000
,
0100
0000
0000
0001
0001
0000
1000
0000
,
0100
1000
0010
1000
,
0001
0010
0100
1000
,
0010
0000
0000
0010
0100
0000
0000
0100
,
0001
0000
0000
0001
1000
0000
0000
0000
,
0100
0010
0001
1000
,
0010
1000
0100
0010
,
0001
1000
0010
0100
,
0001
1001
1000
1001
,
0001
0100
0010
0100
,
0001
0000
1000
0000
0100
0000
1000
0010
,
0100
0001
0010
0001
,
1000
0100
0010
0001
,
1000
0000
0010
0000
1000
0000
0001
0010
,
0001
0000
0100
0000
0010
0000
1000
0100
,
1000
0000
0010
0000
0100
0000
0001
1000
,
0001
0000
0000
0000
0000
0000
0000
0000
1000
0000
0000
1000
0000
0000
1000
0000
,
0010
0100
0001
1000
,
0100
0000
0010
0000
0100
0000
0000
0000
1000
0000
0000
0100
0000
0000
0000
0000
,
0010
0001
1000
0010
,
0100
0000
0001
0000
0100
0000
0000
0000
0010
0000
0000
1000
0000
0000
0000
0000
,
0001
0010
0100
1000
,
0010
0000
1000
0000
0010
0000
0000
0000
0100
0000
0000
0010
0000
0000
0000
0000
,
1000
0100
0010
0001
,
1000
0000
0100
0000
1000
0000
0000
0000
0001
0000
0000
0100
0000
0000
0000
0000
,
0010
1000
0100
0010
,
0100
0000
1000
0000
0001
0000
0000
0000
0100
0000
0000
0010
0000
0000
0000
0000
,
0100
0001
0010
0100
,
1000
0000
0001
0000
1000
0000
0001
0000
0100
0000
0000
0110
0000
0000
0000
0000
;

//---------------dance-double - ----------------
#NOTES:
     dance-double:
     :
     Hard:
     7:
     0.354003,0.388549,0.108685,0.260844,0.277147,228.000000,218.000000,10.000000,24.000000,0.000000,0.000000,0.354003,0.388549,0.108685,0.260844,0.277147,228.000000,218.000000,10.000000,24.000000,0.000000,0.000000:
00000000
00000000
00000000
00000000
,
00000000
00000000
00000000
00000000
,
00000000
00000000
00000000
00000000
,
00000000
00000000
00000000
00000000
,
00000000
00000000
00000000
00000000
,
00001000
00000000
00000000
00000000
00000100
00000000
00000000
00000000
00000001
00000000
00000000
00001000
00000000
00000000
00000100
00000000
,
00010000
00000000
00010000
00000000
00001000
00000000
00100000
00000000
00010000
01000000
00000000
00100000
00000000
00000000
00000000
00000000
,
10000000
00000000
00000000
00000000
00010000
00000000
00000000
00000000
10000000
00000000
00000000
01000000
00000000
00000000
00010000
00000000
,
00001000
00000000
00001000
00000000
00010000
00000000
00000010
00000000
00000100
00000000
00000000
00000110
00000000
00000000
00000000
00000000
,
00000001
00000000
00001000
00000000
00000020
00000000
00000030
00010000
,
00001000
00000000
00000000
00100000
00000000
00000000
00010000
00000000
20000000
00000000
00000000
00000000
30000000
00000000
00010000
00000000
,
01000000
00000000
00000000
00100000
00000000
00000000
10000000
00000000
01000000
00000000
00000000
00010000
00000000
00000000
00001000
00000000
,
00000010
00000000
00000000
00001000
00000000
00000000
00010000
00000000
00000100
00000000
00000000
00000000
00000010
00000000
00000001
00001000
,
00000001
00000000
00000000
00001000
00000000
00000000
00000010
00000000
00000020
00000000
00000000
00000000
00000030
00000000
00010000
00001000
,
00010000
00000000
00000000
00001000
00000000
00000000
00010000
00000000
00200000
00000000
00000000
00000000
00300000
00000000
10000000
00000000
,
00010000
00000000
00000000
01000000
00000000
00000000
00001000
00000000
00010000
00000000
00000000
00000000
00000100
00000000
00000000
00000000
,
00000020
00000000
00000002
00000033
,
00000001
00000000
00001000
00000000
00000200
00000000
00000300
00010000
,
00001000
00000000
00000000
01000000
00000000
00000000
00010000
00000000
20000000
00000000
00000000
00000000
30000000
00000000
00010000
00000000
,
00100000
00000000
00000000
01000000
00000000
00000000
10000000
00000000
00100000
00000000
00000000
00010000
00000000
00000000
00001000
00000000
,
00000100
00000000
00000000
00001000
00000000
00000000
00010000
00000000
00000010
00000000
00000000
00000000
00000100
00000000
00000001
00001000
,
00000001
00000000
00000000
00001000
00000000
00000000
00000100
00000000
00000200
00000000
00000000
00000000
00000300
00000000
00010000
00001000
,
00010000
00000000
00000000
00001000
00000000
00000000
00010000
00000000
02000000
00000000
00000000
00000000
03000000
00000000
10000000
00000000
,
00020000
00230000
00302000
00003020
,
00000031
00000110
00001001
00000110
,
00000001
00000000
00000000
00000001
00000000
00000000
00000100
00000000
00001000
00000000
00000000
00010000
00000000
00000000
00001000
00000000
,
00000010
00000000
00000000
00000010
00000000
00000000
00000100
00000000
00010000
00000000
00000000
00001000
00000000
00000000
01000000
00000000
,
00010000
00000000
00000000
10000000
00000000
00000000
01000000
00000000
00100000
00000000
00000000
00001000
00000000
00000000
00010000
00000000
,
02000000
10000000
00100000
00010000
,
13000000
00000000
00000000
10000000
00000000
00000000
01000000
00000000
00010000
00000000
00000000
00001000
00000000
00000000
00010000
00000000
,
00100000
00000000
00000000
00100000
00000000
00000000
01000000
00000000
00001000
00000000
00000000
00010000
00000000
00000000
00000100
00000000
,
00001000
00000000
00000000
00000001
00000000
00000000
00000100
00000000
00000010
00000000
00000000
00010000
00000000
00000000
00001000
00000000
,
00000200
00000000
00000000
00000000
00000000
00000000
00000000
00000000
00000310
00000000
00000000
00001000
00000000
00000000
00000001
00000000
,
00000200
00000000
00000000
00000000
00002300
00000000
00000000
00000000
00013000
00000000
00000000
00001000
00000000
00000000
00000010
00000000
,
00000100
00000000
00000100
00000000
00010000
00000000
00001000
00000000
00100000
00010000
00000000
10000000
00000000
00000000
00000000
00000000
,
02000000
00000000
00000000
00000000
03020000
00000000
00000000
00000000
00031000
00000000
00000000
00010000
00000000
00000000
00100000
00000000
,
01000000
00000000
01000000
00000000
00001000
00000000
00010000
00000000
00000010
00001000
00000000
00000001
00000000
00000000
00000000
00000000
,
00000020
00000000
00000000
00000000
00002030
00000000
00000000
00000000
00013000
00000000
00000000
00001000
00000000
00000000
00000100
00000000
,
00000010
00000000
00000010
00000000
00010000
00000000
00001000
00000000
01000000
00010000
00000000
10000000
00000000
00000000
00000000
00000000
,
00200000
00000000
00000000
00000000
00320000
00000000
00000000
00000000
00031000
00000000
00000000
00010000
00000000
00000000
01000000
00000000
,
00100000
00000000
00100000
00000000
00001000
00000000
00010000
00000000
00000100
00000000
00000000
00000110
00000000
00000000
00000000
00000000
,
00000011
00000000
00000000
00000000
00001100
00000000
00000000
00000000
00000001
00000000
00000000
00000010
00000000
00000000
00001000
00000000
,
00010000
00000000
01000000
00000000
10000000
00000000
00010000
00000000
10000000
00100000
00000000
01000000
00000000
00000000
00000000
00000000
,
10100000
00000000
00000000
00000000
01010000
00000000
00000000
00000000
10000000
00000000
00000000
00100000
00000000
00000000
00010000
00000000
,
00001000
00000000
00000100
00000000
00000001
00000000
00000010
00000000
00000100
00000000
00000000
00000110
00000000
00000000
00000000
00000000
;

//---------------dance-double - ----------------
#NOTES:
     dance-double:
     :
     Medium:
     5:
     0.265502,0.315696,0.032606,0.076080,0.043474,171.000000,168.000000,3.000000,7.000000,0.000000,0.000000,0.265502,0.315696,0.032606,0.076080,0.043474,171.000000,168.000000,3.000000,7.000000,0.000000,0.000000:
00000000
00000000
00000000
00000000
,
00000000
00000000
00000000
00000000
,
00000000
00000000
00000000
00000000
,
00000000
00000000
00000000
00000000
,
00000000
00000000
00000000
00000000
,
00010000
00000000
00001000
00000000
00100000
00000000
00010000
10000000
,
01000000
00000000
00000000
00000000
00100000
00000000
00000000
00000000
00010000
00000000
00000000
01000000
00000000
00000000
00000000
00000000
,
00001000
00000000
00010000
00000000
00000010
00000000
00001000
00000001
,
00000100
00000000
00000000
00000000
00000010
00000000
00000000
00000000
00001000
00000000
00000000
00000001
00000000
00000000
00000000
00000000
,
00000100
00001000
00010000
00000000
,
01000000
00010000
00001000
00000000
,
00010000
00000000
00000000
00010000
00100000
00000000
00000000
00100000
,
10000000
00000000
00000000
10000000
00010000
00000000
10000000
00000000
,
01000000
00010000
00001000
00000000
,
00000100
00001000
00010000
00000000
,
00001000
00000000
00000000
00001000
00000010
00000000
00000000
00000010
,
00000001
00001000
00000200
00000000
,
00000310
00001000
00010000
00000000
,
00100000
00010000
00001000
00000000
,
00010000
00000000
00000000
00010000
01000000
00000000
00000000
01000000
,
10000000
00000000
00000000
10000000
00010000
00000000
10000000
00000000
,
00100000
00010000
00001000
00000000
,
00000010
00001000
00010000
00000000
,
00001000
00000100
00000001
00000010
,
00001000
00011000
00010000
00011000
,
00100000
00000000
10000000
01000000
10000000
00000000
00010000
00000000
,
00100000
00000000
00001000
00010000
00001000
00000000
00010000
00000000
,
00000100
00000000
00000010
00000001
00000010
00000000
00001000
00000000
,
00020000
00230000
00320000
00032000
,
00003010
00000000
00000001
00000100
00000001
00000000
00001000
00000000
,
00000010
00000000
00010000
00001000
00010000
00000000
00001000
00000000
,
01000000
00000000
00100000
10000000
00100000
00000000
00010000
00000000
,
00002000
00000000
00020000
00033000
,
00000100
00000000
00000010
00000000
00000001
00000000
00001000
00000100
,
00010000
00000000
00000000
00000000
00001000
00000000
00100000
00000000
00010000
00000000
00000000
10000000
00000000
00000000
00000000
00000000
,
00010000
00000000
10000000
00000000
01000000
00000000
00100000
00010000
,
00100000
00000000
00000000
00000000
00010000
00000000
00000000
00000000
10000000
00000000
00000000
00100000
00000000
00000000
00000000
00000000
,
01000000
00000000
00100000
00000000
10000000
00000000
00010000
01000000
,
00001000
00000000
00000000
00000000
00010000
00000000
00000010
00000000
00001000
00000000
00000000
00000001
00000000
00000000
00000000
00000000
,
00001000
00000000
00000001
00000000
00000100
00000000
00000010
00001000
,
00000010
00000000
00000000
00000000
00001000
00000000
00000000
00000000
00000001
00000000
00000000
00000010
00000000
00000000
00000000
00000000
,
00001000
00000000
00010000
00000000
00000100
00000000
00010000
00001000
,
00010000
00000000
00000000
00000000
00100000
00000000
01000000
00000000
00100000
00000000
00000000
00100000
00000000
00000000
00000000
00000000
,
00010000
00000000
00001000
00000000
00100000
00000000
00001000
00010000
,
00000100
00000000
00001000
00000000
00000001
00000000
00001000
00000000
00000010
00000000
00000000
00000110
00000000
00000000
00000000
00000000
;

//---------------dance-double - ----------------
#NOTES:
     dance-double:
     :
     Easy:
     3:
     0.170791,0.218559,0.000000,0.054343,0.005434,110.000000,110.000000,0.000000,5.000000,0.000000,0.000000,0.170791,0.218559,0.000000,0.054343,0.005434,110.000000,110.000000,0.000000,5.000000,0.000000,0.000000:
00000000
00000000
00000000
00000000
,
00000000
00000000
00000000
00000000
,
00000000
00000000
00000000
00000000
,
00000000
00000000
00000000
00000000
,
00000000
00000000
00000000
00000000
,
10000000
01000000
00100000
00000000
,
00010000
01000000
00001000
00000000
,
00010000
00001000
00000100
00000000
,
00000001
00000010
00000100
00000000
,
00020000
00000000
00000000
00030000
,
00002000
00000000
00000000
00003000
,
00100000
00000000
00010000
00000000
,
10000000
00000000
01000000
00000000
,
00010000
00000000
00010000
00000000
,
00001000
00000000
00001000
00000000
,
00000100
00000000
00000100
00000000
,
00000001
00000000
00000010
00000000
,
00002000
00000000
00000000
00003000
,
00020000
00000000
00000000
00030000
,
00000010
00000000
00001000
00000000
,
00000001
00000000
00000100
00000000
,
00001000
00000000
00001000
00000000
,
00010000
00000000
00010000
00000000
,
01000000
00000000
01000000
00000000
,
10000000
01000000
00100000
00010000
,
10000000
01000000
00010000
00000000
,
00001000
00000100
00000001
00000000
,
00000010
00000001
00000100
00000100
,
00000010
00001000
00000100
00000010
,
00000001
00000100
00001000
00000000
,
00010000
01000000
10000000
00000000
,
00100000
10000000
01000000
01000000
,
00020000
00000000
00000000
00030000
,
00001000
00100000
00010000
01000000
,
00001000
00010000
00000100
00000000
,
00010000
00000010
00001000
00000100
,
00010000
00001000
01000000
00000000
,
00010000
10000000
01000000
00100000
,
00001000
00010000
00000100
00000000
,
00001000
00000001
00000100
00000010
,
00010000
00001000
01000000
00000000
,
00100000
10000000
01000000
00010000
,
00001000
00000100
00000001
00000000
,
00000010
00000001
00000100
00001000
,
00010000
00000000
00000000
00000000
01000000
00000000
00000000
00000000
10000000
00000000
00000000
00010000
00000000
00000000
00000000
00000000
;

//---------------dance-single - ----------------
#NOTES:
     dance-single:
     :
     Challenge:
     8:
     0.499951,0.582823,0.358661,0.163028,0.358661,322.000000,289.000000,33.000000,15.000000,0.000000,0.000000,0.499951,0.582823,0.358661,0.163028,0.358661,322.000000,289.000000,33.000000,15.000000,0.000000,0.000000:
0000
0000
0000
0000
,
0000
0000
0000
0000
,
0000
0000
0000
0000
,
0000
0000
0000
0000
,
0000
0000
0000
0000
,
1000
0000
1000
0000
0100
0000
0010
0000
0001
1000
0000
1000
0001
0000
0100
0000
,
0001
0000
0001
0000
0100
0000
0010
0000
1000
0001
0000
0001
1000
0000
0100
0000
,
1000
0000
1000
0000
0010
0000
0100
0000
0001
1000
0000
1000
0100
0000
0001
0000
,
1000
0000
0001
0000
0100
0000
0010
0000
0001
0010
0001
0010
0100
0000
1000
0000
,
1001
0000
0001
0100
0001
0000
0001
1000
,
0001
0000
0000
0010
0000
0000
0001
0000
0100
0000
0000
0000
0001
0000
0100
0000
,
0110
0000
0000
0010
0000
0000
1000
0000
1100
0000
0000
0100
0000
0000
0010
0000
,
0011
0000
0000
0001
0000
0000
0100
0000
2000
0000
0000
0000
3000
0000
1000
0100
,
0010
0000
0000
1000
0000
0000
0100
0000
0020
0000
0000
0000
0030
0000
0001
0100
,
0010
0000
0000
0001
0000
0000
0010
0000
2000
0000
0000
0000
3000
0000
0001
0000
,
0001
0000
0000
0010
0000
0000
0100
0000
1000
0000
0000
0000
0100
0000
0000
0000
,
0220
0000
0000
0000
0330
0000
0001
0000
1002
0000
0000
0000
0103
0000
0100
0001
,
1000
0000
1000
0100
1000
0000
1000
0001
,
1000
0000
0000
0010
0000
0000
1000
0000
0100
0000
0000
0000
1000
0000
0100
0000
,
0110
0000
0000
0010
0000
0000
0001
0000
0101
0000
0000
0100
0000
0000
0010
0000
,
1010
0000
0000
0010
0000
0000
1000
0000
0002
0000
0000
0000
0003
0000
0000
0000
,
0012
0000
0000
1003
0000
0000
0001
0000
0200
0000
0000
0000
0300
0000
1000
0100
,
0010
0000
0000
1000
0000
0000
0100
0000
0002
0000
0000
0000
0003
0000
0100
0000
,
1100
0000
0000
1000
0000
0000
0010
0000
0001
0000
0000
1000
0000
0000
0001
0000
,
0011
1010
1100
0101
,
0110
0000
0000
0001
0100
0000
0010
0000
1000
0000
0000
1000
0100
0000
0010
0000
,
0001
0000
0000
0001
0010
0000
0100
0000
1000
0000
0000
1000
0010
0000
0100
0000
,
0001
0000
0000
0001
0100
0000
0010
0000
1000
0000
0000
1000
0010
0000
0100
0000
,
0101
1100
0011
1010
,
1001
0000
0000
0100
0010
0000
0001
0000
1000
0000
0000
0010
0100
0000
0001
0000
,
1001
0000
0000
0100
0010
0000
0001
0000
1000
0000
0000
0010
0100
0000
0001
0000
,
1001
0000
0000
0001
0010
0000
0100
0000
1000
0000
0000
1000
0010
0000
0100
0000
,
2002
0000
0000
0000
0003
0000
0000
0000
3002
0000
0000
0203
0000
0000
0320
0000
,
1030
0000
0100
0000
0001
0000
0100
0000
0010
0001
0000
0001
1000
0000
0010
0000
,
0001
0000
0001
0000
0010
0000
0100
0000
0001
1000
0000
1000
0100
0000
0010
0000
,
0001
0000
0001
0000
1000
0000
0010
0000
1000
0100
0000
0100
0010
0000
0001
0000
,
1000
0000
1000
0000
0010
0000
0100
0000
0001
1000
0000
1000
0100
1000
0100
0010
,
0001
0000
1000
0000
0001
0000
0100
0000
0010
1000
0000
1000
0100
0000
0001
0000
,
0100
0000
0010
0000
0001
0000
1000
0000
0010
0100
0000
0100
0001
0000
0010
0000
,
0001
0000
0100
0000
0010
0000
1000
0000
0100
0010
0000
0010
0001
0000
0100
0000
,
0101
0000
0001
0000
0100
0000
1000
0000
1100
0000
0000
0100
0010
1000
0001
1000
,
0001
0000
0010
0000
0011
0000
0000
0000
0010
0100
0000
1000
0001
0000
0100
0000
,
0010
0000
0010
0000
1000
0000
0100
0000
0001
0100
0000
0010
0100
0000
1000
0000
,
0010
0000
0001
0000
0010
0000
0100
0000
0001
0010
0000
0100
0010
0000
0001
0000
,
0011
0000
1001
0000
1100
0000
1001
0000
1010
0000
0000
0110
0000
0000
0000
0000
;

//---------------dance-double - ----------------
#NOTES:
     dance-double:
     :
     Challenge:
     8:
     0.496846,0.558539,0.315187,0.097817,0.369529,320.000000,291.000000,29.000000,9.000000,0.000000,0.000000,0.496846,0.558539,0.315187,0.097817,0.369529,320.000000,291.000000,29.000000,9.000000,0.000000,0.000000:
// measure 0
00000000
00000000
00000000
00000000
,  // measure 1
00000000
00000000
00000000
00000000
,  // measure 2
00000000
00000000
00000000
00000000
,  // measure 3
00000000
00000000
00000000
00000000
,  // measure 4
00000000
00000000
00000000
00000000
,  // measure 5
00001000
00000000
00010000
00000000
00100000
00000000
00010000
00000000
00001000
00010000
00000000
00010000
00001000
00000000
00010000
00000000
,  // measure 6
00001000
00000000
00000100
00000000
00001000
00000000
00010000
00000000
00001000
00010000
00000000
00010000
00001000
00000000
00000100
00000000
,  // measure 7
00001000
00000000
00010000
00000000
01000000
00000000
00010000
00000000
00001000
00010000
00000000
00010000
00001000
00000000
00010000
00000000
,  // measure 8
00000010
00000000
00000010
00000000
00000100
00000000
00000001
00000000
00001000
00000100
00001000
00000100
00000010
00000000
00000001
00000000
,  // measure 9
00000011
00000000
00000001
00000010
00001000
00000000
00010000
00100000
,  // measure 10
10000000
00000000
00000000
01000000
00000000
00000000
00100000
00000000
00110000
00000000
00000000
00000000
00010000
00000000
10000000
00000000
,  // measure 11
10100000
00000000
00000000
00100000
00000000
00000000
00010000
00000000
00011000
00000000
00000000
00010000
00000000
00000000
00000010
00000000
,  // measure 12
00001010
00000000
00000000
00000001
00000000
00000000
00000010
00000000
00000100
00000000
00000000
00000000
00000000
00000000
00000100
00010000
,  // measure 13
00001000
00000000
00000000
00100000
00000000
00000000
00010000
00000000
02000000
00000000
00000000
00000000
03000000
00000000
10000000
01000000
,  // measure 14
00100000
00000000
00000000
10000000
00000000
00000000
01000000
00000000
00020000
00000000
00000000
00000000
00030000
00000000
00001000
00000000
,  // measure 15
00001000
00000000
00000000
00010000
00000000
00000000
00000100
00000000
00000010
00000000
00000000
00000000
00000001
00000000
00000000
00000000
,  // measure 16
00001002
00000000
00000000
00000000
00000000
00000000
00000010
00000000
00000020
00000000
00000000
00000000
00000033
00000000
00000010
00000100
,  // measure 17
00000010
00000000
00000001
00000100
00001000
00000000
00010000
01000000
,  // measure 18
10000000
00000000
00000000
00100000
00000000
00000000
01000000
00000000
01010000
00000000
00000000
00000000
00000000
00000000
01000000
00000000
,  // measure 19
01100000
00000000
00000000
00100000
00000000
00000000
10000000
00000000
11000000
00000000
00000000
01000000
00000000
00000000
00010000
00000000
,  // measure 20
00011000
00000000
00000000
00000010
00000000
00000000
00000100
00000000
00002000
00000000
00000000
00000000
00003000
00000000
00000000
00000000
,  // measure 21
00011000
00000000
00000000
00000100
00000000
00000000
00000010
00000000
00002000
00000000
00000000
00000000
00003000
00000000
00000100
00010000
,  // measure 22
00100000
00000000
00000000
10000000
00000000
00000000
01000000
00000000
00200000
00000000
00000000
00000000
00300000
00000000
00100000
00000000
,  // measure 23
00110000
00000000
00000000
00010000
00000000
00000000
10000000
00000000
01000000
00000000
00000000
00010000
00000000
00000000
00001000
00000000
,  // measure 24
00011000
00000110
00001001
00000110
,  // measure 25
00011000
00000000
00000000
00010000
01000000
00000000
10000000
00000000
00100000
00000000
00000000
00100000
00010000
00000000
00001000
00000000
,  // measure 26
00000100
00000000
00000000
00000100
00000001
00000000
00000010
00000000
00001000
00000000
00000000
00001000
00010000
00000000
00001000
00000000
,  // measure 27
00000010
00000000
00000000
00000010
00000001
00000000
00000100
00000000
00001000
00000000
00000000
00001000
00010000
00000000
01000000
00000000
,  // measure 28
10010000
01100000
00011000
00000110
,  // measure 29
00001001
00000000
00000000
00000001
00000010
00000000
00001000
00000000
00010000
00000000
00000000
00010000
01000000
00000000
10000000
00000000
,  // measure 30
10010000
00000000
00000000
10000000
00100000
00000000
00010000
00000000
00011000
00000000
00000000
00001000
00000100
00000000
00000001
00000000
,  // measure 31
00001001
00000000
00000000
00000001
00000010
00000000
00000100
00000000
00001000
00000000
00000000
00001000
00000100
00000000
00010000
00000000
,  // measure 32
00022000
00000000
00000000
00000000
00000000
00000000
00033000
00000000
00011000
00000000
01000000
00010000
00000000
10000000
01000000
00000000
,  // measure 33
10000000
00000000
00100000
00000000
01000000
00000000
00001000
00000000
00010000
00000100
00000000
00000100
00001000
00000000
00000010
00000000
,  // measure 34
00000100
00000000
00000100
00000000
00000001
00000000
00000010
00000000
00001000
00010000
00000000
00010000
00001000
00000000
00100000
00000000
,  // measure 35
01000000
00000000
10000000
00000000
00100000
00000000
00010000
00000000
00001000
00010000
00000000
00010000
00000010
00000000
00000100
00000000
,  // measure 36
00000001
00000000
00000001
00000000
00000010
00000000
00000100
00000000
00010000
00001000
00000000
00001000
00100000
00010000
01000000
00100000
,  // measure 37
10000000
00000000
01000000
00000000
00010000
00000000
01000000
00000000
00100000
00001000
00000000
00001000
00010000
00000000
00000010
00000000
,  // measure 38
00000100
00000000
00000001
00000000
00000010
00000000
00000001
00000000
00001000
00000010
00000000
00000010
00000100
00000000
00001000
00000000
,  // measure 39
00010000
00000000
01000000
00000000
10000000
00000000
01000000
00000000
00100000
00010000
00000000
00010000
01000000
00000000
10000000
00000000
,  // measure 40
01000000
00000000
00100000
00000000
10000000
00000000
01000000
00000000
00010000
00001000
00010000
00001000
00010000
00000100
00010000
00000100
,  // measure 41
00001000
00000000
00000001
00000000
00000011
00000000
00000000
00000000
00000001
00000010
00000000
00000100
00000010
00000000
00000001
00000000
,  // measure 42
00000100
00000000
00000100
00000000
00001000
00000000
00010000
00000000
01000000
00100000
00000000
01000000
10000000
00000000
00100000
00000000
,  // measure 43
01000000
00000000
01000000
00000000
00010000
00000000
00100000
00000000
00001000
00010000
00000000
00000010
00001000
00000000
00000001
00000000
,  // measure 44
00000010
00000000
00001000
00000000
00000010
00000000
00000100
00000000
00010000
00000000
00000000
00011000
00000000
00000000
00000000
00000000
;
