#TITLE:5.8.8.;
#SUBTITLE:;
#ARTIST:dj nagureo;
#TITLETRANSLIT:;
#SUBTITLETRANSLIT:;
#ARTISTTRANSLIT:;
#GENRE:;
#CREDIT:;
#BANNER:5.8.8..png;
#BACKGROUND:5.8.8.-bg.png;
#LYRICSPATH:;
#CDTITLE:;
#MUSIC:5.8.8..ogg;
#OFFSET:-1.000000;
#SAMPLESTART:41.421001;
#SAMPLELENGTH:17.684212;
#SELECTABLE:YES;
#BPMS:0.000000=95.000000
;
#STOPS:
;
#BGCHANGES:;
#KEYSOUNDS:;
#ATTACKS:;

//---------------dance-single - ----------------
#NOTES:
     dance-single:
     :
     Hard:
     7:
     0.342251,0.386990,0.126536,0.236201,0.067486,284.000000,269.000000,15.000000,28.000000,0.000000,0.000000,0.342251,0.386990,0.126536,0.236201,0.067486,284.000000,269.000000,15.000000,28.000000,0.000000,0.000000:
0000
0000
0000
0000
,
0000
0000
0000
0000
,
0000
0000
0000
0000
,
0000
0000
0000
0000
0000
0000
0001
0100
,
1001
0000
1000
0100
0001
0000
1000
0010
,
0100
0000
1000
0010
0001
0000
0010
0100
,
1001
1000
0010
0010
0001
0001
1000
1000
,
0100
0000
0001
0000
0010
0000
1000
0000
0010
0000
0100
0000
1000
0001
1000
0001
,
0100
0010
1000
0100
0020
0000
1030
0010
,
0110
0100
1000
0001
,
0100
0010
0001
0010
0100
0001
0010
0100
,
1000
1000
0010
0010
0100
0100
0001
0001
,
2000
0000
0000
0000
0100
0000
0100
0000
3001
0000
0000
0100
0000
0000
1000
0000
,
1001
0000
0000
0000
0010
0000
0000
0100
,
0002
0010
1003
0100
,
0001
0001
0100
0100
1000
1000
0010
0010
,
1001
1000
0010
0000
0101
0001
1000
0000
,
0110
0100
0010
0000
1001
0001
1000
0000
,
0011
0100
1000
0010
0010
0000
1001
1000
,
0010
0100
0001
0010
0100
0001
0100
1000
,
1002
0000
0000
0010
0000
0000
0103
0000
2000
0010
0000
0000
0100
0000
3000
0010
,
0200
0000
0001
0000
0000
1000
0300
0000
0020
0000
0030
0100
0002
0000
1003
0000
,
0100
0000
1000
0001
0000
0000
0100
0000
0000
0010
0000
0000
0100
0000
0000
0001
,
1000
0000
0000
0010
0000
0000
0100
0000
0000
0010
0000
0010
1000
0000
0000
0100
0000
0000
0010
0000
0000
0001
0000
0000
,
1001
0000
0001
0100
2000
0000
3010
0000
,
0001
0010
0100
0001
1000
0010
0100
1000
,
0010
0000
1000
0100
0002
0000
0013
0000
,
1000
0001
0100
1000
0001
0010
1000
0100
,
0010
0000
0000
0100
0020
0000
0130
0000
,
0001
0100
1000
0010
0001
0010
1000
0100
,
0010
0000
0001
1000
1000
0000
0110
0000
,
0001
0000
0100
0000
1000
0000
0100
0010
0010
0000
1000
0000
0100
0000
0010
0000
,
0011
0001
0100
1000
0001
0010
1000
0100
,
0001
1000
0010
0100
0001
0100
1000
0010
,
0100
0001
1000
0010
0001
0010
1000
0100
,
0010
0000
0000
0001
0000
0000
1000
0000
0000
0010
0000
0010
0100
0000
0000
0100
0000
0000
0001
0000
0000
1000
0000
0000
,
0200
0000
0310
0001
,
1000
0010
0001
0100
,
2000
3020
0230
0302
,
2003
0000
3200
0000
0320
0000
0031
1000
,
0020
0000
0000
0000
0000
0000
0130
0001
,
0002
0000
0000
0000
0013
0000
0000
1000
,
1200
0320
0032
0203
,
0320
2030
3002
0013
,
0100
1000
0010
0001
1000
0100
0010
1000
,
0001
0000
0010
0000
0100
0000
0001
0000
1000
0000
0010
0100
0000
0100
1000
0000
;

//---------------dance-single - ----------------
#NOTES:
     dance-single:
     :
     Medium:
     4:
     0.238611,0.270893,0.067486,0.219330,0.000000,198.000000,190.000000,8.000000,26.000000,0.000000,0.000000,0.238611,0.270893,0.067486,0.219330,0.000000,198.000000,190.000000,8.000000,26.000000,0.000000,0.000000:
0000
0000
0000
0000
,
0000
0000
0000
0000
,
0000
0000
0000
0000
,
0000
0000
0000
0000
0000
0000
1000
0010
,
0200
0000
0302
0000
,
2003
0000
0000
0000
3200
0000
0310
0001
,
2000
3020
0230
0302
,
0023
0000
0230
0000
2300
0000
3001
1000
,
0010
0100
0001
0000
1000
0000
0100
0000
,
0011
0100
1010
0001
,
1000
0100
0010
0000
0010
0100
1000
0000
,
0001
0100
0010
0000
0010
0100
0001
0000
,
1000
0100
1000
0000
0010
0000
0100
0000
,
0002
0103
0020
0130
,
1000
0001
1000
0000
0010
0000
0100
0000
,
0001
1000
0001
0000
0010
0000
0100
0000
,
1000
0010
2000
0000
3001
0010
0002
0000
,
1003
0100
2000
0000
3001
0100
0001
0000
,
1001
0000
0000
0100
0100
0000
1000
0001
,
0020
0032
0203
2300
,
3100
0000
0010
1000
0001
0000
0010
0000
,
0100
1000
0001
0000
0100
0000
0010
0000
,
1000
0100
1000
0000
0010
0000
0100
0000
,
0001
1000
0001
0000
0110
0000
0100
0000
,
1001
0000
0010
0100
0010
0000
0001
0000
,
1000
0010
0100
0001
,
1000
0000
0100
0010
0100
0000
0001
0000
,
0100
0010
0001
1000
,
0020
0000
0000
0100
0130
0000
0010
0000
,
1000
0010
0100
0000
0001
0000
1000
0000
,
0001
0000
0010
0100
0010
0000
0001
0000
,
1000
0000
0010
0100
0010
0000
1000
0000
,
0001
0000
0010
0000
0100
0000
1000
0010
,
0100
0000
0001
0000
1000
0000
0100
0010
,
0001
1000
0010
0100
,
1000
0100
0001
0000
0110
0000
1001
0000
,
2000
0000
3010
0000
,
0100
0000
0001
0000
,
2000
3200
0320
0032
,
1003
0010
0100
0001
,
1000
0100
0010
0000
,
0100
0000
0110
0000
,
1000
0100
0010
0001
,
0100
0010
0100
0001
,
1000
0000
0100
0000
0010
0100
1000
0000
,
0001
0000
0100
0000
0010
1000
0100
0001
;

//---------------dance-single - ----------------
#NOTES:
     dance-single:
     :
     Easy:
     3:
     0.195228,0.212845,0.067486,0.177151,0.000000,162.000000,154.000000,8.000000,21.000000,0.000000,0.000000,0.195228,0.212845,0.067486,0.177151,0.000000,162.000000,154.000000,8.000000,21.000000,0.000000,0.000000:
0000
0000
0000
0000
,
0000
0000
0000
0000
,
0000
0000
0000
0000
,
0000
0000
0000
0010
,
1000
0100
1000
0001
,
0100
0010
0100
0001
,
1000
0100
0001
0100
,
1000
0010
0100
0001
,
1001
1000
1000
0000
,
0010
0000
0100
0000
,
0001
0001
0001
0100
,
1000
1000
1000
0100
,
0010
0000
0100
0100
,
0001
0000
0010
0000
,
0100
1000
0001
0100
,
0010
1000
0001
0010
,
0200
1000
1300
0010
,
0200
0001
0301
1000
,
0100
0000
0001
0100
,
1000
0010
0001
0100
,
1000
0100
0010
0001
,
0100
1000
0010
0001
,
0100
0010
1000
0001
,
0010
0000
0100
0000
1000
0001
1000
0000
,
0010
0100
0001
0101
,
1000
0100
0010
0001
,
1000
0010
0100
1010
,
0001
0100
0010
1000
,
0200
0000
0000
0310
,
0001
1000
0010
0100
,
0001
0100
1000
0110
,
1000
0000
0001
0000
0010
0100
0010
0000
,
0002
0100
1000
0103
,
2000
0100
0001
3100
,
0020
0100
0001
1030
,
0001
0000
0010
0000
0100
0010
0100
0000
,
2000
0000
3001
0000
,
0020
0030
0200
0300
,
2001
0000
0100
3000
,
0201
0000
0320
1030
,
0002
0000
0103
0000
,
1010
0000
0011
0000
,
0200
2300
3002
0203
,
0320
2030
3002
0023
,
0130
0000
1000
0000
0100
0010
0001
0000
,
0100
0000
0010
0000
1000
0000
0001
0010
;

//---------------dance-single - ----------------
#NOTES:
     dance-single:
     :
     Beginner:
     1:
     0.104844,0.116097,0.016872,0.143408,0.000000,87.000000,85.000000,2.000000,17.000000,0.000000,0.000000,0.104844,0.116097,0.016872,0.143408,0.000000,87.000000,85.000000,2.000000,17.000000,0.000000,0.000000:
0000
0000
0000
0000
,
0000
0000
0000
0000
,
0000
0000
0000
0000
,
0000
0000
0000
0000
,
1000
0000
0001
0000
,
0100
0000
0010
0000
,
0001
0000
0010
0000
,
1000
0000
0100
0000
,
0010
0000
0010
0000
,
0001
0000
1000
0000
,
0100
0000
0100
0000
,
0010
0000
0010
0000
,
1000
0000
0001
0000
,
0100
0000
0110
0000
,
1000
0000
0001
0000
,
0010
0000
0100
0000
,
2000
0000
3100
0000
,
0002
0000
0013
0000
,
1000
0000
0001
0000
,
0100
0000
0010
0000
,
1000
0000
0100
0000
,
0010
0000
0001
0000
,
1000
0000
0010
0000
,
0002
0003
2000
3000
,
0010
0000
0001
0000
,
0100
0000
0010
0000
,
0100
0000
1000
0000
,
0010
0000
0100
0000
,
0001
0000
0000
0000
,
1000
0000
0100
0000
,
0010
0000
0001
0000
,
1000
0000
0010
0000
,
0100
0000
1000
1000
,
0000
0001
0001
0000
,
0100
0000
0010
0000
,
2000
3000
0002
0003
,
0020
0000
0000
0031
,
2000
0000
3010
0000
,
0002
0000
0100
0000
,
2003
0000
0000
3001
,
0200
0000
0320
0000
,
0130
0000
1001
0000
,
0002
0000
0023
0000
,
0230
0000
2300
0000
,
3001
0000
0010
0000
,
1000
0000
0000
0000
0100
0000
0200
0300
;

//---------------dance-double - ----------------
#NOTES:
     dance-double:
     :
     Easy:
     1:
     0.120511,0.174146,0.000000,0.202458,0.000000,100.000000,100.000000,0.000000,24.000000,0.000000,0.000000,0.120511,0.174146,0.000000,0.202458,0.000000,100.000000,100.000000,0.000000,24.000000,0.000000,0.000000:
// measure 0
00000000
00000000
00000000
00000000
,  // measure 1
00000000
00000000
00000000
00000000
,  // measure 2
00000000
00000000
00000000
00000000
,  // measure 3
00000000
00000000
00000000
00100000
,  // measure 4
10000000
00000000
00010000
00000000
,  // measure 5
01000000
00000000
00020000
00000000
,  // measure 6
00130000
00000000
00010000
00000000
,  // measure 7
00100000
00000000
00001000
00001000
,  // measure 8
00001000
00000000
00000000
00000000
,  // measure 9
00000001
00000000
00000000
00000000
,  // measure 10
00000100
00000010
00000100
00000100
,  // measure 11
00000010
00000100
00000010
00000010
,  // measure 12
00001000
00000000
00000000
00000000
,  // measure 13
00000001
00000000
00000000
00000000
,  // measure 14
00010000
00001000
00010000
00010000
,  // measure 15
00001000
00010000
00001000
00001000
,  // measure 16
00200000
00000000
00320000
00000000
,  // measure 17
02030000
00000000
23000000
00000000
,  // measure 18
32000000
00000000
03020000
00000000
,  // measure 19
00130000
00001000
00100000
00001000
,  // measure 20
00020000
00000000
00030200
00000000
,  // measure 21
00000320
00000000
00000032
00000000
,  // measure 22
00000013
00000100
00000010
00000100
,  // measure 23
00001000
00001000
00001000
00000100
,  // measure 24
00010000
00000000
01000000
00000000
,  // measure 25
10000000
00000000
00100000
00000000
,  // measure 26
00010000
00000000
00001000
00000000
,  // measure 27
00000100
00000000
00000001
00000000
,  // measure 28
00002000
00000000
00003100
00000000
,  // measure 29
00000010
00000001
00000100
00000010
,  // measure 30
00002000
00000000
00003100
00000000
,  // measure 31
00010000
00010000
00010000
00001000
,  // measure 32
00020000
00000000
00000000
00000000
,  // measure 33
02030000
00000000
00000000
00000000
,  // measure 34
03200000
00000000
00000000
00000000
,  // measure 35
00320000
00000000
00000000
00000000
,  // measure 36
00230000
00000000
00310000
00000000
,  // measure 37
00200000
00300000
00002000
00003000
,  // measure 38
00010000
00010000
00001000
00001000
,  // measure 39
00000100
00000100
00000001
00000001
,  // measure 40
00002000
00000000
00003000
00000000
,  // measure 41
00000020
00000030
00002000
00003000
,  // measure 42
00000100
00000010
00000100
00000010
,  // measure 43
00000001
00001000
00000001
00001000
,  // measure 44
00000200
00000000
00000000
00000000
,  // measure 45
00000000
00000000
00000000
00000000
00000000
00000000
00000000
00000300
;

//---------------dance-double - ----------------
#NOTES:
     dance-double:
     :
     Medium:
     4:
     0.234996,0.270893,0.008436,0.362738,0.000000,195.000000,194.000000,1.000000,43.000000,0.000000,0.000000,0.234996,0.270893,0.008436,0.362738,0.000000,195.000000,194.000000,1.000000,43.000000,0.000000,0.000000:
// measure 0
00000000
00000000
00000000
00000000
,  // measure 1
00000000
00000000
00000000
00000000
,  // measure 2
00000000
00000000
00000000
00000000
,  // measure 3
00000000
00000000
00000000
00000000
00000000
00000000
00100000
00100000
,  // measure 4
01000000
01000000
00000000
00000000
01000000
01000000
00000000
00000000
,  // measure 5
00010000
00010000
00000000
00000000
00020000
00000000
00130000
00000000
,  // measure 6
00001000
00001000
00000000
00000000
00001000
00001000
00000000
00000000
,  // measure 7
00010000
00010000
00000000
00000000
00020000
00000000
00031000
00000000
,  // measure 8
00000100
00000010
00001000
00000001
,  // measure 9
00000020
00000130
00002000
00003001
,  // measure 10
00001000
00000010
00000001
00000010
,  // measure 11
00001000
00000100
00000001
00000100
,  // measure 12
00020000
01030000
10000000
00100000
,  // measure 13
00020000
00130000
20000000
31000000
,  // measure 14
00100000
00010000
01000000
00100000
,  // measure 15
10000000
00000000
00010000
00000000
10000000
00010000
10000000
00000000
,  // measure 16
10000000
10000000
00020000
00000000
00130000
00100000
00020000
00000000
,  // measure 17
01030000
01000000
00002000
00000000
00013000
00010000
00000020
00000000
,  // measure 18
00000230
00000001
00000301
00000000
00002000
00000010
00003010
00000000
,  // measure 19
00020000
00001000
00031000
00000000
00200000
00010000
00310000
00000000
,  // measure 20
10000000
00100000
01000000
00000000
01000000
00100000
10000000
00000000
,  // measure 21
10000000
01000000
00100000
00000000
00100000
00010000
01000000
00000000
,  // measure 22
01000000
00001000
00010000
00000000
00010000
00000100
00001000
00000000
,  // measure 23
00001000
00000100
00000010
00000000
00000010
00000001
00001000
00000000
,  // measure 24
00002001
00000000
00000000
00000001
00003001
00000000
00001000
00000000
,  // measure 25
00000010
00000000
00001000
00000001
00000200
00000000
00000310
00000000
,  // measure 26
00002000
00000000
00000000
00000100
00003100
00000000
00010000
00000000
,  // measure 27
00001000
00000000
00100000
01000000
20000000
00000000
00100000
00000000
,  // measure 28
30020000
00000000
00000000
00000000
10000000
10000000
00030000
00000000
,  // measure 29
10000000
00000000
00100000
01000000
00020000
00000000
00130000
00000000
,  // measure 30
02000000
00000000
00000000
00100000
03100000
00000000
00010000
00000000
,  // measure 31
00001000
00000000
00000100
00000000
00000001
00000100
00001000
00000000
,  // measure 32
00002000
00000000
00000100
00000000
00000010
00000000
00003001
00001000
,  // measure 33
00000001
00000000
00000100
00000000
00000010
00000000
00001000
00000001
,  // measure 34
00001000
00000000
00000100
00000000
00010000
00000000
00001000
00010000
,  // measure 35
00001000
00000000
00100000
00000000
00010000
00000000
01000000
00100000
,  // measure 36
20000000
00000000
00000000
00000000
30100000
00000000
00000000
10000000
,  // measure 37
02000000
00000000
03100000
00000000
,  // measure 38
00020000
02030000
03200000
20300000
,  // measure 39
30020000
00000000
00230000
00000000
00302000
00000000
00013000
00000100
,  // measure 40
00000020
00000000
00000000
00000000
00000031
00000000
00000000
00000001
,  // measure 41
00000002
00000000
00000000
00000000
00000103
00000000
00000000
00000100
,  // measure 42
00002000
00023000
00230000
20300000
,  // measure 43
32000000
03020000
00032000
00003020
,  // measure 44
00000032
00000000
00001000
00000000
00001003
00000100
00010000
00001000
,  // measure 45
00100000
00000000
00100000
00000000
00100000
00010000
01000000
10000000
;

//---------------dance-double - ----------------
#NOTES:
     dance-double:
     :
     Hard:
     7:
     0.355507,0.425689,0.143408,0.261508,0.067486,295.000000,278.000000,17.000000,31.000000,0.000000,0.000000,0.355507,0.425689,0.143408,0.261508,0.067486,295.000000,278.000000,17.000000,31.000000,0.000000,0.000000:
// measure 0
00000000
00000000
00000000
00000000
,  // measure 1
00000000
00000000
00000000
00000000
,  // measure 2
00000000
00000000
00000000
00000000
,  // measure 3
00000000
00000000
00000000
00000000
00000000
00000000
00000000
00000000
00000000
00000000
00000000
00000000
10000000
00010000
10000000
00010000
,  // measure 4
01000000
00010000
00100000
01000000
10000000
00100000
01000000
00001000
,  // measure 5
00010000
00000100
00000010
00000001
00001000
00000100
00010000
00001000
,  // measure 6
00100000
01000000
10000000
00100000
00010000
00100000
01000000
00010000
,  // measure 7
00001000
00000000
00000100
00000000
00000010
00000000
00001000
00000000
00000001
00000000
00000001
00000000
00000100
00001000
00000100
00001000
,  // measure 8
00000001
00000100
00000010
00001000
00000002
00000000
00001003
00000010
,  // measure 9
00000200
00000301
00000020
00001030
,  // measure 10
00000010
00000001
00000100
00000010
00001000
00000100
00010000
00001000
,  // measure 11
00100000
00010000
01000000
00100000
10000000
01000000
00100000
00010000
,  // measure 12
20000000
00000000
00000000
00000000
31000000
00000000
00100000
00000000
00010000
00000000
00000000
00001000
00000000
00000000
00010000
00000000
,  // measure 13
00002000
00000000
00000000
00000000
00003020
00000000
00000000
00001030
,  // measure 14
00000200
00000010
00001000
00000301
,  // measure 15
00010100
00011000
00101000
10010000
,  // measure 16
11000000
10000000
00100000
01000000
01010000
00010000
10000000
01000000
,  // measure 17
01100000
00100000
00010000
10000000
10010000
00010000
00100000
00001000
,  // measure 18
00011000
00000000
00000100
00001000
00001000
00000000
00000100
00000010
,  // measure 19
00000001
00001000
00000100
00001000
00000010
00001000
00000001
00001000
,  // measure 20
00000200
00000000
00010300
00001000
00000000
00010000
00001000
00000000
00010000
00001000
00000000
00010000
00001000
00000000
00200000
00000000
,  // measure 21
00010000
00000000
00310000
00000000
10000000
00010000
00000000
10000000
00010000
00000000
10000000
00010000
00000000
10000000
00200000
00000000
,  // measure 22
10000000
10300000
01000000
00000000
00100000
00100000
00010000
00000000
,  // measure 23
00110000
00000000
00000000
00000000
00000000
00000000
00011000
00000000
00000000
00000000
00000000
00010000
00000100
00000000
00000000
00000100
00000000
00000000
00000010
00000000
00000000
00000000
00000000
00000000
,  // measure 24
00001001
00000000
00000001
00001000
00000100
00000100
00020000
00000000
,  // measure 25
00031000
00100000
00010000
10000000
00100000
01000000
00001000
00010000
,  // measure 26
00000100
00000000
00010000
00001000
00100000
00100000
20000000
00000000
,  // measure 27
30100000
00001000
00010000
00000100
00000010
00000001
00001000
00000100
,  // measure 28
00010100
00010100
00000000
00010000
00011000
00011000
00001000
00000000
,  // measure 29
00010000
01000000
10000000
00100000
00010000
00001000
00000100
00000001
,  // measure 30
00000010
00000000
00000100
00010000
00010000
00000000
00011000
00000000
,  // measure 31
00001000
00000000
00000000
00000000
00001000
00000000
00000000
00001000
00010000
00000000
00100000
00000000
10000000
00000000
01000000
00000000
,  // measure 32
10000000
00010000
00100000
00001000
00010000
00000100
00001000
00000001
,  // measure 33
00000010
00000100
00010000
00001000
00100000
01000000
10000000
00010000
,  // measure 34
01000000
10000000
01000000
00010000
00100000
00010000
00001000
00010000
,  // measure 35
01000000
00000000
00000000
00010000
00000000
00000000
00001000
00000000
00000000
00000100
00000000
00000100
00000010
00000000
00000000
00001000
00000000
00000000
00010000
00000000
00000000
00001000
00000000
00000000
,  // measure 36
00000020
00000000
00000000
00000000
00000031
00000000
00010000
00001000
,  // measure 37
20000000
00000000
30100000
01000000
,  // measure 38
00020000
00230000
02300000
03020000
,  // measure 39
20030000
00000000
30200000
00000000
00302000
00000000
00003100
00000001
,  // measure 40
00000020
00000000
00000000
00000000
00000130
00000000
00010000
00001000
,  // measure 41
00002000
00000000
00000000
00000000
00103000
00000000
00000000
01000000
,  // measure 42
20000000
30200000
00320000
00032000
,  // measure 43
00003020
00000032
00000203
00002300
,  // measure 44
00013000
01000000
10000000
00100000
00010000
00100000
10000000
01000000
,  // measure 45
00010000
00001000
00000100
00000001
00000010
00000100
00001000
00010000
;
