#VERSION:0.83;
#TITLE:夜に駆ける;
#SUBTITLE:;
#ARTIST:YOASOBI;
#TITLETRANSLIT:Into the Night;
#SUBTITLETRANSLIT:;
#ARTISTTRANSLIT:;
#GENRE:;
#ORIGIN:;
#CREDIT:;
#BANNER:;
#BACKGROUND:;
#PREVIEWVID:;
#JACKET:;
#CDIMAGE:;
#DISCIMAGE:;
#LYRICSPATH:;
#CDTITLE:;
#MUSIC:Yoru ni Kakeru.ogg;
#OFFSET:-0.401000;
#SAMPLESTART:75.170227;
#SAMPLELENGTH:15.000000;
#SELECTABLE:YES;
#BPMS:0.000=130.000;
#STOPS:;
#DELAYS:;
#WARPS:;
#TIMESIGNATURES:0.000=4=4;
#TICKCOUNTS:0.000=4;
#COMBOS:0.000=1;
#SPEEDS:0.000=1.000=0.000=0;
#SCROLLS:0.000=1.000;
#FAKES:;
#LABELS:0.000=Song Start;
#BGCHANGES:;
#KEYSOUNDS:;
#ATTACKS:
;

//---------------dance-single - ----------------
#NOTEDATA:;
#CHARTNAME:;
#STEPSTYPE:dance-single;
#DESCRIPTION:;
#CHARTSTYLE:;
#DIFFICULTY:Easy;
#METER:6;
#RADARVALUES:0.230954,0.267930,0.118761,0.084282,0.000000,422.000000,391.000000,31.000000,22.000000,0.000000,0.000000,0.000000,0.000000,0.000000,0.230954,0.267930,0.118761,0.084282,0.000000,422.000000,391.000000,31.000000,22.000000,0.000000,0.000000,0.000000,0.000000,0.000000;
#CREDIT:;
#NOTES:
0000
0000
0000
0000
,
0000
0000
0000
0000
,
0000
0000
0000
0000
,
0000
0000
0000
0000
,
0000
0000
0000
0000
,
1000
0000
1000
0001
,
0001
0000
0001
1000
,
0010
0000
0100
0010
,
0200
0000
0000
0300
,
1000
1000
0010
0001
,
0001
0001
0100
1000
,
0010
0010
0001
0100
,
0100
0100
1000
0010
,
1000
1000
0010
0001
,
0001
0001
0100
1000
,
0010
0010
0001
0100
,
0100
0100
1000
0010
,
0001
0000
0001
0001
,
1000
0000
1000
1000
,
0100
0000
0100
0100
,
0010
0000
0010
0010
,
0001
0000
0001
0001
,
1000
0000
1000
1000
,
0100
0000
0100
0100
,
0010
0000
0010
0010
,
0001
0000
1000
0001
,
1000
0000
0001
1000
,
0100
0000
0010
0100
,
0010
0000
0100
0010
,
0001
0000
1000
0001
,
1000
0000
0001
1000
,
0100
0000
0010
0100
,
0010
0000
0100
0010
,
2000
0000
0000
3000
,
2000
0000
0000
3000
,
0002
0000
0000
0003
,
0002
0000
0000
0003
,
0010
0010
0010
0010
,
0100
0100
0100
0100
,
1000
0001
1000
0001
,
0200
0000
0000
0300
,
1001
0000
0100
1000
,
1001
0000
0010
0001
,
0110
0000
1000
0010
,
0110
0000
0001
0100
,
1001
0000
0100
1000
,
1001
0000
0010
0001
,
0110
0000
1000
0010
,
0110
0000
0001
0100
,
1001
0000
0100
1000
,
1001
0000
0010
0001
,
0110
0000
1000
0010
,
0110
0000
0001
0100
,
1001
0000
0100
1000
,
1001
0000
0010
0001
,
0200
0000
0000
0300
,
1000
1000
0010
0001
,
0001
0001
0100
1000
,
0010
0010
0001
0100
,
0100
0100
1000
0010
,
1000
1000
0010
0001
,
0001
0001
0100
1000
,
0010
0010
0001
0100
,
0100
0100
1000
0010
,
0001
0000
0001
0001
,
1000
0000
1000
1000
,
0100
0000
0100
0100
,
0010
0000
0010
0010
,
0001
0000
0001
0001
,
1000
0000
1000
1000
,
0100
0000
0100
0100
,
0010
0000
0010
0010
,
2000
0000
0000
3000
,
2000
0000
0000
3000
,
0002
0000
0000
0003
,
0002
0000
0000
0003
,
0010
0010
0010
0010
,
0100
0100
0100
0100
,
1000
0001
1000
0001
,
1002
0000
0000
0003
,
0002
0000
0000
0003
,
2001
0000
0000
3000
,
2000
0000
0000
3000
,
1000
1000
0010
0001
,
0001
0001
0100
1000
,
0010
0010
0001
0100
,
0100
0100
1000
0010
,
1000
1000
0010
0001
,
0001
0001
0100
1000
,
0010
0010
0001
0100
,
0100
0100
1000
0010
,
1000
1000
0010
0001
,
0001
0001
0100
1000
,
0010
0010
0001
0100
,
0100
0100
1000
0010
,
2000
0000
0000
3000
,
2000
0000
0000
3000
,
0002
0000
0000
0003
,
0002
0000
0000
0003
,
0010
0010
0010
0010
,
0100
0100
0100
0100
,
1000
0001
1000
0001
,
0200
0000
0000
0300
,
0000
0000
0000
0000
,
0100
0000
0000
0000
,
0100
0000
0000
0000
,
0100
0000
0000
0000
,
0100
0000
0000
0000
,
0100
0000
0000
0000
,
0100
0000
0000
0000
,
0100
0000
0000
0000
,
0100
0000
0000
0000
,
0200
0000
0000
0300
,
1001
0000
0100
1000
,
1001
0000
0010
0001
,
0110
0000
1000
0010
,
0110
0000
0001
0100
,
1001
0000
0100
1000
,
1001
0000
0010
0001
,
0110
0000
1000
0010
,
0110
0000
0001
0100
,
1001
0000
0100
1000
,
1001
0000
0010
0001
,
0110
0000
1000
0010
,
0110
0000
0001
0100
,
1001
0000
0100
1000
,
1001
0000
0010
0001
,
0200
0000
0000
0300
,
1000
1000
0010
0001
,
0001
0001
0100
1000
,
0010
0010
0001
0100
,
0100
0100
1000
0010
,
1000
1000
0010
0001
,
0001
0001
0100
1000
,
0010
0010
0001
0100
,
0100
0100
1000
0010
,
1000
1000
0010
0001
,
0001
0001
0100
1000
,
0010
0010
0001
0100
,
0100
0000
0100
0000
0010
0000
0000
1001
;

//---------------dance-single - ----------------
#NOTEDATA:;
#CHARTNAME:;
#STEPSTYPE:dance-single;
#DESCRIPTION:;
#CHARTSTYLE:;
#DIFFICULTY:Beginner;
#METER:5;
#RADARVALUES:0.187719,0.267930,0.118761,0.053634,0.000000,343.000000,312.000000,31.000000,14.000000,0.000000,0.000000,0.000000,0.000000,0.000000,0.187719,0.267930,0.118761,0.053634,0.000000,343.000000,312.000000,31.000000,14.000000,0.000000,0.000000,0.000000,0.000000,0.000000;
#CREDIT:;
#NOTES:
0000
0000
0000
0000
,
0000
0000
0000
0000
,
0000
0000
0000
0000
,
0000
0000
0000
0000
,
0000
0000
0000
0000
,
1000
0000
1000
0000
,
0001
0000
0001
0000
,
0010
0000
0100
0000
,
0200
0000
0000
0300
,
1000
0000
0010
0001
,
0001
0000
0100
1000
,
0010
0000
0001
0100
,
0100
0000
1000
0010
,
1000
0000
0010
0001
,
0001
0000
0100
1000
,
0010
0000
0001
0100
,
0100
0000
1000
0010
,
0001
0000
0001
0001
,
1000
0000
1000
1000
,
0100
0000
0100
0100
,
0010
0000
0010
0010
,
0001
0000
0001
0001
,
1000
0000
1000
1000
,
0100
0000
0100
0100
,
0010
0000
0010
0010
,
0001
0000
1000
0001
,
1000
0000
0001
1000
,
0100
0000
0010
0100
,
0010
0000
0100
0010
,
0001
0000
1000
0001
,
1000
0000
0001
1000
,
0100
0000
0010
0100
,
0010
0000
0100
0010
,
2000
0000
0000
0000
,
0000
0000
0000
3000
,
0002
0000
0000
0000
,
0000
0000
0000
0003
,
0010
0000
0010
0010
,
0100
0000
0100
0100
,
1000
0001
1000
0001
,
0200
0000
0000
0300
,
1001
0000
0100
0000
,
1001
0000
0010
0000
,
0110
0000
1000
0000
,
0110
0000
0001
0000
,
1001
0000
0100
0000
,
1001
0000
0010
0000
,
0110
0000
1000
0000
,
0110
0000
0001
0000
,
1001
0000
0100
0000
,
1001
0000
0010
0000
,
0110
0000
1000
0000
,
0110
0000
0001
0000
,
1001
0000
0100
0000
,
1001
0000
0010
0000
,
0200
0000
0000
0300
,
1000
0000
0010
0001
,
0001
0000
0100
1000
,
0010
0000
0001
0100
,
0100
0000
1000
0010
,
1000
0000
0010
0001
,
0001
0000
0100
1000
,
0010
0000
0001
0100
,
0100
0000
1000
0010
,
0001
0000
0001
0001
,
1000
0000
1000
1000
,
0100
0000
0100
0100
,
0010
0000
0010
0010
,
0001
0000
0001
0001
,
1000
0000
1000
1000
,
0100
0000
0100
0100
,
0010
0000
0010
0010
,
2000
0000
0000
3000
,
2000
0000
0000
3000
,
0002
0000
0000
0003
,
0002
0000
0000
0003
,
0010
0010
0010
0010
,
0100
0100
0100
0100
,
1000
0001
1000
0001
,
1001
0000
0000
0000
,
0001
0000
0000
0000
,
1001
0000
0000
0000
,
1000
0000
0000
0000
,
1000
0000
0010
0001
,
0001
0000
0100
1000
,
0010
0000
0001
0100
,
0100
0000
1000
0010
,
1000
0000
0010
0001
,
0001
0000
0100
1000
,
0010
0000
0001
0100
,
0100
0000
1000
0010
,
1000
0000
0010
0001
,
0001
0000
0100
1000
,
0010
0000
0001
0100
,
0100
0000
1000
0010
,
2000
0000
0000
0000
,
0000
0000
0000
3000
,
0002
0000
0000
0000
,
0000
0000
0000
0003
,
0010
0000
0010
0010
,
0100
0000
0100
0100
,
1000
0001
1000
0001
,
0200
0000
0000
0300
,
0000
0000
0000
0000
,
0100
0000
0000
0000
,
0100
0000
0000
0000
,
0100
0000
0000
0000
,
0100
0000
0000
0000
,
0100
0000
0000
0000
,
0100
0000
0000
0000
,
0100
0000
0000
0000
,
0100
0000
0000
0000
,
0200
0000
0000
0300
,
1001
0000
0100
0000
,
1001
0000
0010
0000
,
0110
0000
1000
0000
,
0110
0000
0001
0000
,
1001
0000
0100
0000
,
1001
0000
0010
0000
,
0110
0000
1000
0000
,
0110
0000
0001
0000
,
1001
0000
0100
0000
,
1001
0000
0010
0000
,
0110
0000
1000
0000
,
0110
0000
0001
0000
,
1001
0000
0100
0000
,
1001
0000
0010
0000
,
0200
0000
0000
0300
,
1000
0000
0010
0001
,
0001
0000
0100
1000
,
0010
0000
0001
0100
,
0100
0000
1000
0010
,
1000
0000
0010
0001
,
0001
0000
0100
1000
,
0010
0000
0001
0100
,
0100
0000
1000
0010
,
1000
0000
0010
0001
,
0001
0000
0100
1000
,
0010
0000
0001
0100
,
0100
0000
0000
0000
0010
0000
0000
0110
;

//---------------dance-single - ----------------
#NOTEDATA:;
#CHARTNAME:;
#STEPSTYPE:dance-single;
#DESCRIPTION:;
#CHARTSTYLE:;
#DIFFICULTY:Medium;
#METER:6;
#RADARVALUES:0.267622,0.321516,0.195381,0.080451,0.000000,489.000000,438.000000,51.000000,21.000000,0.000000,0.000000,0.000000,0.000000,0.000000,0.267622,0.321516,0.195381,0.080451,0.000000,489.000000,438.000000,51.000000,21.000000,0.000000,0.000000,0.000000,0.000000,0.000000;
#CREDIT:;
#NOTES:
0000
0000
0000
0000
,
0000
0000
0000
0000
,
0000
0000
0000
0000
,
0000
0000
0000
0000
,
0000
0000
0000
0000
,
1000
0001
1000
0001
,
0001
1000
0001
1000
,
0010
0100
0100
0010
,
0200
0000
0000
0300
,
1001
1000
0010
0001
,
0001
0001
0100
1000
,
0110
0010
0001
0100
,
0100
0100
1000
0010
,
1001
1000
0010
0001
,
0001
0001
0100
1000
,
0110
0010
0001
0100
,
0100
0100
1000
0010
,
0001
0000
1000
0001
,
1000
0000
0001
1000
,
0100
0000
0010
0100
,
0010
0000
0100
0010
,
0001
0000
1000
0001
,
1000
0000
0001
1000
,
0100
0000
0010
0100
,
0010
0000
0100
0010
,
0001
0001
1000
0001
,
1000
1000
0001
1000
,
0100
0100
0010
0100
,
0010
0010
0100
0010
,
0001
0001
1000
0001
,
1000
1000
0001
1000
,
0100
0100
0010
0100
,
0010
0010
0100
0010
,
2000
0000
0001
3000
,
2000
0000
0000
3000
,
0002
0000
1000
0003
,
0002
0000
0000
0003
,
0010
1000
0010
1000
,
0100
0001
0100
0001
,
1000
0001
1000
0001
,
0200
0000
0000
0300
,
1001
1000
0100
1000
,
1001
0001
0010
0001
,
0110
0010
1000
0010
,
0110
0100
0001
0100
,
1001
1000
0100
1000
,
1001
0001
0010
0001
,
0110
0010
1000
0010
,
0110
0100
0001
0100
,
1001
1000
0100
1000
,
1001
0001
0010
0001
,
0110
0010
1000
0010
,
0110
0100
0001
0100
,
1001
1000
0100
1000
,
1001
0001
0010
0001
,
0200
0000
0000
0300
,
1001
1000
0010
0001
,
0001
0001
0100
1000
,
0110
0010
0001
0100
,
0100
0100
1000
0010
,
1001
1000
0010
0001
,
0001
0001
0100
1000
,
0110
0010
0001
0100
,
0100
0100
1000
0010
,
0001
0000
1000
0001
,
1000
0000
0001
1000
,
0100
0000
0010
0100
,
0010
0000
0100
0010
,
0001
0000
1000
0001
,
1000
0000
0001
1000
,
0100
0000
0010
0100
,
0010
0000
0100
0010
,
2000
0000
0001
3000
,
2000
0000
0000
3000
,
0002
0000
1000
0003
,
0002
0000
0000
0003
,
0010
1000
0010
1000
,
0100
0001
0100
0001
,
1000
0001
1000
0001
,
1001
0000
0001
0000
,
0002
0000
0000
0003
,
1001
0000
1000
0000
,
2000
0000
0000
3000
,
1001
1000
0010
0001
,
0001
0001
0100
1000
,
0110
0010
0001
0100
,
0100
0100
1000
0010
,
1001
1000
0010
0001
,
0001
0001
0100
1000
,
0110
0010
0001
0100
,
0100
0100
1000
0010
,
1001
1000
0010
0001
,
0001
0001
0100
1000
,
0110
0010
0001
0100
,
0100
0100
1000
0010
,
2000
0000
0001
3000
,
2000
0000
0000
3000
,
0002
0000
1000
0003
,
0002
0000
0000
0003
,
0010
1000
0010
1000
,
0100
0001
0100
0001
,
1000
0001
1000
0001
,
0200
0000
0000
0300
,
0000
0000
0000
0000
,
0100
0000
0000
0000
,
0100
0000
0000
0000
,
0100
0000
0000
0000
,
0100
0000
0000
0000
,
0100
0000
0000
0000
,
0100
0000
0000
0000
,
0100
0000
0000
0000
,
0200
0000
0000
0300
,
0200
0000
0000
0300
,
1001
1000
0100
1000
,
1001
0001
0010
0001
,
0110
0010
1000
0010
,
0110
0100
0001
0100
,
1001
1000
0100
1000
,
1001
0001
0010
0001
,
0110
0010
1000
0010
,
0110
0100
0001
0100
,
1001
1000
0100
1000
,
1001
0001
0010
0001
,
0110
0010
1000
0010
,
0110
0100
0001
0100
,
1001
1000
0100
1000
,
1001
0001
0010
0001
,
0200
0000
0000
0300
,
1001
1000
0010
0001
,
0001
0001
0100
1000
,
0110
0010
0001
0100
,
0100
0100
1000
0010
,
1001
1000
0010
0001
,
0001
0001
0100
1000
,
0110
0010
0001
0100
,
0100
0100
1000
0010
,
1001
1000
0010
0001
,
0001
0001
0100
1000
,
0110
0010
0001
0100
,
0100
0000
0100
0000
0010
0000
0000
1001
;

//---------------dance-single - ----------------
#NOTEDATA:;
#CHARTNAME:;
#STEPSTYPE:dance-single;
#DESCRIPTION:;
#CHARTSTYLE:;
#DIFFICULTY:Hard;
#METER:7;
#RADARVALUES:0.308669,0.348309,0.321803,0.095775,0.000000,564.000000,480.000000,84.000000,25.000000,0.000000,0.000000,0.000000,0.000000,0.000000,0.308669,0.348309,0.321803,0.095775,0.000000,564.000000,480.000000,84.000000,25.000000,0.000000,0.000000,0.000000,0.000000,0.000000;
#CREDIT:;
#NOTES:
// measure 0
0000
0000
0000
0000
,  // measure 1
0000
0000
0000
0000
,  // measure 2
0000
0000
0000
0000
,  // measure 3
0000
0000
0000
0000
,  // measure 4
0000
0000
0000
0000
,  // measure 5
1000
0001
1000
0001
,  // measure 6
0001
1000
0001
1000
,  // measure 7
0010
0000
0100
0000
0100
0010
0100
0000
,  // measure 8
0220
0000
0000
0330
,  // measure 9
1001
1000
0010
0001
,  // measure 10
1001
0001
0100
1000
,  // measure 11
0110
0010
0001
0100
,  // measure 12
0110
0100
1000
0010
,  // measure 13
1001
1000
0010
0001
,  // measure 14
1001
0001
0100
1000
,  // measure 15
0110
0010
0001
0100
,  // measure 16
0110
0100
1000
0010
,  // measure 17
0001
0001
1000
0001
,  // measure 18
1000
1000
0001
1000
,  // measure 19
0100
0100
0010
0100
,  // measure 20
0010
0010
0100
0010
,  // measure 21
0001
0001
1000
0001
,  // measure 22
1000
1000
0001
1000
,  // measure 23
0100
0100
0010
0100
,  // measure 24
0010
0010
0100
0010
,  // measure 25
0001
1000
0001
0000
1000
0000
0001
0000
,  // measure 26
1000
0001
1000
0000
0001
0000
1000
0000
,  // measure 27
0100
0010
0100
0000
0010
0000
0100
0000
,  // measure 28
0010
0100
0010
0000
0100
0000
0010
0000
,  // measure 29
0001
1000
0001
0000
1000
0000
0001
0000
,  // measure 30
1000
0001
1000
0000
0001
0000
1000
0000
,  // measure 31
0100
0010
0100
0000
0010
0000
0100
0000
,  // measure 32
0010
0100
0010
0000
0100
0000
0010
0000
,  // measure 33
2001
0000
0001
3000
,  // measure 34
2000
0000
0000
3000
,  // measure 35
1002
0000
1000
0003
,  // measure 36
0002
0000
0000
0003
,  // measure 37
0010
1000
0010
1000
,  // measure 38
0100
0001
0100
0001
,  // measure 39
1000
0001
1000
0001
,  // measure 40
0220
0000
0000
0330
,  // measure 41
1001
0000
1000
0001
0100
0000
1000
0000
,  // measure 42
1001
0001
0010
0001
,  // measure 43
0110
0000
0010
0100
1000
0000
0010
0000
,  // measure 44
0110
0100
0001
0100
,  // measure 45
1001
0000
1000
0001
0100
0000
1000
0000
,  // measure 46
1001
0001
0010
0001
,  // measure 47
0110
0000
0010
0100
1000
0000
0010
0000
,  // measure 48
0110
0100
0001
0100
,  // measure 49
1001
0000
1000
0001
0100
0000
1000
0000
,  // measure 50
1001
0001
0010
0001
,  // measure 51
0110
0000
0010
0100
1000
0000
0010
0000
,  // measure 52
0110
0100
0001
0100
,  // measure 53
1001
0000
1000
0001
0100
0000
1000
0000
,  // measure 54
1001
0001
0010
0001
,  // measure 55
0220
0000
0000
0330
,  // measure 56
1001
1000
0010
0001
,  // measure 57
1001
0001
0100
1000
,  // measure 58
0110
0010
0001
0100
,  // measure 59
0110
0100
1000
0010
,  // measure 60
1001
1000
0010
0001
,  // measure 61
1001
0001
0100
1000
,  // measure 62
0110
0010
0001
0100
,  // measure 63
0110
0100
1000
0010
,  // measure 64
0001
0001
1000
0001
,  // measure 65
1000
1000
0001
1000
,  // measure 66
0100
0100
0010
0100
,  // measure 67
0010
0010
0100
0010
,  // measure 68
0001
0001
1000
0001
,  // measure 69
1000
1000
0001
1000
,  // measure 70
0100
0100
0010
0100
,  // measure 71
0010
0010
0100
0010
,  // measure 72
2001
0000
0001
3000
,  // measure 73
2000
0000
0000
3000
,  // measure 74
1002
0000
1000
0003
,  // measure 75
0002
0000
0000
0003
,  // measure 76
0010
1000
0010
1000
,  // measure 77
0100
0001
0100
0001
,  // measure 78
1000
0001
1000
0001
,  // measure 79
1001
0000
0001
0000
,  // measure 80
0001
0000
0001
0000
,  // measure 81
1001
0000
1000
0000
,  // measure 82
1000
0000
1000
0000
,  // measure 83
1001
1000
0010
0001
,  // measure 84
1001
0001
0100
1000
,  // measure 85
0110
0010
0001
0100
,  // measure 86
0110
0100
1000
0010
,  // measure 87
1001
1000
0010
0001
,  // measure 88
1001
0001
0100
1000
,  // measure 89
0110
0010
0001
0100
,  // measure 90
0110
0100
1000
0010
,  // measure 91
1001
1000
0010
0001
,  // measure 92
1001
0001
0100
1000
,  // measure 93
0110
0010
0001
0100
,  // measure 94
0110
0100
1000
0010
,  // measure 95
2001
0000
0001
3000
,  // measure 96
2000
0000
0000
3000
,  // measure 97
1002
0000
1000
0003
,  // measure 98
0002
0000
0000
0003
,  // measure 99
0010
1000
0010
1000
,  // measure 100
0100
0001
0100
0001
,  // measure 101
1000
0001
1000
0001
,  // measure 102
0220
0000
0000
0330
,  // measure 103
0100
0000
0000
0000
,  // measure 104
0100
0000
0000
0000
,  // measure 105
0100
0000
0000
0000
,  // measure 106
0100
0000
0000
0000
,  // measure 107
0100
0000
0000
0000
,  // measure 108
0100
0000
0000
0000
,  // measure 109
0100
0000
0000
0000
,  // measure 110
0100
0000
0000
0000
,  // measure 111
0200
0000
0000
0300
,  // measure 112
0220
0000
0000
0330
,  // measure 113
1001
0000
1000
0001
0100
0000
1000
0000
,  // measure 114
1001
0001
0010
0001
,  // measure 115
0110
0000
0010
0100
1000
0000
0010
0000
,  // measure 116
0110
0100
0001
0100
,  // measure 117
1001
0000
1000
0001
0100
0000
1000
0000
,  // measure 118
1001
0001
0010
0001
,  // measure 119
0110
0000
0010
0100
1000
0000
0010
0000
,  // measure 120
0110
0100
0001
0100
,  // measure 121
1001
0000
1000
0001
0100
0000
1000
0000
,  // measure 122
1001
0001
0010
0001
,  // measure 123
0110
0000
0010
0100
1000
0000
0010
0000
,  // measure 124
0110
0100
0001
0100
,  // measure 125
1001
0000
1000
0001
0100
0000
1000
0000
,  // measure 126
1001
0001
0010
0001
,  // measure 127
0220
0000
0000
0330
,  // measure 128
1001
1000
0010
0001
,  // measure 129
1001
0001
0100
1000
,  // measure 130
0110
0010
0001
0100
,  // measure 131
0110
0100
1000
0010
,  // measure 132
1001
1000
0010
0001
,  // measure 133
1001
0001
0100
1000
,  // measure 134
0110
0010
0001
0100
,  // measure 135
0110
0100
1000
0010
,  // measure 136
1001
1000
0010
0001
,  // measure 137
1001
0001
0100
1000
,  // measure 138
0110
0010
0001
0100
,  // measure 139
0110
0000
0100
0000
0110
0000
0000
1001
;

//---------------dance-single - ----------------
#NOTEDATA:;
#CHARTNAME:;
#STEPSTYPE:dance-single;
#DESCRIPTION:;
#CHARTSTYLE:;
#DIFFICULTY:Challenge;
#METER:8;
#RADARVALUES:0.338769,0.375102,0.199212,0.114930,0.001915,619.000000,567.000000,52.000000,30.000000,0.000000,0.000000,0.000000,0.000000,0.000000,0.338769,0.375102,0.199212,0.114930,0.001915,619.000000,567.000000,52.000000,30.000000,0.000000,0.000000,0.000000,0.000000,0.000000;
#CREDIT:;
#NOTES:
// measure 0
0000
0000
0000
0000
,  // measure 1
0000
0000
0000
0000
,  // measure 2
0000
0000
0000
0000
,  // measure 3
0000
0000
0000
0000
,  // measure 4
0000
0000
0000
0000
,  // measure 5
1000
0000
0001
0000
1000
0001
1000
0000
,  // measure 6
0001
0000
1000
0000
0001
1000
0001
0000
,  // measure 7
0010
0000
0100
0000
0100
0010
0100
0000
,  // measure 8
0220
0000
0000
0330
,  // measure 9
1000
0001
1000
0000
0010
0000
0001
0000
,  // measure 10
0001
1000
0001
0000
0100
0000
1000
0000
,  // measure 11
0010
0100
0010
0000
0001
0000
0100
0000
,  // measure 12
0100
0010
0100
0000
1000
0000
0010
0000
,  // measure 13
1000
0001
1000
0000
0010
0000
0001
0000
,  // measure 14
0001
1000
0001
0000
0100
0000
1000
0000
,  // measure 15
0010
0100
0010
0000
0001
0000
0100
0000
,  // measure 16
0100
0010
0100
0000
1000
0000
0010
0000
,  // measure 17
0001
1000
0001
0000
1000
0000
0001
0000
,  // measure 18
1000
0001
1000
0000
0001
0000
1000
0000
,  // measure 19
0100
0010
0100
0000
0010
0000
0100
0000
,  // measure 20
0010
0100
0010
0000
0100
0000
0010
0000
,  // measure 21
0001
1000
0001
0000
1000
0000
0001
0000
,  // measure 22
1000
0001
1000
0000
0001
0000
1000
0000
,  // measure 23
0100
0010
0100
0000
0010
0000
0100
0000
,  // measure 24
0010
0100
0010
0000
0100
0000
0010
0000
,  // measure 25
0001
1000
0001
0000
1001
0000
0001
0000
,  // measure 26
1000
0001
1000
0000
1001
0000
1000
0000
,  // measure 27
0100
0010
0100
0000
0110
0000
0100
0000
,  // measure 28
0010
0100
0010
0000
0110
0000
0010
0000
,  // measure 29
0001
1000
0001
0000
1001
0000
0001
0000
,  // measure 30
1000
0001
1000
0000
1001
0000
1000
0000
,  // measure 31
0100
0010
0100
0000
0110
0000
0100
0000
,  // measure 32
0010
0100
0010
0000
0110
0000
0010
0000
,  // measure 33
2001
0001
0001
3000
,  // measure 34
2000
0000
0000
3000
,  // measure 35
1002
1000
1000
0003
,  // measure 36
0002
0000
0000
0003
,  // measure 37
0010
1000
0010
1000
,  // measure 38
0100
0001
0100
0001
,  // measure 39
1000
0000
0001
0000
1000
0001
1000
0001
,  // measure 40
0220
0000
0000
0330
,  // measure 41
1001
0000
1000
0001
0100
0000
1000
0000
,  // measure 42
1001
0000
0001
1000
0010
0000
0001
0000
,  // measure 43
0110
0000
0010
0100
1000
0000
0010
0000
,  // measure 44
0110
0000
0100
0010
0001
0000
0100
0000
,  // measure 45
1001
0000
1000
0001
0100
0000
1000
0000
,  // measure 46
1001
0000
0001
1000
0010
0000
0001
0000
,  // measure 47
0110
0000
0010
0100
1000
0000
0010
0000
,  // measure 48
0110
0000
0100
0010
0001
0000
0100
0000
,  // measure 49
1001
0000
1000
0001
0100
0000
1000
0000
,  // measure 50
1001
0000
0001
1000
0010
0000
0001
0000
,  // measure 51
0110
0000
0010
0100
1000
0000
0010
0000
,  // measure 52
0110
0000
0100
0010
0001
0000
0100
0000
,  // measure 53
1001
0000
1000
0001
0100
0000
1000
0000
,  // measure 54
1001
0000
0001
1000
0010
0000
0001
0000
,  // measure 55
0220
0000
0000
0330
,  // measure 56
1000
0001
1000
0000
0010
0000
0001
0000
,  // measure 57
0001
1000
0001
0000
0100
0000
1000
0000
,  // measure 58
0010
0100
0010
0000
0001
0000
0100
0000
,  // measure 59
0100
0010
0100
0000
1000
0000
0010
0000
,  // measure 60
1000
0001
1000
0000
0010
0000
0001
0000
,  // measure 61
0001
1000
0001
0000
0100
0000
1000
0000
,  // measure 62
0010
0100
0010
0000
0001
0000
0100
0000
,  // measure 63
0100
0010
0100
0000
1000
0000
0010
0000
,  // measure 64
0001
1000
0001
0000
1000
0000
0001
0000
,  // measure 65
1000
0001
1000
0000
0001
0000
1000
0000
,  // measure 66
0100
0010
0100
0000
0010
0000
0100
0000
,  // measure 67
0010
0100
0010
0000
0100
0000
0010
0000
,  // measure 68
0001
1000
0001
0000
1000
0000
0001
0000
,  // measure 69
1000
0001
1000
0000
0001
0000
1000
0000
,  // measure 70
0100
0010
0100
0000
0010
0000
0100
0000
,  // measure 71
0010
0100
0010
0000
0100
0000
0010
0000
,  // measure 72
2001
0001
0001
3000
,  // measure 73
2000
0000
0000
3000
,  // measure 74
1002
1000
1000
0003
,  // measure 75
0002
0000
0000
0003
,  // measure 76
0010
1000
0010
1000
,  // measure 77
0100
0001
0100
0001
,  // measure 78
1000
0000
0001
0000
1000
0001
1000
0001
,  // measure 79
1001
0001
0002
0003
,  // measure 80
0001
0000
0002
0003
,  // measure 81
1001
1000
2000
3000
,  // measure 82
1000
0000
2000
3000
,  // measure 83
1000
0001
1000
0000
0010
0000
0001
0000
,  // measure 84
0001
1000
0001
0000
0100
0000
1000
0000
,  // measure 85
0010
0100
0010
0000
0001
0000
0100
0000
,  // measure 86
0100
0010
0100
0000
1000
0000
0010
0000
,  // measure 87
1000
0001
1000
0000
0010
0000
0001
0000
,  // measure 88
0001
1000
0001
0000
0100
0000
1000
0000
,  // measure 89
0010
0100
0010
0000
0001
0000
0100
0000
,  // measure 90
0100
0010
0100
0000
1000
0000
0010
0000
,  // measure 91
1000
0001
1000
0000
0010
0000
0001
0000
,  // measure 92
0001
1000
0001
0000
0100
0000
1000
0000
,  // measure 93
0010
0100
0010
0000
0001
0000
0100
0000
,  // measure 94
0100
0010
0100
0000
1000
0000
0010
0000
,  // measure 95
2001
0001
0001
3000
,  // measure 96
2000
0000
0000
3000
,  // measure 97
1002
1000
1000
0003
,  // measure 98
0002
0000
0000
0003
,  // measure 99
0010
1000
0010
1000
,  // measure 100
0100
0001
0100
0001
,  // measure 101
1000
0000
0001
0000
1000
0001
1000
0001
,  // measure 102
0220
0000
0000
0330
,  // measure 103
0200
0000
0000
0300
,  // measure 104
0100
0000
0000
0000
,  // measure 105
0100
0000
0000
0000
,  // measure 106
0100
0000
0000
0000
,  // measure 107
0100
0000
0000
0000
,  // measure 108
0100
0000
0000
0000
,  // measure 109
0100
0000
0000
0000
,  // measure 110
0100
0000
0000
0000
,  // measure 111
0200
0000
0000
0300
,  // measure 112
0220
0000
0000
0330
,  // measure 113
1001
0000
1000
0001
0100
0000
1000
0000
,  // measure 114
1001
0000
0001
1000
0010
0000
0001
0000
,  // measure 115
0110
0000
0010
0100
1000
0000
0010
0000
,  // measure 116
0110
0000
0100
0010
0001
0000
0100
0000
,  // measure 117
1001
0000
1000
0001
0100
0000
1000
0000
,  // measure 118
1001
0000
0001
1000
0010
0000
0001
0000
,  // measure 119
0110
0000
0010
0100
1000
0000
0010
0000
,  // measure 120
0110
0000
0100
0010
0001
0000
0100
0000
,  // measure 121
1001
0000
1000
0001
0100
0000
1000
0000
,  // measure 122
1001
0000
0001
1000
0010
0000
0001
0000
,  // measure 123
0110
0000
0010
0100
1000
0000
0010
0000
,  // measure 124
0110
0000
0100
0010
0001
0000
0100
0000
,  // measure 125
1001
0000
1000
0001
0100
0000
1000
0000
,  // measure 126
1001
0000
0001
1000
0010
0000
0001
0000
,  // measure 127
0220
0000
0000
0330
,  // measure 128
1000
0001
1000
0000
0010
0000
0001
0000
,  // measure 129
0001
1000
0001
0000
0100
0000
1000
0000
,  // measure 130
0010
0100
0010
0000
0001
0000
0100
0000
,  // measure 131
0100
0010
0100
0000
1000
0000
0010
0000
,  // measure 132
1000
0001
1000
0000
0010
0000
0001
0000
,  // measure 133
0001
1000
0001
0000
0100
0000
1000
0000
,  // measure 134
0010
0100
0010
0000
0001
0000
0100
0000
,  // measure 135
0100
0010
0100
0000
1000
0000
0010
0000
,  // measure 136
1000
0001
1000
0000
0010
0000
0001
0000
,  // measure 137
0001
1000
0001
0000
0100
0000
1000
0000
,  // measure 138
0010
0100
0010
0000
0001
0000
0100
0000
,  // measure 139
0100
0000
0010
0000
0100
0000
0000
0000
0110
0000
0000
0010
0000
0000
1001
0000
;

//---------------dance-single - Deluxe----------------
#NOTEDATA:;
#CHARTNAME:Deluxe;
#STEPSTYPE:dance-single;
#DESCRIPTION:Deluxe;
#CHARTSTYLE:;
#DIFFICULTY:Edit;
#METER:9;
#RADARVALUES:0.398970,0.428688,0.268169,0.118761,0.001915,729.000000,659.000000,70.000000,31.000000,0.000000,0.000000,0.000000,0.000000,0.000000,0.398970,0.428688,0.268169,0.118761,0.001915,729.000000,659.000000,70.000000,31.000000,0.000000,0.000000,0.000000,0.000000,0.000000;
#CREDIT:;
#NOTES:
// measure 0
0000
0000
0000
0000
,  // measure 1
0000
0000
0000
0000
,  // measure 2
0000
0000
0000
0000
,  // measure 3
0000
0000
0000
0000
,  // measure 4
0000
0000
0000
0000
,  // measure 5
1001
0000
0001
0000
1000
0001
1000
0000
,  // measure 6
1001
0000
1000
0000
0001
1000
0001
0000
,  // measure 7
0110
0000
0100
0000
0100
0010
0100
0000
,  // measure 8
0220
0000
0000
0330
,  // measure 9
1000
0001
1000
0000
0010
1000
0001
0000
,  // measure 10
0001
1000
0001
0000
0100
0001
1000
0000
,  // measure 11
0010
0100
0010
0000
0001
0010
0100
0000
,  // measure 12
0100
0010
0100
0000
1000
0100
0010
0000
,  // measure 13
1000
0001
1000
0000
0010
1000
0001
0000
,  // measure 14
0001
1000
0001
0000
0100
0001
1000
0000
,  // measure 15
0010
0100
0010
0000
0001
0010
0100
0000
,  // measure 16
0100
0010
0100
0000
1000
0100
0010
0000
,  // measure 17
0001
1000
0001
0000
1001
0000
0001
0000
,  // measure 18
1000
0001
1000
0000
1001
0000
1000
0000
,  // measure 19
0100
0010
0100
0000
0110
0000
0100
0000
,  // measure 20
0010
0100
0010
0000
0110
0000
0010
0000
,  // measure 21
0001
1000
0001
0000
1001
0000
0001
0000
,  // measure 22
1000
0001
1000
0000
1001
0000
1000
0000
,  // measure 23
0100
0010
0100
0000
0110
0000
0100
0000
,  // measure 24
0010
0100
0010
0000
0110
0000
0010
0000
,  // measure 25
0001
1000
0001
0000
0001
1000
0001
0000
,  // measure 26
1000
0001
1000
0000
1000
0001
1000
0000
,  // measure 27
0100
0010
0100
0000
0100
0010
0100
0000
,  // measure 28
0010
0100
0010
0000
0010
0100
0010
0000
,  // measure 29
0001
1000
0001
0000
0001
1000
0001
0000
,  // measure 30
1000
0001
1000
0000
1000
0001
1000
0000
,  // measure 31
0100
0010
0100
0000
0100
0010
0100
0000
,  // measure 32
0010
0100
0010
0000
0010
0100
0010
0000
,  // measure 33
2001
0001
0001
3000
,  // measure 34
2001
0000
0001
3000
,  // measure 35
1002
1000
1000
0003
,  // measure 36
1002
0000
1000
0003
,  // measure 37
0010
0010
1000
0000
0010
0000
1000
0000
,  // measure 38
0100
0100
0001
0000
0100
0000
0001
0000
,  // measure 39
1000
0000
0001
0000
1000
0001
1000
0001
,  // measure 40
0220
0000
0000
0330
,  // measure 41
1001
0000
1000
0001
0100
0001
1000
0000
,  // measure 42
1001
0000
0001
1000
0010
1000
0001
0000
,  // measure 43
0110
0000
0010
0100
1000
0100
0010
0000
,  // measure 44
0110
0000
0100
0010
0001
0010
0100
0000
,  // measure 45
1001
0000
1000
0001
0100
0001
1000
0000
,  // measure 46
1001
0000
0001
1000
0010
1000
0001
0000
,  // measure 47
0110
0000
0010
0100
1000
0100
0010
0000
,  // measure 48
0110
0000
0100
0010
0001
0010
0100
0000
,  // measure 49
1001
0000
1000
0001
0100
0001
1000
0000
,  // measure 50
1001
0000
0001
1000
0010
1000
0001
0000
,  // measure 51
0110
0000
0010
0100
1000
0100
0010
0000
,  // measure 52
0110
0000
0100
0010
0001
0010
0100
0000
,  // measure 53
1001
0000
1000
0001
0100
0001
1000
0000
,  // measure 54
1001
0000
0001
1000
0010
1000
0001
0000
,  // measure 55
0220
0000
0000
0330
,  // measure 56
1000
0001
1000
0000
0010
1000
0001
0000
,  // measure 57
0001
1000
0001
0000
0100
0001
1000
0000
,  // measure 58
0010
0100
0010
0000
0001
0010
0100
0000
,  // measure 59
0100
0010
0100
0000
1000
0100
0010
0000
,  // measure 60
1000
0001
1000
0000
0010
1000
0001
0000
,  // measure 61
0001
1000
0001
0000
0100
0001
1000
0000
,  // measure 62
0010
0100
0010
0000
0001
0010
0100
0000
,  // measure 63
0100
0010
0100
0000
1000
0100
0010
0000
,  // measure 64
0001
1000
0001
0000
1001
0000
0001
0000
,  // measure 65
1000
0001
1000
0000
1001
0000
1000
0000
,  // measure 66
0100
0010
0100
0000
0110
0000
0100
0000
,  // measure 67
0010
0100
0010
0000
0110
0000
0010
0000
,  // measure 68
0001
1000
0001
0000
1001
0000
0001
0000
,  // measure 69
1000
0001
1000
0000
1001
0000
1000
0000
,  // measure 70
0100
0010
0100
0000
0110
0000
0100
0000
,  // measure 71
0010
0100
0010
0000
0110
0000
0010
0000
,  // measure 72
2001
0001
0001
3000
,  // measure 73
2001
0000
0001
3000
,  // measure 74
1002
1000
1000
0003
,  // measure 75
1002
0000
1000
0003
,  // measure 76
0010
0010
1000
0000
0010
0000
1000
0000
,  // measure 77
0100
0100
0001
0000
0100
0000
0001
0000
,  // measure 78
1000
0000
0001
0000
1000
0001
1000
0001
,  // measure 79
1001
0001
0002
0003
,  // measure 80
0001
0001
0002
0003
,  // measure 81
1001
1000
2000
3000
,  // measure 82
1000
1000
2000
3000
,  // measure 83
1000
0001
1000
0000
0010
1000
0001
0000
,  // measure 84
0001
1000
0001
0000
0100
0001
1000
0000
,  // measure 85
0010
0100
0010
0000
0001
0010
0100
0000
,  // measure 86
0100
0010
0100
0000
1000
0100
0010
0000
,  // measure 87
1000
0001
1000
0000
0010
1000
0001
0000
,  // measure 88
0001
1000
0001
0000
0100
0001
1000
0000
,  // measure 89
0010
0100
0010
0000
0001
0010
0100
0000
,  // measure 90
0100
0010
0100
0000
1000
0100
0010
0000
,  // measure 91
1000
0001
1000
0000
0010
1000
0001
0000
,  // measure 92
0001
1000
0001
0000
0100
0001
1000
0000
,  // measure 93
0010
0100
0010
0000
0001
0010
0100
0000
,  // measure 94
0100
0010
0100
0000
1000
0100
0010
0000
,  // measure 95
2001
0001
0001
3000
,  // measure 96
2001
0000
0001
3000
,  // measure 97
1002
1000
1000
0003
,  // measure 98
1002
0000
1000
0003
,  // measure 99
0010
0010
1000
0000
0010
0000
1000
0000
,  // measure 100
0100
0100
0001
0000
0100
0000
0001
0000
,  // measure 101
1000
0000
0001
0000
1000
0001
1000
0001
,  // measure 102
0220
0000
0000
0330
,  // measure 103
0200
0000
0000
0300
,  // measure 104
0100
0000
0000
0000
,  // measure 105
0100
0000
0000
0000
,  // measure 106
0100
0000
0000
0000
,  // measure 107
0100
0000
0000
0000
,  // measure 108
0100
0000
0000
0000
,  // measure 109
0100
0000
0000
0000
,  // measure 110
0100
0000
0100
0000
,  // measure 111
0200
0000
0000
0020
0000
0000
0330
0000
,  // measure 112
0220
0000
0000
0330
,  // measure 113
1001
0000
1000
0001
0100
0001
1000
0000
,  // measure 114
1001
0000
0001
1000
0010
1000
0001
0000
,  // measure 115
0110
0000
0010
0100
1000
0100
0010
0000
,  // measure 116
0110
0000
0100
0010
0001
0010
0100
0000
,  // measure 117
1001
0000
1000
0001
0100
0001
1000
0000
,  // measure 118
1001
0000
0001
1000
0010
1000
0001
0000
,  // measure 119
0110
0000
0010
0100
1000
0100
0010
0000
,  // measure 120
0110
0000
0100
0010
0001
0010
0100
0000
,  // measure 121
1001
0000
1000
0001
0100
0001
1000
0000
,  // measure 122
1001
0000
0001
1000
0010
1000
0001
0000
,  // measure 123
0110
0000
0010
0100
1000
0100
0010
0000
,  // measure 124
0110
0000
0100
0010
0001
0010
0100
0000
,  // measure 125
1001
0000
1000
0001
0100
0001
1000
0000
,  // measure 126
1001
0000
0001
1000
0010
1000
0001
0000
,  // measure 127
0220
0000
0000
0330
,  // measure 128
1000
0001
1000
0000
0010
1000
0001
0000
,  // measure 129
0001
1000
0001
0000
0100
0001
1000
0000
,  // measure 130
0010
0100
0010
0000
0001
0010
0100
0000
,  // measure 131
0100
0010
0100
0000
1000
0100
0010
0000
,  // measure 132
1000
0001
1000
0000
0010
1000
0001
0000
,  // measure 133
0001
1000
0001
0000
0100
0001
1000
0000
,  // measure 134
0010
0100
0010
0000
0001
0010
0100
0000
,  // measure 135
0100
0010
0100
0000
1000
0100
0010
0000
,  // measure 136
1000
0001
1000
0000
0010
1000
0001
0000
,  // measure 137
0001
1000
0001
0000
0100
0001
1000
0000
,  // measure 138
0010
0100
0010
0000
0001
0010
0100
0000
,  // measure 139
0100
0000
0010
0000
0100
0000
0010
0000
1001
0000
0000
0110
0000
0000
1001
0000
;
