#TITLE:アシメントリー;
#SUBTITLE:;
#ARTIST:安田レイ;
#TITLETRANSLIT:Asymmetry;
#SUBTITLETRANSLIT:;
#ARTISTTRANSLIT:Rei Yasuda;
#GENRE:;
#CREDIT:;
#BANNER:;
#BACKGROUND:;
#LYRICSPATH:;
#CDTITLE:;
#MUSIC:Asymmetry.ogg;
#OFFSET:-0.187000;
#SAMPLESTART:91.124489;
#SAMPLELENGTH:15.000000;
#SELECTABLE:YES;
#BPMS:0.000000=128.000000
;
#STOPS:
;
#BGCHANGES:;
#KEYSOUNDS:;
#ATTACKS:;

//---------------dance-single - ----------------
#NOTES:
     dance-single:
     :
     Easy:
     2:
     0.044963,0.078000,0.010263,0.225791,0.000000,92.000000,89.000000,3.000000,66.000000,0.000000,0.000000,0.044963,0.078000,0.010263,0.225791,0.000000,92.000000,89.000000,3.000000,66.000000,0.000000,0.000000:
// measure 0
0000
0000
0000
0000
,  // measure 1
0000
0000
0000
0000
,  // measure 2
0000
0000
0000
0000
,  // measure 3
0000
0000
0000
0000
,  // measure 4
2000
0000
0000
0000
,  // measure 5
0000
0000
0000
3000
,  // measure 6
0020
0000
0000
0000
,  // measure 7
0000
0000
0000
0030
,  // measure 8
2000
0000
0000
0000
,  // measure 9
3000
0000
0000
0000
,  // measure 10
0002
0000
0000
0000
,  // measure 11
0003
0000
0000
0000
,  // measure 12
2000
0000
0000
0000
,  // measure 13
3000
0000
0000
0000
,  // measure 14
0002
0000
0000
0000
,  // measure 15
0003
0000
0000
0000
,  // measure 16
2000
0000
0000
0000
,  // measure 17
3000
0000
0000
0000
,  // measure 18
0020
0000
0000
0000
,  // measure 19
0030
0000
0000
0000
,  // measure 20
0200
0000
0000
0000
,  // measure 21
0300
0000
0000
0000
,  // measure 22
0002
0000
0000
0000
,  // measure 23
0003
0000
0000
0000
,  // measure 24
2000
0000
0000
0000
,  // measure 25
3000
0000
0000
0000
,  // measure 26
0020
0000
0000
0000
,  // measure 27
0030
0000
0000
0000
,  // measure 28
0200
0000
0000
0000
,  // measure 29
0300
0000
0000
0000
,  // measure 30
0002
0000
0000
0000
,  // measure 31
0003
0000
0000
0000
,  // measure 32
1000
0000
0000
0000
,  // measure 33
1000
0000
0000
0000
,  // measure 34
0010
0000
0000
0000
,  // measure 35
0010
0000
0000
0000
,  // measure 36
0001
0000
0000
0000
,  // measure 37
0001
0000
0000
0000
,  // measure 38
0100
0000
0000
0000
,  // measure 39
0100
0000
0000
0000
,  // measure 40
0002
0000
0000
0000
,  // measure 41
0000
0000
0103
0000
,  // measure 42
2000
0000
0000
0000
,  // measure 43
0000
0000
3010
0000
,  // measure 44
0200
0000
0000
0000
,  // measure 45
0000
0000
0000
0300
,  // measure 46
0020
0000
0000
0000
,  // measure 47
0000
0000
0000
0030
,  // measure 48
1001
0000
0000
0000
,  // measure 49
2000
0000
0000
0000
,  // measure 50
3000
0000
0000
0000
,  // measure 51
0002
0000
0000
0000
,  // measure 52
0003
0000
0000
0000
,  // measure 53
2000
0000
0000
0000
,  // measure 54
3000
0000
0000
0000
,  // measure 55
0002
0000
0000
0000
,  // measure 56
0003
0000
0000
0000
,  // measure 57
2000
0000
0000
0000
,  // measure 58
3000
0000
0000
0000
,  // measure 59
0020
0000
0000
0000
,  // measure 60
0030
0000
0000
0000
,  // measure 61
0200
0000
0000
0000
,  // measure 62
0300
0000
0000
0000
,  // measure 63
0002
0000
0000
0000
,  // measure 64
0003
0000
0000
0000
,  // measure 65
2000
0000
0000
0000
,  // measure 66
3000
0000
0000
0000
,  // measure 67
0020
0000
0000
0000
,  // measure 68
0030
0000
0000
0000
,  // measure 69
0200
0000
0000
0000
,  // measure 70
0300
0000
0000
0000
,  // measure 71
0002
0000
0000
0000
,  // measure 72
0003
0000
0000
0000
,  // measure 73
1000
0000
0000
0000
,  // measure 74
1000
0000
0000
0000
,  // measure 75
0010
0000
0000
0000
,  // measure 76
0010
0000
0000
0000
,  // measure 77
0001
0000
0000
0000
,  // measure 78
0001
0000
0000
0000
,  // measure 79
0100
0000
0000
0000
,  // measure 80
0100
0000
0000
0000
,  // measure 81
0002
0000
0000
0000
,  // measure 82
0000
0000
0103
0000
,  // measure 83
2000
0000
0000
0000
,  // measure 84
0000
0000
3010
0000
,  // measure 85
0200
0000
0000
0000
,  // measure 86
0000
0000
0000
0300
,  // measure 87
0020
0000
0000
0000
,  // measure 88
0000
0000
0000
0030
,  // measure 89
1001
0000
0000
0000
,  // measure 90
2000
0000
0000
0000
,  // measure 91
3000
0000
0000
0000
,  // measure 92
0002
0000
0000
0000
,  // measure 93
0003
0000
0000
0000
,  // measure 94
2000
0000
0000
0000
,  // measure 95
3000
0000
0000
0000
,  // measure 96
0002
0000
0000
0000
,  // measure 97
0003
0000
0000
0000
,  // measure 98
2000
0000
0000
0000
,  // measure 99
3000
0000
0000
0000
,  // measure 100
0020
0000
0000
0000
,  // measure 101
0030
0000
0000
0000
,  // measure 102
0200
0000
0000
0000
,  // measure 103
0300
0000
0000
0000
,  // measure 104
0002
0000
0000
0000
,  // measure 105
0003
0000
0000
0000
,  // measure 106
0200
0000
0000
0000
,  // measure 107
0300
0000
0000
0000
,  // measure 108
0020
0000
0000
0000
,  // measure 109
0030
0000
0000
0000
,  // measure 110
2000
0000
0000
0000
,  // measure 111
3020
0000
0000
0000
,  // measure 112
2030
0000
0000
0000
,  // measure 113
3020
0000
0000
0000
,  // measure 114
0032
0000
0000
0000
,  // measure 115
0203
0000
0000
0000
,  // measure 116
0302
0000
0000
0000
,  // measure 117
0203
0000
0000
0000
,  // measure 118
0300
0000
0000
0000
,  // measure 119
1001
0000
0000
0000
,  // measure 120
2000
0000
0000
0000
,  // measure 121
3000
0000
0000
0000
,  // measure 122
0002
0000
0000
0000
,  // measure 123
0003
0000
0000
0000
,  // measure 124
2000
0000
0000
0000
,  // measure 125
3000
0000
0000
0000
,  // measure 126
0002
0000
0000
0000
,  // measure 127
0003
0000
0000
0000
,  // measure 128
2000
0000
0000
0000
,  // measure 129
3000
0000
0000
0000
,  // measure 130
0020
0000
0000
0000
,  // measure 131
0030
0000
0000
0000
,  // measure 132
0200
0000
0000
0000
,  // measure 133
0300
0000
0000
0000
,  // measure 134
0002
0000
0000
0000
,  // measure 135
0003
0000
0000
0000
,  // measure 136
2000
0000
0000
0000
,  // measure 137
3000
0000
0000
0000
,  // measure 138
0020
0000
0000
0000
,  // measure 139
0030
0000
0000
0000
,  // measure 140
0200
0000
0000
0000
,  // measure 141
0300
0000
0000
0000
,  // measure 142
0002
0000
0000
0000
,  // measure 143
0003
0000
0000
0000
,  // measure 144
0020
0000
0000
0000
,  // measure 145
0000
0000
0000
0000
,  // measure 146
0000
0000
0000
0000
,  // measure 147
0000
0000
0000
0000
,  // measure 148
0230
0000
0000
0000
,  // measure 149
0000
0000
0000
0000
,  // measure 150
0000
0000
0000
0000
,  // measure 151
0000
0000
0000
0000
,  // measure 152
0300
0000
0000
0000
;

//---------------dance-single - ----------------
#NOTES:
     dance-single:
     :
     Beginner:
     2:
     0.039098,0.078000,0.010263,0.239475,0.000000,80.000000,77.000000,3.000000,70.000000,0.000000,0.000000,0.039098,0.078000,0.010263,0.239475,0.000000,80.000000,77.000000,3.000000,70.000000,0.000000,0.000000:
// measure 0
0000
0000
0000
0000
,  // measure 1
0000
0000
0000
0000
,  // measure 2
0000
0000
0000
0000
,  // measure 3
0000
0000
0000
0000
,  // measure 4
2000
0000
0000
0000
,  // measure 5
0000
0000
0000
3000
,  // measure 6
0020
0000
0000
0000
,  // measure 7
0000
0000
0000
0030
,  // measure 8
2000
0000
0000
0000
,  // measure 9
3000
0000
0000
0000
,  // measure 10
0002
0000
0000
0000
,  // measure 11
0003
0000
0000
0000
,  // measure 12
2000
0000
0000
0000
,  // measure 13
3000
0000
0000
0000
,  // measure 14
0002
0000
0000
0000
,  // measure 15
0003
0000
0000
0000
,  // measure 16
2000
0000
0000
0000
,  // measure 17
3000
0000
0000
0000
,  // measure 18
0020
0000
0000
0000
,  // measure 19
0030
0000
0000
0000
,  // measure 20
0200
0000
0000
0000
,  // measure 21
0300
0000
0000
0000
,  // measure 22
0002
0000
0000
0000
,  // measure 23
0003
0000
0000
0000
,  // measure 24
2000
0000
0000
0000
,  // measure 25
3000
0000
0000
0000
,  // measure 26
0020
0000
0000
0000
,  // measure 27
0030
0000
0000
0000
,  // measure 28
0200
0000
0000
0000
,  // measure 29
0300
0000
0000
0000
,  // measure 30
0002
0000
0000
0000
,  // measure 31
0003
0000
0000
0000
,  // measure 32
2000
0000
0000
0000
,  // measure 33
0000
0000
0000
3000
,  // measure 34
0020
0000
0000
0000
,  // measure 35
0000
0000
0000
0030
,  // measure 36
0002
0000
0000
0000
,  // measure 37
0000
0000
0000
0003
,  // measure 38
0200
0000
0000
0000
,  // measure 39
0000
0000
0000
0300
,  // measure 40
0002
0000
0000
0000
,  // measure 41
0000
0000
0103
0000
,  // measure 42
2000
0000
0000
0000
,  // measure 43
0000
0000
3010
0000
,  // measure 44
0200
0000
0000
0000
,  // measure 45
0000
0000
0000
0300
,  // measure 46
0020
0000
0000
0000
,  // measure 47
0000
0000
0000
0030
,  // measure 48
1001
0000
0000
0000
,  // measure 49
2000
0000
0000
0000
,  // measure 50
3000
0000
0000
0000
,  // measure 51
0002
0000
0000
0000
,  // measure 52
0003
0000
0000
0000
,  // measure 53
2000
0000
0000
0000
,  // measure 54
3000
0000
0000
0000
,  // measure 55
0002
0000
0000
0000
,  // measure 56
0003
0000
0000
0000
,  // measure 57
2000
0000
0000
0000
,  // measure 58
3000
0000
0000
0000
,  // measure 59
0020
0000
0000
0000
,  // measure 60
0030
0000
0000
0000
,  // measure 61
0200
0000
0000
0000
,  // measure 62
0300
0000
0000
0000
,  // measure 63
0002
0000
0000
0000
,  // measure 64
0003
0000
0000
0000
,  // measure 65
2000
0000
0000
0000
,  // measure 66
3000
0000
0000
0000
,  // measure 67
0020
0000
0000
0000
,  // measure 68
0030
0000
0000
0000
,  // measure 69
0200
0000
0000
0000
,  // measure 70
0300
0000
0000
0000
,  // measure 71
0002
0000
0000
0000
,  // measure 72
0003
0000
0000
0000
,  // measure 73
2000
0000
0000
0000
,  // measure 74
0000
0000
0000
3000
,  // measure 75
0020
0000
0000
0000
,  // measure 76
0000
0000
0000
0030
,  // measure 77
0002
0000
0000
0000
,  // measure 78
0000
0000
0000
0003
,  // measure 79
0200
0000
0000
0000
,  // measure 80
0000
0000
0000
0300
,  // measure 81
0002
0000
0000
0000
,  // measure 82
0000
0000
0103
0000
,  // measure 83
2000
0000
0000
0000
,  // measure 84
0000
0000
3010
0000
,  // measure 85
0200
0000
0000
0000
,  // measure 86
0000
0000
0000
0300
,  // measure 87
0020
0000
0000
0000
,  // measure 88
0000
0000
0000
0030
,  // measure 89
1001
0000
0000
0000
,  // measure 90
2000
0000
0000
0000
,  // measure 91
3000
0000
0000
0000
,  // measure 92
0002
0000
0000
0000
,  // measure 93
0003
0000
0000
0000
,  // measure 94
2000
0000
0000
0000
,  // measure 95
3000
0000
0000
0000
,  // measure 96
0002
0000
0000
0000
,  // measure 97
0003
0000
0000
0000
,  // measure 98
2000
0000
0000
0000
,  // measure 99
3000
0000
0000
0000
,  // measure 100
0020
0000
0000
0000
,  // measure 101
0030
0000
0000
0000
,  // measure 102
0200
0000
0000
0000
,  // measure 103
0300
0000
0000
0000
,  // measure 104
0002
0000
0000
0000
,  // measure 105
0003
0000
0000
0000
,  // measure 106
0200
0000
0000
0000
,  // measure 107
0300
0000
0000
0000
,  // measure 108
0020
0000
0000
0000
,  // measure 109
0030
0000
0000
0000
,  // measure 110
2000
0000
0000
0000
,  // measure 111
0000
0000
0000
0000
,  // measure 112
3020
0000
0000
0000
,  // measure 113
0000
0000
0000
0000
,  // measure 114
0032
0000
0000
0000
,  // measure 115
0000
0000
0000
0000
,  // measure 116
0203
0000
0000
0000
,  // measure 117
0000
0000
0000
0000
,  // measure 118
0300
0000
0000
0000
,  // measure 119
1001
0000
0000
0000
,  // measure 120
2000
0000
0000
0000
,  // measure 121
3000
0000
0000
0000
,  // measure 122
0002
0000
0000
0000
,  // measure 123
0000
0003
0000
0000
,  // measure 124
2000
0000
0000
0000
,  // measure 125
3000
0000
0000
0000
,  // measure 126
0002
0000
0000
0000
,  // measure 127
0003
0000
0000
0000
,  // measure 128
2000
0000
0000
0000
,  // measure 129
3000
0000
0000
0000
,  // measure 130
0020
0000
0000
0000
,  // measure 131
0030
0000
0000
0000
,  // measure 132
0200
0000
0000
0000
,  // measure 133
0300
0000
0000
0000
,  // measure 134
0002
0000
0000
0000
,  // measure 135
0003
0000
0000
0000
,  // measure 136
2000
0000
0000
0000
,  // measure 137
3000
0000
0000
0000
,  // measure 138
0020
0000
0000
0000
,  // measure 139
0030
0000
0000
0000
,  // measure 140
0200
0000
0000
0000
,  // measure 141
0300
0000
0000
0000
,  // measure 142
0002
0000
0000
0000
,  // measure 143
0003
0000
0000
0000
,  // measure 144
0020
0000
0000
0000
,  // measure 145
0000
0000
0000
0000
,  // measure 146
0000
0000
0000
0000
,  // measure 147
0000
0000
0000
0000
,  // measure 148
0230
0000
0000
0000
,  // measure 149
0000
0000
0000
0000
,  // measure 150
0000
0000
0000
0000
,  // measure 151
0000
0000
0000
0000
,  // measure 152
0300
0000
0000
0000
;

//---------------dance-single - ----------------
#NOTES:
     dance-single:
     :
     Medium:
     2:
     0.050339,0.104001,0.047895,0.225791,0.000000,103.000000,89.000000,14.000000,66.000000,0.000000,0.000000,0.050339,0.104001,0.047895,0.225791,0.000000,103.000000,89.000000,14.000000,66.000000,0.000000,0.000000:
// measure 0
0000
0000
0000
0000
,  // measure 1
0000
0000
0000
0000
,  // measure 2
0000
0000
0000
0000
,  // measure 3
0000
0000
0000
0000
,  // measure 4
2010
0000
0000
0000
,  // measure 5
0000
0000
0000
3000
,  // measure 6
0020
0000
0000
0000
,  // measure 7
0000
0000
0000
0030
,  // measure 8
2001
0000
0000
0000
,  // measure 9
3000
0000
0000
0000
,  // measure 10
0002
0000
0000
0000
,  // measure 11
0003
0000
0000
0000
,  // measure 12
2000
0000
0000
0000
,  // measure 13
3000
0000
0000
0000
,  // measure 14
0002
0000
0000
0000
,  // measure 15
0003
0000
0000
0000
,  // measure 16
2000
0000
0000
0000
,  // measure 17
3000
0000
0000
0000
,  // measure 18
0020
0000
0000
0000
,  // measure 19
0030
0000
0000
0000
,  // measure 20
0200
0000
0000
0000
,  // measure 21
0300
0000
0000
0000
,  // measure 22
0002
0000
0000
0000
,  // measure 23
0003
0000
0000
0000
,  // measure 24
2001
0000
0000
0000
,  // measure 25
3000
0000
0000
0000
,  // measure 26
0020
0000
0000
0000
,  // measure 27
0030
0000
0000
0000
,  // measure 28
0200
0000
0000
0000
,  // measure 29
0300
0000
0000
0000
,  // measure 30
0002
0000
0000
0000
,  // measure 31
0003
0000
0000
0000
,  // measure 32
1000
0000
0000
0000
,  // measure 33
1000
0000
0000
0000
,  // measure 34
0010
0000
0000
0000
,  // measure 35
0010
0000
0000
0000
,  // measure 36
0001
0000
0000
0000
,  // measure 37
0001
0000
0000
0000
,  // measure 38
0100
0000
0000
0000
,  // measure 39
0100
0000
0000
0000
,  // measure 40
0002
0000
0000
0000
,  // measure 41
0000
0000
0103
0000
,  // measure 42
2000
0000
0000
0000
,  // measure 43
0000
0000
3010
0000
,  // measure 44
0200
0000
0000
0000
,  // measure 45
0000
0000
0000
0300
,  // measure 46
0020
0000
0000
0000
,  // measure 47
0000
0000
0000
0030
,  // measure 48
1001
0000
0000
0000
,  // measure 49
2001
0000
0000
0000
,  // measure 50
3000
0000
0000
0000
,  // measure 51
0002
0000
0000
0000
,  // measure 52
0003
0000
0000
0000
,  // measure 53
2000
0000
0000
0000
,  // measure 54
3000
0000
0000
0000
,  // measure 55
0002
0000
0000
0000
,  // measure 56
0003
0000
0000
0000
,  // measure 57
2000
0000
0000
0000
,  // measure 58
3000
0000
0000
0000
,  // measure 59
0020
0000
0000
0000
,  // measure 60
0030
0000
0000
0000
,  // measure 61
0200
0000
0000
0000
,  // measure 62
0300
0000
0000
0000
,  // measure 63
0002
0000
0000
0000
,  // measure 64
0003
0000
0000
0000
,  // measure 65
2001
0000
0000
0000
,  // measure 66
3000
0000
0000
0000
,  // measure 67
0020
0000
0000
0000
,  // measure 68
0030
0000
0000
0000
,  // measure 69
0200
0000
0000
0000
,  // measure 70
0300
0000
0000
0000
,  // measure 71
0002
0000
0000
0000
,  // measure 72
0003
0000
0000
0000
,  // measure 73
1000
0000
0000
0000
,  // measure 74
1000
0000
0000
0000
,  // measure 75
0010
0000
0000
0000
,  // measure 76
0010
0000
0000
0000
,  // measure 77
0001
0000
0000
0000
,  // measure 78
0001
0000
0000
0000
,  // measure 79
0100
0000
0000
0000
,  // measure 80
0100
0000
0000
0000
,  // measure 81
0002
0000
0000
0000
,  // measure 82
0000
0000
0103
0000
,  // measure 83
2000
0000
0000
0000
,  // measure 84
0000
0000
3010
0000
,  // measure 85
0200
0000
0000
0000
,  // measure 86
0000
0000
0000
0300
,  // measure 87
0020
0000
0000
0000
,  // measure 88
0000
0000
0000
0030
,  // measure 89
1001
0000
0000
0000
,  // measure 90
2001
0000
0000
0000
,  // measure 91
3000
0000
0000
0000
,  // measure 92
0002
0000
0000
0000
,  // measure 93
0003
0000
0000
0000
,  // measure 94
2000
0000
0000
0000
,  // measure 95
3000
0000
0000
0000
,  // measure 96
0002
0000
0000
0000
,  // measure 97
0003
0000
0000
0000
,  // measure 98
2000
0000
0000
0000
,  // measure 99
3000
0000
0000
0000
,  // measure 100
0020
0000
0000
0000
,  // measure 101
0030
0000
0000
0000
,  // measure 102
0200
0000
0000
0000
,  // measure 103
0300
0000
0000
0000
,  // measure 104
0002
0000
0000
0000
,  // measure 105
0003
0000
0000
0000
,  // measure 106
0210
0000
0000
0000
,  // measure 107
0300
0000
0000
0000
,  // measure 108
0020
0000
0000
0000
,  // measure 109
0030
0000
0000
0000
,  // measure 110
2001
0000
0000
0000
,  // measure 111
3020
0000
0000
0000
,  // measure 112
2030
0000
0000
0000
,  // measure 113
3020
0000
0000
0000
,  // measure 114
0032
0000
0000
0000
,  // measure 115
0203
0000
0000
0000
,  // measure 116
0302
0000
0000
0000
,  // measure 117
0203
0000
0000
0000
,  // measure 118
0300
0000
0000
0000
,  // measure 119
1001
0000
0000
0000
,  // measure 120
2001
0000
0000
0000
,  // measure 121
3000
0000
0000
0000
,  // measure 122
0002
0000
0000
0000
,  // measure 123
0003
0000
0000
0000
,  // measure 124
2000
0000
0000
0000
,  // measure 125
3000
0000
0000
0000
,  // measure 126
0002
0000
0000
0000
,  // measure 127
0003
0000
0000
0000
,  // measure 128
2000
0000
0000
0000
,  // measure 129
3000
0000
0000
0000
,  // measure 130
0020
0000
0000
0000
,  // measure 131
0030
0000
0000
0000
,  // measure 132
0200
0000
0000
0000
,  // measure 133
0300
0000
0000
0000
,  // measure 134
0002
0000
0000
0000
,  // measure 135
0003
0000
0000
0000
,  // measure 136
2001
0000
0000
0000
,  // measure 137
3000
0000
0000
0000
,  // measure 138
0020
0000
0000
0000
,  // measure 139
0030
0000
0000
0000
,  // measure 140
0200
0000
0000
0000
,  // measure 141
0300
0000
0000
0000
,  // measure 142
0002
0000
0000
0000
,  // measure 143
0003
0000
0000
0000
,  // measure 144
0120
0000
0000
0000
,  // measure 145
0000
0000
0000
0000
,  // measure 146
0000
0000
0000
0000
,  // measure 147
0000
0000
0000
0000
,  // measure 148
0230
0000
0000
0000
,  // measure 149
0000
0000
0000
0000
,  // measure 150
0000
0000
0000
0000
,  // measure 151
0000
0000
0000
0000
,  // measure 152
0300
0000
0000
0000
;

//---------------dance-single - ----------------
#NOTES:
     dance-single:
     :
     Hard:
     3:
     0.053271,0.104001,0.068421,0.283949,0.000000,109.000000,89.000000,20.000000,83.000000,0.000000,0.000000,0.053271,0.104001,0.068421,0.283949,0.000000,109.000000,89.000000,20.000000,83.000000,0.000000,0.000000:
// measure 0
0000
0000
0000
0000
,  // measure 1
0000
0000
0000
0000
,  // measure 2
0000
0000
0000
0000
,  // measure 3
0000
0000
0000
0000
,  // measure 4
2010
0000
0000
0000
,  // measure 5
0000
0000
0000
3000
,  // measure 6
0020
0000
0000
0000
,  // measure 7
0000
0000
0000
0030
,  // measure 8
2001
0000
0000
0000
,  // measure 9
3000
0000
0000
0000
,  // measure 10
0002
0000
0000
0000
,  // measure 11
0003
0000
0000
0000
,  // measure 12
2000
0000
0000
0000
,  // measure 13
3000
0000
0000
0000
,  // measure 14
0002
0000
0000
0000
,  // measure 15
0003
0000
0000
0000
,  // measure 16
2010
0000
0000
0000
,  // measure 17
3000
0000
0000
0000
,  // measure 18
0020
0000
0000
0000
,  // measure 19
0030
0000
0000
0000
,  // measure 20
0200
0000
0000
0000
,  // measure 21
0300
0000
0000
0000
,  // measure 22
0002
0000
0000
0000
,  // measure 23
0003
0000
0000
0000
,  // measure 24
2001
0000
0000
0000
,  // measure 25
3000
0000
0000
0000
,  // measure 26
0020
0000
0000
0000
,  // measure 27
0030
0000
0000
0000
,  // measure 28
0200
0000
0000
0000
,  // measure 29
0300
0000
0000
0000
,  // measure 30
0002
0000
0000
0000
,  // measure 31
0003
0000
0000
0000
,  // measure 32
2000
0000
0000
3000
,  // measure 33
1000
0000
0000
0000
,  // measure 34
0020
0000
0000
0030
,  // measure 35
0010
0000
0000
0000
,  // measure 36
0002
0000
0000
0003
,  // measure 37
0001
0000
0000
0000
,  // measure 38
0200
0000
0000
0300
,  // measure 39
0100
0000
0000
0000
,  // measure 40
0002
0000
0200
0000
,  // measure 41
0000
0000
0303
0000
,  // measure 42
2000
0000
0020
0000
,  // measure 43
0000
0000
3030
0000
,  // measure 44
0210
0000
0000
0000
,  // measure 45
0000
0000
0000
0300
,  // measure 46
0020
0000
0000
0000
,  // measure 47
0000
0000
0000
0030
,  // measure 48
2002
0000
0000
3003
,  // measure 49
2001
0000
0000
0000
,  // measure 50
3000
0000
0000
0000
,  // measure 51
0002
0000
0000
0000
,  // measure 52
0003
0000
0000
0000
,  // measure 53
2000
0000
0000
0000
,  // measure 54
3000
0000
0000
0000
,  // measure 55
0002
0000
0000
0000
,  // measure 56
0003
0000
0000
0000
,  // measure 57
2010
0000
0000
0000
,  // measure 58
3000
0000
0000
0000
,  // measure 59
0020
0000
0000
0000
,  // measure 60
0030
0000
0000
0000
,  // measure 61
0200
0000
0000
0000
,  // measure 62
0300
0000
0000
0000
,  // measure 63
0002
0000
0000
0000
,  // measure 64
0003
0000
0000
0000
,  // measure 65
2001
0000
0000
0000
,  // measure 66
3000
0000
0000
0000
,  // measure 67
0020
0000
0000
0000
,  // measure 68
0030
0000
0000
0000
,  // measure 69
0200
0000
0000
0000
,  // measure 70
0300
0000
0000
0000
,  // measure 71
0002
0000
0000
0000
,  // measure 72
0003
0000
0000
0000
,  // measure 73
2000
0000
0000
3000
,  // measure 74
1000
0000
0000
0000
,  // measure 75
0020
0000
0000
0030
,  // measure 76
0010
0000
0000
0000
,  // measure 77
0002
0000
0000
0003
,  // measure 78
0001
0000
0000
0000
,  // measure 79
0200
0000
0000
0300
,  // measure 80
0100
0000
0000
0000
,  // measure 81
0002
0000
0200
0000
,  // measure 82
0000
0000
0303
0000
,  // measure 83
2000
0000
0020
0000
,  // measure 84
0000
0000
3030
0000
,  // measure 85
0210
0000
0000
0000
,  // measure 86
0000
0000
0000
0300
,  // measure 87
0020
0000
0000
0000
,  // measure 88
0000
0000
0000
0030
,  // measure 89
2002
0000
0000
3003
,  // measure 90
2001
0000
0000
0000
,  // measure 91
3000
0000
0000
0000
,  // measure 92
0002
0000
0000
0000
,  // measure 93
0003
0000
0000
0000
,  // measure 94
2000
0000
0000
0000
,  // measure 95
3000
0000
0000
0000
,  // measure 96
0002
0000
0000
0000
,  // measure 97
0003
0000
0000
0000
,  // measure 98
2010
0000
0000
0000
,  // measure 99
3000
0000
0000
0000
,  // measure 100
0020
0000
0000
0000
,  // measure 101
0030
0000
0000
0000
,  // measure 102
0200
0000
0000
0000
,  // measure 103
0300
0000
0000
0000
,  // measure 104
0002
0000
0000
0000
,  // measure 105
0003
0000
0000
0000
,  // measure 106
0210
0000
0000
0000
,  // measure 107
0300
0000
0000
0000
,  // measure 108
0020
0000
0000
0000
,  // measure 109
0030
0000
0000
0000
,  // measure 110
2001
0000
0000
0000
,  // measure 111
3020
0000
0000
0000
,  // measure 112
2030
0000
0000
0000
,  // measure 113
3020
0000
0000
0000
,  // measure 114
0032
0000
0000
0000
,  // measure 115
0203
0000
0000
0000
,  // measure 116
0302
0000
0000
0000
,  // measure 117
0203
0000
0000
0000
,  // measure 118
0300
0000
0000
0000
,  // measure 119
1001
0000
0000
0000
,  // measure 120
2001
0000
0000
0000
,  // measure 121
3000
0000
0000
0000
,  // measure 122
0002
0000
0000
0000
,  // measure 123
0003
0000
0000
0000
,  // measure 124
2000
0000
0000
0000
,  // measure 125
3000
0000
0000
0000
,  // measure 126
0002
0000
0000
0000
,  // measure 127
0003
0000
0000
0000
,  // measure 128
2010
0000
0000
0000
,  // measure 129
3000
0000
0000
0000
,  // measure 130
0020
0000
0000
0000
,  // measure 131
0030
0000
0000
0000
,  // measure 132
0200
0000
0000
0000
,  // measure 133
0300
0000
0000
0000
,  // measure 134
0002
0000
0000
0000
,  // measure 135
0003
0000
0000
0000
,  // measure 136
2001
0000
0000
0000
,  // measure 137
3000
0000
0000
0000
,  // measure 138
0020
0000
0000
0000
,  // measure 139
0030
0000
0000
0000
,  // measure 140
0200
0000
0000
0000
,  // measure 141
0300
0000
0000
0000
,  // measure 142
0002
0000
0000
0000
,  // measure 143
0003
0000
0000
0000
,  // measure 144
0220
0000
0000
0000
,  // measure 145
0000
0000
0000
0000
,  // measure 146
0300
0000
0000
0000
,  // measure 147
0000
0000
0000
0000
,  // measure 148
0200
0000
0000
0000
,  // measure 149
0000
0000
0000
0000
,  // measure 150
0000
0000
0000
0000
,  // measure 151
0000
0000
0000
0000
,  // measure 152
0330
0000
0000
0000
;

//---------------dance-single - ----------------
#NOTES:
     dance-single:
     :
     Challenge:
     3:
     0.055715,0.104001,0.085527,0.352370,0.000000,114.000000,89.000000,25.000000,103.000000,0.000000,0.000000,0.055715,0.104001,0.085527,0.352370,0.000000,114.000000,89.000000,25.000000,103.000000,0.000000,0.000000:
// measure 0
0000
0000
0000
0000
,  // measure 1
0000
0000
0000
0000
,  // measure 2
0000
0000
0000
0000
,  // measure 3
0000
0000
0000
0000
,  // measure 4
2010
0000
0000
0000
,  // measure 5
0000
0000
0000
3000
,  // measure 6
1020
0000
0000
0000
,  // measure 7
0000
0000
0000
0030
,  // measure 8
2002
0000
0000
0000
,  // measure 9
3003
0000
0000
0000
,  // measure 10
0002
0000
0000
0000
,  // measure 11
0003
0000
0000
0000
,  // measure 12
2000
0000
0000
0000
,  // measure 13
3000
0000
0000
0000
,  // measure 14
0002
0000
0000
0000
,  // measure 15
0003
0000
0000
0000
,  // measure 16
2010
0000
0000
0000
,  // measure 17
3000
0000
0000
0000
,  // measure 18
0020
0000
0000
0000
,  // measure 19
0030
0000
0000
0000
,  // measure 20
0201
0000
0000
0000
,  // measure 21
0300
0000
0000
0000
,  // measure 22
0002
0000
0000
0000
,  // measure 23
0003
0000
0000
0000
,  // measure 24
2002
0000
0000
0000
,  // measure 25
3003
0000
0000
0000
,  // measure 26
0020
0000
0000
0000
,  // measure 27
0030
0000
0000
0000
,  // measure 28
0200
0000
0000
0000
,  // measure 29
0300
0000
0000
0000
,  // measure 30
0002
0000
0000
0000
,  // measure 31
0003
0000
0000
0000
,  // measure 32
2000
0000
0000
3000
,  // measure 33
2000
0000
0000
3000
,  // measure 34
0020
0000
0000
0030
,  // measure 35
0020
0000
0000
0030
,  // measure 36
0002
0000
0000
0003
,  // measure 37
0002
0000
0000
0003
,  // measure 38
0200
0000
0000
0300
,  // measure 39
0200
0000
0000
0300
,  // measure 40
0002
0000
0200
0000
,  // measure 41
0000
0000
0303
0000
,  // measure 42
2000
0000
0020
0000
,  // measure 43
0000
0000
3030
0000
,  // measure 44
0220
0000
0000
0000
,  // measure 45
0030
0000
0000
0000
,  // measure 46
0020
0000
0000
0000
,  // measure 47
0000
0000
0000
0330
,  // measure 48
2002
0000
0000
3003
,  // measure 49
2002
0000
0000
0000
,  // measure 50
3003
0000
0000
0000
,  // measure 51
0002
0000
0000
0000
,  // measure 52
0003
0000
0000
0000
,  // measure 53
2000
0000
0000
0000
,  // measure 54
3000
0000
0000
0000
,  // measure 55
0002
0000
0000
0000
,  // measure 56
0003
0000
0000
0000
,  // measure 57
2010
0000
0000
0000
,  // measure 58
3000
0000
0000
0000
,  // measure 59
0020
0000
0000
0000
,  // measure 60
0030
0000
0000
0000
,  // measure 61
0201
0000
0000
0000
,  // measure 62
0300
0000
0000
0000
,  // measure 63
0002
0000
0000
0000
,  // measure 64
0003
0000
0000
0000
,  // measure 65
2002
0000
0000
0000
,  // measure 66
3003
0000
0000
0000
,  // measure 67
0020
0000
0000
0000
,  // measure 68
0030
0000
0000
0000
,  // measure 69
0200
0000
0000
0000
,  // measure 70
0300
0000
0000
0000
,  // measure 71
0002
0000
0000
0000
,  // measure 72
0003
0000
0000
0000
,  // measure 73
2000
0000
0000
3000
,  // measure 74
2000
0000
0000
3000
,  // measure 75
0020
0000
0000
0030
,  // measure 76
0020
0000
0000
0030
,  // measure 77
0002
0000
0000
0003
,  // measure 78
0002
0000
0000
0003
,  // measure 79
0200
0000
0000
0300
,  // measure 80
0200
0000
0000
0300
,  // measure 81
0002
0000
0200
0000
,  // measure 82
0000
0000
0303
0000
,  // measure 83
2000
0000
0020
0000
,  // measure 84
0000
0000
3030
0000
,  // measure 85
0220
0000
0000
0000
,  // measure 86
0030
0000
0000
0000
,  // measure 87
0020
0000
0000
0000
,  // measure 88
0000
0000
0000
0330
,  // measure 89
2002
0000
0000
3003
,  // measure 90
2001
0000
0000
0000
,  // measure 91
3000
0000
0000
0000
,  // measure 92
0002
0000
0000
0000
,  // measure 93
0003
0000
0000
0000
,  // measure 94
2000
0000
0000
0000
,  // measure 95
3000
0000
0000
0000
,  // measure 96
0002
0000
0000
0000
,  // measure 97
0003
0000
0000
0000
,  // measure 98
2010
0000
0000
0000
,  // measure 99
3000
0000
0000
0000
,  // measure 100
0020
0000
0000
0000
,  // measure 101
0030
0000
0000
0000
,  // measure 102
0201
0000
0000
0000
,  // measure 103
0300
0000
0000
0000
,  // measure 104
0002
0000
0000
0000
,  // measure 105
0003
0000
0000
0000
,  // measure 106
0220
0000
0000
0000
,  // measure 107
0330
0000
0000
0000
,  // measure 108
0020
0000
0000
0000
,  // measure 109
0030
0000
0000
0000
,  // measure 110
2002
0000
0003
0000
,  // measure 111
3020
0000
0000
0000
,  // measure 112
2030
0000
0000
0000
,  // measure 113
3020
0000
0000
0000
,  // measure 114
0032
0000
0000
0000
,  // measure 115
0203
0000
0000
0000
,  // measure 116
0302
0000
0000
0000
,  // measure 117
0203
0000
0000
0000
,  // measure 118
0300
0000
0000
0000
,  // measure 119
2002
0000
0000
3003
,  // measure 120
2002
0000
0000
0000
,  // measure 121
3003
0000
0000
0000
,  // measure 122
0002
0000
0000
0000
,  // measure 123
0003
0000
0000
0000
,  // measure 124
2000
0000
0000
0000
,  // measure 125
3000
0000
0000
0000
,  // measure 126
0002
0000
0000
0000
,  // measure 127
0003
0000
0000
0000
,  // measure 128
2010
0000
0000
0000
,  // measure 129
3000
0000
0000
0000
,  // measure 130
0020
0000
0000
0000
,  // measure 131
0030
0000
0000
0000
,  // measure 132
0201
0000
0000
0000
,  // measure 133
0300
0000
0000
0000
,  // measure 134
0002
0000
0000
0000
,  // measure 135
0003
0000
0000
0000
,  // measure 136
2002
0000
0000
0000
,  // measure 137
3003
0000
0000
0000
,  // measure 138
0020
0000
0000
0000
,  // measure 139
0030
0000
0000
0000
,  // measure 140
0200
0000
0000
0000
,  // measure 141
0300
0000
0000
0000
,  // measure 142
0002
0000
0000
0000
,  // measure 143
0003
0000
0000
0000
,  // measure 144
0220
0000
0000
0000
,  // measure 145
0000
0000
0000
0000
,  // measure 146
0300
0000
0000
0000
,  // measure 147
0000
0000
0000
0000
,  // measure 148
0200
0000
0000
0000
,  // measure 149
0000
0000
0000
0000
,  // measure 150
0000
0000
0000
0000
,  // measure 151
0000
0000
0000
0000
,  // measure 152
0330
0000
0000
0000
;

//---------------dance-single - Deluxe----------------
#NOTES:
     dance-single:
     :
     Edit:
     3:
     0.056692,0.104001,0.092369,0.396844,0.000000,116.000000,89.000000,27.000000,116.000000,0.000000,0.000000,0.056692,0.104001,0.092369,0.396844,0.000000,116.000000,89.000000,27.000000,116.000000,0.000000,0.000000:
// measure 0
0000
0000
0000
0000
,  // measure 1
0000
0000
0000
0000
,  // measure 2
0000
0000
0000
0000
,  // measure 3
0000
0000
0000
0000
,  // measure 4
2020
0000
0000
0030
,  // measure 5
0000
0000
0000
3000
,  // measure 6
2020
0000
0000
3000
,  // measure 7
0000
0000
0000
0030
,  // measure 8
2002
0000
0000
0000
,  // measure 9
3003
0000
0000
0000
,  // measure 10
0002
0000
0000
0000
,  // measure 11
0003
0000
0000
0000
,  // measure 12
2000
0000
0000
0000
,  // measure 13
3000
0000
0000
0000
,  // measure 14
0002
0000
0000
0000
,  // measure 15
0003
0000
0000
0000
,  // measure 16
2020
0000
0000
0000
,  // measure 17
3030
0000
0000
0000
,  // measure 18
0020
0000
0000
0000
,  // measure 19
0030
0000
0000
0000
,  // measure 20
0202
0000
0000
0000
,  // measure 21
0303
0000
0000
0000
,  // measure 22
0002
0000
0000
0000
,  // measure 23
0003
0000
0000
0000
,  // measure 24
2002
0000
0000
0000
,  // measure 25
3003
0000
0000
0000
,  // measure 26
0020
0000
0000
0000
,  // measure 27
0030
0000
0000
0000
,  // measure 28
0200
0000
0000
0000
,  // measure 29
0300
0000
0000
0000
,  // measure 30
0002
0000
0000
0000
,  // measure 31
0003
0000
0000
0000
,  // measure 32
2002
0000
0000
3003
,  // measure 33
2000
0000
0000
3000
,  // measure 34
0020
0000
0000
0030
,  // measure 35
0020
0000
0000
0030
,  // measure 36
0002
0000
0000
0003
,  // measure 37
0002
0000
0000
0003
,  // measure 38
0200
0000
0000
0300
,  // measure 39
0200
0000
0000
0300
,  // measure 40
0002
0000
0200
0000
,  // measure 41
0000
0000
0303
0000
,  // measure 42
2000
0000
0020
0000
,  // measure 43
0000
0000
3030
0000
,  // measure 44
0220
0000
0000
0000
,  // measure 45
0030
0000
0000
0000
,  // measure 46
0020
0000
0000
0000
,  // measure 47
0000
0000
0000
0330
,  // measure 48
2002
0000
0000
3003
,  // measure 49
2002
0000
0000
0000
,  // measure 50
3003
0000
0000
0000
,  // measure 51
0002
0000
0000
0000
,  // measure 52
0003
0000
0000
0000
,  // measure 53
2000
0000
0000
0000
,  // measure 54
3000
0000
0000
0000
,  // measure 55
0002
0000
0000
0000
,  // measure 56
0003
0000
0000
0000
,  // measure 57
2020
0000
0000
0000
,  // measure 58
3030
0000
0000
0000
,  // measure 59
0020
0000
0000
0000
,  // measure 60
0030
0000
0000
0000
,  // measure 61
0202
0000
0000
0000
,  // measure 62
0303
0000
0000
0000
,  // measure 63
0002
0000
0000
0000
,  // measure 64
0003
0000
0000
0000
,  // measure 65
2002
0000
0000
0000
,  // measure 66
3003
0000
0000
0000
,  // measure 67
0020
0000
0000
0000
,  // measure 68
0030
0000
0000
0000
,  // measure 69
0200
0000
0000
0000
,  // measure 70
0300
0000
0000
0000
,  // measure 71
0002
0000
0000
0000
,  // measure 72
0003
0000
0000
0000
,  // measure 73
2002
0000
0000
3003
,  // measure 74
2000
0000
0000
3000
,  // measure 75
0020
0000
0000
0030
,  // measure 76
0020
0000
0000
0030
,  // measure 77
0002
0000
0000
0003
,  // measure 78
0002
0000
0000
0003
,  // measure 79
0200
0000
0000
0300
,  // measure 80
0200
0000
0000
0300
,  // measure 81
0002
0000
0200
0000
,  // measure 82
0000
0000
0303
0000
,  // measure 83
2000
0000
0020
0000
,  // measure 84
0000
0000
3030
0000
,  // measure 85
0220
0000
0000
0000
,  // measure 86
0030
0000
0000
0000
,  // measure 87
0020
0000
0000
0000
,  // measure 88
0000
0000
0000
0330
,  // measure 89
2002
0000
0000
3003
,  // measure 90
2002
0000
0000
0000
,  // measure 91
3003
0000
0000
0000
,  // measure 92
0002
0000
0000
0000
,  // measure 93
0003
0000
0000
0000
,  // measure 94
2000
0000
0000
0000
,  // measure 95
3000
0000
0000
0000
,  // measure 96
0002
0000
0000
0000
,  // measure 97
0003
0000
0000
0000
,  // measure 98
2020
0000
0000
0000
,  // measure 99
3030
0000
0000
0000
,  // measure 100
0020
0000
0000
0000
,  // measure 101
0030
0000
0000
0000
,  // measure 102
0202
0000
0000
0000
,  // measure 103
0303
0000
0000
0000
,  // measure 104
0002
0000
0000
0000
,  // measure 105
0003
0000
0000
0000
,  // measure 106
0220
0000
0000
0000
,  // measure 107
0330
0000
0000
0000
,  // measure 108
0020
0000
0000
0000
,  // measure 109
0030
0000
0000
0000
,  // measure 110
2002
0000
0003
0000
,  // measure 111
3020
0000
0000
0000
,  // measure 112
2030
0000
0000
0000
,  // measure 113
3020
0000
0000
0000
,  // measure 114
0032
0000
0000
0000
,  // measure 115
0203
0000
0000
0000
,  // measure 116
0302
0000
0000
0000
,  // measure 117
0203
0000
0000
0000
,  // measure 118
0300
0000
0000
0000
,  // measure 119
2002
0000
0000
3003
,  // measure 120
2002
0000
0000
0000
,  // measure 121
3003
0000
0000
0000
,  // measure 122
0002
0000
0000
0000
,  // measure 123
0003
0000
0000
0000
,  // measure 124
2000
0000
0000
0000
,  // measure 125
3000
0000
0000
0000
,  // measure 126
0002
0000
0000
0000
,  // measure 127
0003
0000
0000
0000
,  // measure 128
2020
0000
0000
0000
,  // measure 129
3030
0000
0000
0000
,  // measure 130
0020
0000
0000
0000
,  // measure 131
0030
0000
0000
0000
,  // measure 132
0202
0000
0000
0000
,  // measure 133
0303
0000
0000
0000
,  // measure 134
0002
0000
0000
0000
,  // measure 135
0003
0000
0000
0000
,  // measure 136
2002
0000
0000
0000
,  // measure 137
3003
0000
0000
0000
,  // measure 138
0020
0000
0000
0000
,  // measure 139
0030
0000
0000
0000
,  // measure 140
0200
0000
0000
0000
,  // measure 141
0300
0000
0000
0000
,  // measure 142
0002
0000
0000
0000
,  // measure 143
0003
0000
0000
0000
,  // measure 144
0220
0000
0000
0000
,  // measure 145
0000
0000
0000
0000
,  // measure 146
0300
0000
0000
0000
,  // measure 147
0000
0000
0000
0000
,  // measure 148
0200
0000
0000
0000
,  // measure 149
0000
0000
0000
0000
,  // measure 150
0000
0000
0000
0000
,  // measure 151
0000
0000
0000
0000
,  // measure 152
0330
0000
0000
0000
;
