#TITLE:exes;
#SUBTITLE:;
#ARTIST:Tate McRae;
#TITLETRANSLIT:;
#SUBTITLETRANSLIT:;
#ARTISTTRANSLIT:;
#GENRE:;
#CREDIT:;
#BANNER:exes.png;
#BACKGROUND:exes-bg.png;
#LYRICSPATH:;
#CDTITLE:;
#MUSIC:exes.ogg;
#OFFSET:0.015000;
#SAMPLESTART:15.677000;
#SAMPLELENGTH:12.000000;
#SELECTABLE:YES;
#BPMS:0.000000=137.000000
;
#STOPS:
;
#BGCHANGES:;
#KEYSOUNDS:;
#ATTACKS:;

//---------------dance-single - ----------------
#NOTES:
     dance-single:
     :
     Hard:
     13:
     0.623004,0.591422,0.367448,0.174054,0.145045,451.000000,413.000000,38.000000,18.000000,0.000000,0.000000,0.623004,0.591422,0.367448,0.174054,0.145045,451.000000,413.000000,38.000000,18.000000,0.000000,0.000000:
0000
0000
0000
0000
,
1002
0000
0000
0103
0010
0002
0000
0000
,
0013
1000
0100
0010
0001
0100
0100
0100
,
2001
0000
0000
3010
0100
2000
0000
0000
,
3100
0001
0010
1000
0010
0001
0100
0000
,
0010
0000
1001
0001
0010
0100
1001
0000
,
1000
0100
0110
0001
1000
0010
0010
0010
,
0100
0000
0110
1000
0100
0001
0110
0000
,
0001
1000
1010
1000
0100
0010
0010
0010
,
0001
0100
0010
1000
0100
0001
0100
1000
,
0010
0010
1000
0001
0100
0100
0010
0010
,
1000
0100
0010
0001
0100
1000
0001
0010
,
1000
1000
0100
0010
0001
0001
1001
0000
,
1000
0010
0000
0000
0100
0100
0000
0000
0001
0010
0000
0000
0100
0000
0100
0000
,
1000
0010
1000
0100
0010
0001
1001
0000
,
1000
0010
0001
1000
0100
0001
0010
0100
,
1000
0010
0110
0000
1000
0100
0010
0001
,
1000
0000
1001
0000
0001
1000
0001
1000
,
0001
0100
0010
0100
0000
0001
0011
0000
,
1000
0100
0010
0000
0001
0100
0001
0000
0010
0000
0010
0001
1000
0000
0010
0000
,
0100
0001
0010
0001
0000
1000
1010
0010
,
0100
0100
0001
0000
1000
0100
0010
0001
,
1000
0000
0010
0000
0100
0000
0010
0000
0000
0000
1000
0000
1100
0000
0010
0001
,
1000
0000
0010
0000
0100
0001
0010
0000
0001
0000
0100
0010
1000
0000
0100
0000
,
0010
0010
0001
1000
0000
0010
0110
0100
,
0001
0000
0000
0000
2000
0100
0000
0000
3200
0010
0000
0000
0310
0001
0000
0000
,
0001
0100
0000
2010
0000
0000
0100
0000
3100
0000
0010
0000
0011
0000
0001
0000
,
1000
0000
0000
0000
0020
0100
0000
0000
0230
0001
0000
0000
0301
1000
0000
0000
,
1000
0100
0000
0012
0000
0000
0100
0000
0103
0000
0010
0000
1010
0000
1000
0000
,
0001
0000
0000
0000
0020
0001
0000
0000
0230
1000
0000
0000
0320
0001
0000
0000
,
0130
0000
0000
0100
0000
0000
0100
0000
1000
0000
0001
0000
0200
0000
0000
0000
,
2000
0000
3000
0000
0301
0010
0100
1000
,
0001
0000
0000
0000
0100
0010
0000
0000
0100
0000
0000
0000
0100
0000
0000
0000
,
0001
1000
0001
0020
0100
0100
0100
0130
,
1000
0010
0100
0001
0010
1000
0010
0001
,
0100
0100
0001
1000
0010
0010
0100
0100
,
0001
0010
0100
1000
0010
0001
1000
0100
,
0001
0001
0010
0100
1000
1000
1001
0000
,
0001
0100
0000
0000
0010
0010
0000
0000
1000
0100
0000
0000
0010
0000
0010
0000
,
0001
1000
0100
0001
0100
1000
1001
0000
,
0001
0100
0010
0001
0010
0100
0001
1000
,
1010
0000
0101
0000
1000
0001
0010
0100
,
1002
0000
0000
0100
0103
0010
1010
0000
,
1001
1000
0100
0001
0100
0010
0010
0010
,
0120
0000
0000
0001
0031
0100
1010
0000
,
0101
0001
0010
1000
0010
0001
1001
0000
,
1000
0100
1001
0010
0001
0100
0110
0010
,
1000
0100
1000
0001
0010
0100
1001
0000
,
0001
0100
1010
0010
1000
0100
1001
0010
,
0001
1000
0100
0001
0100
1000
1010
0000
,
0001
0001
0100
0010
0100
0100
1000
0100
,
0001
0001
0010
0100
1000
1000
0010
0010
,
0100
0100
1000
0001
0010
0010
1000
0100
,
1000
1000
0001
0100
0010
0010
0100
0001
,
0001
0010
0000
0000
0010
0100
0000
0000
0100
0001
0000
0000
0001
0000
0100
0000
,
1000
1000
0010
0100
0010
0010
0000
0001
,
0010
0100
1000
0001
0010
1000
0100
0010
,
0001
0000
1001
0000
1000
0010
0100
0001
,
0010
0010
0000
0000
;

//---------------dance-double - ----------------
#NOTES:
     dance-double:
     :
     Hard:
     13:
     0.596758,0.591422,0.193394,0.106367,0.145045,432.000000,412.000000,20.000000,11.000000,0.000000,0.000000,0.596758,0.591422,0.193394,0.106367,0.145045,432.000000,412.000000,20.000000,11.000000,0.000000,0.000000:
00000000
00000000
00000000
00000000
,
00000002
00000000
00000000
00000010
00000013
00000200
00000000
00000000
,
00000301
00000100
00001000
00000010
00010000
00100000
00100000
00100000
,
20000000
00000000
00000000
01000000
31000000
00200000
00000000
00000000
,
10300000
00100000
00010000
01000000
00001000
00000100
00000001
00000000
,
00001000
00000000
00001001
00000001
00000010
00000100
00001001
00000000
,
00000001
00000010
00001000
00010000
00100000
10000000
10000000
10000000
,
01000000
00000000
01100000
00100000
00010000
10000000
01100000
00000000
,
00100000
10000000
01000000
00010000
00001000
00000010
00000010
00000010
,
00000001
00000100
00000010
00010000
00000100
00000010
00000001
00000010
,
00001000
00001000
00010000
00100000
10000000
10000000
00010000
00010000
,
10000000
01000000
00100000
10000000
00100000
00001000
00010000
00001000
,
00000100
00000010
00000001
00000010
00001000
00000001
00001000
00000000
,
00000100
00000010
00000000
00000000
00001000
00010000
00000000
00000000
00000010
00000100
00000000
00000000
00001000
00000000
00010000
00000000
,
00100000
00100000
10000000
00010000
01000000
01000000
00100000
00000000
,
10000000
01000000
00100000
00001000
00010000
00100000
10000000
00100000
,
00010000
00000000
00011000
00000000
00001000
00000010
00000001
00000010
,
00001000
00000000
00011000
00000000
00001000
00010000
00001000
00010000
,
00100000
10000000
01000000
10000000
00000000
00010000
00110000
00000000
,
10000000
01000000
00100000
00000000
00001000
01000000
00001000
00000000
00100000
00000000
00100000
00010000
10000000
00000000
01000000
00000000
,
00010000
00001000
00000010
00001000
00000000
00010000
00110000
00100000
,
10000000
10000000
01000000
00000000
00010000
00001000
00010000
00001000
,
00000100
00000000
00000001
00000000
00000010
00000000
00000001
00000000
00000000
00000000
00001000
00000000
00001010
00000000
00000010
00001000
,
00000100
00000000
00000010
00000000
00000010
00000001
00001000
00000000
00000100
00000000
00010000
00001000
01000000
00000000
00001000
00000000
,
00000100
00000010
00001000
00000010
00000000
00000001
00000011
00000010
,
00000100
00000000
00000000
00000000
00000001
00000010
00000000
00000000
00001000
00010000
00000000
00000000
01000000
10000000
00000000
00000000
,
00010000
01000000
00000000
10200000
00000000
00000000
01000000
00000000
01300000
00000000
00001000
00000000
00011000
00000000
00100000
00000000
,
01000000
00000000
00000000
00000000
10000000
00100000
00000000
00000000
00010000
00001000
00000000
00000000
00000100
00000001
00000000
00000000
,
00001000
00000100
00000000
00000021
00000000
00000000
00000100
00000000
00000130
00000000
00010000
00000000
00011000
00000000
00000010
00000000
,
00000100
00000000
00000000
00000000
00000001
00000010
00000000
00000000
00001000
00010000
00000000
00000000
01000000
10000000
00000000
00000000
,
00100000
00000000
00000000
00100000
00000000
00000000
00100000
00000000
00010000
00000000
00100000
00000000
02000000
00000000
00000000
00000000
,
20000000
00000000
30000000
00000000
03001000
00010000
01000000
00010000
,
00001000
00000000
00000000
00000000
00000010
00000001
00000000
00000000
00000100
00000000
00000000
00000000
00000100
00000000
00000000
00000000
,
00000001
00000010
00001000
00020000
00100000
00100000
00100000
00130000
,
10000000
01000000
00100000
00001000
01000000
00010000
00100000
01000000
,
10000000
10000000
00100000
00010000
00001000
00001000
00000010
00000010
,
00000001
00000100
00000010
00000001
00000010
00000100
00001000
00000100
,
00000010
00010000
00100000
10000000
01000000
00100000
00001000
00000000
,
01000000
00100000
00000000
00000000
00010000
00001000
00000000
00000000
00100000
01000000
00000000
00000000
00010000
00000000
00001000
00000000
,
00000010
00000001
00000100
00000010
00010000
00000100
00010000
00000000
,
00000100
00001000
00000010
00000001
00001000
00000100
00000001
00000100
,
00001000
00000000
00011000
00000000
00010000
01000000
10000000
01000000
,
00120000
00000000
00000000
10000000
10030000
00100000
10000000
00000000
,
01000000
00010000
00001000
00000010
00000001
00000100
00000100
00000100
,
00000120
00000000
00000000
00000001
00000031
00000010
00001000
00000000
,
00000001
00000100
00000010
00010000
00000100
00000010
00000100
00000000
,
00010000
00100000
10000000
00100000
01000000
00001000
00000010
00000001
,
00000010
00000100
00010000
00000010
00000100
00000010
00001010
00000000
,
00001000
00000001
00000010
00001000
00010000
00100000
10000000
00010000
,
01000000
00001000
00010000
01000000
00100000
00001000
00011000
00000000
,
00001000
00001000
00000010
00000001
00000100
00000100
00000001
00000010
,
00000100
00010000
00000010
00001000
00000100
00000010
00001000
00001000
,
00010000
00010000
00100000
01000000
10000000
10000000
01000000
00010000
,
00100000
00100000
00001000
01000000
00100000
10000000
00100000
00010000
,
00001000
00000100
00000000
00000000
00000010
00010000
00000000
00000000
00001000
01000000
00000000
00000000
00001000
00000000
00010000
00000000
,
00000100
00000010
00000001
00001000
00000010
00001000
00000000
00000001
,
00000010
00000100
00010000
00001000
00010000
00100000
01000000
00010000
,
10000000
00000000
11000000
00000000
00010000
00100000
01000000
10000000
,
00100000
00100000
00000000
00000000
;

//---------------dance-single - ----------------
#NOTES:
     dance-single:
     :
     Medium:
     10:
     0.505586,0.506933,0.464145,0.154715,0.000000,366.000000,318.000000,48.000000,16.000000,0.000000,0.000000,0.505586,0.506933,0.464145,0.154715,0.000000,366.000000,318.000000,48.000000,16.000000,0.000000,0.000000:
0000
0000
0000
0000
,
1002
0000
0000
0100
0103
0200
0000
0300
,
0010
1000
0010
0100
0010
1000
0000
0000
,
2001
0000
0000
0100
3100
0200
0000
0300
,
0010
0001
1000
0001
0100
0001
0000
0000
,
1000
1100
0001
0101
,
1000
0000
1010
0000
0001
0010
0011
0000
,
0100
1001
0010
1001
,
0100
0000
1001
0000
1000
0001
1000
0001
,
1000
0100
0010
0001
0010
0100
1000
0000
,
0001
0100
0001
0000
1000
0010
1000
0000
,
0001
0010
0100
1000
0100
0010
0001
0000
,
0100
0010
0100
0010
1000
0001
1000
0000
,
0011
0101
1010
1100
,
1000
0001
0100
0001
0100
0010
0000
0000
,
1000
0100
0010
0100
1000
0000
0010
0100
,
0010
0000
1000
0000
0100
0010
0100
0010
,
0100
0100
0100
0000
,
1000
0001
0100
0010
0000
0010
0100
0000
,
0001
1000
0100
0000
0100
1000
0001
0000
,
0010
0100
1000
0010
0000
0100
0101
0000
,
1001
0000
0000
0000
0001
1000
0001
1000
,
0010
0100
0001
0010
0000
0010
0001
0000
,
1000
0010
0100
0000
0100
0001
1000
0000
,
0100
0010
0001
0100
0000
0010
1010
1000
,
0001
0011
0110
1100
,
0001
0100
0101
0000
0010
1000
1010
1000
,
0100
1100
0110
0011
,
1000
0010
1010
0000
0100
0001
0101
0001
,
0010
0011
0110
1100
,
0002
0000
2003
0000
,
3020
0000
0230
0001
,
0301
0001
0001
0001
,
0001
1000
0001
1000
0001
1000
0001
1000
,
0001
0010
0100
1000
0100
0010
0001
0000
,
1000
0010
1000
0000
0001
0100
0001
0000
,
1000
0010
0100
0001
0100
0010
1000
0000
,
0001
0010
0100
0000
1000
0010
0100
0000
,
1001
1100
0011
0110
,
1000
0010
0100
0010
1000
0010
0000
0000
,
0100
0001
1000
0001
0100
0000
0010
0100
,
0010
0000
0010
0000
1000
0001
1000
0001
,
2001
0000
0000
3010
0010
0200
0000
0300
,
0001
0010
0100
1000
0010
1000
0000
0000
,
1002
0000
0000
0103
0100
0020
0000
0030
,
1000
0010
0100
0001
0010
0001
0000
0000
,
1000
0000
1100
0000
1000
0010
1010
0000
,
0001
0000
0011
0000
0001
0100
0101
0000
,
0100
0000
1001
0000
0010
0100
1001
0000
,
1000
0000
0110
0000
0001
0100
0110
0000
,
0010
1000
0020
0000
0130
0001
0200
0000
,
0310
1000
0100
0010
0001
0100
0001
0000
,
1000
0010
2000
0000
3001
0100
0002
0000
,
0013
0100
1000
0001
0100
0010
0100
0000
,
0101
1001
1100
0110
,
0010
0001
1000
0000
1000
0001
0100
0000
,
0010
1000
0010
0100
0010
0001
0010
0100
,
0010
1000
0001
0000
0001
0000
0010
0100
,
1000
1001
0000
0000
;

//---------------dance-single - ----------------
#NOTES:
     dance-single:
     :
     Easy:
     7:
     0.314955,0.366118,0.212733,0.222403,0.000000,228.000000,206.000000,22.000000,23.000000,0.000000,0.000000,0.314955,0.366118,0.212733,0.222403,0.000000,228.000000,206.000000,22.000000,23.000000,0.000000,0.000000:
0000
0000
0000
0000
,
2000
0000
3002
0000
,
1003
0000
1000
0000
1000
1000
0000
0000
,
0020
0000
0230
0000
,
0310
0000
0010
0000
0010
0010
0000
0000
,
1000
1000
0001
0001
,
1000
0000
1000
0000
0001
0100
0001
0000
,
0010
0010
0100
0100
,
0010
0000
0010
0000
1000
0001
1000
0000
,
0001
0100
0010
0010
,
1000
1000
0001
0001
,
1000
0100
0010
0010
,
0001
0000
1000
0000
0010
0100
0000
0000
,
1001
1001
1001
1001
,
0100
0000
0010
0000
0100
0100
0000
0000
,
0001
0010
0100
1000
,
0100
0100
0010
0001
,
1000
1000
0000
0000
,
0001
0000
0102
0000
0000
1000
1003
0000
,
0001
0010
1000
0100
,
0001
0000
1000
0000
0000
0010
0010
0000
,
0001
0000
0100
0100
,
1000
0000
2010
0000
0000
0001
3001
0000
,
1000
0100
0001
0010
,
1000
0000
0001
0000
0000
0100
0100
0000
,
1000
1001
1001
1001
,
0002
0000
0010
0000
0003
0010
0001
0000
,
0100
0110
0110
0110
,
2000
0000
0010
0000
3000
0010
1000
0000
,
0001
1001
0110
1001
,
0002
0000
0000
0000
,
2003
0000
0000
0000
,
3200
0000
0000
0000
,
0310
0010
0010
0010
,
0001
0100
0010
0010
,
1000
1000
0001
0001
,
1000
0100
0010
0010
,
0001
0000
1000
0000
0010
0100
0000
0000
,
1001
1001
1001
1001
,
0010
0000
0100
0000
0010
0100
0000
0000
,
1000
0010
0100
0001
,
1000
1000
0100
0010
,
1002
0000
0203
0000
,
0310
0000
1000
0000
0001
0001
0000
0000
,
2001
0000
3200
0000
,
0310
0000
0001
0000
1000
1000
0000
0000
,
0001
0001
0010
0010
,
1000
0000
1000
0000
0100
0010
0100
0000
,
1000
1000
0010
0010
,
0001
0000
0001
0000
0100
0010
0100
0000
,
2000
0000
3002
0000
,
0103
1000
0010
0001
,
0200
0000
0320
0000
,
0031
0100
1000
0010
,
0002
0000
2003
0000
,
3010
0001
0100
1000
,
0020
0000
0230
0000
,
1300
0001
0010
0100
,
1000
1001
0000
0000
;

//---------------dance-single - ----------------
#NOTES:
     dance-single:
     :
     Beginner:
     3:
     0.150571,0.281630,0.058018,0.241742,0.000000,109.000000,103.000000,6.000000,25.000000,0.000000,0.000000,0.150571,0.281630,0.058018,0.241742,0.000000,109.000000,103.000000,6.000000,25.000000,0.000000,0.000000:
0000
0000
0000
0000
,
2000
0000
0000
0000
,
3002
0000
0000
0000
,
2003
0000
0000
0000
,
3002
0000
0000
0000
,
0003
1000
0000
1000
,
0000
0001
0000
0001
,
0000
0100
0000
0100
,
0000
0010
0000
0000
,
1000
0000
0001
0000
,
0010
0010
0010
0000
,
0100
0000
0010
0000
,
1000
1000
1000
0000
,
1001
0000
0000
0000
,
0110
0000
0000
0000
,
1000
0000
0010
0000
,
0001
0000
0100
0000
,
1000
0000
0000
0000
,
0001
0001
0000
0001
,
1000
0000
0100
0000
,
0002
0000
0000
0000
,
1003
0000
0000
0000
,
0100
0100
0000
0100
,
0010
0000
0001
0000
,
2000
0000
0000
0000
,
3002
1000
1000
1003
,
1001
0000
0100
0010
,
0200
0010
0010
0310
,
0110
0000
1000
0001
,
2000
0001
0001
3001
,
0002
0000
0003
0000
,
0200
0000
0300
0000
,
2000
0000
3000
0000
,
0020
0000
0030
0000
,
0001
0000
1000
0000
,
0100
0100
0100
0000
,
0010
0000
0100
0000
,
0001
0001
0001
0000
,
1001
0000
0000
0000
,
0110
0000
0000
0000
,
0001
0000
0010
0000
,
1000
0000
0100
0000
,
0002
0000
0000
0000
,
2003
0000
0000
0000
,
3020
0000
0000
0000
,
0230
0000
0000
0000
,
0300
0001
0000
0001
,
0000
1000
0000
1000
,
0000
0100
0000
0100
,
0000
0010
0000
0010
,
0002
0000
0003
0000
,
0200
0000
0300
0000
,
2000
0000
3000
0000
,
0020
0000
0030
0000
,
2000
0000
3000
0000
,
0200
0000
0300
0000
,
0002
0000
0003
0000
,
0020
0000
1030
1000
,
0001
1000
0000
0000
;

//---------------dance-double - ----------------
#NOTES:
     dance-double:
     :
     Medium:
     10:
     0.477959,0.450607,0.328769,0.222403,0.000000,346.000000,312.000000,34.000000,23.000000,0.000000,0.000000,0.477959,0.450607,0.328769,0.222403,0.000000,346.000000,312.000000,34.000000,23.000000,0.000000,0.000000:
00000000
00000000
00000000
00000000
,
20000000
00000000
30000000
00100000
10000000
00200000
00000000
00300000
,
01000000
00010000
01000000
00001000
00010000
00001000
00000000
00000000
,
00002000
00000000
00003000
00000010
00000001
00000020
00000000
00000030
,
00000100
00000001
00000100
00001000
00000010
00001000
00000000
00000000
,
00000001
00000101
00001000
00001100
,
00010000
00000000
00011000
00000000
00100000
00010000
00110000
00000000
,
00010000
01010000
10000000
11000000
,
00010000
00000000
10010000
00000000
10000000
00100000
10000000
00100000
,
10000000
01000000
00100000
00000000
00010000
01000000
00100000
00000000
,
10000000
00100000
00010000
00000000
00001000
00000010
00000001
00000000
,
00001000
00000100
00000010
00000000
00000001
00000100
00000010
00000000
,
00000100
00001000
00000100
00001000
00010000
00001000
00010000
00000000
,
00100000
10100000
10000000
11000000
,
00100000
01000000
00100000
01000000
10000000
00010000
00000000
00000000
,
00100000
01000000
10000000
01000000
00100000
00000000
00001000
00010000
,
00001000
00000000
00001000
00000000
00000010
00000001
00000010
00000001
,
00001000
00001000
00001000
00000000
,
00000001
00000010
00001000
00000010
00000000
00000010
00001000
00000000
,
00010000
00000100
00010000
00000000
00001000
00100000
00001000
00000000
,
00010000
00100000
01000000
00100000
00000000
00100000
10000000
00000000
,
10010000
00000000
00000000
00000000
10000000
01000000
10000000
01000000
,
00100000
00010000
01000000
10000000
00000000
10000000
01000000
00000000
,
00001000
00100000
00001000
00000000
00010000
00000100
00010000
00000000
,
00000010
00001000
00000100
00000010
00000000
00000010
00000001
00001000
,
00000001
00001001
00001001
00001001
,
00000001
00000100
00000020
00000000
00010030
00001000
00000100
00001000
,
00010000
00011000
00011000
00011000
,
00010000
00100000
20000000
00000000
31000000
00010000
00001000
00010000
,
01000000
01100000
01100000
01100000
,
20000000
00000000
30200000
00000000
,
02300000
00000000
03002000
00010000
,
00023000
00001000
00001000
00031000
,
00001000
00010000
00001000
00010000
00001000
00010000
00001000
00010000
,
00000010
00001000
00000100
00000000
00000010
00000001
00000100
00000000
,
00000001
00000010
00001000
00000000
00010000
00100000
10000000
00000000
,
01000000
10000000
00010000
00000000
00100000
00010000
10000000
00000000
,
00100000
00010000
00100000
00010000
00001000
00010000
00001000
00000000
,
00000010
00000011
00000001
00000101
,
00000010
00000100
00000010
00000100
00000001
00001000
00000000
00000000
,
00000100
00000010
00000001
00000010
00000100
00000000
00010000
00001000
,
00010000
00000000
00010000
00000000
00100000
01000000
00100000
01000000
,
20010000
00000000
30000000
00100000
01000000
00200000
00000000
00300000
,
10000000
01000000
00010000
00001000
00000010
00000001
00000000
00000000
,
00001002
00000000
00000003
00000100
00000010
00000200
00000000
00000300
,
00000001
00000100
00001000
00010000
00100000
10000000
00000000
00000000
,
00100000
10100000
00010000
00110000
,
00001000
00000000
00011000
00000000
00000010
00001000
00001010
00000000
,
00000001
00000011
00001000
00001100
,
00010000
00000000
00011000
00000000
00100000
01000000
01100000
00000000
,
10000000
00100000
20000000
00000000
30010000
01000000
00020000
00000000
,
10030000
01000000
00020000
00000000
00031000
00000010
00000002
00000000
,
00001003
00000010
00002000
00000000
00003001
00000100
00000002
00000000
,
00000013
00001000
00020000
00000000
00130000
10000000
00020000
00000000
,
10030000
11000000
10000000
10100000
,
01000000
00100000
01000000
00100000
10000000
00010000
00000000
00000000
,
00100000
01000000
10000000
01000000
00010000
00001000
00000100
00000001
,
00000010
00000100
00000010
00000000
00001000
00010000
00001000
00010000
,
00001000
00011000
00000000
00000000
;

//---------------dance-double - ----------------
#NOTES:
     dance-double:
     :
     Easy:
     7:
     0.294235,0.366118,0.174054,0.270751,0.000000,213.000000,195.000000,18.000000,28.000000,0.000000,0.000000,0.294235,0.366118,0.174054,0.270751,0.000000,213.000000,195.000000,18.000000,28.000000,0.000000,0.000000:
// measure 0
00000000
00000000
00000000
00000000
,  // measure 1
00200000
00000000
20300000
00000000
,  // measure 2
32000000
00000000
03020000
00000000
,  // measure 3
00032000
00000000
00003020
00000000
,  // measure 4
00000032
00000000
00000203
00000000
,  // measure 5
00000301
00000001
00001000
00001000
,  // measure 6
00000100
00000100
00010000
00010000
,  // measure 7
00001000
00001000
00100000
00100000
,  // measure 8
00010000
00010000
10000000
10000000
,  // measure 9
00100000
00100000
00100000
00000000
,  // measure 10
10000000
01000000
00010000
00001000
,  // measure 11
00010000
00010000
00010000
00000000
,  // measure 12
00000010
00000000
00000100
00000000
00000010
00001000
00000000
00000000
,  // measure 13
00001001
00001001
00000110
00000110
,  // measure 14
00000100
00000000
00000010
00000000
00001000
00001000
00000000
00000000
,  // measure 15
00010000
00001000
00100000
00001000
,  // measure 16
00010000
00010000
00100000
01000000
,  // measure 17
00100000
00100000
00000000
00000000
,  // measure 18
10000000
00000000
20000000
00000000
00000000
00010000
30010000
00000000
,  // measure 19
10000000
01000000
00010000
00001000
,  // measure 20
00000100
00000000
00000001
00000000
00000000
00001000
00000001
00000000
,  // measure 21
00001000
00000000
00000100
00000100
,  // measure 22
00000001
00000000
00000002
00000000
00000000
00001000
00001003
00000000
,  // measure 23
00000001
00000100
00001000
00010000
,  // measure 24
00100000
00000000
10000000
00000000
00000000
00010000
10000000
00000000
,  // measure 25
00010000
01100000
01100000
10010000
,  // measure 26
20000000
00000000
00100000
00000000
30000000
00100000
00010000
00000000
,  // measure 27
00001000
00011000
00011000
00011000
,  // measure 28
00002000
00000000
00000010
00000000
00003000
00000010
00000001
00000000
,  // measure 29
00001000
00000110
00000110
00000110
,  // measure 30
00000001
00000000
00000100
00000000
,  // measure 31
00001000
00000000
00010000
00000000
,  // measure 32
00100000
00000000
10000000
00000000
,  // measure 33
01000000
01000000
01000000
01000000
,  // measure 34
00010000
00010000
00010000
00000000
,  // measure 35
00001000
00000010
00000001
00001000
,  // measure 36
00000100
00000100
00000100
00000000
,  // measure 37
00001000
00000000
00000010
00000000
00010000
00001000
00000000
00000000
,  // measure 38
00011000
00011000
00101000
00101000
,  // measure 39
00100000
00000000
01000000
00000000
10000000
00010000
00000000
00000000
,  // measure 40
10000000
00100000
01000000
00001000
,  // measure 41
00010000
00010000
00000100
00000010
,  // measure 42
00000020
00000000
00000032
00000000
,  // measure 43
00000203
00000000
00002300
00000000
,  // measure 44
00023000
00000000
00230000
00000000
,  // measure 45
20300000
00000000
32000000
00000000
,  // measure 46
13000000
10000000
00100000
00100000
,  // measure 47
00010000
00000000
00010000
00000000
00001000
00010000
00001000
00000000
,  // measure 48
00010000
00010000
00000010
00000010
,  // measure 49
00000100
00000000
00000100
00000000
00000001
00001000
00000001
00000000
,  // measure 50
00000020
00000000
00000230
00000000
,  // measure 51
00010300
00010000
00001000
00001000
,  // measure 52
02000000
00000000
03200000
00000000
,  // measure 53
10300000
10000000
00010000
00010000
,  // measure 54
00200000
00000000
02300000
00000000
,  // measure 55
03010000
00010000
00001000
00001000
,  // measure 56
00000020
00000000
00000230
00000000
,  // measure 57
00001300
00001000
00000001
00000001
,  // measure 58
00000100
00001001
00000000
00000000
;
