#VERSION:0.83;
#TITLE:Wait On Me;
#SUBTITLE:(Cahill Mix);
#ARTIST:Rixton;
#TITLETRANSLIT:;
#SUBTITLETRANSLIT:;
#ARTISTTRANSLIT:;
#GENRE:;
#ORIGIN:;
#CREDIT:;
#BANNER:Wait On Me (Cahill Mix).png;
#BACKGROUND:Wait On Me (Cahill Mix)-bg.png;
#PREVIEWVID:;
#JACKET:;
#CDIMAGE:;
#DISCIMAGE:;
#LYRICSPATH:;
#CDTITLE:;
#MUSIC:Wait On Me (Cahill Mix).ogg;
#OFFSET:-3.073000;
#SAMPLESTART:42.833000;
#SAMPLELENGTH:12.000000;
#SELECTABLE:YES;
#BPMS:0.000=125.000;
#STOPS:;
#DELAYS:;
#WARPS:;
#TIMESIGNATURES:0.000=4=4;
#TICKCOUNTS:0.000=4;
#COMBOS:0.000=1;
#SPEEDS:0.000=1.000=0.000=0;
#SCROLLS:0.000=1.000;
#FAKES:;
#LABELS:0.000=Song Start;
#BGCHANGES:;
#KEYSOUNDS:;
#ATTACKS:
;

//---------------dance-single - ----------------
#NOTEDATA:;
#CHARTNAME:;
#STEPSTYPE:dance-single;
#DESCRIPTION:;
#CHARTSTYLE:;
#DIFFICULTY:Hard;
#METER:13;
#RADARVALUES:0.546880,0.642972,0.346216,0.257189,0.361054,387.000000,352.000000,35.000000,26.000000,0.000000,0.000000,0.000000,0.000000,0.000000,0.546880,0.642972,0.346216,0.257189,0.361054,387.000000,352.000000,35.000000,26.000000,0.000000,0.000000,0.000000,0.000000,0.000000;
#CREDIT:;
#NOTES:
0000
0000
0000
0000
,
0000
0000
0000
0000
,
1000
0000
0000
1000
0000
0000
2000
0000
0000
0000
3100
0000
0000
0010
0000
0000
,
0001
0000
0000
0001
0000
0000
0002
0000
0000
0000
0103
0000
0000
0010
0000
0000
,
1000
0100
0001
0100
0010
1000
0010
0001
,
1000
0100
0000
0010
0001
0000
1000
0000
0010
0000
0001
0000
0010
0000
0100
0000
,
2000
0000
0000
0000
3100
0010
0100
0000
0001
0000
1000
0000
0100
0010
0100
0000
,
0001
1000
0010
0011
0000
1001
0000
0101
,
0220
0000
0000
0330
,
0001
1000
0000
0000
1000
0100
0000
0000
0010
0000
0001
0000
0000
0100
0000
0000
,
1010
0000
0000
1000
0000
0000
1001
0000
0000
0000
0100
0000
1000
0000
0001
0000
,
1000
0010
0000
0000
0010
0100
0000
0000
0001
0000
1000
0000
0000
0100
0000
0000
,
0110
0000
0000
0010
0000
0000
0011
0000
0000
0000
1001
0000
0000
0100
0000
0000
,
1001
0010
1000
0100
0001
1000
0010
0001
,
1000
0001
0100
0020
0000
0100
0100
0130
,
0001
0010
1000
0010
0001
0100
0010
1000
,
0100
0001
0100
2000
0000
0001
0001
3001
,
0100
0010
0100
0000
0001
0000
1000
0000
0100
0000
0200
0000
0000
0000
0300
0000
,
0010
0001
0010
0000
0100
0000
1000
0000
0001
0000
0000
0000
0101
0000
0000
0000
,
0010
1000
0100
0000
1000
0000
0100
0000
0010
0000
0001
0000
0010
0000
0001
0000
,
1000
0001
0100
0000
0010
0000
0100
0000
0001
0100
0001
0100
0010
1000
0010
1000
,
1001
0000
0000
0000
1000
0100
0010
0001
1000
0000
1000
0000
0001
0010
0100
1000
,
0001
0100
0010
2000
0000
3100
0010
0100
,
1001
0000
0000
0000
0001
0100
0010
1000
0010
0000
0010
0000
1000
0100
0010
0001
,
0010
0000
0001
0000
1000
0000
0200
0000
0000
0000
0310
0000
0000
1010
0000
0000
,
0001
0010
1000
0010
0100
0001
0100
1000
,
0001
0100
0000
0010
1000
0000
0100
0000
0001
0000
0100
0000
0010
0000
1000
0000
,
2001
0000
0000
0000
3010
0001
0010
0000
0100
0000
0100
0000
0010
1000
0010
0000
,
0100
0000
0100
0000
1000
0000
0001
0000
0000
0000
0101
0000
0100
0010
0000
0000
,
1001
0000
0000
1000
0000
0000
2000
0000
0000
0000
3100
0000
0000
0010
0000
0000
,
0001
0000
0000
0001
0000
0000
0002
0000
0000
0000
1003
0001
0000
1000
0001
0000
,
0100
0000
0000
0100
0000
0000
0200
0000
0000
0000
1300
0000
0000
0100
0000
0000
,
0010
0000
0000
0010
0000
0000
0020
0000
0000
0000
0031
0010
0000
1000
0100
0000
,
0010
0000
0001
0000
0010
0000
0001
0010
0100
0000
0001
0000
0100
0000
0001
0000
,
1000
0000
0010
0000
1000
0000
0010
0100
1000
0000
0001
0000
1000
0000
0001
0000
,
0100
0000
0100
0000
1000
0001
1000
0000
0100
0000
0100
0000
0001
1000
0001
0000
,
0220
0000
0000
0000
0330
0000
0100
0010
,
1001
0000
0000
0001
0100
0000
0002
0000
0000
0000
1003
0000
0000
0001
0000
0000
,
0100
0000
0000
0010
1000
0000
0200
0000
0000
0000
0310
0001
0000
0001
1000
0000
,
0100
0000
0000
0001
0100
0000
2000
0000
0000
0000
3010
0000
0000
0100
0000
0000
,
0001
0000
0000
1000
0010
0000
0002
0000
0000
0000
0013
1000
0000
1000
0100
0000
,
1000
0010
0001
1000
0100
0001
0010
1000
,
0010
0001
0000
1000
0010
0000
0100
0000
1000
0000
0100
0000
0001
0000
0010
0000
,
0120
0000
0000
0000
0130
1000
0100
1000
0001
0000
0001
0000
1000
0010
1000
0010
,
0100
0100
0001
1000
0000
1100
0000
0101
,
1001
0000
0010
0000
0100
0010
0100
0000
2000
0000
0000
0000
3100
0010
0100
0000
,
0002
0000
0013
1000
0000
0110
0000
1001
,
1100
0011
0001
0101
0000
1010
1000
1100
,
0000
1001
0100
0110
0000
1010
0000
0011
,
0120
0000
0000
0000
1000
1000
0000
0000
0230
0000
0000
0000
0001
0001
0000
0000
,
0310
0000
0000
0000
;

//---------------dance-double - ----------------
#NOTEDATA:;
#CHARTNAME:;
#STEPSTYPE:dance-double;
#DESCRIPTION:;
#CHARTSTYLE:;
#DIFFICULTY:Hard;
#METER:13;
#RADARVALUES:0.503073,0.546774,0.098919,0.168162,0.361054,356.000000,346.000000,10.000000,17.000000,0.000000,0.000000,0.000000,0.000000,0.000000,0.503073,0.546774,0.098919,0.168162,0.361054,356.000000,346.000000,10.000000,17.000000,0.000000,0.000000,0.000000,0.000000,0.000000;
#CREDIT:;
#NOTES:
// measure 0
00000000
00000000
00000000
00000000
,  // measure 1
00000000
00000000
00000000
00000000
,  // measure 2
10000000
00000000
00000000
01000000
00000000
00000000
00010000
00000000
00000000
00000000
00001000
00000000
00000000
00000100
00000000
00000000
,  // measure 3
00000001
00000000
00000000
00000100
00000000
00000000
00001000
00000000
00000000
00000000
00010000
00000000
00000000
00100000
00000000
00000000
,  // measure 4
10000000
00100000
01000000
00010000
00100000
00001000
00010000
00000100
,  // measure 5
00001000
00000010
00000000
00000010
00000100
00000000
00000001
00000000
00000010
00000000
00001000
00000000
00010000
00000000
00100000
00000000
,  // measure 6
20000000
00000000
00000000
00000000
31000000
00100000
01000000
00000000
00010000
00000000
00001000
00000000
00000010
00000100
00000010
00000000
,  // measure 7
00001000
00010000
00001000
00000100
00000000
00000001
00000000
00000010
,  // measure 8
00000200
00000000
00000000
00000300
,  // measure 9
00010000
00001000
00000000
00000000
00001000
00010000
00000000
00000000
00100000
00000000
10000000
00000000
00000000
01000000
00000000
00000000
,  // measure 10
00100000
00000000
00000000
00010000
00000000
00000000
10000000
00000000
00000000
00000000
00100000
00000000
00000000
01000000
00000000
00000000
,  // measure 11
00001000
00010000
00000000
00000000
00010000
00001000
00000000
00000000
00000010
00000000
00000001
00000000
00000000
00000100
00000000
00000000
,  // measure 12
00001000
00000000
00000000
00000100
00000000
00000000
00000001
00000000
00000000
00000000
00000010
00000000
00000000
00001000
00000000
00000000
,  // measure 13
00010000
00100000
10000000
00010000
00100000
01000000
10000000
00010000
,  // measure 14
10000000
00000000
00100000
00000000
00010000
00000000
00002000
00000000
00000000
00000000
00010000
00000000
00003000
00010000
00000000
00000000
,  // measure 15
00000010
00001000
00000100
00000001
00000100
00000010
00000001
00001000
,  // measure 16
00000010
00000000
00000001
00000000
00000010
00000000
00000200
00000000
00000000
00000000
00001000
00000000
00000300
00001000
00000000
00010000
,  // measure 17
00100000
00000000
10000000
00000000
00010000
00000000
10000000
00000000
01000000
00000000
01000000
00000000
00000000
00000000
00000000
00100000
,  // measure 18
01000000
00000000
10000000
00000000
00100000
00000000
00010000
00000000
00001000
00000000
00000000
00000000
00010010
00000000
00000000
00010000
,  // measure 19
00000100
00001000
00000100
00001000
00000001
00000100
00001000
00010000
,  // measure 20
00100000
00000000
00010000
00000000
00100000
00000000
10000000
00000000
00010000
00100000
01000000
00000000
10000000
00000000
00010000
00000000
,  // measure 21
10010000
00000000
00000000
00000000
10000000
01000000
10000000
01000000
00100000
00000000
01000000
00000000
00100000
00010000
00100000
00010000
,  // measure 22
01000000
00000000
00001000
00000000
00010000
00000000
00001000
00000000
00000000
00000000
00000010
00000000
00000000
00000100
00000000
00000000
,  // measure 23
00001001
00000000
00000000
00000000
00000010
00001000
00000010
00001000
00000001
00000000
00000100
00000000
00000001
00000010
00000001
00000010
,  // measure 24
00000100
00000000
00010000
00000000
00001000
00000000
00010000
00000000
00000000
00000000
01000000
00000000
00000000
00100000
00000000
00000000
,  // measure 25
10010000
00100000
00010000
00100000
10000000
01000000
00010000
00001000
,  // measure 26
00000100
00000001
00000000
00000001
00000010
00000000
00001000
00000000
00000010
00000000
00000001
00000000
00000100
00000000
00001000
00000000
,  // measure 27
00020000
00000000
00000000
00000000
00130000
10000000
00100000
10000000
00010000
00000000
01000000
00000000
00001000
00010000
00001000
00010000
,  // measure 28
00000010
00000000
00001000
00000000
00000100
00000000
00000001
00000000
00000000
00000000
00000100
00000000
00000000
00000010
00000000
00000000
,  // measure 29
00001001
00000000
00000000
00000100
00000000
00000000
00002000
00000000
00000000
00000000
00013000
00000000
00000000
00100000
00000000
00000000
,  // measure 30
10000000
00000000
00000000
01000000
00000000
00000000
00020000
00000000
00000000
00000000
00031000
00010000
00000000
00100000
01000000
00000000
,  // measure 31
10000000
00000000
00000000
01000000
00000000
00000000
00020000
00000000
00000000
00000000
00031000
00000000
00000000
00000010
00000000
00000000
,  // measure 32
00000001
00000000
00000000
00000010
00000000
00000000
00002000
00000000
00000000
00000000
00003001
00000010
00000000
00000100
00001000
00000000
,  // measure 33
00000001
00000000
00000100
00000000
00000001
00000000
00000100
00000010
00000100
00000000
00000100
00000000
00001000
00000000
00010000
00000000
,  // measure 34
01000000
00000000
10000000
00000000
01000000
00000000
10000000
00100000
10000000
00000000
10000000
00000000
00100000
00000000
00010000
00000000
,  // measure 35
00001000
00000000
00001000
00000000
01000000
00001000
00010000
00000000
00001000
00000000
00001000
00000000
00010000
00000010
00001000
00000000
,  // measure 36
00000002
00000000
00000000
00000000
00000000
00000000
00000013
00000100
,  // measure 37
00001001
00000000
00000000
00000001
00000100
00000000
00000020
00000000
00000000
00000000
00000130
00000000
00000000
00001000
00000000
00000000
,  // measure 38
00010000
00000000
00000000
00010000
00100000
00000000
20000000
00000000
00000000
00000000
30010000
00100000
00000000
01000000
10000000
00000000
,  // measure 39
00010000
00000000
00000000
10000000
00100000
00000000
00020000
00000000
00000000
00000000
00130000
00000000
00000000
01000000
00000000
00000000
,  // measure 40
00001000
00000000
00000000
00001000
00010000
00000000
00000200
00000000
00000000
00000000
00000310
00000001
00000000
00001000
00000100
00000000
,  // measure 41
00000010
00000001
00000100
00000010
00001000
00000100
00010000
00001000
,  // measure 42
00100000
00010000
00000000
00010000
01000000
00000000
00100000
00000000
10000000
00000000
01000000
00000000
00100000
00000000
00010000
00000000
,  // measure 43
10010000
00000000
00000000
00000000
10000000
01000000
10000000
01000000
00100000
00000000
00001000
00000000
00010000
00001000
00010000
00001000
,  // measure 44
01000000
00001000
00010000
00000010
00000000
00001010
00000000
00000010
,  // measure 45
00000100
00000001
00000010
00001000
00000000
00010000
00100000
10000000
,  // measure 46
00000000
10000000
01000000
00100000
00000000
01000000
00010000
00001000
,  // measure 47
00100000
00010000
10000000
01000000
00000000
00010000
00001000
00000010
,  // measure 48
00000000
00000100
00001000
00000001
00000000
00000101
00000000
00000010
,  // measure 49
00000021
00000000
00000000
00000000
00000031
00000100
00001000
00000000
00002000
00000000
00000000
00000000
00013000
00100000
10000000
00000000
,  // measure 50
20000000
30000000
00000000
00000000
;

//---------------dance-single - ----------------
#NOTEDATA:;
#CHARTNAME:;
#STEPSTYPE:dance-single;
#DESCRIPTION:;
#CHARTSTYLE:;
#DIFFICULTY:Medium;
#METER:8;
#RADARVALUES:0.367413,0.395675,0.089027,0.187946,0.064297,260.000000,251.000000,9.000000,19.000000,0.000000,0.000000,0.000000,0.000000,0.000000,0.367413,0.395675,0.089027,0.187946,0.064297,260.000000,251.000000,9.000000,19.000000,0.000000,0.000000,0.000000,0.000000,0.000000;
#CREDIT:;
#NOTES:
0000
0000
0000
0000
,
0000
0000
0000
0000
,
1000
0000
0000
0100
0000
0000
1000
0000
0000
0000
0001
0000
0000
0100
0000
0000
,
0001
0000
0000
0010
0000
0000
0001
0000
0000
0000
1000
0000
0000
0010
0000
0000
,
1000
0100
0001
1000
,
0001
0000
0100
0000
1000
0000
0001
1000
,
0002
0000
0013
0001
0010
0000
0100
1000
,
0100
0000
0010
0100
0000
1000
0000
0001
,
0002
0000
0000
0000
,
1003
0000
1000
0000
0001
0100
0001
0000
,
1000
0100
0010
0100
1000
0000
0010
0000
,
0001
0000
0001
0000
1000
0010
1000
0000
,
0001
0010
0100
0010
0001
0000
1000
0000
,
0001
0100
0001
0000
0100
0010
0100
0000
,
0001
0010
0100
0000
,
1000
0010
1000
0000
0001
0100
0001
0000
,
0010
1000
0100
0000
,
0001
0100
0001
0100
0020
0000
0000
0000
,
1030
0001
1000
0001
0020
0000
0000
0000
,
0130
1000
0100
1000
0001
0000
1000
0000
,
0001
0100
0001
0100
0010
0000
1000
0001
,
1001
0000
0001
0010
0100
0100
1000
0100
,
0010
0010
0001
0010
0000
0000
0100
1000
,
1001
0000
1000
0010
0100
0100
0001
0100
,
0010
0000
0010
0000
1000
0000
0010
0000
0000
0000
0100
0000
0000
0100
0000
0000
,
0001
0010
1000
0001
,
1000
0000
0010
0000
0001
0000
1000
0001
,
2000
0000
3010
1000
0010
0010
0100
0001
,
0100
0100
0010
1000
0000
0001
0000
1000
,
2000
3002
0023
0230
,
1300
0100
0010
0001
0000
0000
0000
0000
,
0002
2003
3020
0230
,
0301
0100
0010
1000
0000
0000
0001
1000
,
0100
1100
0001
0101
,
1000
0000
1010
0000
0001
0000
0011
0001
,
0100
0001
0010
0100
1000
0001
0100
0010
,
0200
0000
0000
0000
0000
0000
0301
1000
,
0001
0000
0000
0100
0000
0000
0001
0000
0000
0000
0010
0000
0000
0100
0000
0000
,
1000
0000
0000
0010
0000
0000
1000
0000
0000
0000
0010
0000
0000
0100
0000
0000
,
0001
0000
0000
0010
0000
0000
0001
0000
0000
0000
0100
0000
0000
0010
0000
0000
,
1000
0000
0000
0100
0000
0000
1000
0000
0000
0000
0001
0000
0000
1000
0000
0000
,
0010
1000
0010
0000
0100
0001
0100
0000
,
0001
0010
0100
0010
0001
0000
1000
0001
,
1000
0000
0001
0100
0010
0010
1000
0100
,
0010
0010
0001
1000
0000
0010
0000
1000
,
1000
0000
0001
1000
0200
0000
1300
0001
,
0200
0000
0301
1000
0020
0000
1030
0001
,
0010
0001
0000
0011
0000
1010
0000
0011
,
0000
0001
1000
0001
0000
0100
0000
0010
,
2000
0000
3002
0000
,
0013
0000
0000
0000
;

//---------------dance-single - ----------------
#NOTEDATA:;
#CHARTNAME:;
#STEPSTYPE:dance-single;
#DESCRIPTION:;
#CHARTSTYLE:;
#DIFFICULTY:Easy;
#METER:4;
#RADARVALUES:0.243058,0.272027,0.168162,0.148378,0.000000,172.000000,155.000000,17.000000,15.000000,0.000000,0.000000,0.000000,0.000000,0.000000,0.243058,0.272027,0.168162,0.148378,0.000000,172.000000,155.000000,17.000000,15.000000,0.000000,0.000000,0.000000,0.000000,0.000000;
#CREDIT:;
#NOTES:
0000
0000
0000
0000
,
0000
0000
0000
0000
,
1000
0000
0000
0000
,
0001
0000
0000
0000
,
1000
1000
0100
0100
,
0001
0001
0010
0010
,
2000
0010
0010
3010
,
0002
0010
0010
0013
,
0220
0000
0000
0330
,
0001
1000
0010
0000
,
1010
0000
0000
1000
,
1000
0010
0001
0000
,
0110
0000
0000
0000
,
1001
1000
0001
0010
,
1000
0100
0000
0100
,
0001
1000
0001
0010
,
0100
0100
0000
0001
,
0100
0001
0100
0000
,
1000
0100
1000
0101
,
0010
1000
0010
0010
,
1000
0010
0001
0010
,
1001
1000
1000
0001
,
0001
0010
0000
0010
,
1001
0001
0001
0010
,
0010
1000
0000
0000
,
0001
0001
0100
0100
,
1000
1000
0010
0010
,
1002
0010
0010
0013
,
2000
0100
0100
3100
,
1001
0001
0100
0000
,
0001
1000
0100
0000
,
0110
0010
0001
0000
,
0100
0010
1000
0000
,
0011
0010
0100
0100
,
1000
1000
0001
0001
,
0100
1000
0100
0001
,
2002
0000
3003
0000
,
1001
0100
0000
0100
,
1000
0010
0000
0010
,
0100
0001
0000
0001
,
0010
1000
0000
1000
,
0010
0010
0001
0100
,
0100
1000
0010
0001
,
0120
0130
0001
1000
,
0100
0001
0000
0100
,
1001
0100
2000
3100
,
0002
0003
1000
0000
,
1100
0002
0013
2000
,
3000
0001
0000
0100
,
1001
2000
3100
0002
,
0013
0000
0000
0000
;

//---------------dance-single - Copied from----------------
#NOTEDATA:;
#CHARTNAME:Copied from;
#STEPSTYPE:dance-single;
#DESCRIPTION:Copied from;
#CHARTSTYLE:;
#DIFFICULTY:Beginner;
#METER:1;
#RADARVALUES:0.096093,0.145411,0.089027,0.019784,0.000000,68.000000,59.000000,9.000000,2.000000,0.000000,0.000000,0.000000,0.000000,0.000000,0.096093,0.145411,0.089027,0.019784,0.000000,68.000000,59.000000,9.000000,2.000000,0.000000,0.000000,0.000000,0.000000,0.000000;
#CREDIT:Copied from;
#NOTES:
0000
0000
0000
0000
,
0000
0000
0000
0000
,
1000
0000
0000
0000
,
0001
0000
0000
0000
,
1000
0000
1000
0000
,
1000
0000
0000
0000
,
0100
0000
0000
0000
,
0100
0000
0000
0000
,
1001
0000
0000
0000
,
0001
0000
0001
0000
,
0001
0000
0000
0000
,
1000
0000
1000
0000
,
1000
0000
0000
0000
,
1001
0000
0000
0000
,
0000
0000
0000
0000
,
0110
0000
0000
0000
,
0000
0000
0000
0000
,
0001
0000
0001
0000
,
1000
0000
1000
0000
,
0010
0000
0010
0000
,
0100
0000
0100
0000
,
1000
0000
0000
0000
,
0001
0000
0000
0000
,
0100
0000
0000
0000
,
0010
0000
0000
0000
,
1000
0000
1000
0000
,
1000
0000
0000
0000
,
1001
0000
0000
0000
,
0110
0000
0000
0000
,
1000
0000
0000
0000
,
0001
0000
0000
0000
,
0100
0000
0000
0000
,
0100
0000
0000
0000
,
0010
0000
0010
0000
,
0010
0000
0010
0000
,
0100
0000
0100
0000
,
1001
0000
0000
0000
,
0002
0000
0000
0000
,
0003
0000
0000
0000
,
2000
0000
0000
0000
,
3000
0000
0000
0000
,
0010
0000
0010
0000
,
0010
0000
0010
0000
,
0100
0000
0100
0000
,
0100
0000
0100
0000
,
1001
0000
0000
0000
,
0100
0000
0000
0000
,
0110
0000
0000
0000
,
1000
0000
0000
0000
,
1001
0000
0000
0000
;

//---------------dance-double - Copied from----------------
#NOTEDATA:;
#CHARTNAME:Copied from;
#STEPSTYPE:dance-double;
#DESCRIPTION:Copied from;
#CHARTSTYLE:;
#DIFFICULTY:Medium;
#METER:9;
#RADARVALUES:0.371652,0.372800,0.000000,0.148378,0.064297,263.000000,263.000000,0.000000,15.000000,0.000000,0.000000,0.000000,0.000000,0.000000,0.371652,0.372800,0.000000,0.148378,0.064297,263.000000,263.000000,0.000000,15.000000,0.000000,0.000000,0.000000,0.000000,0.000000;
#CREDIT:Copied from;
#NOTES:
// measure 0
00000000
00000000
00000000
00000000
,  // measure 1
00000000
00000000
00000000
00000000
,  // measure 2
10000000
00000000
00000000
10000000
00000000
00000000
10000000
00000000
00000000
00000000
01000000
00000000
00000000
01000000
00000000
00000000
,  // measure 3
00010000
00000000
00000000
00010000
00000000
00000000
00010000
00000000
00000000
00000000
00001000
00000000
00000000
00001000
00000000
00000000
,  // measure 4
00001000
00000100
00000001
00000010
,  // measure 5
00000001
00000000
00000100
00000000
00001000
00000000
00010000
00001000
,  // measure 6
00020000
00000000
00130000
01000000
00100000
00000000
10000000
00010000
,  // measure 7
10000000
00000000
01000000
10000000
00000000
00100000
00000000
00010000
,  // measure 8
00002000
00000000
00000000
00000000
,  // measure 9
00003010
00000000
00000001
00000000
00000100
00000001
00000100
00000000
,  // measure 10
00001000
00010000
00100000
00010000
00001000
00000000
01000000
00000000
,  // measure 11
00100000
00000000
10000000
00000000
01000000
10000000
01000000
00000000
,  // measure 12
00010000
00001000
00000100
00001000
00010000
00000000
00000010
00000000
,  // measure 13
00001000
00000001
00000100
00000001
00001000
00000001
00000100
00001000
,  // measure 14
00010000
00100000
10000000
00000000
,  // measure 15
00010000
10000000
00100000
10000000
00010000
10000000
00100000
00010000
,  // measure 16
00001000
00000010
00000001
00000100
,  // measure 17
00000001
00000100
00000001
00000000
00000020
00000000
00001000
00000000
,  // measure 18
00001030
00010000
00001000
00000000
00200000
00000000
01000000
00000000
,  // measure 19
01300000
10000000
01000000
00000000
00010000
00000000
00001000
00000000
,  // measure 20
00000010
00000001
00000010
00000000
00000100
00000000
00000001
00000100
,  // measure 21
00001000
00000000
00000001
00000010
00000100
00000100
00010000
00001000
,  // measure 22
00010000
00010000
00100000
01000000
00000000
00000000
10000000
01000000
,  // measure 23
00010000
00000000
10000000
00010000
01000000
01000000
00100000
00010000
,  // measure 24
00001000
00000000
00001000
00000000
00000010
00000000
00000100
00000000
00000000
00000000
00010000
00000000
00000000
00010000
00000000
00000000
,  // measure 25
00010000
00100000
10000000
01000000
,  // measure 26
10000000
00000000
00100000
00000000
00010000
00000000
00001000
00010000
,  // measure 27
00002000
00000000
00003010
00000001
00000100
00000100
00000010
00010000
,  // measure 28
00001000
00001000
00100000
00010000
00000000
10000000
00000000
00010000
,  // measure 29
02000000
00000000
03100000
10000000
00100000
00000000
00010000
00100000
,  // measure 30
00010000
00000000
00001000
00010000
00000000
00000000
00000000
00000000
,  // measure 31
00000200
00000000
00000310
00000001
00000010
00000000
00001000
00000010
,  // measure 32
00001000
00000000
00010000
00001000
00000000
00000000
00100000
00010000
,  // measure 33
10000000
00000000
10000000
00010000
01000000
00000000
01000000
00100000
,  // measure 34
10000000
00000000
10000000
00100000
00010000
00000000
00010000
00001000
,  // measure 35
00000010
00000001
00001000
00000100
00000010
00000001
00000100
00001000
,  // measure 36
00020000
00000000
00000000
00000000
00000000
00000000
00130000
10000000
,  // measure 37
00010000
00000000
00000000
00010000
00000000
00000000
00010000
00000000
00000000
00000000
10000000
00000000
00000000
10000000
00000000
00000000
,  // measure 38
01000000
00000000
00000000
01000000
00000000
00000000
01000000
00000000
00000000
00000000
00010000
00000000
00000000
00010000
00000000
00000000
,  // measure 39
00001000
00000000
00000000
00001000
00000000
00000000
00001000
00000000
00000000
00000000
00000100
00000000
00000000
00000100
00000000
00000000
,  // measure 40
00000001
00000000
00000000
00000001
00000000
00000000
00000001
00000000
00000000
00000000
00000100
00000000
00000000
00000100
00000000
00000000
,  // measure 41
00001000
00010000
00001000
00000000
00100000
01000000
00100000
00000000
,  // measure 42
00001000
00010000
00100000
00010000
00001000
00000000
00000100
00000001
,  // measure 43
00001000
00000000
00000100
00000010
00000001
00000001
00000010
00000100
,  // measure 44
00010000
00010000
00001000
01000000
00000000
00100000
00000000
10000000
,  // measure 45
00010000
00000000
10000000
01000000
00020000
00000000
00031000
00000010
,  // measure 46
00000002
00000000
00001003
00000001
00000000
00000001
00000000
00000001
,  // measure 47
00001000
00000000
00000001
00000100
00002000
00000000
00013000
00100000
,  // measure 48
20000000
00000000
30010000
10000000
00000000
10000000
00000000
10000000
,  // measure 49
02000000
00000000
03010000
00001000
00000200
00000000
00001300
00010000
,  // measure 50
00200000
00300000
00000000
00000000
;

//---------------dance-double - Copied from----------------
#NOTEDATA:;
#CHARTNAME:Copied from;
#STEPSTYPE:dance-double;
#DESCRIPTION:Copied from;
#CHARTSTYLE:;
#DIFFICULTY:Easy;
#METER:4;
#RADARVALUES:0.238818,0.248534,0.098919,0.138486,0.000000,169.000000,159.000000,10.000000,14.000000,0.000000,0.000000,0.000000,0.000000,0.000000,0.238818,0.248534,0.098919,0.138486,0.000000,169.000000,159.000000,10.000000,14.000000,0.000000,0.000000,0.000000,0.000000,0.000000;
#CREDIT:Copied from;
#NOTES:
// measure 0
00000000
00000000
00000000
00000000
,  // measure 1
00000000
00000000
00000000
00000000
,  // measure 2
10000000
00000000
00000000
00000000
,  // measure 3
00010000
00000000
00000000
00000000
,  // measure 4
10000000
01000000
00010000
00001000
,  // measure 5
00000100
00000001
00000100
00001000
,  // measure 6
00010000
00010000
00010000
00010000
,  // measure 7
00001000
00001000
00001000
00001000
,  // measure 8
00022000
00000000
00033000
00000000
,  // measure 9
00001000
00000100
00000001
00000000
,  // measure 10
00000010
00000001
00000100
00000000
,  // measure 11
00000010
00001000
00010000
00000000
,  // measure 12
00001000
00010000
01000000
00000000
,  // measure 13
10010000
10000000
00100000
00010000
,  // measure 14
00001000
00000000
00010000
00000000
,  // measure 15
00001000
00000010
00000001
00000100
,  // measure 16
00001000
00000000
00010000
00000000
,  // measure 17
00100000
00010000
01000000
00000000
,  // measure 18
00100000
10000000
01000000
00000000
,  // measure 19
00010000
00001000
00001000
00000100
,  // measure 20
00000001
00000001
00000010
00000010
,  // measure 21
00000110
00000001
00000010
00001000
,  // measure 22
00010000
00010000
00010000
00000000
,  // measure 23
00011000
00100000
00010000
10000000
,  // measure 24
01000000
01000000
01000000
00000000
,  // measure 25
00010000
00001000
00000100
00000001
,  // measure 26
00000100
00001000
00010000
00100000
,  // measure 27
10000000
10000000
10000000
10000000
,  // measure 28
00010000
00010000
00010000
00010000
,  // measure 29
10010000
01000000
00000000
00001000
,  // measure 30
00001000
00001000
00000000
00010000
,  // measure 31
00010000
00010000
00000000
00000100
,  // measure 32
00000100
00000100
00000000
00000010
,  // measure 33
00000110
00000001
00000010
00001000
,  // measure 34
00010000
00100000
10000000
01000000
,  // measure 35
00010000
00010000
00001000
00001000
,  // measure 36
00022000
00000000
00033000
00000000
,  // measure 37
00001000
00000100
00000010
00000000
,  // measure 38
00000100
00000010
00000001
00000000
,  // measure 39
00000001
00000100
00001000
00000000
,  // measure 40
00000100
00001000
00010000
00000000
,  // measure 41
00100000
00100000
10000000
01000000
,  // measure 42
00100000
00100000
00010000
10000000
,  // measure 43
00010000
00100000
00001000
00010000
,  // measure 44
00000100
00001000
00000001
00000100
,  // measure 45
00000110
00000200
00000001
00000302
,  // measure 46
00000010
00000023
00001000
00000030
,  // measure 47
00011000
00020000
00100000
00230000
,  // measure 48
10000000
20300000
01000000
30000000
,  // measure 49
10010000
20000000
32000000
03020000
,  // measure 50
00032000
00003000
00000000
00000000
;
