#VERSION:0.83;
#TITLE:Ven Conmigo;
#SUBTITLE:(Solamente Tú);
#ARTIST:Christina Aguilera;
#TITLETRANSLIT:;
#SUBTITLETRANSLIT:;
#ARTISTTRANSLIT:;
#GENRE:;
#ORIGIN:;
#CREDIT:;
#BANNER:;
#BACKGROUND:;
#PREVIEWVID:;
#JACKET:;
#CDIMAGE:;
#DISCIMAGE:;
#LYRICSPATH:;
#CDTITLE:;
#MUSIC:Ven Conmigo (Solamente Tú).mp3;
#OFFSET:-2.260000;
#SAMPLESTART:52.680000;
#SAMPLELENGTH:12.000000;
#SELECTABLE:YES;
#BPMS:0.000=119.000;
#STOPS:;
#DELAYS:;
#WARPS:;
#TIMESIGNATURES:0.000=4=4;
#TICKCOUNTS:0.000=4;
#COMBOS:0.000=1;
#SPEEDS:0.000=1.000=0.000=0;
#SCROLLS:0.000=1.000;
#FAKES:;
#LABELS:0.000=Song Start;
#BGCHANGES:;
#KEYSOUNDS:;
#ATTACKS:
;

//---------------dance-single - ----------------
#NOTEDATA:;
#CHARTNAME:;
#STEPSTYPE:dance-single;
#DESCRIPTION:;
#CHARTSTYLE:;
#DIFFICULTY:Hard;
#METER:10;
#RADARVALUES:0.455614,0.495183,0.452739,0.261583,0.025152,317.000000,272.000000,45.000000,26.000000,0.000000,0.000000,0.000000,0.000000,0.000000,0.455614,0.495183,0.452739,0.261583,0.025152,317.000000,272.000000,45.000000,26.000000,0.000000,0.000000,0.000000,0.000000,0.000000;
#CREDIT:;
#NOTES:
// measure 0
0000
0000
0000
0000
,  // measure 1
1001
0000
0000
0100
1000
0000
0000
0100
,  // measure 2
0001
0000
0000
0110
,  // measure 3
1001
0000
0010
0000
0001
0100
0010
0000
,  // measure 4
1000
0100
0010
0001
0100
0000
1000
0100
,  // measure 5
0010
0000
1010
1000
0100
0000
0011
0001
,  // measure 6
0100
0000
0000
0000
1010
0000
1000
0000
0100
0000
0000
0100
0010
0000
0100
0000
,  // measure 7
0001
0100
1000
0001
1000
0010
0001
0000
,  // measure 8
0010
1000
0100
0010
0001
0000
0100
0010
,  // measure 9
0100
0000
0101
0001
0010
0000
1100
1000
,  // measure 10
0010
0000
0000
0000
0101
0000
0001
0000
0010
0000
0000
0010
0100
0000
0010
0000
,  // measure 11
0100
1000
0200
0010
1300
0001
2000
0010
,  // measure 12
3001
0100
1000
0100
0001
0010
1000
0000
,  // measure 13
0010
0001
0020
0100
0031
1000
0002
0100
,  // measure 14
1003
0010
0001
0010
1000
0100
0001
0000
,  // measure 15
0100
1000
0010
0100
0001
0010
1000
0000
,  // measure 16
0010
0001
1000
0001
0100
0000
0010
1000
,  // measure 17
0200
0001
2300
0001
,  // measure 18
3010
0000
0000
0000
1000
1000
0001
0001
,  // measure 19
0110
0000
1001
1000
0100
0010
0001
0101
,  // measure 20
0000
1010
0000
2001
0000
3001
1000
1000
,  // measure 21
0110
0000
1001
0001
0100
0010
1000
1100
,  // measure 22
0000
0022
0000
0033
1001
0001
1000
0010
,  // measure 23
0110
0100
0001
0010
1000
0010
0200
0000
,  // measure 24
0301
0100
1000
0010
0001
0010
0200
0000
,  // measure 25
1300
0100
0001
0010
0100
1000
0001
0000
,  // measure 26
0101
0000
1010
0000
0011
0000
1100
0101
,  // measure 27
1001
0000
1000
0100
0010
2000
0000
0001
,  // measure 28
0000
0000
3010
0000
0100
0000
1000
0000
0010
0000
0000
0010
0000
0000
0010
0000
,  // measure 29
1000
0000
0001
0100
0010
0002
0000
1000
,  // measure 30
0000
0013
0100
0001
2000
0000
3100
1000
,  // measure 31
0020
0000
0130
1000
0200
0000
0301
0100
,  // measure 32
0002
0000
0000
0000
0013
0000
0001
0000
0020
0000
0000
0100
0000
0000
0130
0000
,  // measure 33
0002
0000
0103
1000
0200
0000
1300
0010
,  // measure 34
2000
0000
0000
0000
3010
0000
0001
0000
0020
0000
0000
0100
0000
0000
0130
0000
,  // measure 35
1001
0000
0000
0000
,  // measure 36
1000
0000
0100
0000
,  // measure 37
0011
0000
0000
0000
0000
0000
0000
1000
,  // measure 38
1001
0010
1001
0001
1001
0100
0110
0110
,  // measure 39
1001
0000
0001
0010
0100
0000
1000
0001
,  // measure 40
0100
1000
0100
0020
0000
0130
0001
0010
,  // measure 41
1001
0100
1000
0010
0001
0010
0100
0101
,  // measure 42
0000
2020
0000
3030
1001
1000
0001
0100
,  // measure 43
0110
0010
1000
0100
0001
0100
0020
0000
,  // measure 44
1030
0010
0001
0100
1000
0100
0010
0100
,  // measure 45
1001
0001
1000
1000
,  // measure 46
0110
0000
0011
0000
0101
0000
1100
1010
;

//---------------dance-single - ----------------
#NOTEDATA:;
#CHARTNAME:;
#STEPSTYPE:dance-single;
#DESCRIPTION:;
#CHARTSTYLE:;
#DIFFICULTY:Medium;
#METER:8;
#RADARVALUES:0.344944,0.377283,0.211278,0.211278,0.020122,240.000000,219.000000,21.000000,21.000000,0.000000,0.000000,0.000000,0.000000,0.000000,0.344944,0.377283,0.211278,0.211278,0.020122,240.000000,219.000000,21.000000,21.000000,0.000000,0.000000,0.000000,0.000000,0.000000;
#CREDIT:;
#NOTES:
// measure 0
0000
0000
0000
0000
,  // measure 1
1001
0000
0000
0100
0100
0000
0000
0010
,  // measure 2
0010
0000
0000
0100
,  // measure 3
1001
0000
0010
0000
0001
0010
0100
0000
,  // measure 4
1000
0000
0001
0000
0100
0000
0010
1000
,  // measure 5
0010
0000
0000
0100
0001
0000
0000
0100
,  // measure 6
1000
0000
0000
0000
0000
0000
0100
0000
0001
0000
0000
0001
0000
0000
0001
0000
,  // measure 7
1000
0000
0100
0000
0010
0001
0010
0000
,  // measure 8
0100
0000
1000
0000
0001
0000
0100
0010
,  // measure 9
0100
0000
0000
1000
0100
0000
0000
0001
,  // measure 10
0100
0000
0000
0000
0000
0000
1000
0000
0100
0000
0000
0100
0000
0000
0100
0000
,  // measure 11
0001
1000
0002
0000
0013
0100
0020
0000
,  // measure 12
0130
1000
0100
0000
0011
0000
1001
0000
,  // measure 13
1000
0010
2000
0000
3100
0010
0200
0000
,  // measure 14
0310
0001
0010
0000
0101
0000
1010
0000
,  // measure 15
0001
0000
1000
0000
0100
0010
0001
0000
,  // measure 16
1000
0000
0001
0000
0100
0000
0010
1000
,  // measure 17
0002
0000
2003
0000
,  // measure 18
3010
0000
0000
0000
1000
0001
1000
0001
,  // measure 19
1001
0000
0101
0000
0010
0000
1000
0001
,  // measure 20
0100
0000
0001
0000
0011
0000
0100
1000
,  // measure 21
0001
0000
1010
0000
1000
0001
0100
0000
,  // measure 22
0010
1000
0010
0000
1000
0100
0010
0000
,  // measure 23
1001
0000
0001
0100
0010
1000
0002
0000
,  // measure 24
1003
0000
1000
0100
0010
0001
2000
0000
,  // measure 25
3010
0010
0100
0100
,  // measure 26
1001
0000
0101
0000
1100
0000
1001
0100
,  // measure 27
0110
0000
1000
0001
1000
0002
0000
0103
,  // measure 28
0000
0001
1000
0001
2000
0000
3100
0000
,  // measure 29
0001
0000
0100
0010
0100
0020
0000
0031
,  // measure 30
0000
0100
0010
0100
0020
0000
1030
0000
,  // measure 31
1002
0000
0003
1000
2000
0000
3000
0100
,  // measure 32
0200
0000
0000
0000
0300
0000
0010
0000
0010
0000
0000
0001
0000
0000
1000
0000
,  // measure 33
0002
0000
0003
0100
0200
0000
0300
0010
,  // measure 34
0020
0000
0000
0000
0030
0000
1000
0000
1000
0000
0000
0100
0000
0000
1000
0000
,  // measure 35
0001
0000
0000
0000
,  // measure 36
0000
0000
0000
0000
,  // measure 37
0110
0000
0000
0000
0000
0000
0000
1000
,  // measure 38
0100
0010
0100
1000
0100
0010
0100
1000
,  // measure 39
0002
0000
1003
0000
0001
0100
0001
0000
,  // measure 40
1000
0100
0010
0001
1000
0000
0001
0000
,  // measure 41
0100
0010
0100
0000
1000
0000
0001
0000
,  // measure 42
0010
0100
1000
0000
1000
0100
0001
0000
,  // measure 43
0100
0000
0100
0010
0001
0010
0200
0000
,  // measure 44
1300
0000
0001
0100
1000
0100
0002
0000
,  // measure 45
1003
1000
0100
0100
,  // measure 46
0011
0000
1010
0000
0101
0000
1000
0100
;

//---------------dance-single - ----------------
#NOTEDATA:;
#CHARTNAME:;
#STEPSTYPE:dance-single;
#DESCRIPTION:;
#CHARTSTYLE:;
#DIFFICULTY:Easy;
#METER:5;
#RADARVALUES:0.273081,0.377283,0.382313,0.171035,0.000000,190.000000,152.000000,38.000000,17.000000,0.000000,0.000000,0.000000,0.000000,0.000000,0.273081,0.377283,0.382313,0.171035,0.000000,190.000000,152.000000,38.000000,17.000000,0.000000,0.000000,0.000000,0.000000,0.000000;
#CREDIT:;
#NOTES:
// measure 0
0000
0000
0000
0000
,  // measure 1
1001
0000
0000
0000
,  // measure 2
0000
0000
0000
0100
,  // measure 3
1001
0001
0100
0100
,  // measure 4
0110
1000
0100
0100
,  // measure 5
2000
0000
3002
0000
,  // measure 6
2003
0000
3002
0000
,  // measure 7
0103
0010
0010
0110
,  // measure 8
1000
1000
0001
0001
,  // measure 9
2001
0000
3200
0000
,  // measure 10
2300
0000
3002
0000
,  // measure 11
0103
1001
0010
1001
,  // measure 12
0100
1001
0010
0100
,  // measure 13
0001
0110
1000
0110
,  // measure 14
0001
0110
1010
0110
,  // measure 15
1000
0100
0010
0110
,  // measure 16
0001
1000
0001
1001
,  // measure 17
2001
0000
0010
0000
,  // measure 18
3100
0000
0000
0000
,  // measure 19
1001
0100
0000
0010
,  // measure 20
0100
1000
0010
0010
,  // measure 21
0110
0000
0001
1000
,  // measure 22
0100
0100
0110
1100
,  // measure 23
1001
2000
0100
3100
,  // measure 24
0010
0002
0010
0013
,  // measure 25
0001
2000
0001
3001
,  // measure 26
1001
0000
1001
0000
1001
0000
0110
0110
,  // measure 27
0000
1000
2000
0000
,  // measure 28
3001
0100
1000
2000
,  // measure 29
0000
3001
0002
0000
,  // measure 30
1003
0100
0001
0001
,  // measure 31
2000
0000
0100
0000
,  // measure 32
0001
0000
0010
0010
,  // measure 33
3020
0000
0001
0000
,  // measure 34
0100
0000
1000
1000
,  // measure 35
1030
0000
0000
0000
,  // measure 36
0100
0000
0010
0000
,  // measure 37
0110
0000
0000
0000
0000
0000
0000
0001
,  // measure 38
1000
0001
1000
0001
1000
0001
1000
0001
,  // measure 39
0100
0100
0010
0100
,  // measure 40
0100
0001
1000
0100
,  // measure 41
1001
0010
0001
1000
,  // measure 42
0110
0100
0100
0001
,  // measure 43
0110
1000
0100
0100
,  // measure 44
0110
0001
0100
0100
,  // measure 45
1001
0100
1001
0010
,  // measure 46
0110
0000
1001
0000
1001
0000
0110
0110
;

//---------------dance-single - ----------------
#NOTEDATA:;
#CHARTNAME:;
#STEPSTYPE:dance-single;
#DESCRIPTION:;
#CHARTSTYLE:;
#DIFFICULTY:Beginner;
#METER:1;
#RADARVALUES:0.139415,0.165501,0.030183,0.040243,0.000000,97.000000,94.000000,3.000000,4.000000,0.000000,0.000000,0.000000,0.000000,0.000000,0.139415,0.165501,0.030183,0.040243,0.000000,97.000000,94.000000,3.000000,4.000000,0.000000,0.000000,0.000000,0.000000,0.000000;
#CREDIT:;
#NOTES:
// measure 0
0000
0000
0000
0000
,  // measure 1
1001
0000
0000
0000
,  // measure 2
0000
0000
0000
0000
,  // measure 3
1000
0000
1000
0000
,  // measure 4
0100
0100
0100
0000
,  // measure 5
0001
0000
1000
0000
,  // measure 6
0001
0000
0010
0010
,  // measure 7
0010
0000
0010
0000
,  // measure 8
0100
0100
0100
0000
,  // measure 9
0100
0000
1000
0000
,  // measure 10
0001
0000
0100
0100
,  // measure 11
0100
0000
0100
0000
,  // measure 12
0100
0000
0100
0000
,  // measure 13
0010
0000
0010
0000
,  // measure 14
0010
0000
0010
0000
,  // measure 15
1000
1000
1000
0000
,  // measure 16
0001
0001
0001
0000
,  // measure 17
0100
0000
0000
0000
,  // measure 18
0000
0000
0000
0000
,  // measure 19
0010
0000
0010
0000
,  // measure 20
1000
0000
0001
0001
,  // measure 21
0001
0000
0010
0000
,  // measure 22
0010
0000
1000
1000
,  // measure 23
1000
0000
0100
0000
,  // measure 24
0010
0000
0001
0001
,  // measure 25
0002
0000
0000
0000
,  // measure 26
0103
0100
0100
0100
,  // measure 27
0100
0000
1000
0000
,  // measure 28
1000
0000
0100
0100
,  // measure 29
0001
0000
0001
0000
,  // measure 30
0001
0000
0000
0100
,  // measure 31
0200
0000
0300
0000
,  // measure 32
0000
0000
0000
0000
,  // measure 33
0020
0000
0030
0000
,  // measure 34
0000
0000
0000
0000
,  // measure 35
1001
0000
0000
0000
,  // measure 36
0000
0000
0000
0000
,  // measure 37
1001
0000
0000
0000
,  // measure 38
0001
0001
0001
0001
,  // measure 39
0001
0000
0100
0000
,  // measure 40
0100
0000
1000
1000
,  // measure 41
1000
0000
0010
0000
,  // measure 42
0010
0000
0001
0001
,  // measure 43
0001
0000
0010
0000
,  // measure 44
0100
0000
1000
1000
,  // measure 45
2000
0000
0000
0000
,  // measure 46
3010
0010
0010
0010
,  // measure 47
0010
0000
0000
0000
;
