#VERSION:0.83;
#TITLE:VANITY ANGEL;
#SUBTITLE:;
#ARTIST:FIXX;
#TITLETRANSLIT:;
#SUBTITLETRANSLIT:;
#ARTISTTRANSLIT:;
#GENRE:;
#ORIGIN:;
#CREDIT:;
#BANNER:VANITY ANGEL.png;
#BACKGROUND:VANITY ANGEL-bg.png;
#PREVIEWVID:;
#JACKET:VANITY ANGEL-jacket.png;
#CDIMAGE:;
#DISCIMAGE:;
#LYRICSPATH:;
#CDTITLE:;
#MUSIC:VANITY ANGEL.ogg;
#OFFSET:0.000000;
#SAMPLESTART:36.034000;
#SAMPLELENGTH:15.000000;
#SELECTABLE:YES;
#DISPLAYBPM:140.000000;
#BPMS:0.000=137.500,
4.000=140.000;
#STOPS:;
#DELAYS:;
#WARPS:;
#TIMESIGNATURES:0.000=4=4;
#TICKCOUNTS:0.000=4;
#COMBOS:0.000=1;
#SPEEDS:0.000=1.000=0.000=0;
#SCROLLS:0.000=1.000;
#FAKES:;
#LABELS:0.000=Song Start;
#BGCHANGES:;
#KEYSOUNDS:;
#ATTACKS:
;

//---------------dance-single - ----------------
#NOTEDATA:;
#CHARTNAME:;
#STEPSTYPE:dance-single;
#DESCRIPTION:;
#CHARTSTYLE:;
#DIFFICULTY:Beginner;
#METER:3;
#RADARVALUES:0.123472,0.165572,0.041653,0.000000,0.000000,83.000000,79.000000,4.000000,0.000000,0.000000,0.000000,0.000000,0.000000,0.000000,0.123472,0.165572,0.041653,0.000000,0.000000,83.000000,79.000000,4.000000,0.000000,0.000000,0.000000,0.000000,0.000000,0.000000;
#CREDIT:;
#DISPLAYBPM:140.000000;
#NOTES:
0000
0000
0000
0000
,
0000
0000
0000
0000
,
0000
0000
0000
0000
,
0000
0000
0000
0000
,
0000
0000
0000
0000
,
0010
0000
0000
0000
,
0010
0000
0000
0000
,
0100
0000
0000
0000
,
0100
0000
0000
0000
,
1001
0000
0000
0000
,
0000
0010
0000
0000
,
0001
0000
1000
0000
,
0001
0000
1000
0000
,
0110
0000
0000
0000
,
0000
0100
0000
0000
,
1000
0000
0001
0000
,
0010
0000
0010
0000
,
0100
0000
0000
0000
,
0010
0000
0000
0000
,
1000
0000
0001
0000
,
0010
0000
0100
0000
,
1000
0000
0100
0000
,
0010
0000
0001
0000
,
0001
0000
0100
0000
,
0010
0000
1000
0000
,
0001
0000
0100
0000
,
0010
0000
1000
0000
,
1000
0000
0100
0000
,
0010
0000
0001
0000
,
1000
1000
0000
0000
,
0001
0001
0000
0000
,
0100
0100
0000
0000
,
0010
0010
0000
0000
,
0001
0001
0000
0000
,
0100
0100
0000
0000
,
1000
1000
0000
0000
,
0010
0010
0000
0000
,
0100
0000
0000
0000
,
0100
0000
0000
0000
,
0100
0000
0000
0000
,
0100
0000
0000
0000
,
0010
0000
0000
0000
,
0010
0000
0000
0000
,
0010
0000
0000
0000
,
0110
0000
0000
0000
,
1000
0000
0100
0000
,
0010
0000
0001
0000
,
1000
0000
0100
0000
,
0010
0000
0001
0000
,
0001
0000
0100
0000
,
0010
0000
1000
0000
,
0001
0000
0100
0000
,
0010
0000
1000
0000
,
1001
0000
0000
0000
,
0000
0000
0000
0000
;

//---------------dance-single - ----------------
#NOTEDATA:;
#CHARTNAME:;
#STEPSTYPE:dance-single;
#DESCRIPTION:;
#CHARTSTYLE:;
#DIFFICULTY:Easy;
#METER:4;
#RADARVALUES:0.215704,0.275953,0.010413,0.000000,0.000000,145.000000,144.000000,1.000000,0.000000,0.000000,0.000000,0.000000,0.000000,0.000000,0.215704,0.275953,0.010413,0.000000,0.000000,145.000000,144.000000,1.000000,0.000000,0.000000,0.000000,0.000000,0.000000,0.000000;
#CREDIT:;
#DISPLAYBPM:140.000000;
#NOTES:
0000
0000
0000
0000
,
0000
0000
0000
0000
,
0000
0000
0000
0000
,
0000
0000
0000
0000
,
0000
0000
0000
0000
,
0010
0001
1000
0000
,
0010
1000
0001
0000
,
0100
0001
1000
0000
,
0100
0000
1000
0001
,
0010
0000
0100
0000
,
0000
1000
0010
0100
,
0001
0000
0010
0100
,
1000
0000
0001
0100
,
0010
0000
0001
0000
,
0000
0010
0100
1000
,
0100
0000
0010
0000
,
0000
0001
0010
0100
,
0000
1000
0000
1000
,
0000
0001
0000
0001
,
1000
0100
1000
0000
,
0001
0100
0001
0000
,
0010
0000
0100
1000
,
0001
0000
0100
0010
,
1000
0000
0100
0010
,
1000
0000
0001
0100
,
0010
1000
0100
0000
,
0010
0001
0100
0000
,
0001
0010
0100
0000
,
1000
0010
0100
0000
,
0000
0001
0001
1000
,
0000
1000
1000
0001
,
0000
0010
0010
0100
,
0000
0100
0100
0010
,
0001
0100
0010
1000
,
1000
0100
0010
0001
,
0001
0100
0001
1000
,
1000
0100
1000
0001
,
0010
0000
0000
0000
,
0010
0000
0000
0000
,
0100
0000
0000
0000
,
0100
0000
0010
0000
,
0001
0000
1000
0001
,
1000
0000
0001
1000
,
0010
0000
0100
0010
,
0100
0010
0010
0100
,
0001
1000
0100
0010
,
0000
0001
0100
0010
,
1000
0001
0100
0010
,
0000
1000
0100
0010
,
0001
0100
0010
1000
,
1000
0010
0100
0001
,
1000
0100
0010
0001
,
0001
0010
0100
1000
,
1001
0000
0000
0000
;

//---------------dance-single - ----------------
#NOTEDATA:;
#CHARTNAME:;
#STEPSTYPE:dance-single;
#DESCRIPTION:;
#CHARTSTYLE:;
#DIFFICULTY:Medium;
#METER:9;
#RADARVALUES:0.352565,0.386334,0.010413,0.000000,0.000000,237.000000,236.000000,1.000000,0.000000,0.000000,0.000000,0.000000,0.000000,0.000000,0.352565,0.386334,0.010413,0.000000,0.000000,237.000000,236.000000,1.000000,0.000000,0.000000,0.000000,0.000000,0.000000,0.000000;
#CREDIT:;
#DISPLAYBPM:140.000000;
#NOTES:
0000
0000
0000
0000
,
0000
0000
0000
0000
,
0000
0000
0000
0000
,
0000
0000
0000
0000
,
0000
0000
0000
0000
,
0001
0000
1000
0100
1000
0000
0000
0000
,
1000
0000
0001
0100
0001
0000
0000
0000
,
0010
0000
0001
1000
0001
0000
0000
0000
,
0100
0000
1000
0001
1000
0000
0010
0100
,
0001
0000
0000
1000
0100
0000
0000
0000
,
0000
0010
0001
1000
,
0010
0000
0100
0000
0001
1000
0100
0000
,
0010
0000
0100
0000
1000
0001
0100
0010
,
1000
0000
0000
0001
0100
0000
0000
0000
,
0000
0010
1000
0001
,
0100
0000
0000
0010
1000
0000
0000
0000
,
0000
0001
0100
0001
0000
1000
0100
1000
,
0010
0000
0010
0000
0000
1000
1000
0000
,
0000
0001
0001
0000
0000
0100
0100
0000
,
0010
0000
1000
0000
0000
1000
0100
0000
,
0000
0100
0010
0000
0010
0001
0100
0000
,
0010
0000
1000
0100
0000
0010
0001
0000
,
0100
0000
0010
1000
0000
0001
0100
0000
,
0010
0000
1000
0100
0000
0001
0100
0000
,
0100
0000
0001
0010
0000
1000
0010
0000
,
1000
0000
0001
0100
0000
0010
1000
0100
,
1000
0000
0001
0010
0000
0100
1000
0001
,
0001
0000
1000
0100
0000
0010
0001
0100
,
0001
0000
1000
0010
0000
0100
0001
1000
,
0010
0100
0000
0001
0100
0000
0001
0000
,
0010
0100
0000
1000
0100
0000
1000
0000
,
0001
0100
0000
0010
0100
0000
0001
0000
,
1000
0100
0000
0010
0100
0000
1000
0000
,
0010
0100
0000
0001
0100
0001
0000
1000
,
0100
1000
0000
0010
0100
0010
0000
1000
,
0001
1000
0000
0001
0010
0001
0000
1000
,
0010
1000
0000
0001
1000
0100
0000
0010
,
0001
0001
0001
0000
,
1000
1000
1000
0000
,
0001
0000
0001
1000
0001
0000
0010
0000
,
1000
0000
1000
0001
1000
0000
0010
0000
,
0100
0000
0001
0000
0000
1000
0100
1000
,
0010
0000
1000
0000
0000
0001
0010
0001
,
1000
0100
1000
0000
0001
0100
0001
0000
,
1000
0010
1000
0000
0001
0010
0001
0010
,
0100
1000
0000
1000
0001
0000
0001
0100
,
0000
0001
0000
0001
1000
0000
1000
0100
,
0000
1000
0000
1000
0010
0000
0010
0100
,
0000
0001
0000
0001
0010
0000
0010
0100
,
0000
1000
0001
1000
0100
0000
0010
0000
,
0000
0001
1000
0001
0100
0000
0010
0000
,
0000
1000
0100
0010
0001
0000
0100
0000
,
0000
0001
0100
0010
1000
0000
0100
0000
,
1001
0000
0000
0000
;

//---------------dance-single - ----------------
#NOTEDATA:;
#CHARTNAME:;
#STEPSTYPE:dance-single;
#DESCRIPTION:;
#CHARTSTYLE:;
#DIFFICULTY:Hard;
#METER:12;
#RADARVALUES:0.484962,0.564922,0.010413,0.187439,0.614385,326.000000,325.000000,1.000000,18.000000,0.000000,0.000000,0.000000,0.000000,0.000000,0.484962,0.564922,0.010413,0.187439,0.614385,326.000000,325.000000,1.000000,18.000000,0.000000,0.000000,0.000000,0.000000,0.000000;
#CREDIT:;
#DISPLAYBPM:140.000000;
#NOTES:
0000
0000
0000
0000
,
0000
0000
0000
0000
,
0000
0000
0000
0000
,
0000
0000
0000
0000
,
0000
0000
0000
0000
,
0010
0000
0000
0001
1000
0000
0100
0000
0100
0000
0000
0000
0000
0000
0000
0000
,
0010
0000
0000
1000
0001
0000
0100
0000
0100
0000
0000
0000
0000
0000
0000
0000
,
0100
0000
0000
0001
1000
0000
0010
0000
0010
0000
0000
0000
0000
0000
0000
0000
,
1000
0001
0000
0100
0000
0100
0001
0000
0001
1000
0000
0100
1000
0000
0001
0000
,
0020
0000
0000
0000
0030
0000
0001
0100
0002
0000
0000
0000
0000
0000
0000
0000
,
0003
2000
3002
0203
,
0310
1000
0010
0000
0100
0001
0100
0000
,
0010
1000
0100
0001
0100
1000
0010
0100
,
0001
0000
0000
0000
0000
0000
1000
0100
2000
0000
0000
0000
0000
0000
0000
0000
,
3000
0002
0203
0320
,
2030
0000
3000
0001
0200
0000
0000
0000
,
0300
0010
1000
0001
0100
0010
1000
0100
,
0010
0002
0000
1000
0000
1000
0003
1000
,
0010
2000
0000
0001
0000
0001
3000
0001
,
1000
0100
0000
0010
0001
0010
0000
0100
,
1000
0100
0000
0100
0010
0001
0100
0010
,
1000
0000
0000
1000
0100
0000
0010
0000
0000
0010
0001
0000
0100
0000
0100
0000
,
0001
0000
0000
0001
0100
0000
0010
0000
0000
0010
1000
0000
0100
0000
0100
0000
,
0010
0000
0000
0010
0001
0000
1000
0000
0000
1000
0100
0000
1000
0000
0100
0000
,
0010
0000
0000
0010
1000
0000
0001
0000
0000
0001
0100
0000
0001
0000
0100
0000
,
0010
0000
0000
0010
0100
0000
0001
0000
0000
0001
1000
0000
0100
0000
0100
0000
,
0010
0000
0000
0010
0100
0000
1000
0000
0000
1000
0001
0000
0100
0000
0100
0000
,
0010
0000
0000
1000
0100
0000
0010
0000
0000
0001
0100
0000
0010
0000
0010
0000
,
1000
0100
0000
0000
0010
0000
0010
0000
0001
0100
0000
0000
0010
0000
0010
0000
,
0000
0000
1000
0000
0000
0100
0000
0000
0010
0000
0000
0001
0000
0100
0000
0100
,
0000
0000
0001
0000
0000
0100
0000
0000
0010
0000
0000
1000
0000
0100
0000
0100
,
0000
0000
0010
0000
0000
0100
0000
0000
1000
0000
0000
0001
0000
1000
0000
1000
,
0000
0000
0010
0000
0000
0100
0000
0000
0001
0000
0000
1000
0000
0001
0000
0001
,
0000
0000
1000
0100
0000
0100
0000
0000
0010
0001
0000
0001
0000
0100
0000
0100
,
0000
0000
0001
0100
0000
0100
0000
0000
0010
1000
0000
1000
0000
0100
0000
0100
,
0000
0000
0010
0001
0000
1000
0000
0000
1000
0100
0000
0010
0000
0001
0000
0001
,
0000
0000
1000
0100
0000
0010
0000
0000
0010
0001
0000
0100
0000
0010
0000
0100
,
0001
0000
0000
0001
1000
0000
1000
0000
0200
0000
0000
0000
0300
0000
0000
0000
,
1000
0000
0000
1000
0001
0000
0001
0000
0200
0000
0000
0000
0300
0000
0000
0000
,
0001
0000
0000
0001
1000
0000
1000
0000
0200
0000
0000
0000
0310
0000
0000
0000
,
1000
0000
0000
1000
0001
0000
0001
0000
0100
0000
0010
0000
0100
0000
0000
0000
,
0001
0100
0000
0000
0100
0010
0000
0000
0010
1000
0000
0000
1000
0001
0000
0000
,
0001
0010
0000
0000
0010
0100
0000
0000
0100
1000
0000
0000
1000
0001
0000
0000
,
1000
0100
0010
0001
0100
0010
1000
0100
,
0010
0001
0010
0000
0001
0000
0001
0000
1000
0100
1000
0000
0100
0000
0100
0000
,
0010
0000
0001
0000
0000
0100
0000
0000
0010
0000
0000
1000
0000
0100
0000
0100
,
0000
0000
1000
0000
0000
0100
0000
0000
0010
0000
0000
0001
0000
0100
0000
0100
,
0000
0000
0010
0000
0000
1000
0000
0000
0001
0000
0000
1000
0000
0001
0000
0001
,
0000
0000
0010
0000
0000
0001
0000
0000
1000
0000
0000
0001
0000
1000
0000
1000
,
0000
0000
0010
1000
0000
1000
0100
0000
0010
0001
0000
0001
0000
0100
0000
0100
,
0000
0000
0001
0010
0000
0010
0100
0000
0100
1000
0000
1000
0000
0001
0000
0001
,
0000
0000
0100
0010
0000
0010
1000
0000
1000
0001
0000
0001
0000
0100
0000
0100
,
0000
0000
0001
0010
0000
0010
0100
0000
0100
1000
0000
1000
0001
0000
0001
0000
,
2002
0000
0000
0000
,
0000
3003
0000
0000
;

//---------------dance-double - ----------------
#NOTEDATA:;
#CHARTNAME:;
#STEPSTYPE:dance-double;
#DESCRIPTION:;
#CHARTSTYLE:;
#DIFFICULTY:Easy;
#METER:5;
#RADARVALUES:0.200828,0.275953,0.010413,0.000000,0.000000,135.000000,134.000000,1.000000,0.000000,0.000000,0.000000,0.000000,0.000000,0.000000,0.200828,0.275953,0.010413,0.000000,0.000000,135.000000,134.000000,1.000000,0.000000,0.000000,0.000000,0.000000,0.000000,0.000000;
#CREDIT:;
#DISPLAYBPM:140.000000;
#NOTES:
00000000
00000000
00000000
00000000
,
00000000
00000000
00000000
00000000
,
00000000
00000000
00000000
00000000
,
00000000
00000000
00000000
00000000
,
00000000
00000000
00000000
00000000
,
00100000
10000000
01000000
00000000
,
00010000
00001000
00000100
00000000
,
00000001
00000010
00001000
00000000
,
00010000
00000000
00100000
10000000
,
00100000
00000000
00010000
00000000
,
00000000
00001000
00000100
00000001
,
00000100
00000000
00000001
00000000
,
00000100
00000000
00001000
00000000
,
00010000
00000000
01000000
00000000
,
00000000
10000000
01000000
00010000
,
00001000
00000000
00000010
00000000
,
00000000
00001000
00010000
01000000
,
00000000
00010000
00000000
00001000
,
00000000
00000010
00000000
00000001
,
00000100
00000000
00001000
00000000
,
00010000
00000000
01000000
00000000
,
10000000
00000000
01000000
00010000
,
00001000
00000000
00000100
00000001
,
00000010
00000000
00001000
00010000
,
00100000
00000000
10000000
01000000
,
00010000
00001000
00000100
00000000
,
00000001
00000100
00001000
00000000
,
00010000
01000000
10000000
00000000
,
10000000
00100000
00010000
00000000
,
00001000
00000000
00000010
00000001
,
00000100
00000000
00001000
00010000
,
00100000
00000000
00010000
00001000
,
00000010
00000000
00001000
00010000
,
00000000
00100000
00010000
00001000
,
00000000
00000100
00000001
00000010
,
00000000
00001000
00010000
00100000
,
00000000
10000000
01000000
00010000
,
00001000
00000000
00000000
00000000
,
00000010
00000000
00000000
00000000
,
00000100
00000000
00000000
00000000
,
00010000
00000000
00001000
00000000
,
00010000
00000000
00100000
00100000
,
10000000
00000000
01000000
01000000
,
00010000
00000000
00001000
00001000
,
00000010
00000001
00000100
00001000
,
00000000
00010000
00100000
00010000
,
00000000
00001000
00000010
00001000
,
00000000
00010000
01000000
00010000
,
00000000
00001000
00000100
00001000
,
00010000
00100000
10000000
01000000
,
00010000
00001000
00000100
00000001
,
00000010
00001000
00010000
01000000
,
10000000
01000000
00010000
00001000
,
00011000
00000000
00000000
00000000
;

//---------------dance-double - ----------------
#NOTEDATA:;
#CHARTNAME:;
#STEPSTYPE:dance-double;
#DESCRIPTION:;
#CHARTSTYLE:;
#DIFFICULTY:Medium;
#METER:9;
#RADARVALUES:0.331738,0.386334,0.010413,0.000000,0.000000,223.000000,222.000000,1.000000,0.000000,0.000000,0.000000,0.000000,0.000000,0.000000,0.331738,0.386334,0.010413,0.000000,0.000000,223.000000,222.000000,1.000000,0.000000,0.000000,0.000000,0.000000,0.000000,0.000000;
#CREDIT:;
#DISPLAYBPM:140.000000;
#NOTES:
00000000
00000000
00000000
00000000
,
00000000
00000000
00000000
00000000
,
00000000
00000000
00000000
00000000
,
00000000
00000000
00000000
00000000
,
00000000
00000000
00000000
00000000
,
10000000
00000000
00000000
10000000
01000000
00000000
01000000
00000000
,
00010000
00000000
00000000
00010000
00001000
00000000
00001000
00000000
,
00000010
00000000
00000000
00000010
00000001
00000000
00000001
00000000
,
00000100
00000000
00000100
00001000
00010000
00000000
00010000
00000000
,
00100000
00000000
00000000
10000000
01000000
00000000
00000000
00000000
,
00000000
10000000
01000000
00010000
,
00001000
00000000
00000000
00000010
00000001
00000000
00000001
00000000
,
00000100
00000000
00001000
00000000
00010000
00100000
00010000
00001000
,
00010000
00000000
00000000
00100000
10000000
00000000
00000000
00000000
,
00000000
10000000
01000000
00010000
,
00001000
00000000
00000000
00000010
00000001
00000000
00000000
00000000
,
00000000
00000001
00000000
00000010
00001000
00000000
00010000
00000000
,
01000000
10000000
00100000
10000000
,
01000000
00010000
00001000
00000010
,
00000001
00000010
00001000
00010000
,
00100000
00000000
10000000
00000000
01000000
00000000
10000000
00010000
,
10000000
00000000
01000000
00010000
00000000
00000000
01000000
00010000
,
00001000
00000000
00001000
00000100
00000000
00000000
00000100
00000001
,
00000010
00000000
00000010
00001000
00000000
00000000
00001000
00010000
,
00001000
00000000
00010000
00100000
00000000
00000000
00100000
10000000
,
01000000
00000000
01000000
00010000
00000000
00010000
00001000
00000000
,
00001000
00000000
00000010
00000001
00000000
00000001
00000100
00000000
,
00000100
00000000
00001000
00010000
00000000
00010000
00100000
00000000
,
00100000
00000000
10000000
01000000
00000000
01000000
00010000
00000000
,
00001000
00000010
00000000
00001000
00010000
00000000
00001000
00000000
,
00010000
00100000
00000000
00010000
00001000
00000000
00010000
00000000
,
00001000
00000100
00000000
00001000
00010000
00000000
00001000
00000000
,
00010000
01000000
00000000
00010000
00001000
00000000
00010000
00000000
,
00001000
00000010
00000000
00000001
00000010
00000000
00001000
00000000
,
00010000
00100000
00000000
10000000
00100000
00000000
00010000
00000000
,
00001000
00000100
00000000
00000001
00000100
00000000
00001000
00000000
,
00010000
01000000
00000000
10000000
01000000
00000000
00010000
00000000
,
00001000
00000010
00000001
00000000
,
00000001
00000100
00001000
00000000
,
00010000
00100000
10000000
00010000
,
10000000
00000000
01000000
00010000
00001000
00000000
00010000
00000000
,
00001000
00000000
00000100
00000000
00000001
00000000
00000100
00001000
,
00010000
00000000
00100000
00000000
10000000
01000000
00000000
00010000
,
00001000
00000000
00000100
00000000
00000001
00000010
00000000
00000001
,
00000100
00000000
00001000
00000000
00010000
00100000
00010000
00001000
,
00010000
01000000
00000000
10000000
01000000
00000000
01000000
00010000
,
00001000
00000100
00000000
00000001
00000100
00000000
00001000
00000000
,
00000000
00010000
00000000
00100000
10000000
00000000
01000000
00010000
,
00000000
00001000
00000000
00000010
00000001
00000000
00000100
00001000
,
00010000
00100000
00000000
00010000
00001000
00000000
00000100
00001000
,
00010000
01000000
00000000
00010000
00001000
00000000
00000010
00000000
,
00000000
00000001
00000000
00000100
00001000
00000000
00010000
00100000
,
00000000
10000000
00000000
10000000
01000000
00000000
00010000
00001000
,
00011000
00000000
00000000
00000000
;

//---------------dance-double - ----------------
#NOTEDATA:;
#CHARTNAME:;
#STEPSTYPE:dance-double;
#DESCRIPTION:;
#CHARTSTYLE:;
#DIFFICULTY:Hard;
#METER:12;
#RADARVALUES:0.423970,0.469119,0.010413,0.000000,0.494632,285.000000,284.000000,1.000000,0.000000,0.000000,0.000000,0.000000,0.000000,0.000000,0.423970,0.469119,0.010413,0.000000,0.494632,285.000000,284.000000,1.000000,0.000000,0.000000,0.000000,0.000000,0.000000,0.000000;
#CREDIT:;
#DISPLAYBPM:140.000000;
#NOTES:
00000000
00000000
00000000
00000000
,
00000000
00000000
00000000
00000000
,
00000000
00000000
00000000
00000000
,
00000000
00000000
00000000
00000000
,
00000000
00000000
00000000
00000000
,
00100000
10000000
00000000
00000000
10000000
00000000
01000000
00000000
00010000
00000000
00000000
00000000
00000000
00000000
00000000
00000000
,
00010000
00001000
00000000
00000000
00000010
00000000
00000001
00000000
00000100
00000000
00000000
00000000
00000000
00000000
00000000
00000000
,
00000100
00001000
00000000
00000000
00010000
00000000
00100000
00000000
10000000
00000000
00000000
00000000
00000000
00000000
00000000
00000000
,
00100000
10000000
00000000
00000000
01000000
00000000
01000000
00000000
00010000
00001000
00000000
00000000
00000010
00000000
00000001
00000000
,
00000010
00000000
00000000
00000000
00000000
00000000
00000000
00000001
00000100
00000000
00000000
00000000
00000000
00000000
00000000
00000000
,
00000000
00001000
00010000
01000000
,
10000000
00100000
10000000
00000000
00000000
01000000
00000000
00010000
,
00001000
00000100
00001000
00010000
01000000
00010000
00001000
00000000
,
00000010
00000000
00000000
00000000
00000000
00000000
00000000
00000001
00000100
00000000
00000000
00000000
00000000
00000000
00000000
00000000
,
00000000
00001000
00010000
00100000
,
10000000
00000000
00000000
00100000
10000000
00000000
00000000
00000000
,
00000000
01000000
00010000
00001000
00000010
00001000
00010000
00000000
,
01000000
00010000
01000000
00000000
00000000
00010000
00000000
00010000
,
00001000
00000010
00001000
00000000
00000000
00000010
00000000
00000010
,
00000001
00000100
00000000
00000100
00001000
00000100
00000000
00001000
,
00010000
00001000
00000000
00010000
00100000
10000000
01000000
00000000
,
10000000
00000000
00000000
00000000
01000000
00000000
00010000
00000000
00000000
00001000
00000000
00000000
00000010
00000000
00000010
00000000
,
00000001
00000000
00000000
00000000
00000100
00000000
00001000
00000000
00000000
00010000
00000000
00000000
00100000
00000000
00100000
00000000
,
10000000
00000000
00000000
00000000
00100000
00000000
00010000
00000000
00000000
00001000
00000000
00000000
00000100
00000000
00000100
00000000
,
00000001
00000000
00000000
00000000
00000010
00000000
00001000
00000000
00000000
00010000
00000000
00000000
01000000
00000000
01000000
00000000
,
10000000
00000000
01000000
00000000
00010000
00000000
00001000
00000000
00000000
00000010
00000000
00000000
00000001
00000000
00001000
00000000
,
00000001
00000000
00000100
00000000
00001000
00000000
00010000
00000000
00000000
00100000
00000000
00000000
10000000
00000000
00010000
00000000
,
10000000
00000000
00100000
00000000
00010000
00000000
00001000
00000000
00000000
00000100
00000000
00000000
00000001
00000000
00001000
00000000
,
00000001
00000000
00000010
00000000
00001000
00000000
00010000
00000000
00000000
01000000
00000000
00000000
10000000
00000000
00010000
00000000
,
00000000
00000000
10000000
00000000
00000000
01000000
00000000
00000000
00100000
00000000
00000000
00001000
00000000
00010000
00000000
00001000
,
00000000
00000000
00000010
00000000
00000000
00000001
00000000
00000000
00000100
00000000
00000000
00000001
00000000
00000010
00000000
00000010
,
00000000
00000000
00000001
00000000
00000000
00000100
00000000
00000000
00000010
00000000
00000000
00010000
00000000
00001000
00000000
00010000
,
00000000
00000000
00100000
00000000
00000000
10000000
00000000
00000000
01000000
00000000
00000000
10000000
00000000
00100000
00000000
00100000
,
00000000
00000000
10000000
00000000
00000000
00100000
00000000
00000000
01000000
00000000
00000000
00001000
00000000
00010000
00000000
00001000
,
00000000
00000000
00000100
00000000
00000000
00000001
00000000
00000000
00000010
00000000
00000000
00000001
00000000
00000100
00000000
00000100
,
00000000
00000000
00000001
00000000
00000000
00000010
00000000
00000000
00000100
00000000
00000000
00010000
00000000
00001000
00000000
00010000
,
00000000
00000000
01000000
00000000
00000000
10000000
00000000
00000000
00100000
00000000
00000000
10000000
00000000
01000000
00000000
01000000
,
10000000
00000000
00000000
10000000
01000000
00000000
00010000
00000000
00010000
00000000
00000000
00000000
00000000
00000000
00000000
00000000
,
00001000
00000000
00000000
00001000
00000010
00000000
00000001
00000000
00000001
00000000
00000000
00000000
00000000
00000000
00000000
00000000
,
00000001
00000000
00000000
00000001
00000100
00000000
00001000
00000000
00001000
00000000
00000000
00000000
00000000
00000000
00000000
00000000
,
00010000
00000000
00000000
00010000
00100000
00000000
10000000
00000000
10000000
00000000
00000000
00000000
00010000
00000000
00000000
00000000
,
10000000
01000000
00000000
00000000
01000000
00000000
00000000
00000000
01000000
00010000
00000000
00000000
00010000
00000000
00000000
00000000
,
00010000
00001000
00000000
00000000
00001000
00000000
00000000
00000000
00001000
00000010
00000000
00000000
00000010
00000000
00000000
00000000
,
00000001
00000100
00000001
00000100
00001000
00000100
00001000
00010000
,
00001000
00010000
00000000
00000000
00100000
00000000
00100000
00000000
00100000
10000000
00000000
00000000
01000000
00000000
01000000
00000000
,
01000000
00000000
00010000
00000000
00000000
00001000
00000000
00000000
00000100
00000000
00000000
00001000
00000000
00010000
00000000
00001000
,
00000000
00000000
00000100
00000000
00000000
00000001
00000000
00000000
00000100
00000000
00000000
00001000
00000000
00010000
00000000
00010000
,
00000000
00000000
00010000
00000000
00000000
00001000
00000000
00000000
00000010
00000000
00000000
00001000
00000000
00010000
00000000
00001000
,
00000000
00000000
00000010
00000000
00000000
00000001
00000000
00000000
00000010
00000000
00000000
00001000
00000000
00010000
00000000
00010000
,
00000000
00000000
00100000
10000000
00000000
10000000
00000000
00000000
10000000
01000000
00000000
01000000
00000000
00010000
00000000
00010000
,
00000000
00000000
00001000
00000010
00000000
00000010
00000000
00000000
00000010
00000001
00000000
00000001
00000000
00000100
00000000
00000100
,
00000000
00000000
00001000
00010000
00000000
00010000
00000000
00000000
00100000
10000000
00000000
10000000
00000000
01000000
00000000
10000000
,
00000000
00000000
01000000
00010000
00000000
00010000
00000000
00000000
00001000
00000010
00000000
00000001
00000000
00000000
00000001
00000000
,
00001001
00000000
00000000
00000000
;

//---------------dance-single - ----------------
#NOTEDATA:;
#CHARTNAME:;
#STEPSTYPE:dance-single;
#DESCRIPTION:;
#CHARTSTYLE:;
#DIFFICULTY:Challenge;
#METER:15;
#RADARVALUES:0.623311,0.762644,0.187439,0.999677,1.067364,419.000000,401.000000,18.000000,96.000000,0.000000,0.000000,0.000000,0.000000,0.000000,0.623311,0.762644,0.187439,0.999677,1.067364,419.000000,401.000000,18.000000,96.000000,0.000000,0.000000,0.000000,0.000000,0.000000;
#CREDIT:;
#DISPLAYBPM:140.000000;
#NOTES:
// measure 0
0000
0000
0000
0000
,  // measure 1
0000
0000
0000
0000
,  // measure 2
0000
0000
0000
0000
,  // measure 3
0000
0000
0000
0000
,  // measure 4
0000
0000
0000
0000
,  // measure 5
1000
0100
0000
0010
0000
0100
1000
0000
0010
0100
0000
0010
0100
0000
0100
0010
,  // measure 6
1000
0001
0000
0010
0000
0001
1000
0000
0100
0010
0000
0100
0010
0000
0010
0001
,  // measure 7
0100
0010
0000
0010
0000
0010
1000
0000
0100
0010
0000
0010
0001
0000
0001
1000
,  // measure 8
0010
0100
0000
0100
0000
0100
0001
0000
1000
0100
0000
0100
0010
0000
0010
0001
,  // measure 9
2001
0000
0000
0000
3000
0000
0010
0100
0002
0000
0000
0000
0000
0000
0000
0000
,  // measure 10
0003
0020
0230
0320
,  // measure 11
0031
0010
0001
1000
0001
0100
0001
1000
,  // measure 12
0100
0010
0001
0000
0100
0010
1000
0000
0001
0010
0100
1000
0001
0010
0100
1000
,  // measure 13
0002
0000
0000
0000
0003
0000
1010
1010
2020
0000
0000
0000
0000
0000
0000
0000
,  // measure 14
3030
0002
0023
0032
,  // measure 15
2003
0000
3000
0010
0200
0000
0000
0000
,  // measure 16
0300
0000
0001
0010
0100
1000
0001
0010
0100
1000
0010
0100
0001
1000
0010
0100
,  // measure 17
0002
0000
0000
0003
,  // measure 18
2000
0000
0000
3200
0000
0000
0302
0000
2003
0000
0000
3020
0000
0000
0032
0000
,  // measure 19
0203
0000
0000
0000
0000
0000
0000
0000
0000
0000
0000
0000
0320
0000
0000
0000
0000
0000
0000
0000
0000
0000
0000
0000
0030
0000
0000
0000
0000
0000
1000
0001
,  // measure 20
2000
0000
0000
0000
0000
0000
0000
0000
3002
0000
0000
0023
0000
0000
0230
0000
,  // measure 21
1300
0001
0000
0100
0001
0000
1000
0001
0000
0010
0000
0001
1000
0000
0010
0100
,  // measure 22
0000
0100
0000
0001
1000
0000
0100
0010
0000
0010
0000
0001
1000
0000
0010
0100
,  // measure 23
0001
1000
0000
1000
0001
0000
0010
0100
0000
0010
0000
0001
1000
0000
0001
0000
,  // measure 24
0100
0010
0100
0000
0001
0000
1001
0000
1000
0100
0000
0010
0001
0000
0011
0000
,  // measure 25
0001
0100
0000
0100
0010
0000
0010
1000
0000
0100
0000
1000
0010
0000
0100
0001
,  // measure 26
0000
0010
0000
0001
1000
0000
0100
0010
0000
0100
0000
1000
0001
0000
1000
0001
,  // measure 27
0100
0010
0000
0010
0100
0000
0001
1000
0100
0010
0000
0010
0100
0000
1000
0001
,  // measure 28
0100
0010
1000
0000
1010
0000
1001
0000
1000
0100
0000
0010
0001
0100
0010
0100
,  // measure 29
0001
0000
2000
0000
0000
3200
0000
0000
0320
0000
0000
0032
0000
0100
0000
0203
,  // measure 30
0000
0000
2300
0000
0000
3200
0000
0000
0320
0000
0000
0230
0000
0001
0000
0302
,  // measure 31
0000
0000
2003
0000
0000
3200
0000
0000
0302
0000
0000
2003
0000
0010
0000
3020
,  // measure 32
0000
0000
0032
0000
0000
0203
0000
0000
0320
0000
0000
2030
0000
0001
0000
3001
,  // measure 33
0000
0000
1000
0200
0000
0310
0002
0000
1003
0020
0000
0130
0000
0101
0000
1001
,  // measure 34
0000
0001
0020
0000
0130
0002
0000
0103
2000
0000
3001
0020
0000
0031
0000
0101
,  // measure 35
0000
0000
0100
2000
0000
3100
0002
0000
0013
0200
0000
1300
0000
1010
0000
1001
,  // measure 36
0000
0100
2000
0000
3010
0002
0000
0013
0002
0000
1003
0002
0000
0010
0000
0013
,  // measure 37
1000
0001
0000
0001
0010
0100
0000
0100
2000
0000
0000
0000
0000
0000
0000
0000
,  // measure 38
3001
0100
0000
0100
0010
1000
0000
1000
0002
0000
0000
0000
0000
0000
0000
0000
,  // measure 39
1003
0100
0000
0100
0010
0001
0000
0001
0200
0000
0000
0000
0000
0000
0000
0000
,  // measure 40
1300
0100
0000
0100
0010
0001
0000
0001
0010
1000
0000
1000
0001
0000
1000
0000
,  // measure 41
0001
0100
0001
0000
0100
1000
0100
0000
0001
0010
0001
0000
0100
1000
0100
0000
,  // measure 42
0001
0010
0000
0010
0000
0010
0001
0000
1000
0100
0000
0100
1000
0000
1000
0000
,  // measure 43
0001
0100
0000
1000
0000
0100
0010
0000
0100
0001
0000
0010
0100
0000
0100
0000
,  // measure 44
1000
0010
0001
0010
0000
1000
0001
0000
1000
0100
0000
0010
0001
0000
1000
0001
,  // measure 45
1000
0000
0020
0000
0000
0032
0000
0000
0023
0000
0000
2030
0000
0100
0000
3200
,  // measure 46
0000
0000
0320
0000
0000
2030
0000
0000
3020
0000
0000
0032
0000
0100
0000
0203
,  // measure 47
0000
0000
2300
0000
0000
3002
0000
0000
0023
0000
0000
2030
0000
0001
0000
3002
,  // measure 48
0000
0000
0023
0000
0000
2030
0000
0000
3002
0000
0000
0203
0000
1000
0000
1300
,  // measure 49
0000
0000
0001
0200
0000
1300
0002
0000
0013
2000
0000
3001
0000
0011
0000
1100
,  // measure 50
0000
1000
0020
0000
0031
2000
0000
3100
0002
0000
0013
0200
0000
1300
0000
1010
,  // measure 51
0000
0000
0001
0020
0000
0130
0002
0000
1003
0020
0000
0031
0000
1001
0000
0110
,  // measure 52
0000
0100
0002
0000
0013
2000
0000
3001
2000
0000
3010
0002
0000
1003
0000
0010
,  // measure 53
0200
0000
0000
0000
,  // measure 54
0000
0300
0000
0000
;

//---------------dance-double - ----------------
#NOTEDATA:;
#CHARTNAME:;
#STEPSTYPE:dance-double;
#DESCRIPTION:;
#CHARTSTYLE:;
#DIFFICULTY:Challenge;
#METER:15;
#RADARVALUES:0.608434,0.706152,0.093720,0.989264,1.051744,409.000000,400.000000,9.000000,95.000000,0.000000,0.000000,0.000000,0.000000,0.000000,0.608434,0.706152,0.093720,0.989264,1.051744,409.000000,400.000000,9.000000,95.000000,0.000000,0.000000,0.000000,0.000000,0.000000;
#CREDIT:;
#DISPLAYBPM:140.000000;
#NOTES:
00000000
00000000
00000000
00000000
,
00000000
00000000
00000000
00000000
,
00000000
00000000
00000000
00000000
,
00000000
00000000
00000000
00000000
,
00000000
00000000
00000000
00000000
,
00000001
00000010
00000000
00000001
00000000
00000100
00000001
00000000
00000010
00000001
00000000
00000100
00000001
00000000
00000001
00000010
,
00001000
00010000
00000000
00000010
00000000
00010000
00001000
00000000
00000100
00001000
00000000
00010000
00100000
00000000
00100000
10000000
,
00010000
01000000
00000000
00100000
00000000
01000000
00010000
00000000
10000000
01000000
00000000
00100000
00010000
00000000
00010000
01000000
,
00001000
00010000
00000000
00000010
00000000
00010000
00000100
00000000
00001000
00000010
00000000
00000100
00000001
00000000
00000010
00000100
,
00002000
00000000
00000000
00000000
00003000
00000000
00000001
00000100
00000020
00000000
00000000
00000000
00000000
00000000
00000000
00000000
,
00000000
00000032
00002003
00023000
,
00130000
10000000
00010000
01000000
00100000
10000000
00010000
01000000
,
00100000
10000000
01000000
00000000
00100000
00010000
01000000
00000000
00001000
00010000
00000010
00010000
00001000
00010000
00000010
00010000
,
00002000
00000000
00000000
00000000
00000000
00000000
00003010
00000010
00000020
00000000
00000000
00000000
00000000
00000000
00000000
00000000
,
00000000
00000032
00002003
00023000
,
20030000
00000000
30000000
01000000
00200000
00000000
00000000
00000000
,
00301000
00000000
00100000
00010000
10000000
00010000
01000000
00001000
00010000
00000010
00001000
00000001
00001000
00000100
00010000
00001000
,
00020000
00000000
00000000
00030000
,
00020000
00000000
00000000
00230000
00000000
00000000
02300000
00000000
23000000
00000000
00000000
30020000
00000000
00000000
00032000
00000000
,
00003020
00000000
00000000
00000000
00000000
00000000
00000000
00000000
00000000
00000000
00000000
00000000
00000032
00000000
00000000
00000000
00000000
00000000
00000000
00000000
00000000
00000000
00000000
00000000
00000003
00000000
00000000
00000000
00000000
00000000
00000100
00000010
,
00000200
00000000
00000000
00000000
00000000
00000000
00000000
00000000
00002300
00000000
00000000
00023000
00000000
00000000
00230000
00000000
,
10300000
00010000
00000000
00100000
01000000
00000000
10000000
00010000
00000000
01000000
00000000
00100000
00010000
00000000
00001000
00010000
,
00000000
00000100
00000000
00000010
00000001
00000000
00000100
00000010
00000000
00010000
00000000
00000100
00001000
00000000
00000010
00000100
,
00000001
00001000
00000000
00000001
00000010
00000000
00001000
00000010
00000000
00000001
00000000
00000100
00000010
00000000
00000100
00000000
,
00001000
00010000
00100000
00000000
00010000
00000000
00011000
00000000
00001000
00100000
00000000
00010000
01000000
00000000
01100000
00000000
,
00100000
10000000
00000000
00010000
00100000
00000000
01000000
10000000
00000000
00100000
00000000
00010000
00001000
00000000
00010000
00000100
,
00000000
00000010
00000000
00000001
00000100
00000000
00000010
00010000
00000000
00000100
00000000
00001000
00000010
00000000
00000100
00000001
,
00000010
00000100
00000000
00000001
00000100
00000000
00000010
00001000
00010000
00100000
00000000
01000000
10000000
00000000
01000000
00000000
,
00010000
10000000
01000000
00000000
00100000
00000000
01100000
00000000
00100000
00010000
00000000
10000000
00100000
01000000
00100000
01000000
,
00010000
00000000
20000000
00000000
00000000
32000000
00000000
00000000
03020000
00000000
00000000
00032000
00000000
00000010
00000000
00003020
,
00000000
00000000
00000032
00000000
00000000
00000203
00000000
00000000
00002300
00000000
00000000
00023000
00000000
00100000
00000000
00230000
,
00000000
00000000
20300000
00000000
00000000
30020000
00000000
00000000
00230000
00000000
00000000
20300000
00000000
00010000
00000000
30020000
,
00000000
00000000
00032000
00000000
00000000
00003200
00000000
00000000
00000302
00000000
00000000
00000023
00000000
00000100
00000000
00000130
,
00000000
00000000
00001000
00000002
00000000
00000103
00000020
00000000
00000031
00000020
00000000
00010000
00000000
00010030
00000000
00011000
,
00000000
00001000
00200000
00000000
10300000
00200000
00000000
00310000
02000000
00000000
03200000
10000000
00000000
10300000
00000000
10010000
,
00000000
00000000
00100000
00020000
00000000
01030000
20000000
00000000
31000000
00200000
00000000
00010000
00000000
00310000
00000000
00011000
,
00000000
00010000
00000200
00000000
00000010
00002300
00000000
00013000
00002000
00000000
00003200
00001000
00000000
00001000
00000000
00001300
,
00000100
00000010
00000000
00000010
00000100
00000001
00000000
00000001
00000020
00000000
00000000
00000000
00000000
00000000
00000000
00000000
,
00000130
00010000
00000000
00010000
00001000
00010000
00000000
00010000
00200000
00000000
00000000
00000000
00000000
00000000
00000000
00000000
,
10300000
00010000
00000000
00010000
00100000
01000000
00000000
01000000
20000000
00000000
00000000
00000000
00000000
00000000
00000000
00000000
,
30100000
01000000
00000000
01000000
00001000
00100000
00000000
00100000
00010000
00000000
01000000
00000000
10000000
00000000
01000000
00000000
,
00100000
10000000
00100000
00000000
01000000
00010000
01000000
00000000
00001000
00100000
00001000
00000000
00010000
00000100
00010000
00000000
,
00000010
00001000
00000000
00001000
00000000
00001000
00000100
00000000
00000010
00000001
00000000
00000001
00000010
00000000
00000010
00000000
,
00000001
00000100
00000000
00001000
00000000
00000100
00000010
00000000
00010000
00001000
00000000
00100000
00010000
00000000
00010000
00000000
,
10000000
00100000
01000000
00100000
00000000
00010000
00100000
00000000
00010000
00001000
00000000
00010000
01000000
00000000
00010000
00001000
,
00010000
00000000
00000020
00000000
00000000
00000230
00000000
00000000
00000302
00000000
00000000
00000023
00000000
00001000
00000000
00002030
,
00000000
00000000
00023000
00000000
00000000
00230000
00000000
00000000
20300000
00000000
00000000
32000000
00000000
00100000
00000000
03200000
,
00000000
00000000
20300000
00000000
00000000
30020000
00000000
00000000
00032000
00000000
00000000
00003002
00000000
00000010
00000000
00000023
,
00000000
00000000
00000032
00000000
00000000
00002003
00000000
00000000
00023000
00000000
00000000
00230000
00000000
10000000
00000000
10300000
,
00000000
00000000
00010000
00200000
00000000
10300000
00020000
00000000
01030000
00020000
00000000
00001000
00000000
00031000
00000000
00011000
,
00000000
00010000
00000020
00000000
00000130
00002000
00000000
00003001
00000020
00000000
00000230
00000001
00000000
00000301
00000000
00000101
,
00000000
00000000
00000001
00000020
00000000
00000130
00000002
00000000
00001003
00020000
00000000
00100000
00000000
00130000
00000000
01100000
,
00000000
01000000
20000000
00000000
31000000
00020000
00000000
00031000
00000020
00000000
00000032
00000010
00000000
00000010
00000003
00001000
,
00000200
00000000
00000000
00000000
,
00000000
00000300
00000000
00000000
;
