#VERSION:0.83;
#TITLE:The Way I Am;
#SUBTITLE:;
#ARTIST:Charlie Puth;
#TITLETRANSLIT:;
#SUBTITLETRANSLIT:;
#ARTISTTRANSLIT:;
#GENRE:;
#ORIGIN:;
#CREDIT:;
#BANNER:;
#BACKGROUND:;
#PREVIEWVID:;
#JACKET:;
#CDIMAGE:;
#DISCIMAGE:;
#LYRICSPATH:;
#CDTITLE:;
#MUSIC:The Way I Am.mp3;
#OFFSET:-2.350000;
#SAMPLESTART:33.223999;
#SAMPLELENGTH:15.640000;
#SELECTABLE:YES;
#BPMS:0.000=115.000;
#STOPS:;
#DELAYS:;
#WARPS:;
#TIMESIGNATURES:0.000=4=4;
#TICKCOUNTS:0.000=4;
#COMBOS:0.000=1;
#SPEEDS:0.000=1.000=0.000=0;
#SCROLLS:0.000=1.000;
#FAKES:;
#LABELS:0.000=Song Start;
#BGCHANGES:;
#KEYSOUNDS:;
#ATTACKS:
;

//---------------dance-single - ----------------
#NOTEDATA:;
#CHARTNAME:;
#STEPSTYPE:dance-single;
#DESCRIPTION:;
#CHARTSTYLE:;
#DIFFICULTY:Hard;
#METER:12;
#RADARVALUES:0.509026,0.572430,0.301114,0.210780,0.511894,355.000000,325.000000,30.000000,21.000000,0.000000,0.000000,0.000000,0.000000,0.000000,0.509026,0.572430,0.301114,0.210780,0.511894,355.000000,325.000000,30.000000,21.000000,0.000000,0.000000,0.000000,0.000000,0.000000;
#CREDIT:;
#NOTES:
0000
0000
0000
0000
,
0000
0000
0000
0000
,
0000
0000
0000
0000
,
0001
0100
0001
0100
0010
1000
0010
1000
0001
0000
0001
0000
0000
0000
0000
0000
,
1000
0100
1000
0100
0010
0001
0010
0001
0100
0000
0000
0000
0000
0000
0000
0000
,
0010
1000
0010
1000
0001
0010
0001
0010
0100
0000
0100
0000
0000
0000
0000
0000
,
1000
0100
0010
0001
0100
0001
0010
0100
1000
0000
0000
0000
0000
0000
0000
0000
,
0001
1000
0001
1000
0010
0100
0010
0100
0001
0000
0000
1000
0100
1000
0000
0000
,
0001
0010
0001
0010
0100
1000
0100
1000
0001
0000
0000
0100
0010
0100
0000
0000
,
0010
1000
0010
1000
0100
0010
0100
0010
0001
0000
0001
0000
0000
0000
0000
0000
,
1000
0010
0100
0001
0010
0001
1000
0100
1000
0000
0000
0000
1001
0000
0000
0000
,
0002
0000
0000
0203
0000
0000
2300
0000
,
0000
0000
0000
3100
0001
0010
0100
0000
,
2000
0000
0000
3020
0000
0000
0032
0000
,
0000
0000
0000
0000
0000
0003
1001
0000
,
0110
0000
1000
0010
1000
0000
0001
0100
0001
0000
0000
0000
1001
0000
0001
0010
,
0001
0000
1000
0100
1000
0000
0001
0000
0010
0000
1000
0000
0010
0000
0001
0000
,
0200
0000
0000
0010
0000
0000
0310
0000
2000
0000
0000
0001
0000
0000
3001
0000
,
0011
0000
0000
0100
0000
0000
0100
0000
1010
0000
0000
0000
1000
0000
0100
0000
,
1001
0000
0001
0010
0001
0000
1000
0100
1000
0000
0000
0000
1001
0000
1000
0010
,
1000
0000
0001
0100
0001
0000
1000
0000
0010
0000
0001
0000
0010
0000
0100
0000
,
0002
0000
0000
0010
0000
0000
0013
0000
0200
0000
0000
0001
0000
0000
0301
0000
,
1100
0000
0000
1000
0000
0000
1000
0000
0011
0000
0000
0000
0100
0000
0001
0000
,
1001
0000
0000
0001
0000
0100
0000
0010
1000
0000
0020
0000
0000
0000
0130
0000
,
0001
0000
0000
1000
0000
0100
0000
0010
0100
0000
0100
0000
0010
0001
1000
0000
,
0001
0000
0000
1000
0000
0010
0000
0100
0001
0000
0020
0000
0000
0000
0130
0000
,
1000
0000
0000
0001
0000
0100
0000
0001
0010
0000
0100
0000
0010
0001
1000
0000
,
1001
0000
0000
0000
,
0000
0000
0000
0000
0000
0000
0000
0000
0000
0000
0001
0100
1000
0000
0010
0000
,
1001
0000
0001
0100
0001
0000
1000
0010
1000
0000
0000
0000
1001
0000
1000
0100
,
1000
0000
0001
0010
0001
0000
0100
0000
1000
0000
0100
0000
0010
0000
1000
0000
,
0002
0000
0000
1000
0000
0000
1003
0000
0020
0000
0000
0100
0000
0000
0130
0000
,
1001
0000
0000
0001
0000
0000
0010
0000
1100
0000
0000
0000
0010
0000
0100
0000
,
1001
0000
1000
0010
1000
0000
0001
0100
0001
0000
0000
0000
1001
0000
0001
0010
,
0001
0000
1000
0100
1000
0000
0001
0000
0100
0000
1000
0000
0001
0000
0010
0000
,
2000
0000
0000
0001
0000
0000
3001
0000
0200
0000
0000
1000
0000
0000
1300
0000
,
0101
0000
0000
1000
0000
0000
0100
0000
0011
0000
0000
0000
0001
0000
0100
0000
,
1001
0000
0000
1000
0000
0100
0000
0010
0001
0000
2000
0000
0000
0000
3010
0000
,
0001
0000
0000
0010
0000
1000
0000
0001
0100
0000
0010
0000
0100
0001
1000
0000
,
0100
0000
0000
0010
0000
0001
0000
1000
0001
0000
0200
0000
0000
0000
0310
0000
,
1010
0000
0000
0101
0000
0000
1001
0000
0002
0000
0000
0000
0013
0100
0010
0000
,
0110
0000
0100
1000
0001
0000
0100
0001
1000
0000
0000
0000
0110
0000
0010
0001
,
1000
0000
0010
1000
0001
0000
0100
0000
1000
0000
0100
0000
0001
0000
0010
0000
,
0200
0000
0000
1000
0000
0000
0310
0000
0002
0000
0000
0100
0000
0000
1003
0000
,
1010
0000
0000
0101
0000
0000
1000
0000
1100
0000
0000
0000
1001
0000
0010
0000
,
0100
1000
0100
0001
0100
1000
0100
0001
0100
0000
0100
0000
0000
0000
0000
0000
;

//---------------dance-single - ----------------
#NOTEDATA:;
#CHARTNAME:;
#STEPSTYPE:dance-single;
#DESCRIPTION:;
#CHARTSTYLE:;
#DIFFICULTY:Medium;
#METER:8;
#RADARVALUES:0.348432,0.366356,0.240891,0.020074,0.005019,243.000000,219.000000,24.000000,2.000000,0.000000,0.000000,0.000000,0.000000,0.000000,0.348432,0.366356,0.240891,0.020074,0.005019,243.000000,219.000000,24.000000,2.000000,0.000000,0.000000,0.000000,0.000000,0.000000;
#CREDIT:;
#NOTES:
0000
0000
0000
0000
,
0000
0000
0000
0000
,
0000
0000
0000
0000
,
1000
0100
1000
0100
1000
0100
0000
0000
,
0001
0100
0001
0100
0001
0000
0000
0000
,
0010
0001
0010
0001
0010
0001
0000
0000
,
1000
0010
1000
0010
1000
0000
0000
0000
,
0001
0010
0100
0100
0100
0000
1001
0000
,
1000
0010
0100
0100
0100
0000
1001
0000
,
0100
0010
0100
0010
0100
0010
0000
0000
,
1000
0100
0001
0100
1000
0000
1001
0000
,
1000
0000
0000
1000
0000
0000
2000
0000
,
0000
0000
0000
0000
3000
0100
0010
0000
,
0001
0000
0000
0001
0000
0000
0002
0000
,
0000
0000
0003
1001
,
0001
0100
0001
0000
0010
0001
0100
0000
,
0001
0010
0001
0000
0100
0001
0010
0000
,
0001
1100
1000
0101
,
0010
0100
1001
0110
,
1000
0100
1000
0000
0010
1000
0100
0000
,
1000
0010
1000
0000
0100
1000
0010
0000
,
1000
0011
0001
1010
,
0010
0100
1001
0110
,
1001
0000
1000
0100
0010
0100
1000
0000
,
0001
0100
0010
0100
0001
0000
0010
0100
,
0010
0000
0001
0100
0010
0100
0001
0000
,
1000
0010
0100
0010
1000
0000
0010
0100
,
0010
0000
0000
0000
,
0000
0000
0000
0000
0000
0000
1000
0001
,
1000
0100
1000
0000
0010
1000
0100
0000
,
1000
0010
1000
0000
0100
1000
0010
0000
,
1000
0101
0001
1100
,
0010
0100
1001
0110
,
0001
0100
0001
0000
0010
0001
0100
0000
,
0001
0010
0001
0000
0100
0001
0010
0000
,
0001
1010
1000
0011
,
0100
0010
1001
0110
,
1001
0000
0001
0010
1000
0010
0001
0000
,
0100
0010
1000
0010
0100
0000
0001
0010
,
0001
0000
1000
0100
0010
0100
1000
0000
,
0001
0010
1000
0010
0001
0000
1000
0010
,
0100
0001
0100
0000
0010
1000
0100
0000
,
0010
0001
0010
0000
0100
1000
0010
0000
,
0100
0001
1000
0001
0100
0001
1000
0010
,
1000
1100
0001
0011
,
0100
0000
0000
0100
0000
0000
0100
0000
0100
0000
0100
0000
0000
0000
0000
0000
;

//---------------dance-double - ----------------
#NOTEDATA:;
#CHARTNAME:;
#STEPSTYPE:dance-double;
#DESCRIPTION:;
#CHARTSTYLE:;
#DIFFICULTY:Hard;
#METER:12;
#RADARVALUES:0.496121,0.572430,0.351300,0.130483,0.461708,346.000000,311.000000,35.000000,13.000000,0.000000,0.000000,0.000000,0.000000,0.000000,0.496121,0.572430,0.351300,0.130483,0.461708,346.000000,311.000000,35.000000,13.000000,0.000000,0.000000,0.000000,0.000000,0.000000;
#CREDIT:;
#NOTES:
00000000
00000000
00000000
00000000
,
00000000
00000000
00000000
00000000
,
00000000
00000000
00000000
00000000
,
00000001
00000010
00000001
00000010
00000100
00001000
00000100
00001000
00000001
00000000
00000001
00000000
00000000
00000000
00000000
00000000
,
00000100
00000010
00000100
00000010
00000100
00001000
00000100
00001000
00010000
00000000
00000000
00000000
00000000
00000000
00000000
00000000
,
00100000
01000000
00100000
01000000
00010000
10000000
00010000
10000000
00100000
00000000
00100000
00000000
00000000
00000000
00000000
00000000
,
10000000
01000000
00100000
00010000
01000000
00010000
00100000
01000000
10000000
00000000
00000000
00000000
00000000
00000000
00000000
00000000
,
10000000
00010000
10000000
00010000
00100000
01000000
00100000
01000000
10000000
00000000
00000000
00010000
00100000
00010000
00000000
00000000
,
10000000
00100000
10000000
00100000
01000000
00001000
01000000
00001000
00010000
00000000
00000000
00000100
00001000
00000100
00000000
00000000
,
00000010
00000001
00000010
00000001
00000100
00000010
00000100
00000010
00001000
00000000
00001000
00000000
00000000
00000000
00000000
00000000
,
00000001
00000010
00000100
00001000
00000010
00001000
00000100
00000010
00000001
00000000
00000000
00000000
00001001
00000000
00000000
00000000
,
00000002
00000000
00000000
00000200
00000003
00000000
00002000
00000300
,
00000000
00000000
00003000
00010000
00100000
01000000
00010000
00000000
,
20000000
00000000
00000000
02000000
30000000
00000000
00020000
03000000
,
00000000
00030000
00000000
00011000
,
00001001
00000000
00000001
00000100
00000001
00000000
00000010
00000000
00001000
00000000
00000000
00000000
00011000
00000000
00010000
00000010
,
00010000
00001000
00000100
00000010
00010000
00001000
00100000
01000000
,
10000000
00000000
00000000
00100000
00000000
00000000
01000000
00000000
00010000
00000000
00000000
00100000
00000000
00000000
00001000
00000000
,
01001000
00000000
00000000
00010000
00000000
00000000
10000000
00000000
11000000
00000000
00000000
00000000
00110000
00000000
00000000
00000000
,
10010000
00000000
10000000
00100000
10000000
00000000
01000000
00000000
00100000
00000000
00000000
00000000
00101000
00000000
00001000
00010000
,
00001000
01000000
00010000
10000000
00100000
00010000
00001000
00000010
,
00000001
00000000
00000000
00000100
00000000
00000000
00001000
00000000
00010000
00000000
00000000
00000100
00000000
00000000
00000010
00000000
,
00000011
00000000
00000000
00000001
00000000
00000000
00000100
00000000
00000110
00000000
00000000
00000000
00001100
00000000
00000000
00000000
,
00012000
00000000
00000000
00100000
00000000
00103000
00000000
01000000
10000000
00000000
00010000
00000000
00000000
00000000
01000000
00000000
,
00200000
00000000
00000000
10000000
00000000
10300000
00000000
01000000
00100000
00000000
01000000
00000000
10000000
01000000
00100000
00000000
,
00002000
00000000
00000000
00010000
00000000
00013000
00000000
00000010
00000100
00000000
00000001
00000000
00000000
00000000
00001000
00000000
,
00000200
00000000
00000000
00000010
00000000
00000310
00000000
00000001
00001000
00000000
00000010
00000000
00000100
00000001
00001000
00000000
,
00001001
00000000
00000000
00000000
,
00000000
00000000
00000000
00000000
00000000
00000000
00000000
00000000
00000000
00000000
00001000
00010000
01000000
00000000
00100000
00000000
,
10010000
00000000
10000000
00100000
10000000
00000000
00010000
00000000
01000000
00000000
00000000
00000000
01100000
00000000
00100000
10000000
,
00100000
00010000
00001000
01000000
00010000
10000000
01000000
00010000
,
00001000
00000000
00000000
00000010
00000000
00000000
00000001
00000000
00000100
00000000
00000000
00000010
00000000
00000000
00010000
00000000
,
00010100
00000000
00000000
00000100
00000000
00000000
00000010
00000000
00000011
00000000
00000000
00000000
00000101
00000000
00000000
00000000
,
00001001
00000000
00000001
00000010
00000001
00000000
00000100
00000000
00000010
00000000
00000000
00000000
00001010
00000000
00001000
00000100
,
00001000
00000001
00000010
00000001
00000100
00000010
00010000
00100000
,
01000000
00000000
00000000
10000000
00000000
00000000
00010000
00000000
00100000
00000000
00000000
10000000
00000000
00000000
01000000
00000000
,
01100000
00000000
00000000
00100000
00000000
00000000
00001000
00000000
01001000
00000000
00000000
00000000
00011000
00000000
00000000
00000000
,
00020010
00000000
00000000
00000100
00000000
00030100
00000000
00000010
00000001
00000000
00000010
00000000
00000000
00000000
00000100
00000000
,
00002000
00000000
00000000
00000010
00000000
00003010
00000000
00000100
00000001
00000000
00000100
00000000
00000010
00010000
00001000
00000000
,
00200000
00000000
00000000
00001000
00000000
00301000
00000000
01000000
00100000
00000000
01000000
00000000
00010000
10000000
01000000
00000000
,
01100000
00000000
00000000
00100000
00000000
00000000
00001000
00000000
01001000
00000000
00000000
00000000
00101000
00000000
00000000
00000000
,
00011000
00000000
00001000
00010000
00001000
00000000
00000010
00000000
00000001
00000000
00000000
00000000
00001001
00000000
00000001
00000100
,
00000001
00000010
00000100
00010000
00000010
00000100
00001000
00010000
,
00100000
00000000
00000000
10000000
00000000
00000000
01000000
00000000
00100000
00000000
00000000
10000000
00000000
00000000
00100000
00000000
,
00110000
00000000
00000000
01001000
00000000
00000000
00011000
00000000
00010010
00000000
00000000
00000000
00001100
00000000
00001000
00000000
,
00000010
00010000
00001000
00010000
01000000
00010000
00001000
00010000
00000010
00000000
00010000
00000000
00000000
00000000
00000000
00000000
;
