#TITLE:Star Gate Heaven (FUTURE LOVE Mix);
#SUBTITLE:;
#ARTIST:SySF. feat. Donna Burke;
#TITLETRANSLIT:;
#SUBTITLETRANSLIT:;
#ARTISTTRANSLIT:;
#GENRE:;
#CREDIT:;
#BANNER:Star Gate Heaven (FUTURE LOVE Mix).png;
#BACKGROUND:Star Gate Heaven (FUTURE LOVE Mix)-bg.png;
#LYRICSPATH:;
#CDTITLE:;
#MUSIC:Star Gate Heaven (FUTURE LOVE Mix).ogg;
#OFFSET:0.000000;
#SAMPLESTART:34.290001;
#SAMPLELENGTH:15.000000;
#SELECTABLE:YES;
#DISPLAYBPM:147.000000;
#BPMS:0.000000=147.541000
,4.000000=147.003998
;
#STOPS:
;
#BGCHANGES:;
#KEYSOUNDS:;
#ATTACKS:;

//---------------dance-single - ----------------
#NOTES:
     dance-single:
     :
     Beginner:
     4:
     0.125993,0.175573,0.065330,0.043553,0.000000,81.000000,75.000000,6.000000,4.000000,0.000000,0.000000,0.125993,0.175573,0.065330,0.043553,0.000000,81.000000,75.000000,6.000000,4.000000,0.000000,0.000000:
0000
0000
0000
0000
,
0000
0000
0000
0000
,
0000
0000
0000
0000
,
0100
0000
0000
0000
,
0010
0000
0000
0000
,
1000
0000
1000
0000
,
0001
0000
0001
0000
,
0001
0000
0000
0000
,
0100
0000
0000
0000
,
0100
0000
0000
0000
,
0010
0000
0010
0000
,
0010
0000
0000
0000
,
0100
0000
0000
0000
,
1000
0000
1000
0000
,
0001
0000
0001
0000
,
0001
0000
0000
0000
,
0100
0000
0000
0000
,
0010
0000
0010
0000
,
0010
0000
0000
0000
,
0100
0000
0000
0000
,
0100
0000
0000
0000
,
0001
0000
1000
0000
,
0001
0000
1000
0000
,
1001
0000
0000
0000
,
1001
0000
0000
0000
,
0100
0000
0010
0000
,
0100
0000
0010
0000
,
0200
0000
0000
0300
,
0100
0000
0000
0000
,
0001
0000
1000
0000
,
0001
0000
1000
0000
,
1001
0000
0000
0000
,
1001
0000
0000
0000
,
0100
0000
0010
0000
,
0100
0000
0010
0000
,
0200
0000
0000
0300
,
0100
0000
0000
0000
,
0001
0000
0000
1000
,
1000
0000
0000
0000
,
0001
0000
0000
0100
,
0100
0000
0000
0000
,
0001
0000
0000
0010
,
0010
0000
0000
0000
,
0001
0000
0000
1000
,
1000
0000
0000
0000
,
0100
0000
0100
0000
,
0010
0000
0010
0000
,
0100
0000
0100
0000
,
0110
0000
0000
0000
,
0001
0000
0000
1000
,
1000
0000
0000
0100
,
0100
0000
0100
0000
,
0100
0000
0000
0000
,
2002
0000
0000
3003
,
0000
0000
0000
0000
;

//---------------dance-single - ----------------
#NOTES:
     dance-single:
     :
     Easy:
     5:
     0.278428,0.292622,0.174212,0.152436,0.000000,179.000000,163.000000,16.000000,14.000000,0.000000,0.000000,0.278428,0.292622,0.174212,0.152436,0.000000,179.000000,163.000000,16.000000,14.000000,0.000000,0.000000:
0000
0000
0000
0000
,
0000
0000
0000
0000
,
0010
1000
0010
1000
,
0100
0010
0010
0010
,
1001
0000
0110
0000
,
1000
0100
1000
0010
,
1000
0100
1000
0010
,
1000
0000
0110
0000
,
0100
0001
0001
0001
,
1000
0000
1001
0000
,
0010
1000
1000
1000
,
0001
0000
1001
0000
,
0110
0000
0000
0000
,
0001
0100
0001
0010
,
0001
0100
0001
0010
,
0001
0000
0110
0000
,
0100
1000
1000
1000
,
0001
0000
1001
0000
,
0010
0001
0001
0001
,
1000
0000
1001
0000
,
0110
0000
0000
0000
,
1000
0010
1000
0010
,
0100
0001
0100
0001
,
2000
3000
0002
0003
,
0200
0000
0000
0300
,
0001
0010
0001
0010
,
0100
1000
0100
1000
,
0010
0100
0100
0100
,
2002
0000
0000
3003
,
0100
0010
0100
0010
,
1000
0001
1000
0001
,
0200
0300
0020
0030
,
2000
0000
0000
3000
,
1000
0001
1000
0001
,
0010
0100
0010
0100
,
1000
0001
0001
0001
,
0220
0000
0000
0330
,
1000
0010
0100
0001
,
0200
0300
0001
0010
,
0100
1000
0001
1000
,
0200
0300
1000
0010
,
0100
0001
0100
0010
,
1000
0100
0001
0100
,
1000
0010
0100
0001
,
2002
0000
0000
3003
,
0001
0010
0100
1000
,
0001
0010
0100
1000
,
0100
0001
0100
1000
,
0100
0010
0001
1000
,
0100
0010
0001
0100
,
1000
0000
0110
0000
,
0001
0000
0110
0000
,
1000
0100
0010
0001
,
0100
0010
1000
1001
,
0000
0000
0000
0000
;

//---------------dance-single - ----------------
#NOTES:
     dance-single:
     :
     Medium:
     9:
     0.409088,0.439954,0.304871,0.152436,0.010888,263.000000,235.000000,28.000000,14.000000,0.000000,0.000000,0.409088,0.439954,0.304871,0.152436,0.010888,263.000000,235.000000,28.000000,14.000000,0.000000,0.000000:
0000
0000
0000
0000
,
0000
0000
0000
0000
,
0100
0001
0100
1000
,
0010
0100
0001
1000
,
1000
0000
0000
0001
0000
0000
0000
0100
0000
0000
0001
0000
0010
0000
0000
0000
,
0001
0000
0100
0000
0010
1000
0100
0000
,
0001
1000
0010
0000
0100
0000
0100
0000
,
0101
1100
0010
0001
,
0100
0010
1000
0000
0001
1000
0100
0000
,
0010
0010
0011
1010
,
0100
0001
0010
0000
0001
1000
0100
0000
,
1000
0000
0000
0101
0100
0000
0000
1001
,
0001
0100
0010
0010
,
1000
0000
0100
0000
0010
0001
0100
0000
,
1000
0001
0010
0000
0100
0000
0100
0000
,
1100
0101
0010
1000
,
0100
0010
0001
0000
1000
0001
0100
0000
,
0010
0010
1010
0011
,
0100
1000
0010
0000
1000
0001
0100
0000
,
0001
0000
0000
1100
0100
0000
0000
1001
,
1000
0100
0010
0010
,
0002
0100
0203
0010
,
0320
1000
2030
0100
,
3100
0010
0001
0000
0010
0100
0001
0000
,
0100
1000
0010
0000
1000
0100
0010
0000
,
0001
1001
0100
0010
,
0100
1001
0100
0010
,
0100
0011
0101
1100
,
0010
0001
0100
1000
0100
0000
0000
0000
,
2000
0100
3200
0010
,
0320
0001
0032
0100
,
0103
0010
1000
0000
0010
0100
1000
0000
,
0100
0001
0010
0000
0001
0100
0010
0000
,
1000
1001
0100
0010
,
0100
1001
0100
0010
,
0100
1010
0110
0101
,
0010
1000
0100
0001
0100
0000
0000
0000
,
1001
0000
0010
0000
0100
0010
0100
0000
,
2000
0000
3010
0100
,
0110
0000
0001
0000
1000
0001
1000
0000
,
0020
0000
0031
0100
,
1000
0100
0010
0000
1000
0000
0100
0000
,
0001
0100
0010
0001
,
0100
0010
1000
0000
0100
0000
0001
0000
,
0020
0000
0000
0030
,
1001
0000
0100
0000
0010
0100
0010
0000
,
0002
0000
0103
0010
,
0110
0000
1000
0000
0001
1000
0001
0000
,
0200
0000
0310
1000
,
0001
0010
0100
0000
0001
0000
0010
0000
,
0001
0100
0001
0000
1000
0000
0100
0000
,
0101
1100
0100
1000
,
0001
0100
0010
0100
0010
0100
0010
1000
,
0002
0000
0000
0000
0000
0000
1003
0100
,
0000
0000
0000
0000
;

//---------------dance-single - ----------------
#NOTES:
     dance-single:
     :
     Hard:
     12:
     0.589522,0.645266,0.479084,0.108883,0.293983,379.000000,335.000000,44.000000,10.000000,0.000000,0.000000,0.589522,0.645266,0.479084,0.108883,0.293983,379.000000,335.000000,44.000000,10.000000,0.000000,0.000000:
0000
0000
0000
0000
,
0000
0000
0000
0000
,
0001
0101
0001
0101
,
0100
0110
1010
0110
,
0002
0000
0000
0203
0000
0000
0000
0310
0000
0000
1010
0000
1100
0000
0000
0000
,
0100
1000
0020
0000
0130
0001
0020
0000
,
0130
0000
1000
0000
0010
0000
0100
0000
0001
0000
0000
0011
0000
0000
0001
0000
,
0100
0000
0010
0000
2000
0000
0000
0000
3100
0000
0000
0010
0000
0000
0100
0000
,
1000
0000
1000
0001
0000
0000
0010
0000
0100
0000
1000
0010
0000
0000
0100
0000
,
0010
0000
0110
0000
1000
0001
0010
0000
,
0100
0000
0000
1001
0000
0000
0100
0000
0010
0000
0000
1001
0000
0000
0010
0000
,
0100
0000
0110
0000
0100
0001
0010
0000
,
0100
1000
0010
0100
0001
0010
0110
0000
,
0010
0001
0200
0000
0310
1000
0200
0000
,
0310
0000
0001
0000
0100
0000
0010
0000
1000
0000
0000
1100
0000
0000
1000
0000
,
0010
0000
0100
0000
0002
0000
0000
0000
0013
0000
0000
0100
0000
0000
0010
0000
,
0001
0000
0001
1000
0000
0000
0100
0000
0010
0000
0001
0100
0000
0000
0010
0000
,
0100
0000
0110
0000
0001
1000
0100
0000
,
0010
0000
0000
1001
0000
0000
0010
0000
0100
0000
0000
1001
0000
0000
0100
0000
,
0010
0000
0001
1000
0000
0000
0010
0000
0100
0000
1000
0001
0000
0000
0100
0000
,
0010
0000
0001
0000
0010
0000
0100
0000
0001
0000
0000
1000
0010
0000
0100
0000
,
0001
0000
0000
0101
0000
0000
1000
0000
0001
0000
0000
1001
0000
0000
1000
0000
,
0010
0000
0000
1010
0000
0000
0010
0000
0100
0000
0000
0110
0000
0000
0001
0000
,
1000
0100
0000
0100
0000
0000
0001
0000
0010
0000
0100
0000
1000
0000
0000
0000
,
0001
0100
0000
0100
0000
0000
1000
0000
0100
0000
0010
0000
0001
0000
0000
0000
,
1000
0000
1100
0000
1000
0100
1001
0000
,
0100
0000
0110
0000
0100
0010
0101
0000
,
0010
1010
0101
0011
,
0100
1000
0010
0001
0100
0000
0000
0000
,
1000
0000
0000
1010
0000
0000
0001
0000
1000
0000
0000
1001
0000
0000
0001
0000
,
0010
0000
0000
0011
0000
0000
0010
0000
0100
0000
0000
0110
0000
0000
1000
0000
,
0001
0100
0000
0100
0000
0000
1000
0000
0100
0000
0010
0000
0001
0000
0000
0000
,
1000
0100
0000
0100
0000
0000
0001
0000
0010
0000
0100
0000
1000
0000
0000
0000
,
0001
0000
0101
0000
0001
0100
1001
0000
,
0010
0000
0110
0000
0010
0100
1010
0000
,
0100
0101
1010
1100
,
0010
0001
1000
0001
1000
0100
0010
0001
,
0100
0000
0100
0010
0000
0000
1000
0000
0010
0000
1000
0000
0100
0000
1000
0000
,
0010
0000
0110
0000
0001
0100
0010
1000
,
0100
0000
0100
0010
0000
0000
0001
0000
0010
0000
0001
0000
0100
0000
0001
0000
,
0010
0000
0100
0000
0010
0000
0000
0001
0100
0000
0000
1000
0100
0000
0001
0000
,
1000
0000
0010
0100
0000
0000
0001
0000
0010
0000
0100
0000
0010
0000
0001
0000
,
0010
0000
1001
0000
0100
1000
0100
0010
,
0001
0000
0100
0010
0000
0000
1000
0000
0100
0000
0010
0000
0100
0000
1000
0000
,
0200
0000
0000
0300
,
0001
0100
0001
0100
0001
0000
0010
0000
0100
0000
1000
0000
0010
0000
0100
0000
,
0001
0000
0101
0000
0010
0001
0010
0100
,
1000
0100
1000
0100
1000
0000
0010
0000
0100
0000
0001
0000
0010
0000
0100
0000
,
1000
0000
1100
0000
0010
0100
0010
0001
,
0010
0100
0010
0100
0010
0000
0001
0000
1000
0000
0010
0000
0100
0000
0010
0000
,
1001
0100
0001
1000
,
0100
0010
0000
0001
0010
0000
0100
0000
1000
0100
0000
0010
0100
0000
1000
0000
,
0001
0010
0000
0010
0100
0000
0100
1000
0000
1000
0010
0000
0100
0001
0100
0000
,
0002
0000
0100
0000
0100
0000
0100
0103
;

//---------------dance-double - ----------------
#NOTES:
     dance-double:
     :
     Easy:
     6:
     0.309538,0.351147,0.163324,0.119771,0.000000,199.000000,184.000000,15.000000,11.000000,0.000000,0.000000,0.309538,0.351147,0.163324,0.119771,0.000000,199.000000,184.000000,15.000000,11.000000,0.000000,0.000000:
00000000
00000000
00000000
00000000
,
00000000
00000000
00000000
00000000
,
00000000
00001000
00000000
00000001
,
00001000
00001000
00000100
00000100
,
00011000
00000000
01100000
00000000
,
01000000
10000000
01000000
00100000
,
01000000
10000000
01000000
00010000
,
00001000
00000100
00000001
00000100
,
00001001
00000000
00000010
00000100
,
00000020
00000030
00000002
00000003
,
00000100
00001000
00010000
01000000
,
00010000
00001000
00000100
00001000
,
00011000
00000000
00000000
00000000
,
01000000
00100000
01000000
10000000
,
01000000
00010000
00001000
00010000
,
01000000
00010000
00001000
00000100
,
00001001
00000000
00000010
00000100
,
00000020
00000030
00000200
00000300
,
00001000
00010000
01000000
00010000
,
00001000
00000100
00001000
00010000
,
00001000
00010000
00010000
01000000
,
10000000
10000000
00100000
00100000
,
01000000
01000000
00001000
00001000
,
00020000
00030000
00000200
00000300
,
00001000
00000001
00001000
00000000
,
00000001
00000100
00001000
00011000
,
00001000
00000100
00000001
00001001
,
00000001
00000100
00001000
00011000
,
00010000
01000000
01100000
00000000
,
10000000
10000000
00100000
00100000
,
01000000
01000000
00001000
00001000
,
00020000
00030000
00000200
00000300
,
00001000
00000001
00001000
00000000
,
00000001
00000100
00001000
00011000
,
00001000
00000100
00000001
00001001
,
00000001
00000100
00001000
00011000
,
00010000
01000000
01100000
00000000
,
10000000
00100000
01000000
00010000
,
00100000
00100000
00001000
00010000
,
00000010
00000100
00000001
00000010
,
00000001
00000001
00000100
00001000
,
00010000
00010000
01000000
00100000
,
10000000
00100000
01000000
10000000
,
00100000
00100000
01000000
00010000
,
00022000
00000000
00033000
00000000
,
00000001
00000100
00000010
00001000
,
00000100
00000100
00010000
00001000
,
01000000
00100000
10000000
01000000
,
10000000
10000000
00100000
00010000
,
00001000
00001000
00000010
00000100
,
00000001
00000100
00000010
00000001
,
00000100
00000100
00000010
00001000
,
00002000
00010000
00010000
00013000
,
01000000
10000000
00100000
01100000
,
00000000
00000000
00000000
00000000
;

//---------------dance-double - ----------------
#NOTES:
     dance-double:
     :
     Medium:
     8:
     0.413754,0.439954,0.315760,0.097994,0.065330,266.000000,237.000000,29.000000,9.000000,0.000000,0.000000,0.413754,0.439954,0.315760,0.097994,0.065330,266.000000,237.000000,29.000000,9.000000,0.000000,0.000000:
00000000
00000000
00000000
00000000
,
00000000
00000000
00000000
00000000
,
00000001
00001000
00000001
00000100
,
00010100
00011000
01001000
01010000
,
00010000
00000000
00000000
10000000
00000000
00000000
00000000
00100000
00000000
00000000
01000000
00000000
10010000
00000000
00000000
00000000
,
10000000
01000000
00100000
00000000
00010000
10000000
00100000
00000000
,
00010000
00000000
00000000
00000000
00001000
00000000
00000000
00000000
00000010
00000000
00000000
00000100
00000000
00000000
00001000
00000000
,
00000001
00000000
00000100
00000000
00000010
00000001
00000100
00000000
,
00001000
00000000
00010000
00000000
00001000
00000100
00000001
00000000
,
00000010
00001000
00010000
00001000
,
00010000
01000000
00100000
00000000
00010000
10000000
00100000
00000000
,
01001000
00000000
00000000
00001000
00010000
00000000
00000000
00000100
,
00001000
00001000
00000100
00000010
,
00000001
00000010
00000100
00000000
00001000
00000001
00000100
00000000
,
00001000
00000000
00000000
00000000
00010000
00000000
00000000
00000000
01000000
00000000
00000000
00100000
00000000
00000000
00010000
00000000
,
10000000
00000000
00100000
00000000
01000000
10000000
00100000
00000000
,
00010000
00000000
00001000
00000000
00010000
00100000
10000000
00000000
,
01000000
00010000
00001000
00010000
,
00001000
00000100
00000010
00000000
00001000
00000100
00000010
00000000
,
00000110
00000000
00000000
00000001
00000100
00000000
00000000
00001000
,
00010000
00000000
00000000
00000000
,
00000100
00000000
00000010
00000000
00000001
00001000
00000001
00000000
,
00000100
00001000
00000100
00000000
00010000
00001000
00010000
00000000
,
01000000
00000000
00000000
10000000
00000000
00000000
10010000
00000000
00000000
00000000
00000000
00000000
00000000
00000000
00000000
00000000
,
01000000
00000000
00000000
00010000
00000000
00000000
10010000
00000000
00000000
00000000
00000000
00000000
00000000
00000000
00000000
00000000
,
00011000
00000000
00010100
00000000
00000100
00000010
00000100
00000000
,
00000101
00000000
00001100
00000000
00000100
00010000
00000100
00000000
,
00000100
00011000
00101000
00110000
,
00010000
00100000
01000000
00100000
01000000
00000000
00000000
00000000
,
01000000
00000000
00100000
00000000
10000000
00010000
10000000
00000000
,
01000000
00010000
01000000
00000000
00010000
00001000
00010000
00000000
,
00000100
00000000
00000000
00000001
00000000
00000000
00001001
00000000
00000000
00000000
00000000
00000000
00000000
00000000
00000000
00000000
,
00000100
00000000
00000000
00001000
00000000
00000000
00001001
00000000
00000000
00000000
00000000
00000000
00000000
00000000
00000000
00000000
,
00011000
00000000
01001000
00000000
01000000
00100000
01000000
00000000
,
11000000
00000000
01010000
00000000
01000000
00001000
01000000
00000000
,
01000000
00011000
00010010
00001010
,
00001000
00000010
00000100
00000010
00000100
00000000
00000000
00000000
,
00000100
00000000
00000000
00000100
00000000
00000000
00000001
00000000
00001000
00000000
00000000
00000000
00000200
00000000
00000000
00000000
,
00020300
00030000
00001000
00011000
,
00010000
00000000
00000000
00010000
00000000
00000000
01000000
00000000
00100000
00000000
00000000
00000000
00020000
00000000
00000000
00000000
,
20030000
30000000
00100000
01100000
,
01000000
00000000
00000000
01000000
00000000
00000000
10000000
00000000
00010000
00000000
00000000
00000000
02000000
00000000
00000000
00000000
,
03002000
00003000
00010000
00011000
,
00001000
00000000
00000000
00001000
00000000
00000000
00000100
00000000
00000010
00000000
00000000
00000000
00002000
00000000
00000000
00000000
,
00003002
00000003
00000010
00000110
,
00000001
00000100
00001000
00000000
00000100
00000000
00000001
00000000
,
00000100
00000100
00001000
00001000
,
00010000
01000000
10000000
00000000
01000000
00000000
00010000
00000000
,
01000000
01000000
10000000
10000000
,
00100000
01000000
00100000
00000000
01000000
00000000
00001000
00000000
,
00010000
00001000
00010000
00000000
00000100
00000000
00000010
00000000
,
00000001
00001000
00000100
00001000
,
00000010
00000001
00000100
00001000
00010000
01000000
10000000
00100000
,
02000000
00000000
00010000
00000000
00010000
00000000
00010000
03010000
;

//---------------dance-double - ----------------
#NOTES:
     dance-double:
     :
     Hard:
     13:
     0.549080,0.557275,0.195989,0.304871,0.070774,353.000000,335.000000,18.000000,28.000000,0.000000,0.000000,0.549080,0.557275,0.195989,0.304871,0.070774,353.000000,335.000000,18.000000,28.000000,0.000000,0.000000:
00000000
00000000
00000000
00000000
,
00000000
00000000
00000000
00000000
,
00010000
01000000
10000000
00100000
,
02000000
03002000
00023000
00030200
,
00001300
00000000
00000000
00010100
00000000
00000000
00000000
00011000
00000000
00000000
01001000
00000000
01010000
00000000
00000000
00000000
,
00100000
10000000
01000000
00010000
00001000
00000100
00000001
00000100
,
00001000
00000000
00000000
00010000
00000000
00000000
00100000
00000000
00010000
00000000
00000000
00001000
00000000
00000000
00000010
00000000
,
00001000
00000000
00101000
00000000
01000000
10000000
00100000
00010000
,
00001000
00000010
00000001
00000100
00001000
00010000
01000000
10000000
,
00100000
00000000
01100000
00000000
01000000
00001000
00010000
00000000
,
00000010
00001000
00000100
00000001
00000100
00010000
00000100
00000001
,
00000100
00000000
00010000
01000000
10000000
00000000
00100000
00010000
,
00001000
00000100
00000001
00001001
,
00000010
00000001
00000100
00001000
00010000
01000000
10000000
01000000
,
00010000
00000000
00000000
00001000
00000000
00000000
00000010
00000000
00001000
00000000
00000000
00010000
00000000
00000000
00100000
00000000
,
00010000
00000000
00010010
00000000
00000100
00000001
00000010
00001000
,
00010000
00100000
10000000
01000000
00010000
00001000
00000100
00000001
,
00000010
00000000
00000110
00000000
00000100
00010000
00001000
00000000
,
00100000
00010000
01000000
10000000
01000000
00001000
01000000
10000000
,
01000000
00000000
00001000
00000100
00000001
00000000
00000010
00001000
,
00010000
01000000
10000000
10010000
,
10000000
01000000
00010000
00001000
00000010
00000100
00010000
00000100
,
00001000
00000100
00000010
00000100
00010000
00000100
00001000
00000100
,
00000020
00000000
00000000
00000032
00000000
00000000
00000203
00000000
00000000
00000000
00000000
00000000
00000300
00000000
00001000
00000000
,
00020000
00000000
00000000
02030000
00000000
00000000
23000000
00000000
00000000
00000000
30000000
00000000
10000000
00000000
01000000
00000000
,
00100000
00000000
00010000
00000000
10000000
01000000
00010000
00001000
,
00000010
00000000
00000001
00000000
00000001
00000100
00001000
00010000
,
00200000
20300000
30200000
00320000
,
00130000
00010000
00001000
00000010
00000001
00000000
00001001
00000000
,
00000001
00000100
00001000
00010000
00100000
01000000
00001000
01000000
,
00010000
01000000
00100000
01000000
00001000
01000000
00010000
01000000
,
00200000
00000000
00000000
20300000
00000000
00000000
32000000
00000000
00000000
00000000
00000000
00000000
03000000
00000000
00010000
00000000
,
00002000
00000000
00000000
00003200
00000000
00000000
00000302
00000000
00000000
00000000
00000003
00000000
00000001
00000000
00000010
00000000
,
00000100
00000000
00001000
00000000
00000001
00000100
00001000
00010000
,
00100000
00000000
10000000
00000000
10000000
01000000
00010000
00001000
,
00000020
00000032
00000023
00002030
,
00003010
00001000
00010000
00100000
10000000
00000000
00000000
00000000
,
01000000
00100000
01000000
00100000
00001000
00010000
00000100
00001000
,
00000010
00000001
00000010
00001000
00000100
00010000
01000000
00100000
,
01000000
00100000
00010000
00100000
10000000
00100000
00010000
01000000
,
00001000
00000000
00000000
00000000
00011000
00000000
00000000
00000000
00010100
00000000
00000000
00000100
00000010
00000000
00000001
00000000
,
00000100
00001000
00000100
00001000
00010000
01000000
10000000
01000000
,
00010000
00001000
00000100
00000010
00000100
00001000
00010000
01000000
,
00010000
01000000
10000000
00100000
00010000
00100000
10000000
01000000
,
00100000
00000000
00000000
00000000
00110000
00000000
00000000
00000000
00100000
00010000
00100000
00000000
00001000
00010000
00001000
00000000
,
00000100
00000010
00000100
00000010
00000001
00000010
00000100
00000010
,
00001000
00000100
00010000
00001000
00100000
10000000
00100000
00001000
,
00010000
01000000
00010000
01000000
10000000
00100000
00010000
00100000
,
10000000
01000000
00010000
00001000
00000010
00000001
00000100
00001000
,
00010000
00001000
00010000
01000000
00100000
00001000
01000000
00010000
,
01000000
00100000
01000000
00001000
01000000
00100000
01000000
10000000
,
02000000
03020000
00230000
00302000
,
00013000
00001000
00000010
00000001
00000100
00001000
00010000
01000000
,
10000000
00000000
01001000
00000000
00010100
00000000
00000101
00001100
;

//---------------dance-single - ----------------
#NOTES:
     dance-single:
     :
     Challenge:
     14:
     0.787066,0.792836,0.272207,0.217765,0.734958,506.000000,481.000000,25.000000,20.000000,0.000000,0.000000,0.787066,0.792836,0.272207,0.217765,0.734958,506.000000,481.000000,25.000000,20.000000,0.000000,0.000000:
0000
0000
0000
0000
,
0000
0000
0000
0000
,
1000
0100
0000
0010
0000
0000
0100
0000
1000
0010
0000
0100
0000
0000
0010
0000
,
1000
0100
0000
0100
1000
0000
0010
0000
0100
0001
0000
0001
0010
0000
0100
0000
,
1100
0000
0000
1020
0000
0000
0000
0130
0001
0000
1001
0000
0022
0000
0033
0000
,
0001
0100
1000
0100
0010
0001
0010
1000
,
0001
0000
0100
0010
0000
0010
0100
0000
0001
0000
0010
0100
0000
0100
0010
0000
,
0001
0000
1100
0000
1000
0010
0001
0010
,
1000
0000
0100
0010
0000
0010
0100
0000
1000
0000
0010
0100
0000
0100
0010
0000
,
0001
0000
0110
1000
0001
0000
1001
0001
,
0010
0000
0010
0100
0000
0100
1000
0000
0010
0000
0010
0100
0000
0100
0001
0000
,
1001
0000
0000
0000
1000
0000
0100
0000
0010
0000
0001
0100
0001
0000
1000
0000
,
0010
0000
0000
0010
0100
0000
0001
0000
1000
0100
0010
0000
0001
0100
0010
0000
,
1000
0100
0001
0100
1000
0010
0001
0010
,
1000
0000
0001
0010
0000
0010
0100
0000
1000
0000
0001
0100
0000
0100
0010
0000
,
1010
0000
0101
1000
0100
0010
1000
0010
,
0001
0000
0100
0010
0000
0010
1000
0100
0010
0000
0001
0100
0000
0100
0010
0100
,
1000
0000
1010
0001
0100
0000
0011
0100
,
1000
0000
1000
0001
0000
0100
1000
0000
0010
0000
1000
0100
0000
0001
1000
0000
,
0001
0000
0001
0010
0000
1000
0001
0000
0100
0000
0001
1000
0000
0010
0001
0000
,
1000
0100
1000
0000
0010
1000
0000
1000
0001
0010
0100
1000
0100
0010
0001
0000
,
1000
0000
0010
0000
0001
0000
0010
0000
1000
0100
1000
0000
0001
0010
0001
0000
,
0100
0000
1000
0000
0100
0000
0001
0000
0010
0100
0010
0000
0001
1000
0001
0000
,
0100
0010
0000
0010
1000
0000
0001
0000
0011
0000
0000
0010
0100
0000
1000
0000
,
0001
0100
0000
0100
0001
0000
1000
0000
1010
0000
0000
0010
1000
0000
0100
0000
,
1000
0001
0100
0000
0010
0000
0100
0000
0001
1000
0100
0000
0010
0000
0100
0000
,
1000
0010
0100
0000
0001
0000
1000
0000
0100
0010
0001
0000
0100
0000
0010
0000
,
1001
0000
0000
0001
0200
0000
0300
0010
2000
0000
3000
0100
0020
0000
0030
0001
,
2000
0000
3010
0000
0010
0000
0100
0000
0001
0010
0000
0010
0000
0000
1001
0000
,
1000
0100
0010
0000
0001
0000
0100
0000
0010
1000
0010
0000
0100
0001
0100
0001
,
1000
0100
0010
0000
0001
0000
0100
0000
0010
1000
0001
0000
0010
0100
0010
0100
,
1000
0010
0000
0010
0100
0000
0001
0000
1001
0000
0000
1000
0100
0000
0010
0000
,
0001
0100
0000
0100
0010
0000
1000
0000
1001
0000
0000
0001
0010
0100
1000
0000
,
1001
0000
0100
0000
0110
0000
0010
0000
1000
0001
1000
0000
0100
0010
0001
0000
,
0011
0000
1000
0000
1010
0000
0010
0000
1000
0100
0010
0000
0001
0100
0010
0000
,
0110
0000
0000
0010
0002
0000
0003
0010
2000
0000
3000
0100
0002
0000
0003
0100
,
2000
0000
3001
0000
0001
0000
0100
0000
0010
1000
0000
1000
0000
0000
1001
0000
,
0001
0010
0100
0000
1000
0000
0010
0000
0001
0000
0010
0000
1000
0000
0001
0000
,
0200
0000
0000
0000
1000
0000
0000
0000
0301
0000
0010
0100
1000
0000
0001
0000
,
0100
0010
1000
0000
0001
0000
1000
0000
0100
0000
0010
0000
0001
0000
1000
0000
,
0020
0000
0000
0000
0001
0000
0100
0000
1030
0000
0001
0000
1000
0001
0010
0000
,
0100
1000
0010
0000
0100
0000
0001
0000
0010
0000
1000
0000
0010
0000
0001
0000
,
2000
0000
0000
0000
0100
0000
0000
0000
3010
0000
0001
0010
1000
0000
0100
0000
,
0010
0001
1000
0000
0100
0000
0010
0000
0001
0000
0100
0000
1000
0000
0100
0000
,
0002
0000
0000
0000
0010
0000
1000
0000
0103
0001
1000
0000
0010
1000
0001
0000
,
1000
0100
0010
0000
0001
0100
0001
0100
0001
0000
1000
0100
1000
0000
0010
0000
,
0020
0000
0000
0000
0031
0000
0010
0000
1000
0000
0001
0010
0100
0000
1000
0000
,
0010
0100
0001
0000
0010
0001
0010
0001
1000
0001
0100
0000
0001
1000
0010
0000
,
0002
0000
0000
0000
1003
0000
0001
0000
0010
0000
1000
0100
0010
0000
0001
0000
,
0100
0010
1000
0000
0100
0010
0100
0010
0100
0000
1000
0010
1000
0000
0001
0000
,
0002
0000
0000
0000
0013
0000
0100
0000
1000
0001
0100
0010
0100
0001
1000
0000
,
0001
0010
0000
0001
0010
0100
1000
0000
0010
1000
0000
0010
1000
0010
0100
0000
,
0001
1000
0100
0000
0010
0001
1000
0000
0010
0100
0010
0100
0001
1000
0001
0000
,
2002
0000
0000
0000
0000
0000
0000
0000
3003
0000
0000
0000
1000
0100
0001
0010
;

//---------------dance-double - ----------------
#NOTES:
     dance-double:
     :
     Challenge:
     15:
     0.768400,0.763471,0.272207,0.065330,0.680517,494.000000,469.000000,25.000000,6.000000,0.000000,0.000000,0.768400,0.763471,0.272207,0.065330,0.680517,494.000000,469.000000,25.000000,6.000000,0.000000,0.000000:
00000000
00000000
00000000
00000000
,
00000000
00000000
00000000
00000000
,
00000001
00000010
00000000
00000010
00000000
00000000
00000001
00000000
00000100
00000010
00000000
00000010
00000000
00000000
00000100
00000000
,
00001000
00000100
00000000
00000100
00001000
00000000
00010000
00000000
00100000
10000000
00000000
10000000
00100000
00000000
01000000
00000000
,
01010000
00000000
00000000
00101000
00000000
00000000
00000000
00011000
00000000
00000000
00010100
00000000
00010010
00000000
00000000
00000000
,
00001000
00000100
00000010
00000001
00000010
00001000
00010000
00100000
,
10000000
00000000
01000000
00010000
00000000
00010000
01000000
00000000
00100000
00000000
00001000
00010000
00000000
00010000
00001000
00000000
,
00000100
00000000
00000101
00001000
00000010
00000001
00000010
00001000
,
00000100
00000000
00010000
00001000
00000000
00001000
00010000
00000000
01000000
00000000
10000000
00100000
00000000
00100000
10000000
00000000
,
00010000
00000000
01010000
10000000
00100000
00000000
00110000
00001000
,
01000000
00000000
00010000
00100000
00000000
00100000
00010000
00000000
00001000
00000000
00000100
00000010
00000000
00000010
00000100
00000000
,
00001001
00000000
00000010
00000001
00000100
00000000
00001000
00010000
,
00110000
00000000
00000000
00000000
00001000
00000000
01000000
00000000
00010000
00100000
01000000
00000000
10000000
00100000
01000000
00000000
,
00010000
00100000
10000000
00010000
01000000
00010000
00001000
00000100
,
00000001
00000000
00000010
00000100
00000000
00000010
00001000
00000000
00010000
00000000
00100000
00010000
00000000
00001000
01000000
00000000
,
01010000
00000000
10100000
00010000
00001000
00010000
01000000
10000000
,
00010000
00000000
00100000
10000000
00000000
00100000
00001000
00000000
00010000
00000000
00100000
01000000
00000000
00010000
00100000
00000000
,
00101000
00000000
00001010
00000001
00000100
00000000
00001100
00010000
,
00000010
00000000
00001000
00000001
00000000
00000010
00001000
00000000
00100000
00000000
00010000
01000000
00000000
10000000
01000000
00000000
,
00010000
00000000
00001000
00010000
00000000
00100000
00001000
00000000
00000010
00000000
00000100
00000001
00000000
00000100
00001000
00000000
,
00000001
00000100
00000001
00000000
00000010
00000100
00000010
00000000
00000100
00010000
00001000
00000000
01000000
00001000
00010000
00000000
,
00100000
00000000
10000000
00000000
00100000
00000000
00010000
00000000
00001000
01000000
00001000
00000000
00010000
00000010
00010000
00000000
,
00001000
00000000
00000010
00000000
00000001
00000000
00000010
00000000
00000100
00010000
00001000
00000000
00001000
01000000
00100000
00000000
,
10000000
01000000
00000000
01000000
10000000
00000000
00100000
00000000
00110000
00000000
00000000
00001000
00100000
00000000
00010000
00000000
,
00001000
00000100
00000000
00000100
00000010
00000000
00001000
00000000
00001010
00000000
00000000
00010000
00000010
00000000
00001000
00000000
,
00000001
00000000
00000010
00000000
00001000
00000000
00100000
00000000
00010000
01000000
00100000
00000000
10000000
00100000
01000000
00000000
,
00001000
00000000
00010000
00000000
01000000
00000000
00100000
00000000
01000000
10000000
00010000
00000000
10000000
00100000
00010000
00000000
,
00110000
00000000
00000000
00000010
00001000
00000000
00000000
00000100
00000010
00000000
00000000
00000001
00000100
00000000
00000000
00001000
,
00010000
00000000
00100000
00000000
00010000
00000000
00000010
00000000
00001000
00000100
00000000
00000100
00000000
00000000
00000000
00000000
,
00000010
00000001
00001000
00000000
00000010
00000000
00000001
00000000
00000010
00000100
00000010
00000000
00010000
00000100
00010000
00000000
,
00001000
00010000
00100000
00000000
01000000
00000000
10000000
00000000
01000000
00010000
01000000
00000000
00001000
00100000
00001000
00000000
,
00010000
00000100
00000000
00000100
00001000
00000000
00000010
00000000
00000110
00000000
00000000
00010000
00000100
00000000
00001000
00000000
,
00010000
00100000
00000000
00100000
10000000
00000000
00010000
00000000
10010000
00000000
00000000
00100000
00001000
00000000
00010000
00000000
,
00000010
00000000
00001000
00000000
00000001
00000000
00000100
00000000
00000010
00010000
00000100
00000000
00001000
00000001
00000010
00000000
,
00001000
00000000
00010000
00000000
00100000
00000000
01000000
00000000
10000000
01000000
00010000
00000000
00100000
00001000
00010000
00000000
,
00011000
00000000
00000000
00010000
00100000
00000000
00000000
00001000
00000010
00000000
00000000
00001000
00000100
00000000
00000000
00010000
,
01000000
00000000
10000000
00000000
00100000
00000000
01000000
00000000
00001000
00010000
00000000
00010000
00000000
00000000
00000100
00000000
,
00000010
00000001
00000010
00000000
00000100
00000000
00001000
00000000
00010000
00100000
00010000
00000000
01000000
00000000
00100000
00000000
,
02000000
00000000
00000000
00000000
10000000
00000000
00000000
00000000
03001000
00000000
00100000
01000000
10000000
00000000
00010000
00000000
,
01000000
00100000
01000000
00000000
00001000
00000000
00100000
00000000
00010000
00001000
00010000
00000000
00100000
00000000
00001000
00000000
,
00020000
00000000
00000000
00000000
00100000
00000000
00000000
00000000
00030010
00000000
00000100
00000001
00001000
00000000
00000100
00000000
,
00010000
00001000
00010000
00000000
01000000
00000000
00100000
00000000
00010000
00001000
00010000
00000000
00000010
00000000
00000100
00000000
,
00020000
00000000
00000000
00000000
00000100
00000000
00000000
00000000
01030000
00000000
00100000
00010000
10000000
00000000
00100000
00000000
,
01000000
10000000
01000000
00000000
00010000
00000000
00001000
00000000
00000010
00000001
00000010
00000000
00001000
00000000
00000100
00000000
,
00000020
00000000
00000000
00000000
00000001
00000000
00000000
00000000
00000130
00000000
00010000
00000010
00000100
00000000
00000001
00000000
,
00000010
00000001
00000010
00000000
00000100
00000001
00000100
00000001
00000100
00000000
00010000
00001000
00010000
00000000
00001000
00000000
,
01001000
00000000
00000000
00000000
00000100
00000000
00001000
00000000
00010000
00000000
00100000
01000000
00010000
00000000
10000000
00000000
,
00010000
00100000
00010000
00000000
01000000
10000000
01000000
10000000
01000000
00010000
00100000
00000000
00001000
00000000
00000010
00000000
,
00001010
00000000
00000000
00000000
01000000
00000000
00001000
00000000
00010000
00000000
00000100
00001000
00000010
00000000
00000001
00000000
,
00000010
00000100
00000010
00000000
00000001
00000010
00000001
00000010
00000001
00000000
00000010
00000100
00001000
00000000
00010000
00000000
,
00110000
00000000
00000000
00000000
00000100
00000000
00001000
00000000
00000010
00000100
00000010
00000100
00000010
00000000
00001000
00000000
,
00000001
00000010
00000000
00000001
00000100
00000000
00000100
00000010
00000100
00000000
00001000
00010000
00001000
00000000
00010000
00000000
,
00100000
01000000
00010000
00000000
00100000
01000000
10000000
00000000
00010000
01000000
00010000
01000000
00001000
00010000
00001000
00000000
,
00022000
00000000
00000000
00000000
00000000
00000000
00000000
00000000
00033000
00000000
00000000
00000000
00000010
00000001
00000100
00001000
;
