#TITLE:Saturn;
#SUBTITLE:;
#ARTIST:Mr.Saturn;
#TITLETRANSLIT:;
#SUBTITLETRANSLIT:;
#ARTISTTRANSLIT:;
#GENRE:;
#CREDIT:;
#BANNER:Saturn.png;
#BACKGROUND:Saturn-bg.png;
#LYRICSPATH:;
#CDTITLE:;
#MUSIC:Saturn.ogg;
#OFFSET:0.000000;
#SAMPLESTART:27.879999;
#SAMPLELENGTH:15.000000;
#SELECTABLE:YES;
#DISPLAYBPM:78.000000:155.000000;
#BPMS:0.000000=155.171997
,4.000000=154.990005
,136.000000=77.502998
,152.000000=155.016998
;
#STOPS:
;
#BGCHANGES:;
#KEYSOUNDS:;
#ATTACKS:;

//---------------dance-single - ----------------
#NOTES:
     dance-single:
     :
     Beginner:
     3:
     0.109710,0.200065,0.000000,0.000000,0.000000,88.000000,88.000000,0.000000,0.000000,0.000000,0.000000,0.109710,0.200065,0.000000,0.000000,0.000000,88.000000,88.000000,0.000000,0.000000,0.000000,0.000000:
0000
0000
0000
0000
,
0000
0000
0000
0000
,
0000
0000
0000
0000
,
0000
0000
0000
0000
,
1000
0000
0000
0000
,
0000
0000
0000
0000
,
1000
0000
0000
0000
,
1000
0000
0000
0000
,
0100
0000
0000
0000
,
0001
0000
0000
0000
,
0001
0000
0000
0000
,
0001
0000
0000
0000
,
0100
0000
0000
0000
,
1000
0000
0000
0000
,
1000
0000
0000
0000
,
0100
0000
0001
0000
,
0001
0000
0000
0000
,
0010
0000
1000
0000
,
1000
0000
0000
0000
,
1000
0000
0000
0000
,
0100
0000
0000
0000
,
0001
0000
0001
0000
,
0001
0000
0000
0000
,
0001
0000
0000
0000
,
0010
0000
0000
0000
,
1000
0000
1000
0000
,
0010
0000
0000
0000
,
0100
0000
0000
0000
,
1000
0000
0000
0000
,
0001
0000
0000
0000
,
0100
0000
0000
0000
,
0010
0000
0000
0000
,
0001
0000
0000
0000
,
1000
0000
0000
0000
,
0100
0000
0000
0000
,
0001
0000
0000
0000
,
0010
0000
0000
0000
,
1000
0000
0000
0000
,
1000
1000
1000
0000
,
0000
0000
0000
0000
,
0001
0001
0001
0000
,
0000
0000
0000
0000
,
0100
0100
0100
0000
,
0000
0000
0000
0000
,
0010
0010
0010
0000
,
0000
0000
0000
0000
,
0001
0001
0001
0000
,
1000
0000
1000
0000
,
0010
0010
0010
0000
,
0100
0000
0100
0000
,
1000
1000
1000
0000
,
0001
1000
0001
0000
,
0001
0001
0001
0000
,
0010
0000
0100
0000
,
1000
0000
0000
0000
,
0100
0000
0000
0000
,
0001
0000
0000
0000
,
0010
0000
0000
0000
,
0001
0000
0000
0000
,
0100
0000
0000
0000
,
1000
0000
0000
0000
,
0001
0000
0000
0000
,
0100
0100
0000
0000
,
0010
0010
0000
0000
,
0001
0001
0001
0000
,
1000
1000
1000
0000
,
0000
0000
0000
0000
;

//---------------dance-single - ----------------
#NOTES:
     dance-single:
     :
     Easy:
     7:
     0.268041,0.402420,0.314169,0.069815,0.000000,215.000000,179.000000,36.000000,8.000000,0.000000,0.000000,0.268041,0.402420,0.314169,0.069815,0.000000,215.000000,179.000000,36.000000,8.000000,0.000000,0.000000:
0000
0000
0000
0000
,
0000
0000
0000
0000
,
0000
0000
0000
0000
,
0000
0000
0000
0000
,
1001
0000
0000
0000
,
1001
0000
0000
0000
,
1000
0000
0001
0000
,
0010
0000
1001
0000
,
0001
0000
1000
0000
,
0100
0000
1001
0000
,
0001
0000
1000
0000
,
0010
0000
1001
0000
,
0010
0010
0010
0000
,
0100
0100
0100
0000
,
1000
0100
1001
0000
,
0001
0100
1001
0000
,
0010
0010
1001
0000
,
0100
0100
1001
0000
,
0000
1000
0000
0010
0000
1001
0000
0000
,
0000
0001
0000
0100
0000
1001
0000
0000
,
0000
0010
0000
0010
0000
0010
0000
0000
,
0001
0100
1000
0000
1001
0000
1001
0000
,
0000
0001
0000
0010
0000
1001
0000
0000
,
0000
1000
0000
0100
0000
1001
0000
0000
,
0000
0010
0000
0010
0000
0010
0000
0000
,
1000
0100
0001
0000
1001
0000
1001
0000
,
0000
0001
0000
0001
,
0000
0100
0000
0100
,
0000
1000
0000
1000
,
0000
0010
0000
0010
,
0000
0001
0000
0001
,
0000
0010
0000
0010
,
0000
1000
0000
1000
,
0100
0001
0010
1000
,
0002
0000
0000
0000
,
0203
0000
0000
0000
,
2300
0000
0000
0000
,
3020
0000
0000
0000
,
0031
0001
0100
0000
,
0100
0100
1000
0000
,
1000
1000
0010
0000
,
1001
0110
1001
0110
,
0001
0001
0010
0000
,
0010
0010
1000
0000
,
1000
1000
0100
0000
,
1001
0110
1001
0110
,
1000
1000
1100
0000
,
0001
0001
0101
0000
,
1000
0010
0001
0100
,
0110
1001
1001
0110
,
0001
0001
0001
0010
,
1000
1000
1000
0100
,
0001
0100
1000
0010
,
0110
1001
1001
0110
,
0000
1000
0000
1000
,
0000
0100
0000
0100
,
0000
0001
0000
0001
,
0000
0010
0000
0010
,
1000
0100
0001
0100
,
1000
0100
0001
0010
,
1000
1000
0001
0001
,
0001
0100
1000
0010
,
0002
0000
0020
0003
,
2000
0030
0200
3300
,
0001
0100
1000
0000
1000
0010
0001
0000
,
0010
1000
0100
0000
0100
0001
0010
1001
,
0000
0000
0000
0000
;

//---------------dance-single - ----------------
#NOTES:
     dance-single:
     :
     Medium:
     9:
     0.367777,0.459909,0.244354,0.139631,0.104723,295.000000,267.000000,28.000000,16.000000,0.000000,0.000000,0.367777,0.459909,0.244354,0.139631,0.104723,295.000000,267.000000,28.000000,16.000000,0.000000,0.000000:
0000
0000
0000
0000
,
0000
0000
0000
0000
,
0000
0000
0000
0000
,
0000
0000
0000
0000
,
1001
0000
0000
0000
,
0010
0000
0000
0000
,
0020
0030
0001
0010
,
2000
3000
1001
0000
,
0001
0100
1000
0010
,
0001
0100
1001
0000
,
1000
1000
1000
0000
,
0001
0001
0001
0000
,
1000
0100
0001
0010
,
1000
0001
1001
0000
,
0010
0001
0100
0000
1001
0000
0000
0000
,
0100
1000
0010
0000
1001
0000
0000
0000
,
1000
0100
0001
0000
1001
0000
0000
0000
,
0001
0010
1000
0000
1001
0000
0000
0000
,
0000
1000
0001
1000
0000
1100
0000
0000
,
0000
0001
1000
0001
0000
0101
0000
0000
,
1000
0100
0001
0100
,
1000
1000
0100
0000
0001
0001
0010
0000
,
0000
0001
1000
0001
0000
0101
0000
0000
,
0000
1000
0001
1000
0000
1100
0000
0000
,
0001
0100
1000
0010
,
0001
0001
0100
0000
1000
1000
0010
0000
,
0000
0000
0010
1000
0000
0000
1000
0100
,
0000
0000
0100
0001
0000
0000
0001
0010
,
0000
0000
0010
1000
0000
0000
1000
0001
,
0000
0000
0010
0001
0000
0000
0001
0100
,
0000
0000
0100
1000
0000
0000
1000
0010
,
0000
0000
0010
0001
0000
0000
0001
1000
,
0000
0000
0001
0001
0000
0000
1000
1000
,
1000
0100
0001
0000
0001
0000
0010
1000
,
0200
0000
0002
0303
,
0020
0000
2000
3030
,
0200
0300
0102
0003
,
2000
3000
1020
0030
,
0010
0000
0000
0010
0100
0000
0000
0000
0010
0000
0000
0010
0100
0000
0000
0000
,
0001
0000
0000
0001
1000
0000
0000
0000
0001
0000
0000
0001
1000
0000
0000
0000
,
0100
0000
0000
0100
1000
0000
0000
0000
0100
0000
0000
0100
1000
0000
0000
0000
,
0001
1100
0001
1100
,
0001
0000
0000
0001
0010
0000
0000
0000
0001
0000
0000
0001
0010
0000
0000
0000
,
1000
0000
0000
1000
0010
0000
0000
0000
1000
0000
0000
1000
0010
0000
0000
0000
,
0001
0000
0000
0001
1000
0000
0000
0000
0001
0000
0000
0001
1000
0000
0000
0000
,
1000
0011
1000
0011
,
0001
0000
0000
0001
0100
0000
0000
0000
0001
0000
0000
0001
0100
0000
0000
0000
,
1000
0000
0000
1000
0100
0000
0000
0000
1000
0000
0000
1000
0100
0000
0000
0000
,
0001
0000
0000
0001
1000
0000
0000
0000
0001
0000
0000
0001
1000
0000
0000
0000
,
0110
1001
1001
0110
,
0001
0000
0000
0001
0010
0000
0000
0000
0001
0000
0000
0001
0010
0000
0000
0000
,
0100
0000
0000
0100
0010
0000
0000
0000
0100
0000
0000
0100
0010
0000
0000
0000
,
0001
0000
0000
1000
0001
0000
0000
0000
1000
0000
0000
1000
0001
0000
0000
0000
,
0110
1001
1001
0110
,
0002
0000
0100
0103
,
2000
0000
0100
3100
,
0002
0003
0021
0030
,
2000
3000
1020
0030
,
0100
0001
0100
0000
1000
0100
0010
0001
,
1000
0010
0100
0010
0100
0001
1000
0000
,
0100
1000
0100
0000
0010
0001
0010
0000
,
0001
1000
0100
1000
0100
1000
1000
0000
,
0000
0001
0000
0001
,
0000
1000
1000
1000
,
0100
1000
0100
1000
0001
0100
0010
1000
,
0001
0100
1000
0010
0001
1000
0001
0010
,
0000
0000
0000
0000
;

//---------------dance-single - ----------------
#NOTES:
     dance-single:
     :
     Hard:
     13:
     0.450060,0.632374,0.209446,0.235627,0.331623,361.000000,337.000000,24.000000,27.000000,0.000000,0.000000,0.450060,0.632374,0.209446,0.235627,0.331623,361.000000,337.000000,24.000000,27.000000,0.000000,0.000000:
0000
0000
0000
0000
,
0000
0000
0000
0000
,
0000
0000
0000
0000
,
0000
0000
0000
0000
,
0001
1001
0000
0000
0000
0000
0000
0000
,
1001
0000
0010
0000
,
0020
0030
1100
0000
,
2000
3000
0101
0000
,
0010
0020
0000
0000
0000
0000
0030
0000
,
0100
0200
0000
0000
0010
0000
0301
0000
,
0002
0203
2300
3010
,
0100
0000
0000
0010
0100
0000
0000
0000
0101
0000
0000
0000
0000
0000
0000
0000
,
2000
3200
0302
0013
,
1000
0000
0000
0001
1000
0000
0000
0000
1100
0000
0000
0000
0000
0000
0000
0000
,
0001
0000
0000
0001
0100
0000
0000
0000
0010
0000
0000
0000
0000
0000
0000
0000
,
1000
0000
0000
1000
0100
0000
0000
0000
0010
0000
0000
0000
0000
0000
0000
0000
,
0001
0000
0000
0001
1000
0000
0000
0000
0200
0000
0000
0000
0302
0000
0000
0000
,
0023
2030
3200
0300
,
0000
0000
0010
1000
0010
0000
0100
1000
0100
0000
0001
1000
0001
0000
0100
0000
,
0000
0000
1000
0001
1000
0000
0100
1000
0100
0000
0010
0100
0010
0000
0001
0000
,
0000
0000
0100
0001
0100
0000
0010
0100
0010
0000
1000
0001
1000
0000
0100
0000
,
0000
0010
0000
1100
0000
1000
0000
0101
,
0000
0000
0010
0001
0010
0000
0100
0001
0100
0000
1000
0001
1000
0000
0100
0000
,
0000
0000
0001
1000
0001
0000
0100
0001
0100
0000
0010
0100
0010
0000
1000
0000
,
0000
0000
0100
1000
0100
0000
0010
0100
0010
0000
0001
1000
0001
0000
0100
0000
,
0000
1000
0000
0011
0000
0001
0000
1100
,
0000
0000
1000
0100
0000
0000
0001
0001
,
0000
0000
0100
0100
0000
0000
1000
0010
,
0000
0000
1000
1000
0000
0000
0100
0100
,
0000
0000
0001
0001
0000
0000
0100
1000
,
0000
0000
0001
0100
0000
0000
0100
1000
,
0000
0000
1000
0010
0000
0000
0010
0001
,
0000
0000
0010
0010
0000
0000
0100
0100
,
1000
0010
0001
0000
0100
0000
1000
0001
,
2000
3010
0200
1300
,
0002
0103
2000
3001
,
0002
0013
0200
0301
,
2000
3100
0002
1003
,
0001
0000
0000
0010
0001
0000
0000
0100
0010
0000
0000
0100
0001
0000
0000
0000
,
1000
0000
0000
0100
0010
0000
0000
0100
0010
0000
0000
0001
1000
0000
0000
0000
,
0001
0000
0000
0001
1000
0000
0000
1000
0010
0000
0000
0010
0100
0000
0000
0000
,
0001
1100
1000
0101
,
1000
0000
0000
1000
0001
0000
0000
0001
0010
0000
0000
0010
0100
0000
0000
0000
,
0001
0000
0000
0001
0100
0000
0000
0100
1000
0000
0000
1000
0010
0000
0000
0010
,
0001
0000
0000
0001
1000
0000
0000
1000
0010
0000
0000
0010
0100
0000
0000
0000
,
1000
0101
0001
1100
,
0001
0000
0000
0001
0010
0000
0000
0010
0100
0000
0000
0100
1000
0000
0000
1000
,
0010
0000
0000
0010
0001
0000
0000
0001
0100
0000
0000
0100
1000
0000
0000
1000
,
0001
0000
0000
0001
0010
0000
0000
0010
0100
0000
0000
0100
0001
0000
0000
0000
,
0110
1001
1001
0110
,
1000
0000
0000
1000
0100
0000
0000
0100
0010
0000
0000
0010
0001
0000
0000
0001
,
0010
0000
0000
0010
1000
0000
0000
1000
0100
0000
0000
0100
0001
0000
0000
0001
,
1000
0000
0000
1000
0010
0000
0000
0010
0100
0000
0000
0100
1000
0000
0000
0000
,
0110
1001
1001
0110
,
0001
0000
0000
0001
0010
0000
0000
0000
0010
0000
0000
0000
0000
0000
0000
0000
,
1000
0000
0000
1000
0100
0000
0000
0000
0100
0000
0000
0000
0000
0000
0000
0000
,
0001
0000
0000
0001
0100
0000
0000
0000
0100
0000
0000
0000
0000
0000
0000
0000
,
1000
0000
0000
1000
0010
0000
0000
0000
0010
0000
0000
0000
0000
0000
0000
0000
,
0100
0001
0100
0001
1000
0100
0010
0001
,
0100
0010
0100
0010
1000
0001
1000
0000
,
0100
1000
0100
1000
0001
0010
0100
1000
,
0010
0100
0010
0100
0001
1000
0001
0000
,
2000
0000
0020
3000
,
0002
0030
0200
0303
,
1000
0100
0000
1000
0000
0001
0000
0100
0010
0000
0100
0000
0001
0000
1000
0000
,
0001
0100
0000
0010
0000
0100
0000
1000
0001
0000
1100
0000
1000
0000
0101
0000
;

//---------------dance-double - ----------------
#NOTES:
     dance-double:
     :
     Easy:
     5:
     0.209446,0.344277,0.174538,0.087269,0.000000,168.000000,148.000000,20.000000,10.000000,0.000000,0.000000,0.209446,0.344277,0.174538,0.087269,0.000000,168.000000,148.000000,20.000000,10.000000,0.000000,0.000000:
00000000
00000000
00000000
00000000
,
00000000
00000000
00000000
00000000
,
00000000
00000000
00000000
00000000
,
00000000
00000000
00000000
00000000
,
10000000
00000000
00000000
00000000
,
00010000
00000000
00000000
00000000
,
10000000
00000000
01000000
00000000
,
00010000
00000000
10010000
00000000
,
00010000
00000000
00001000
00000000
,
00000100
00000000
00001001
00000000
,
00000001
00000000
00000100
00000000
,
00001000
00000000
00001001
00000000
,
00001000
00000000
00010000
00000000
,
01000000
00000000
10010000
00000000
,
10000000
10000000
01000000
00000000
,
00010000
00000000
10010000
00000000
,
00010000
00001000
00000100
00000000
,
00000001
00000000
00001001
00000000
,
00001000
00001000
00000100
00000000
,
00000001
00000001
00000010
00000000
,
00001000
00000000
00010000
00000000
,
01000000
00000000
10000000
00000000
,
00010000
00010000
01000000
00000000
,
10000000
10000000
00100000
00000000
,
00010000
00000000
00001000
00000000
,
00000100
00000000
00000001
00000000
,
00000010
00000000
00000100
00000000
,
00001000
00000000
00010000
00000000
,
01000000
00000000
00100000
00000000
,
10000000
00000000
00010000
00000000
,
00100000
00000000
01000000
00000000
,
00010000
00000000
00001000
00000000
,
00000100
00000000
00000010
00000000
,
00000001
00000000
00001000
00000000
,
00020000
00000000
00200000
00300000
,
20000000
30000000
02000000
03030000
,
00002000
00000000
00000020
00000030
,
00000002
00000003
00000200
00003300
,
00010000
00000000
00010000
00000000
,
00100000
00000000
01000000
00000000
,
00010000
00000000
00001000
00000000
,
00000100
00000000
00000010
00000000
,
00000001
00000000
00000001
00000000
,
00000010
00000000
00000100
00000000
,
00001000
00000000
00010000
00000000
,
01000000
00000000
00100000
00000000
,
10000000
00100000
00100000
00000000
,
01000000
01000000
01000000
00000000
,
00010000
00000000
00001000
00000000
,
00000110
00001001
00001001
00000110
,
00000001
00000010
00000010
00000000
,
00000100
00000100
00000100
00000000
,
00001000
00000000
00010000
00000000
,
01100000
10010000
10010000
01100000
,
00010000
00000000
00001000
00000000
,
00000010
00000000
00001001
00000000
,
00001000
00000000
00010000
00000000
,
00100000
00000000
10010000
00000000
,
10000000
01000000
00010000
00100000
,
10000000
00010000
00011000
00000000
,
00000001
00000100
00001000
00000010
,
00000001
00001000
00011000
00000000
,
00200000
00000000
02000000
00300000
,
03010000
00001000
00000100
00000010
,
00000010
00000100
00001000
00010000
,
01000000
00100000
01100000
10010000
,
00000000
00000000
00000000
00000000
;

//---------------dance-double - ----------------
#NOTES:
     dance-double:
     :
     Medium:
     9:
     0.334116,0.401656,0.305442,0.139631,0.039271,268.000000,233.000000,35.000000,16.000000,0.000000,0.000000,0.334116,0.401656,0.305442,0.139631,0.039271,268.000000,233.000000,35.000000,16.000000,0.000000,0.000000:
00000000
00000000
00000000
00000000
,
00000000
00000000
00000000
00000000
,
00000000
00000000
00000000
00000000
,
00000000
00000000
00000000
00000000
,
10010000
00000000
00000000
00000000
,
00011000
00000000
00000000
00000000
,
00000001
00000100
00001000
00000010
,
00000001
00001000
00011000
00000000
,
10000000
01000000
00010000
00100000
,
10000000
00010000
00011000
00000000
,
00000001
00000001
00001000
00000000
,
00010000
00010000
10000000
00000000
,
00100000
01000000
00010000
00001000
,
00000100
00000001
00000010
00000000
,
00000010
00000001
00000100
00000000
00001001
00000000
00000000
00000000
,
00010000
00100000
00010000
00000000
10010000
00000000
00000000
00000000
,
00100000
10000000
01000000
00000000
10010000
00000000
00000000
00000000
,
00001000
00000010
00001000
00000000
00001001
00000000
00000000
00000000
,
00000000
00001000
00010000
00100000
00000000
11000000
00000000
00000000
,
00000000
00010000
00001000
00000010
00000000
00000101
00000000
00000000
,
00001000
00000100
00000001
00000010
,
00001000
00010000
01000000
00000000
00010000
00001000
00000100
00000000
,
00000000
00010000
00001000
00000010
00000000
00000101
00000000
00000000
,
00000000
00001000
00010000
00100000
00000000
11000000
00000000
00000000
,
00010000
01000000
10000000
00100000
,
00010000
00001000
00000100
00000000
00001000
00010000
01000000
00000000
,
00000000
00000000
00100000
10000000
00000000
00000000
10000000
01000000
,
00000000
00000000
01000000
00010000
00000000
00000000
00010000
00100000
,
00000000
00001000
00000010
00000001
00000000
00000000
00000001
00000100
,
00000000
00000000
00000100
00001000
00000000
00000000
00001000
00000010
,
00000000
00000000
00010000
00001000
00000000
00000000
00010000
01000000
,
00000000
00000000
00001000
00010000
00000000
00000000
00001000
00000100
,
00000000
00000000
00000001
00000001
00000000
00000000
00001000
00001000
,
00001000
00010000
01000000
00000000
10000000
00000000
01000000
01000000
,
00020000
00000000
00200000
00300000
,
20000000
30000000
02000000
03000000
,
00002000
00030000
00000020
00000030
,
00000002
00000003
00000200
00003300
,
00001000
00000000
00000000
00001000
01000000
00000000
00000000
00000000
01000000
00000000
00000000
00000000
00100000
00000000
00000000
00000000
,
01000000
00010000
00001000
00000100
,
00010000
00000000
00000000
00010000
00000010
00000000
00000000
00000000
00001000
00000000
00000000
00000000
00000010
00000000
00000000
00000000
,
00000110
00011000
01100000
10010000
,
00010000
00000000
00000000
00010000
00000100
00000000
00000000
00000000
00000100
00000000
00000000
00000000
00000010
00000000
00000000
00000000
,
00000100
00001000
00010000
01000000
,
00001000
00000000
00000000
00001000
00100000
00000000
00000000
00000000
00010000
00000000
00000000
00000000
00100000
00000000
00000000
00000000
,
01100000
00011000
00000110
00001001
,
00000001
00000000
00000000
00000001
00000010
00000000
00000000
00000000
00000001
00000000
00000000
00000000
00000010
00000000
00000000
00000000
,
00000010
00001000
00000010
00001000
,
00010000
00000000
00000000
00010000
01000000
00000000
00000000
00000000
00010000
00000000
00000000
00000000
01000000
00000000
00000000
00000000
,
01100000
10010000
10010000
01100000
,
10000000
00000000
00000000
10000000
00100000
00000000
00000000
00000000
10000000
00000000
00000000
00000000
00100000
00000000
00000000
00000000
,
00100000
00000000
00000000
00100000
00010000
00000000
00000000
00000000
00100000
00000000
00000000
00000000
00010000
00000000
00000000
00000000
,
00001000
00000000
00000000
00001000
00000100
00000000
00000000
00000000
00001000
00000000
00000000
00000000
00000100
00000000
00000000
00000000
,
00000110
00001001
00001001
00000110
,
00000200
00000000
00002000
00000300
,
00020000
00003000
02000000
00030000
,
00200000
00300000
00020000
03000000
,
00002000
00030000
00000200
00003300
,
00000010
00000001
00000100
00001000
,
00011000
00010000
01000000
10000000
,
00100000
10000000
01000000
00010000
,
00011000
00001000
00000100
00000001
,
00000110
00000000
00011000
00000000
,
01100000
00000000
00011000
00000000
,
10000000
00100000
00010000
00001000
,
00000010
00001000
00010000
00011000
;

//---------------dance-double - ----------------
#NOTES:
     dance-double:
     :
     Hard:
     13:
     0.408918,0.574886,0.253081,0.471254,0.226900,328.000000,299.000000,29.000000,54.000000,0.000000,0.000000,0.408918,0.574886,0.253081,0.471254,0.226900,328.000000,299.000000,29.000000,54.000000,0.000000,0.000000:
00000000
00000000
00000000
00000000
,
00000000
00000000
00000000
00000000
,
00000000
00000000
00000000
00000000
,
00000000
00000000
00000000
00000000
,
01100000
00000000
00000000
00000000
,
00000110
00000000
00000000
00000000
,
00000020
00000230
00002300
00023000
,
02030000
03100000
10010000
00000000
,
00200000
02300000
03020000
00032000
,
00003200
00000310
00001001
00000000
,
00000001
00000100
00002000
00003020
,
00000032
00000203
00002300
00013000
,
10000000
01000000
00020000
00230000
,
20300000
31000000
00020000
00030000
,
00010000
00000000
00000000
00010000
01000000
00000000
00000000
00000000
00100000
00000000
00000000
00000000
00000000
00000000
00000000
00000000
,
00010000
00000000
00000000
00010000
00001000
00000000
00000000
00000000
00000010
00000000
00000000
00000000
00000000
00000000
00000000
00000000
,
00000200
00000320
00002030
00023000
,
02030000
03200000
20300000
30000000
,
00000000
00000000
00100000
10000000
00100000
00000000
01000000
10000000
01000000
00000000
00010000
00000000
00001000
00000000
00000010
00000000
,
00000000
00000000
00000001
00001000
00000001
00000000
00000100
00000001
00000100
00000000
00001000
00000000
00010000
00000000
00100000
00000000
,
00000000
00000000
00010000
01000000
00010000
00000000
01000000
00100000
01000000
00000000
00010000
10000000
00010000
00000000
02000000
00000000
,
00000000
03020000
00000000
00032000
00000000
00003200
00000000
00000301
,
00000000
00000000
00000010
00000001
00000010
00000000
00000100
00000001
00000100
00000000
00001000
00000000
00010000
00000000
00100000
00000000
,
00000000
00000000
10000000
00010000
10000000
00000000
01000000
10000000
01000000
00000000
00010000
00000000
00001000
00000000
00000010
00000000
,
00000000
00000000
00001000
00000100
00001000
00000000
00000100
00000010
00000100
00000000
00001000
00000001
00001000
00000000
00000200
00000000
,
00000000
00002300
00000000
00023000
00000000
02030000
00000000
13000000
,
00000000
00000000
00100000
00100000
00000000
00000000
00010000
00001000
,
00000000
00000000
00000100
00000100
00000000
00000000
00001000
00000001
,
00000000
00000000
00000010
00000010
00000000
00000000
00001000
00010000
,
00000000
00000000
01000000
01000000
00000000
00000000
00010000
10000000
,
00000000
00000000
01000000
00010000
00000000
00000000
00010000
00001000
,
00000000
00000010
00001000
00000001
00000000
00000000
00000100
00001000
,
00000000
00000000
00001000
00010000
00000000
00100000
00010000
10000000
,
10000000
01000000
00010000
00000000
00001000
00000000
00010000
00100000
,
02000000
00000000
00020000
03000000
,
00002000
00030000
00000200
00003000
,
00000020
00000030
00002000
00000300
,
00020000
00003000
02000000
03030000
,
00010000
00000000
00000000
00010000
00100000
00000000
00000000
00100000
01000000
00000000
00000000
01000000
00001000
00000000
00000000
00000000
,
00001000
00000000
00000000
00001000
00000010
00000000
00000000
00000010
00000001
00000000
00000000
00000001
00000100
00000000
00000000
00000000
,
00001000
00000000
00000000
00001000
00000001
00000000
00000000
00000001
00000100
00000000
00000000
00000100
00010000
00000000
00000000
00000000
,
01100000
00011000
00000110
00001001
,
00001000
00000000
00000000
00001000
00000010
00000000
00000000
00000010
00000100
00000000
00000000
00000100
00010000
00000000
00000000
00000000
,
00010000
00000000
00000000
00010000
00100000
00000000
00000000
00100000
10000000
00000000
00000000
10000000
01000000
00000000
00000000
00000000
,
00010000
00000000
00000000
00010000
10000000
00000000
00000000
10000000
01000000
00000000
00000000
01000000
00001000
00000000
00000000
00000000
,
00000110
00011000
01100000
10010000
,
10000000
00000000
00000000
10000000
00100000
00000000
00000000
00100000
01000000
00000000
00000000
01000000
00010000
00000000
00000000
00000000
,
01000000
00000000
00000000
01000000
00010000
00000000
00000000
00010000
00001000
00000000
00000000
00001000
00000100
00000000
00000000
00000000
,
00000100
00000000
00000000
00000100
00000010
00000000
00000000
00000010
00000001
00000000
00000000
00000001
00000100
00000000
00000000
00000000
,
00000110
00001001
00001001
00000110
,
00000001
00000000
00000000
00000001
00000010
00000000
00000000
00000010
00000100
00000000
00000000
00000100
00001000
00000000
00000000
00000000
,
00000100
00000000
00000000
00000100
00001000
00000000
00000000
00001000
00010000
00000000
00000000
00010000
01000000
00000000
00000000
00000000
,
01000000
00000000
00000000
01000000
00100000
00000000
00000000
00100000
10000000
00000000
00000000
10000000
01000000
00000000
00000000
00000000
,
01100000
10010000
10010000
01100000
,
00200000
00000000
00002000
00300000
,
00020000
00003000
00000020
00030000
,
00000200
00000300
00020000
00000030
,
00002000
00030000
00200000
00303000
,
00100000
10000000
01000000
00000000
01000000
00010000
00100000
00000000
,
10100000
11000000
01010000
00011000
,
00000010
00000001
00000100
00000000
00000100
00001000
00000010
00000000
,
00000011
00000101
00001100
00011000
,
00000020
00000000
00000200
00000030
,
00020000
00030300
00002000
00003000
,
00000100
00000001
00000100
00000000
00001000
00010000
00100000
00000000
,
10000000
01000000
00010000
00000000
00010000
00001000
00000100
00001001
;

//---------------dance-single - ----------------
#NOTES:
     dance-single:
     :
     Challenge:
     16:
     0.691920,0.948561,0.549796,0.130904,0.702517,555.000000,492.000000,63.000000,15.000000,0.000000,0.000000,0.691920,0.948561,0.549796,0.130904,0.702517,555.000000,492.000000,63.000000,15.000000,0.000000,0.000000:
// measure 0
0000
0000
0000
0000
,  // measure 1
0000
0000
0000
0000
,  // measure 2
0000
0000
0000
0000
,  // measure 3
0000
0000
0000
0000
,  // measure 4
0110
0110
0000
0000
0000
0000
0000
0000
,  // measure 5
1000
0000
0000
0000
0000
0000
0000
0000
0001
0000
0000
0000
0100
0010
0100
0000
,  // measure 6
0110
0110
0000
0000
0000
0000
0000
0000
,  // measure 7
1000
0000
0001
0000
,  // measure 8
0110
0110
0000
0000
0000
0000
0000
0110
,  // measure 9
0110
0000
0000
1001
0000
0000
1001
0000
0100
0001
0100
0001
1000
0100
0010
0000
,  // measure 10
0001
0000
0000
0001
0100
0000
0010
0000
0100
0000
0000
0001
0100
0000
0010
0000
,  // measure 11
0100
0000
0000
1000
0100
0000
0010
0000
0100
0000
0001
0010
0100
0000
0010
0000
,  // measure 12
0100
0000
0000
0010
1000
0000
0100
0000
1000
0000
0000
0010
0001
0000
0100
0000
,  // measure 13
0001
0000
0000
0010
1000
0000
0100
0000
1000
0000
0010
0000
0001
1000
0001
0000
,  // measure 14
0100
0001
0000
0001
0100
0000
0000
0000
0020
0000
0000
0000
0000
0000
0000
0000
,  // measure 15
0031
1000
0000
1000
0001
0000
0000
0000
0200
0000
0000
0000
0000
0000
0000
0000
,  // measure 16
1300
0010
0000
0010
1000
0000
0000
0000
0200
0000
0000
0000
0000
0000
0000
0000
,  // measure 17
0301
0010
0100
0010
0001
0000
0100
0000
1000
0100
0010
0100
1000
0000
1001
0000
,  // measure 18
0000
0000
0001
0010
0100
0000
0100
1000
0010
0000
0010
0100
0001
0000
0101
0000
,  // measure 19
0000
0000
1000
0100
0010
0000
0010
0001
0100
0000
0100
1000
0001
0000
1001
0000
,  // measure 20
0000
0000
1000
0100
0001
0000
0001
0010
0100
0000
0100
1000
0010
0000
1010
0000
,  // measure 21
0000
0000
1000
0100
0000
0000
0010
0010
0000
0000
0001
0100
0000
0000
0010
0010
,  // measure 22
0000
0000
1000
0100
0001
0000
0001
0010
1000
0000
1000
0100
0001
0000
0101
0000
,  // measure 23
0000
0000
0010
0001
0100
0000
0100
1000
0010
0000
0010
0001
0100
0000
0110
0000
,  // measure 24
0000
0000
1000
0100
0010
0000
0010
1000
0100
0000
0100
0010
1000
0000
1010
0000
,  // measure 25
0001
0000
0010
0100
1000
0000
0100
0000
0001
1000
0010
1000
0001
0000
1001
0000
,  // measure 26
0110
0001
1000
0100
,  // measure 27
0010
0001
0100
1000
,  // measure 28
0010
0100
0001
0010
,  // measure 29
1000
0100
1000
0010
,  // measure 30
0001
0000
1000
0100
0010
0000
0120
0000
0000
0000
0031
0100
0010
0000
0120
0000
,  // measure 31
0000
0000
1030
0100
0001
0000
0201
0000
0000
0000
0301
0010
1000
0000
2010
0000
,  // measure 32
0000
0000
3001
0010
0100
0000
1200
0000
0000
0000
1300
0010
0001
0000
0001
0000
,  // measure 33
0101
0110
1100
1001
1010
0110
0011
0110
,  // measure 34
2002
0000
0000
0000
,  // measure 35
3003
0000
0000
0000
0000
0000
0000
0000
0000
0000
0000
0000
0000
0000
0000
0000
0000
0000
0000
0000
0000
0000
0000
0000
0000
0000
0100
0000
0000
0100
0000
0000
,  // measure 36
0220
0000
0000
0000
0000
0000
0000
0000
0330
0000
0000
0000
0000
0000
0001
0100
0010
0000
0000
1100
0000
0000
2020
0000
0000
0000
3030
0000
0000
1000
0100
0000
,  // measure 37
0010
0000
0000
0101
0000
0010
0002
0000
0000
0000
0000
0000
0000
0000
1003
0010
0100
1000
0000
0100
1000
0000
0100
0000
0001
0100
0001
0000
1000
0010
1000
0010
,  // measure 38
1000
0000
0000
1000
0100
0000
0010
0000
0100
0000
0000
0001
0100
0000
0010
0000
,  // measure 39
0100
0000
0000
1000
0100
0000
0010
0000
0100
0000
0001
0000
0010
0001
1000
0000
,  // measure 40
0010
0000
0000
0100
0001
0000
0010
0000
0001
0000
0000
0100
1000
0000
0010
0000
,  // measure 41
1000
0000
0000
0100
0001
0000
0010
0000
0001
0000
0100
0000
0010
1000
0100
0000
,  // measure 42
0001
0100
0000
0001
0100
0000
0010
0000
0100
1000
0000
0100
1000
0000
0001
0000
,  // measure 43
1000
0010
0000
1000
0010
0000
0100
0000
0010
0001
0000
0010
0001
0000
1000
0000
,  // measure 44
0001
0000
0001
0010
0000
0010
1000
0000
0001
0000
1000
0100
0000
0100
0001
0000
,  // measure 45
1000
0000
1000
0000
0100
0000
0010
0000
0001
1000
0000
0001
0100
0010
0100
0010
,  // measure 46
1000
0000
0100
0000
0010
0000
0001
0000
1000
0000
0100
0000
0001
0100
0001
0100
,  // measure 47
0010
0000
1000
0000
0001
0000
0100
0000
0010
0000
0100
0000
1000
0001
1000
0001
,  // measure 48
0010
0000
0100
0000
1000
0000
0010
0000
0100
0000
0010
0000
0001
1000
0100
0010
,  // measure 49
0001
0000
0010
0001
0000
0001
0100
0010
1000
0000
0010
0000
1001
0000
0000
0000
,  // measure 50
1000
0010
0000
1000
0010
0000
0001
0000
0010
0001
0000
0010
0001
0000
1000
0000
,  // measure 51
0001
0100
0000
0001
0100
0000
0010
0000
0100
1000
0000
0100
1000
0000
0001
0000
,  // measure 52
1000
0000
1000
0010
0000
0010
0001
0000
1000
0000
0001
0100
0000
0100
1000
0001
,  // measure 53
1000
0000
0010
0000
0100
0001
1000
0000
0100
0010
0000
0010
1000
0001
1000
0001
,  // measure 54
1001
0100
0011
0001
,  // measure 55
1010
1000
0110
0010
,  // measure 56
1100
0100
1001
0010
,  // measure 57
0011
0000
0000
0000
0100
0000
0000
1000
0001
0000
1000
0000
0100
0010
0100
0010
,  // measure 58
0001
1000
0000
0010
0000
0100
0000
0001
1000
0000
0100
0000
0001
0000
0100
0000
,  // measure 59
1000
0010
0000
0001
0000
0010
0000
0100
0001
0000
0011
0000
1000
0000
1010
0000
,  // measure 60
0001
0010
0000
1000
0000
0100
0000
0001
1000
0000
0010
0000
0001
0000
0100
0000
,  // measure 61
0010
1000
0000
0100
0000
0001
0000
0010
0100
0000
0101
0000
1000
0000
1100
0000
,  // measure 62
1000
1000
0000
1000
0000
1000
0000
0010
0010
0000
0010
0000
0010
0000
0010
0000
,  // measure 63
0001
0001
0000
0001
0000
0001
0000
0100
0100
0000
0100
0000
0100
0000
0100
0000
,  // measure 64
1000
1001
0000
0110
0000
1001
0000
0100
0110
0000
1001
0000
0110
0000
1001
0000
,  // measure 65
0001
0011
0000
1010
0000
1100
0000
0010
0011
0000
0101
0000
0110
0000
1100
0000
;

//---------------dance-double - ----------------
#NOTES:
     dance-double:
     :
     Challenge:
     16:
     0.638312,0.948561,0.209446,0.087269,0.706880,512.000000,488.000000,24.000000,10.000000,0.000000,0.000000,0.638312,0.948561,0.209446,0.087269,0.706880,512.000000,488.000000,24.000000,10.000000,0.000000,0.000000:
00000000
00000000
00000000
00000000
,
00000000
00000000
00000000
00000000
,
00000000
00000000
00000000
00000000
,
00000000
00000000
00000000
00000000
,
01100000
01100000
00000000
00000000
00000000
00000000
00000000
00000000
,
00001000
00000000
00000000
00000000
00000000
00000000
00000000
00000000
00000001
00000000
00000000
00000000
00000100
00000010
00000100
00000000
,
00000110
00000110
00000000
00000000
00000000
00000000
00000000
00000000
,
10000000
00000000
00010000
00000000
,
01100000
01100000
00000000
00000000
00000000
00000000
00000000
00001000
,
00000001
00000000
00000000
00000100
00000000
00000000
00000010
00000000
00000100
00000001
00000100
00000001
00001000
00000001
00001000
00000001
,
00000010
00000000
00000000
00000010
00000001
00000000
00000100
00000000
00000001
00000000
00000000
00000010
00001000
00000000
00000100
00000000
,
00001000
00000000
00000000
00010000
00001000
00000000
01000000
00000000
00001000
00000000
00010000
00001000
00010000
00000000
00000000
00000000
,
00010000
00000000
00000000
00010000
10000000
00000000
00100000
00000000
01000000
00000000
00000000
10000000
00010000
00000000
01000000
00000000
,
00100000
00000000
00000000
00001000
00010000
00000000
00001000
00000000
00000100
00000000
00000001
00000000
00000100
00000010
00000100
00000000
,
00000001
00001000
00000000
00001000
00000001
00000000
00000000
00000000
00000200
00000000
00000000
00000000
00000000
00000000
00000000
00000000
,
00010300
00001000
00000000
00001000
00010000
00000000
00000000
00000000
00200000
00000000
00000000
00000000
00000000
00000000
00000000
00000000
,
00310000
01000000
00000000
01000000
00010000
00000000
00000000
00000000
20000000
00000000
00000000
00000000
00000000
00000000
00000000
00000000
,
31000000
00100000
01000000
00100000
01000000
00000000
00100000
00000000
00010000
00001000
00010000
00001000
00010000
00000000
00011000
00000000
,
00000000
00000000
00000010
00000001
00000010
00000000
00000100
00000010
00000100
00000000
00000010
00001000
00000010
00000000
00010000
00000000
,
00000000
00000000
00100000
10000000
00100000
00000000
01000000
00100000
01000000
00000000
00100000
00010000
00100000
00000000
00001000
00000000
,
00000000
00000000
00000100
00001000
00000100
00000000
00000010
00000001
00000010
00000000
00000100
00000010
00000100
00000000
00001000
00000000
,
00000000
00000000
00010000
00001000
00000000
00000000
00100000
10000000
00000000
00000000
00010000
00001000
00000000
00000000
00001000
00010000
,
00000000
00000000
00100000
10000000
00100000
00000000
01000000
10000000
01000000
00000000
00100000
00010000
00100000
00000000
01000000
00000000
,
00000000
00000000
00001000
00100000
00001000
00000000
00010000
00000010
00010000
00000000
00001000
01000000
00001000
00000000
00010000
00000000
,
00000000
00000000
00000100
00000001
00000100
00000000
00000010
00001000
00000010
00000000
00000100
00000010
00000100
00000000
00010000
00000000
,
00000000
00000000
00001000
00000001
00000000
00000000
00000100
00000000
00001000
00000001
00000000
00000001
00001000
00000000
00000010
00000000
,
00000001
00000100
00000010
00001000
,
00010000
00100000
01000000
10000000
,
00100000
00001000
00000010
00000001
,
00001000
00010000
10000000
00100000
,
00001000
00000000
00100000
00010000
01000000
00000000
01000000
00000000
00000000
00000000
00100000
10000000
01000000
00000000
01000000
00000000
,
00000000
00000000
00001000
00010000
01000000
00000000
01000000
00000000
00000000
00000000
00010000
00001000
00000010
00000000
00000010
00000000
,
00000000
00000000
00000010
00001000
00000001
00000000
00000001
00000000
00000000
00000000
00000100
00000001
00001000
00000000
00001000
00000000
,
00001001
00000001
00000101
00001000
00001010
00001000
00101000
00100000
,
02200000
00000000
00000000
00000000
,
03300000
00000000
00000000
00000000
00000000
00000000
00000000
00000000
00000000
00000000
00000000
00000000
00000000
00000000
00000000
00000000
00000000
00000000
00000000
00000000
00000000
00000000
00000000
00000000
00000000
00000000
00000010
00000000
00000000
00000010
00000000
00000000
,
00000220
00000000
00000000
00000000
00000000
00000000
00000000
00000000
00000330
00000000
00000000
00000000
00000000
00000000
00000001
00000010
00000100
00000000
00000000
00001010
00000000
00000000
00020200
00000000
00000000
00000000
00030300
00000000
00000000
00010000
00001000
00000000
,
00000010
00000000
00000000
01001000
00000000
00100000
00020000
00000000
00000000
00000000
00000000
00000000
00000000
00000000
10030000
01000000
00100000
10000000
00000000
00100000
10000000
00000000
00100000
00000000
00001000
00010000
00000100
00010000
00001000
00000010
00001000
00010000
,
00000010
00000000
00000000
00001000
00000001
00000000
00000010
00000000
00000100
00000000
00000000
00000001
00001000
00000000
00000100
00000000
,
00000010
00000000
00000000
00010000
00001000
00000000
00000010
00000000
00000100
00000000
00001000
00010000
00000000
00010000
00001000
00000000
,
00100000
00000000
00000000
00010000
10000000
00000000
00100000
00000000
00010000
00000000
00000000
10000000
00010000
00000000
01000000
00000000
,
10000000
00000000
00000000
00100000
10000000
00000000
01000000
00000000
00100000
00000000
00010000
00001000
00000000
00001000
00010000
00000000
,
00000100
00000010
00000000
00000100
00000010
00000000
00000001
00000000
00000100
00000010
00000000
00000100
00000010
00000000
00001000
00000000
,
00010000
00100000
00000000
00010000
00100000
00000000
01000000
00000000
00100000
10000000
00000000
00100000
10000000
00000000
01000000
00000000
,
00010000
00000000
00100000
00001000
00000000
00001000
00010000
00000000
00001000
00000000
00000010
00010000
00000000
00010000
00001000
00000000
,
00000010
00000000
00000010
00000000
00001000
00000000
00000001
00000000
00000100
00000000
00000100
00000000
00000001
00001000
00000001
00001000
,
00000001
00000000
00000010
00000000
00000100
00000000
00000001
00000000
00001000
00000000
00010000
00000000
00100000
01000000
00010000
01000000
,
00100000
00000000
10000000
00000000
01000000
00000000
00100000
00000000
10000000
00000000
00010000
00000000
00001000
01000000
00010000
00100000
,
01000000
00000000
00010000
00000000
10000000
00000000
00100000
00000000
10000000
00000000
00010000
00000000
00001000
00000100
00000010
00001000
,
00000001
00000000
00000010
00000001
00000000
00000001
00000010
00000100
00001000
00000000
00010000
00000000
00011000
00000000
00000000
00000000
,
10000000
00010000
00000000
10000000
00010000
00000000
01000000
00000000
00010000
00001000
00000000
00010000
00001000
00000000
00000010
00000000
,
00001000
00000001
00000000
00001000
00000001
00000000
00000100
00000000
00010000
00001000
00000000
00010000
00001000
00000000
00100000
00000000
,
10000000
00000000
01000000
00100000
00000000
00100000
01000000
00000000
00010000
00000000
00000010
00000100
00000000
00000100
00000010
00001000
,
00000001
00000000
00000001
00000000
00000100
00000010
00001000
00000000
00010000
00100000
00000000
00100000
01000000
00010000
10000000
00000000
,
10010000
10000000
11000000
00010000
,
00110000
10000000
11000000
00001000
,
00011000
01000000
00011000
00000001
,
00001010
00000000
00000000
00000000
00001000
00000000
00000000
00001000
00000001
00000000
00001000
00000000
00000010
00000100
00000010
00000100
,
00000001
00000100
00000000
00000010
00000000
00000100
00000000
00000001
00000100
00000000
00001000
00000000
00010000
00000000
00100000
00000000
,
00010000
00100000
00000000
01000000
00000000
10000000
00000000
01000000
00010000
00000000
00001000
00000000
00000010
00000000
00000100
00000000
,
00001000
00010000
00000000
01000000
00000000
00100000
00000000
00001000
00000100
00000000
00000010
00000000
00010000
00000000
00001000
00000000
,
00000010
00000001
00000000
00000100
00000000
00000010
00000000
00001000
00010000
00000000
00100000
00000000
01000000
00000000
10000000
00000000
,
00010000
00010000
00000000
00010000
00000000
00010000
00000000
00010000
00010000
00000000
00010000
00000000
00010000
00000000
00010000
00000000
,
00001000
00001000
00000000
00001000
00000000
00001000
00000000
00001000
00001000
00000000
00001000
00000000
00001000
00000000
00001000
00000000
,
00000001
00000100
00000000
00000010
00000000
00000001
00000000
00001000
00010000
00000000
10000000
00000000
00100000
00000000
10000000
00000000
,
00010000
00001000
00000000
00000100
00000000
00000010
00000000
00000001
00001000
00000000
00010000
00000000
00100000
00000000
10000000
00000000
;
