#TITLE:SUPER SAMURAI;
#SUBTITLE:;
#ARTIST:jun;
#TITLETRANSLIT:;
#SUBTITLETRANSLIT:;
#ARTISTTRANSLIT:;
#GENRE:;
#CREDIT:;
#BANNER:SUPER SAMURAI.png;
#BACKGROUND:SUPER SAMURAI-bg.png;
#LYRICSPATH:;
#CDTITLE:;
#MUSIC:SUPER SAMURAI.ogg;
#OFFSET:0.000000;
#SAMPLESTART:15.210000;
#SAMPLELENGTH:15.000000;
#SELECTABLE:YES;
#DISPLAYBPM:170.000000;
#BPMS:0.000000=170.615997
,4.000000=169.921997
,18.500000=170.057999
,25.000000=169.914993
,40.500000=170.001007
,171.250000=168.750000
,172.000000=169.959000
,204.500000=170.100006
;
#STOPS:18.500000=0.180000,
25.000000=0.353000,
40.500000=0.527000,
171.250000=0.087000,
172.000000=0.087000,
204.500000=0.353000
;
#BGCHANGES:;
#KEYSOUNDS:;
#ATTACKS:;

//---------------dance-single - ----------------
#NOTES:
     dance-single:
     :
     Beginner:
     4:
     0.163670,0.232354,0.009709,0.000000,0.000000,118.000000,117.000000,1.000000,0.000000,0.000000,0.000000,0.163670,0.232354,0.009709,0.000000,0.000000,118.000000,117.000000,1.000000,0.000000,0.000000,0.000000:
0000
0000
0000
0000
,
0000
0000
0000
0000
,
0000
0000
0000
0000
,
0000
0000
0000
0000
,
0000
0000
0100
0000
,
0000
0000
0000
0010
0000
0000
0000
0000
,
0000
0000
0000
0000
0000
0100
0000
0000
,
0000
0000
0000
0000
0000
0001
0000
0000
,
0000
0000
0000
0000
0000
1000
0000
0000
,
0000
1000
0000
0000
0000
1000
0000
0000
,
0000
0010
0000
1000
,
0000
0010
0000
1000
,
0000
0001
0000
0100
,
0000
0001
0000
0100
,
0000
0010
0000
0100
,
0000
0010
0000
0100
,
0000
1000
0000
0001
,
0000
1000
0000
0001
,
0000
0010
0000
0000
,
0000
1000
0000
0000
,
0000
0100
0000
0000
,
0000
0001
0000
1000
,
0000
0001
0000
0000
,
0000
0100
0000
0000
,
0000
1000
0000
0000
,
0000
0000
0010
0000
,
0010
0000
0100
0000
,
0000
0000
0001
0000
,
0000
0000
0100
0000
,
0000
0010
0000
0010
,
0000
1000
0000
0100
,
0000
1000
0000
0001
,
0000
0100
0000
0001
,
0000
0010
0000
0100
,
0000
0000
1000
0000
,
0001
0000
1000
0000
,
0001
0000
0010
0000
,
1000
0000
0100
0000
,
0001
0000
0100
0000
,
1000
1000
0000
1000
,
0000
0001
0000
0001
,
0000
0100
0000
1000
,
0000
0010
0000
0001
,
0000
1000
0000
0000
0000
0010
0000
0000
,
0000
0100
0000
0000
0000
0010
0000
0000
,
0000
1000
0000
0000
0000
0100
0000
0000
,
0000
0010
0000
0000
0000
0100
0000
0000
,
0000
1000
0000
0000
0000
0001
0000
0000
,
0000
0100
0000
0000
0000
0010
0000
0000
,
0000
0100
0000
0000
0000
0001
0000
0000
,
0000
0010
0000
0000
0000
0100
0000
0000
,
0000
0000
0000
1000
0000
0000
0000
1000
,
0000
0000
0000
0001
0000
0000
0000
0001
,
0000
0000
0000
0100
0000
0000
0000
1000
,
0000
0000
0000
0100
0000
0000
0000
0001
,
0000
0000
0000
1000
0000
0000
0000
1000
,
0000
0000
0000
0001
0000
0000
0000
0001
,
0000
0000
0000
0010
0000
0000
0000
1000
,
0000
0000
0000
0010
0000
0000
0000
0001
,
0000
0001
0000
0001
0000
0000
0000
0000
,
0000
1000
0000
1000
0000
0000
0000
0000
,
0000
0010
0000
0000
0000
0100
0000
0000
,
0000
0010
0000
0000
0000
0100
0000
0000
,
0000
0001
0000
0001
0000
0000
0000
0000
,
0000
1000
0000
1000
0000
0000
0000
0100
,
0000
0000
0000
0010
0000
0000
0000
0100
,
0000
0000
0000
0010
0000
0000
0000
0001
,
0000
0001
0000
0000
0000
1000
0000
0000
,
0000
0001
0000
1001
0000
0000
0000
0000
,
0000
0000
0000
0000
;

//---------------dance-single - ----------------
#NOTES:
     dance-single:
     :
     Easy:
     8:
     0.366176,0.431514,0.126220,0.135929,0.000000,264.000000,251.000000,13.000000,14.000000,0.000000,0.000000,0.366176,0.431514,0.126220,0.135929,0.000000,264.000000,251.000000,13.000000,14.000000,0.000000,0.000000:
0000
0000
0000
0000
,
0000
0000
0000
0000
,
0000
0000
0000
0000
,
0000
0000
0000
0000
,
1000
0000
0100
0000
0010
0000
0000
1010
,
0000
0000
0000
0011
0000
0000
0000
0001
,
0000
0100
0000
0000
0000
1100
0000
0000
,
0000
0101
0000
0000
0000
0001
0000
0100
,
0000
1000
0000
0000
0000
1000
0000
0100
,
0000
0001
0000
0000
0000
0001
0000
0010
,
0000
1000
0001
0000
0010
0000
0001
0000
,
0100
0020
1000
0130
,
0001
0010
2000
3100
,
0010
0001
1001
0000
,
0000
1000
0100
1000
,
0010
0200
0001
0310
,
1000
0100
0002
0013
,
0100
0110
0000
0000
,
0000
0002
1003
0010
,
0001
2000
3001
0010
,
1000
0001
1000
0001
,
0001
0010
0010
0100
,
0100
2000
3100
0010
,
0100
0002
0103
0010
,
0100
0010
1000
0010
,
0010
0000
0000
0001
0000
1000
0000
0010
,
0000
0001
0000
0010
0010
0000
0100
0000
,
0001
0020
0100
0031
,
0100
0001
1000
0010
,
0001
2000
0000
3010
,
0000
0002
0103
0002
,
0103
0010
1000
0001
,
0100
0010
1000
0100
,
0010
0001
0000
1000
,
0000
0110
0000
0000
,
0000
0010
1000
0000
0000
0000
0100
0010
,
0000
0000
0001
0000
0000
0000
0000
0100
,
0010
0000
1000
0000
0000
0000
0001
1000
,
0000
0100
0000
0100
0000
0100
0000
0100
,
0010
0000
1000
0000
0000
0100
0000
0010
,
0000
0000
0100
1000
0000
0001
0000
0000
,
0010
0000
0100
0001
0000
0000
1000
0100
,
0000
0000
0010
0001
0000
0100
0010
0001
,
0000
0100
0000
1000
0000
0001
0000
0010
,
0000
0100
0000
0001
0000
1000
0000
0001
,
0000
0100
0000
1000
0000
0001
0000
0010
,
0000
1000
0000
0100
0000
0001
0000
1000
,
0010
1000
0000
0010
0000
1000
0000
0001
,
0000
0010
0000
1000
0000
0100
0000
0010
,
0000
1000
0000
1000
0000
0001
0000
0001
,
0000
0100
0000
0010
0000
1000
0000
1001
,
0000
0000
0000
0100
0000
0010
0000
0001
,
0100
0010
0000
0100
0000
0010
0000
1000
,
0001
0010
0000
0100
0000
1000
0000
1000
,
0100
0010
0000
0100
0000
1000
0000
0001
,
1000
0001
0000
0100
0000
0001
0000
0010
,
0100
1000
0000
0100
0000
0010
0000
0001
,
0100
0010
0000
1000
0000
0001
0000
0100
,
0010
0100
0000
0010
0000
0100
0000
1000
,
0010
0100
0000
1000
0000
0001
0010
0100
,
1000
0000
0001
0000
1001
0000
0000
0010
,
0100
0001
0000
1000
0000
0001
0100
0010
,
1000
0000
0010
0000
0110
0000
0000
0010
,
0001
0100
0000
0010
0000
1000
0100
0010
,
0001
0000
1000
0000
1010
0000
0000
1000
,
0001
0000
0010
0000
0011
0000
0000
1000
,
0010
0100
2002
0000
,
0000
3003
0000
0000
1000
1000
0000
0001
,
0001
0000
0100
0100
0000
0000
0000
0000
,
0000
0000
0000
0000
;

//---------------dance-single - ----------------
#NOTES:
     dance-single:
     :
     Medium:
     12:
     0.624163,0.663867,0.485460,0.029128,0.048546,450.000000,400.000000,50.000000,3.000000,0.000000,0.000000,0.624163,0.663867,0.485460,0.029128,0.048546,450.000000,400.000000,50.000000,3.000000,0.000000,0.000000:
0000
0000
0000
0000
,
0000
0000
0000
0000
,
0000
0000
0000
0000
,
0000
0000
0000
0000
,
0000
0000
0100
0000
0001
0000
0010
0100
,
0000
1000
0000
0001
0000
0000
0000
0000
,
0000
0011
0000
1000
0000
0100
0000
0001
,
0000
0010
0000
0100
0000
1000
0000
0001
,
0000
0100
0000
1000
0000
0010
0000
0100
,
0000
0001
0000
1000
0000
0010
0100
0001
,
0010
0100
1100
0000
1100
0000
0100
1000
,
0010
1000
0000
0001
0000
1000
0100
1000
,
0001
0010
0100
0000
0010
0001
1000
0000
,
0100
1000
0001
0010
0001
0100
0010
1000
,
0001
0010
1001
0000
1001
0000
0010
0001
,
0100
0001
0000
1000
0000
0001
0010
0001
,
1000
0100
0010
0000
0100
1000
0001
0000
,
0010
0001
1000
0100
1000
0010
0100
0001
,
1000
0100
0110
0000
1000
1010
0000
0100
,
0010
1000
1100
0000
0001
0101
0000
0100
,
0010
1000
0011
0000
1000
1100
0000
0100
,
1000
0001
1000
0010
0100
0001
0010
0100
,
0001
0010
0011
0000
0100
0101
0000
0100
,
1000
0001
1001
0000
1000
1100
0000
0100
,
0001
0010
0110
0000
0010
0110
0000
0100
,
1000
0001
0000
0100
0000
0100
0000
0100
,
0010
0001
0000
1001
1001
0100
0010
0001
,
1000
0020
0000
0130
0001
0010
0001
1000
,
0010
0100
0001
0010
0001
0001
1000
0010
,
1000
1000
0001
0010
0100
1000
0001
0010
,
1001
0000
0011
0011
0000
1000
0100
0010
,
0000
1000
0100
0001
0000
1000
0010
0100
,
0001
1000
0001
0010
0001
0001
1000
0010
,
1000
1000
0010
0000
0010
0000
0010
0000
,
0100
0001
0010
0100
0000
0100
0000
0100
,
0000
0100
1000
0100
0010
0001
0100
0010
,
0100
0000
1000
0000
0001
0000
0100
0001
0100
0000
1000
0000
0001
0000
0100
0000
,
0010
0000
0010
1000
0100
0010
0001
0100
,
1000
0000
0100
0000
0010
0000
1000
0100
1000
0000
0001
0000
0010
0000
0100
0000
,
1000
0010
1000
0100
0001
0100
0010
0001
,
0010
0000
0100
0000
1000
0000
0001
1000
0001
0000
0010
0000
0100
0000
1000
0000
,
0100
0010
1000
0010
0100
0001
1000
0100
,
0010
0000
0001
0000
0100
0010
0100
0000
0001
0000
1000
0000
0010
0000
0100
0001
,
0000
1000
0001
0000
0000
0000
1000
0000
0100
0000
0001
0000
0000
0000
1000
0000
,
0010
0001
0000
1000
0000
0010
0001
0100
,
0000
0010
1000
0001
0010
0001
1000
0100
,
0010
0001
0000
1000
0000
1100
0000
1100
,
0000
0001
0000
0001
0010
1000
0000
0001
,
0100
1000
0000
0001
0000
0100
1000
0010
,
0000
0100
0001
1000
0100
1000
0001
0010
,
0100
1000
0000
0001
0000
0011
0000
0011
,
0010
0000
0100
0000
0000
0001
0000
0000
0010
0000
0000
0000
1000
0000
0001
0000
,
0100
0000
0010
0000
0000
1000
0000
0000
0010
0000
0000
0000
0001
0000
0100
0000
,
0010
0100
0001
0101
0000
1000
0100
1100
,
0000
1000
0010
0100
0001
1000
0001
1001
,
0000
0000
0001
0000
0000
1000
0000
0000
0010
0000
0000
0000
0001
0000
1000
0000
,
0100
0000
0010
0000
0000
0001
0000
0000
0010
0000
0000
0000
1000
0000
0100
0000
,
0010
0100
1000
1100
0000
0001
0100
0101
,
0000
0001
0010
0100
1000
0001
1000
0001
,
0010
0110
0000
0110
0000
0010
1000
0100
,
1000
0000
0010
0000
1001
0000
0000
1000
,
0100
0110
0001
0110
1000
0010
0100
0010
,
0001
0000
1000
0000
0101
0000
0000
0001
,
1000
0100
0001
0100
1000
0010
0100
0001
,
0011
0000
0110
0000
1100
0000
1001
0010
,
1010
0000
0110
0000
0101
0000
1001
0010
,
0011
0000
1001
0000
0220
0000
0000
0330
,
0000
0101
0000
0000
1000
0001
0000
0100
,
0010
0000
0100
1001
0000
0000
0000
0000
,
0000
0000
0000
0000
;

//---------------dance-single - ----------------
#NOTES:
     dance-single:
     :
     Hard:
     15:
     0.790607,0.907690,0.669935,0.271858,0.470897,570.000000,501.000000,69.000000,28.000000,0.000000,0.000000,0.790607,0.907690,0.669935,0.271858,0.470897,570.000000,501.000000,69.000000,28.000000,0.000000,0.000000:
0000
0000
0000
0000
,
0000
0000
0000
0000
,
0000
0000
0000
0000
,
0000
0000
0000
0000
,
1001
0000
0100
0000
1001
0000
0100
0001
,
0000
1000
0000
1001
0000
0000
0000
0100
,
0000
1001
0000
0010
0000
1000
0000
0100
,
0000
0011
0000
0100
1000
0001
0000
0100
,
0000
1010
0000
0100
0000
0001
0000
0010
,
0000
1000
0100
0000
0000
0000
0010
0000
0000
0001
0100
0010
0100
0010
0100
0000
,
0000
0001
1000
0000
0210
0000
0000
0000
1300
0000
0000
0000
0010
0000
1000
0000
,
0100
0010
0012
0000
0103
0000
0010
0100
,
0001
0010
1001
0100
0010
1001
0100
0001
,
1000
0100
0001
0100
1000
0010
0100
0001
,
0010
0001
0100
0010
2000
0000
0000
0001
0000
0000
3010
0000
1000
0000
0010
0000
,
0100
0000
0001
0000
0020
0000
0000
0100
0000
0000
0031
0000
0010
0000
0001
0000
,
0100
0010
1001
1000
0100
0010
1001
0001
,
0100
0000
0010
0000
1000
0000
0010
0100
0001
0000
0010
0100
1000
0000
0001
0100
,
0010
1000
0100
0010
0001
0000
0000
1000
0001
0000
0100
0000
0002
0000
0000
0000
,
1003
0000
0100
0000
1100
0000
0000
0001
0100
0000
0010
0000
2000
0000
0000
0000
,
3001
0000
0010
0000
0011
0000
0000
1000
0100
0000
1000
0000
0002
0000
0000
0000
,
0103
0000
0001
0000
1000
0100
1000
0010
0100
0000
0010
0000
0100
0010
0100
0001
,
0010
0000
0001
0000
1000
0000
0001
0100
0000
0100
0001
0000
2000
0000
0010
0000
,
3010
0000
1000
0000
0001
0000
1000
0100
0000
0100
1000
0000
0002
0000
0010
0000
,
0013
0000
0100
0000
1000
0000
0010
0100
0000
0100
0010
0000
2000
0000
0001
0000
,
3001
0010
0000
1100
0000
0101
0000
1001
,
0100
1000
0001
0100
0010
0000
0110
0000
0110
0000
0000
0000
1000
0000
0010
0000
,
0001
0000
0010
0000
0101
0000
0000
0110
0000
0000
0101
0000
1000
0000
0010
0000
,
0100
0000
0001
0000
1100
0000
0000
0110
0000
0000
1100
0000
0010
0000
0001
0000
,
0010
0100
1000
0010
0001
0010
1000
0100
,
0010
0001
1001
1002
0100
0103
1010
2010
,
0001
3001
0011
0012
1000
1003
1100
2100
,
0001
3001
1001
1001
0000
1000
0010
0001
,
0010
1000
1100
0000
0011
0000
1010
0000
,
0101
1002
0000
1000
0000
1000
0000
1000
,
0000
0000
1003
0100
0010
0000
0000
0000
1001
0000
0000
0000
1000
0000
0200
0000
,
0001
0000
0310
0000
1001
0000
0001
0100
,
1200
0000
0310
0000
1001
0000
1000
0010
,
0200
0010
0000
0001
0000
0010
0000
0301
,
1000
0001
1000
0001
1000
0000
0000
0000
1100
0000
0000
0010
1000
0000
0000
1000
,
0200
0000
0000
0310
0001
0000
0100
0000
0010
0000
1000
0000
0010
0000
0100
0000
,
0001
0010
0000
0000
0001
0000
0002
0000
0000
0000
0003
0000
1000
0000
2000
0000
,
0000
0000
3000
0000
1001
0000
1001
0000
0000
0000
0001
0000
1000
0000
0010
0100
,
0000
0001
1000
0000
0010
0000
1000
0000
0100
0000
0010
0000
0001
0000
1000
0000
,
0001
0010
0100
1000
0001
1000
0100
0010
,
0001
1000
1000
1100
0000
0001
0001
0101
,
0000
0001
1000
0010
0100
0001
1000
1000
,
1000
0100
0010
0100
1000
0010
0100
0001
,
0010
0001
0100
0010
1000
0100
0010
0100
,
1000
0001
0100
0101
0000
1000
0100
1100
,
0000
0001
0010
0100
1000
0010
0100
0001
,
2002
0000
3003
0000
0000
1100
0000
0000
0101
0000
0000
0000
0001
0000
0100
0000
,
0001
0000
1010
0000
0000
0011
0000
0000
1010
0000
0000
0000
1000
0000
0100
0000
,
1000
0000
0010
0000
0100
0001
0000
0100
0010
0000
1000
0000
0100
0010
0000
0100
,
1000
0000
0001
0010
0001
0010
0100
1000
0100
1000
0001
0010
0001
0010
0100
1000
,
0001
0010
0100
0000
0000
1100
0000
0000
0101
0000
0000
0000
0010
0000
0100
0000
,
1000
0000
1100
0000
0000
0101
0000
0000
1100
0000
0000
0000
0001
0000
1000
0000
,
0100
0000
0010
0000
0001
1000
0000
0100
1000
0000
0010
0000
1000
0001
0000
0100
,
0001
0000
1000
0010
1000
0010
0100
0001
0100
0001
1000
0010
1000
0010
0100
0001
,
1000
0100
0010
0000
0000
0110
0000
0000
1100
0000
0000
0000
1000
0000
0100
0000
,
1000
0000
0101
0000
0000
0110
0000
0000
0101
0000
0000
0000
0010
0000
1000
0000
,
0001
0000
0010
0000
0100
1000
0000
0001
0100
0000
0010
0000
0100
0001
0000
1000
,
0100
0000
1000
0001
1000
0001
0100
0010
0100
0010
1000
0001
1000
0001
0100
0010
,
1000
0001
0100
0000
1000
0000
0100
0000
0001
0000
0010
0000
1000
0000
0010
0000
,
0001
0100
0010
0001
0010
1000
0100
0010
,
1000
0000
0010
0001
0010
0001
1000
0010
1000
0010
0100
0001
0100
0001
1000
0100
,
1000
0100
2000
0000
0000
0000
3002
0000
0000
0000
0103
0001
0010
0100
1000
0001
,
0100
0010
1000
0002
0000
0000
0000
0000
0013
0000
0001
1000
0001
0000
0110
0000
,
1001
0000
0000
0000
0100
0020
0200
0000
0000
0000
0000
0000
0000
0000
0000
0000
,
0000
0330
0000
0000
;

//---------------dance-double - ----------------
#NOTES:
     dance-double:
     :
     Easy:
     8:
     0.386981,0.464707,0.194184,0.106801,0.004855,279.000000,259.000000,20.000000,11.000000,0.000000,0.000000,0.386981,0.464707,0.194184,0.106801,0.004855,279.000000,259.000000,20.000000,11.000000,0.000000,0.000000:
00000000
00000000
00000000
00000000
,
00000000
00000000
00000000
00000000
,
00000000
00000000
00000000
00000000
,
00000000
00000000
00000000
00000000
,
00000001
00000000
00000010
00000000
00000100
00000000
00000000
00000010
,
00000000
00001000
00000000
00000100
00000000
00000000
00000000
00001000
,
00000000
00010000
00000000
00000000
00000000
00110000
00000000
00000000
,
00000000
10100000
00000000
00000000
00000000
10000000
00000000
00100000
,
00000000
00010000
00000000
00000000
00000000
10000000
00000000
01000000
,
00000000
00010000
00000000
00000000
00000000
00001000
00000000
00000100
,
00000000
00000001
00001000
00000000
00000100
00000000
00001000
00000000
,
00000010
00010000
00001000
00100000
,
10000000
11000000
00010000
00110000
,
01000000
00100000
00100000
01000000
,
01000000
00010000
01000000
00010000
,
00100000
00001000
00010000
00000010
,
00000001
00000101
00001000
00001010
,
00000100
00000010
00000010
00000100
,
00000100
00002000
00003001
00000100
,
00001000
00020000
00031000
00000100
,
00000001
00001000
00000010
00001000
,
00010000
01000000
01000000
00100000
,
00100000
00020000
00130000
01000000
,
00100000
00002000
00003010
00000100
,
00000010
00000100
00000001
00000100
,
00001000
00000000
00000000
00010000
00000000
10000000
00000000
01000000
,
00000000
00010000
00000000
01000000
01000000
00000000
00100000
00000000
,
10000000
02000000
00100000
03010000
,
00000010
00001000
00000001
00000100
,
00001000
00000002
00000100
00001000
,
00000103
00002000
00013000
00002000
,
00003010
00002000
00013000
00002000
,
00003100
00010000
01000000
00010000
,
00100000
01000000
10000000
00010000
,
01000000
00200000
00000000
00000000
,
00300000
00000000
10000000
01000000
00010000
00000000
00001000
00000000
,
00000010
00000001
00001100
00000010
,
00000101
00000000
00000001
00000100
00001000
00000000
00010000
00000000
,
00100000
10010000
01100000
10010000
,
00000000
00000000
10000000
01000000
00010000
00000000
00001000
00000000
,
00000100
00000000
00000010
00000000
00000001
00000000
00001000
00000100
,
00000100
00000000
00000001
00000100
00001000
00000000
00010000
00000000
,
01000000
00000000
00000000
00000000
10010000
00000000
00000000
00000000
00000000
00000000
00000000
00000000
01000000
00000000
00000000
01000000
,
00000000
00100000
00000000
00010000
00000000
10000000
00000000
01000000
,
00000000
00100000
00000000
10000000
00000000
00010000
00000000
00001000
,
00000000
00000010
00000000
00000001
00000000
00001000
00000000
00000100
,
00000000
00000001
00000000
00000010
00000000
00001001
00000000
00000000
,
00000000
00000001
00000000
00000100
00000000
00000001
00000000
00000010
,
00000000
00001000
00000000
00010000
00000000
00100000
00000000
01000000
,
00000000
00010000
00000000
01000000
00000000
10000000
00000000
01000000
,
00000000
00100000
00000000
01000000
00000000
00010000
00000000
10010000
,
00000000
00000000
00000000
00100000
00000000
10000000
01000000
00010000
,
00000000
00000010
00000000
00000010
00000000
00000100
00000001
00001000
,
00000000
00000100
00000000
00000010
00000000
00000001
00000000
00000100
,
00000000
00000001
00000000
00000010
00000000
00001000
00000000
00010000
,
00000000
00100000
00000000
00100000
00000000
01000000
00010000
00100000
,
00000000
01000000
00000000
01000000
00000000
00100000
00010000
01000000
,
00000000
00001000
00000000
00011000
00000000
00100000
00000000
10010000
,
00000000
01000000
00000000
00010000
00000000
00001000
00000000
00000100
,
00000000
00000010
00000000
00000001
00000000
00001000
00000000
00000100
,
00000010
00000000
00000001
00000000
00001001
00000000
00000000
00000100
,
00000000
00001000
00000000
00010000
00000000
00100000
00000000
01000000
,
00010000
00000000
10000000
00000000
11000000
00000000
00000000
00100000
,
01000000
10000000
00000000
00010000
00000000
01000000
00000000
00001000
,
00010000
00000000
00000010
00000000
00000110
00000000
00000000
00000001
,
00000000
00000100
00000001
00000100
00000000
00000010
00000001
00000100
,
00000000
00001000
00000000
00010000
00000000
01000000
00000000
10000000
,
00000000
10010000
00000000
00000000
00100000
00100000
00000000
01000000
,
01000000
00000000
00010000
00010000
00000000
00000000
00000000
00000000
,
00000000
00000000
00000000
00000000
;

//---------------dance-double - ----------------
#NOTES:
     dance-double:
     :
     Medium:
     12:
     0.550651,0.571508,0.271858,0.106801,0.029128,397.000000,369.000000,28.000000,11.000000,0.000000,0.000000,0.550651,0.571508,0.271858,0.106801,0.029128,397.000000,369.000000,28.000000,11.000000,0.000000,0.000000:
00000000
00000000
00000000
00000000
,
00000000
00000000
00000000
00000000
,
00000000
00000000
00000000
00000000
,
00000000
00000000
00000000
00000000
,
10000000
00000000
01000000
00000000
00010000
00000000
00100000
01000000
,
00000000
10000000
00000000
00100000
00000000
00000000
00000000
00001000
,
00000000
00011000
00000000
00001000
00000000
00000100
00000000
00000001
,
00000000
00000010
00000000
00000100
00000000
00001000
00000000
00010000
,
00000000
01000000
00000000
10000000
00000000
00100000
00000000
01000000
,
00000000
00010000
00000000
00001000
00000000
00000010
00000100
00000001
,
00000010
00000100
00001100
00000000
00001100
00000000
00000010
00000001
,
00000100
00000001
00001000
00000000
00001000
00000000
00000100
00010000
,
00001000
00100000
01000000
00000000
00100000
00010000
10000000
00000000
,
01000000
00000000
00100000
10000000
01000000
00010000
01000000
10000000
,
00100000
00010000
00011000
00000000
00011000
00000000
00000010
00001000
,
00000100
00001000
00000001
00000000
00000001
00000000
00000010
00000001
,
00001000
00000100
00000020
00000000
00000130
00001000
00000002
00000000
,
00000103
00000000
00000010
00000001
00000100
00001000
00000100
00000001
,
00000010
00001000
00011000
00000000
01010000
00000000
00100000
01000000
,
00010000
00000000
11000000
00000000
01010000
00000000
00100000
00010000
,
01000000
00000000
00011000
00000000
00001010
00000000
00000010
00000100
,
00000001
00000000
00000010
00001000
00010000
00100000
00010000
00001000
,
00000100
00000001
00000101
00000000
00001100
00000000
00000010
00001000
,
00010000
00000000
01100000
00000000
10010000
00000000
00100000
00001000
,
01000000
00000000
10100000
00000000
01010000
00000000
00100000
01000000
,
10000000
00020000
00000000
01000000
00000000
01030000
00000000
01000000
,
00100000
00010000
00000000
00001000
00001000
00000100
00000010
00000001
,
00001000
00000000
00000100
00000000
00000001
00000010
00000001
00001000
,
00000010
00000100
00000001
00000010
00000001
00000000
00001000
00000010
,
00001000
00000000
00000100
00010000
01000000
10000000
00010000
00100000
,
00010000
00000000
01000000
00100000
00000000
10000000
01000000
00100000
,
00000000
00001000
01000000
00010000
00000000
00001000
00000010
00000100
,
00000000
00000001
00001000
00000010
00000000
00010000
00001000
00000010
,
00000001
00001000
00000010
00000000
00000010
00000000
00000010
00000000
,
00000010
00002002
00000000
00000000
,
00003003
00000100
00001000
00010000
,
01000000
00000000
00100000
00001000
00010000
01000000
10000000
00010000
,
01000000
00000000
00100000
10000000
01000000
00000000
00100000
00010000
,
01000000
00000000
00001000
00010000
00000100
00000010
00000001
00000000
,
00001100
00000010
00010000
00100000
,
10000000
00000000
01000000
00010000
00001000
01000000
00010000
00001000
,
00000010
00000000
00000001
00000100
00001000
00000000
00001000
00000100
,
00000001
00000000
00000000
00000000
00000100
00000000
00000000
00000000
00000100
00000000
00000000
00000000
00000010
00000000
00000100
00000001
,
00000000
00001000
00000100
00000000
00000000
00000000
00010000
00000000
00001000
00000000
00100000
00000000
00000000
00000000
10000000
00000000
,
00100000
00010000
00000000
10000000
00000000
00100000
00001000
01000000
,
00000000
00100000
10000000
00010000
00100000
01000000
00010000
00001000
,
00000010
00000001
00000000
00001000
00000000
00000101
00000000
00000000
,
00000000
00000010
00000000
00001000
00000100
00000001
00000000
00000100
,
00001000
00000010
00000000
00010000
00000000
01000000
10000000
00100000
,
00000000
01000000
00100000
00010000
00001000
01000000
00010000
00001000
,
00000100
00000010
00000000
00000001
00000000
00001100
00000000
00001100
,
00000000
00000000
00000010
00000000
00000000
00000010
00000000
00000000
00000100
00000000
00000000
00000000
00001000
00000000
00000001
00000000
,
00000100
00000000
00000010
00000000
00000000
00001000
00000000
00000000
00100000
00000000
00000000
00000000
10000000
00000000
01000000
00000000
,
00100000
01000000
00010000
01000000
00000000
10000000
01000000
10000000
,
00000000
00100000
10000000
00010000
01000000
00001000
00100000
00000100
,
00010000
00000000
00001000
00000000
00000000
00001000
00000000
00000000
00000010
00000000
00000000
00000000
00000001
00000000
00001000
00000000
,
00000100
00000000
00000010
00000000
00000000
00000001
00000000
00000000
00000100
00000000
00000000
00000000
00001000
00000000
00010000
00000000
,
00100000
01000000
10000000
01000000
00000000
00010000
01000000
00010000
,
00000000
00100000
00001000
00010000
00000010
00010000
00001000
01000000
,
00010000
00011000
00000000
00011000
00000000
00000010
00000001
00000100
,
00000002
00000000
00001003
00000100
00020000
00000000
00000000
00031000
,
00100000
01000000
00000000
00100000
00010000
10000000
00000000
01000000
,
00000000
00100000
10000000
01000000
00010000
01000000
10000000
00100000
,
00010000
00011000
00000000
00011000
00000000
00000010
00001000
00000100
,
00002000
00000000
00003001
00000100
00000002
00000000
00000000
00001003
,
00000100
00000010
00000100
00001000
00000100
00000000
00000001
00000100
,
00000010
00000000
00000001
00000100
00001000
00010000
00100000
10000000
,
00000000
01010000
00000000
00000000
10000000
00010000
00000000
01000000
,
00001000
00000000
00010000
00022000
00000000
00000000
00000000
00000000
,
00000000
00033000
00000000
00000000
,
00000000
00000000
00000000
00000000
;

//---------------dance-double - ----------------
#NOTES:
     dance-double:
     :
     Hard:
     16:
     0.726804,0.907690,0.378659,0.233021,0.368950,524.000000,485.000000,39.000000,24.000000,0.000000,0.000000,0.726804,0.907690,0.378659,0.233021,0.368950,524.000000,485.000000,39.000000,24.000000,0.000000,0.000000:
00000000
00000000
00000000
00000000
,
00000000
00000000
00000000
00000000
,
00000000
00000000
00000000
00000000
,
00000000
00000000
00000000
00000000
,
00001001
00000000
00000010
00000000
00001000
00000000
00000100
00000010
,
00000000
00000001
00000000
00000100
00000000
00001000
00000000
00010000
,
00000000
00011000
00000000
00010000
00000000
00100000
00000000
10000000
,
00000000
01000000
00000000
00100000
00010000
00001000
00000000
00000010
,
00000000
00000100
00000000
00000001
00000100
00000010
00000000
00000001
,
00000000
00000000
00000000
00001000
00000000
00000000
00000000
00000000
00000000
00010000
00000000
00000000
00000000
00000000
00000000
01000000
00000000
00100000
00000000
10000000
00000000
01000000
00000000
00000000
,
00000000
00100000
00000000
01000000
00000000
00000000
20100000
00000000
00000000
00000000
00000000
00000000
31000000
00000000
00000000
00000000
00000000
00000000
00010000
00000000
00000000
00001000
00000000
00000000
,
00000100
00000001
00000012
00000000
00000103
00000000
00001000
00010000
,
01000000
10000000
10100000
01000000
00010000
00110000
01000000
10000000
,
00100000
00000000
00010000
00001000
00000010
00010000
00100000
00001000
,
01000000
00010000
01000000
00010000
20000000
00000000
00000000
00010000
00000000
00000000
31000000
00000000
10000000
00000000
01000000
00000000
,
00100000
00000000
00001000
00000000
00000200
00000000
00000000
00000010
00000000
00000000
00000301
00000000
00001000
00000000
00000100
00000000
,
00010000
00001000
00001100
00010000
00000010
00010000
00001100
00001000
,
00010000
00000000
00100000
00001000
01000000
00010000
00100000
00001000
,
00010000
01000000
00010000
01000000
10000000
00100000
00000000
10000000
01000000
00000000
10000000
00020000
00000000
00000000
01030000
00000000
,
00010000
00000000
00001000
00000000
00000001
00000010
00000000
00000001
00000100
00000000
00000001
00002000
00000000
00000000
00003100
00000000
,
00001000
00000000
00010000
00000000
10000000
00100000
00000000
10000000
01000000
00000000
10000000
00020000
00000000
00000000
01030000
00000000
,
00010000
00001000
00000001
00000001
00000010
00000100
00000010
00000010
,
00000100
00000000
00001000
00000000
00000010
00010000
00000000
00001000
00100000
00000000
00010000
01000000
00000000
00000000
00100000
00000000
,
10000000
00000000
01000000
00000000
00100000
00001000
00000000
00010000
00000010
00000000
00001000
00000100
00000000
00000000
00000010
00000000
,
00000001
00000000
00000100
00000000
00000010
00010000
00000000
00001000
00100000
00000000
00010000
01000000
00000000
00000000
00100000
00000000
,
10000000
01000000
00010000
10010000
00000000
00011000
00000000
00001001
,
00000110
00001001
00000100
00000010
00000110
00000000
00000001
00000100
,
00001000
00000100
00000010
00010000
00001000
00100000
01000000
10000000
,
00100000
01000000
00100000
00010000
00001000
01000000
00010000
00001000
,
00000100
00000000
00000001
00000100
00001000
00000100
00000001
00000010
,
00000100
00000000
00001001
00002001
00000000
00003010
00020100
00032000
,
00000000
00103000
10020000
02030000
00000000
03100000
21000000
30020000
,
00000000
01030000
00012000
00000000
00003100
00000001
00000100
00001000
,
00000100
00000001
00000011
00000000
00001100
00000000
00000101
00000000
,
00001010
00002002
00000000
00000000
,
00003003
00000000
00000100
00010000
00001000
00100000
00010000
10000000
,
00100000
00000000
00000000
00000000
01000000
00000000
00010000
01000000
00010000
00000000
10000000
00000000
01000000
00000000
00010000
00000000
,
00001000
00000000
00000100
00000001
00000010
00000000
00010000
00001000
,
00000100
00000000
00000010
00000000
00000001
00000000
00001000
00000010
00001000
00000000
00000000
00000000
00000101
00000000
00000000
00000000
,
00000101
00000000
00000010
00010000
00001000
01000000
00010000
10000000
,
01000000
00000000
00000000
00000000
00100000
00000000
00010000
00100000
00010000
00000000
10000000
00000000
00100000
00000000
00010000
00000000
,
00001000
00000000
00000010
00001000
00010000
00000000
00001000
00000100
,
00000001
00000000
00000010
00000000
00000220
00000000
00000000
00000000
00000330
00000000
00000000
00000000
00000001
00000000
00000100
00000010
,
00000000
00001000
00000001
00000000
00000100
00000000
00000001
00000000
00000010
00000000
00001000
00000000
00010000
00000000
00100000
00000000
,
10000000
01000000
00100000
00010000
10000000
00010000
00100000
01000000
,
00010000
00001000
00000100
00000001
00000100
00000010
00010000
00000100
,
00001000
00010000
00100000
01000000
00010000
00001000
00000000
00011000
,
00000000
00000010
00000100
00000010
00000001
00000100
00000010
00010000
,
00001000
01000000
00100000
10000000
01000000
00010000
01000000
10000000
,
00010000
01000000
00001000
01001000
00000000
00010000
00000010
00010010
,
00000000
00001000
00000100
00000010
00000001
00000100
00000010
00001000
,
00000002
00000000
00000003
00000000
00000000
00000010
00000000
00000000
00001010
00000000
00000000
00000000
00010000
00000000
00100000
00000000
,
10000000
00000000
00010000
00000000
00000000
01000000
00000000
00000000
01010000
00000000
00000000
00000000
00100000
00000000
10000000
00000000
,
01000000
00010000
01000000
10000000
00100000
10000000
01000000
00010000
,
00000000
00000000
01000000
00100000
01000000
00100000
00001000
00010000
00001000
00010000
00000010
00000100
00000010
00000100
00000001
00001000
,
00000001
00001000
00000100
00000000
00000000
00000010
00000000
00000000
00000110
00000000
00000000
00000000
00000001
00000000
00001000
00000000
,
00000100
00000000
00010000
00000000
00000000
00100000
00000000
00000000
10100000
00000000
00000000
00000000
00100000
00000000
01000000
00000000
,
00010000
10000000
01000000
00100000
01000000
00010000
00001000
00100000
,
00000000
00000000
00010000
01000000
00010000
01000000
00001000
00010000
00001000
00010000
00000100
00001000
00000100
00001000
00000001
00000010
,
00000001
00000010
00000100
00000000
00000000
00000010
00000000
00000000
00000110
00000000
00000001
00000000
00000100
00000000
00000010
00000000
,
00001000
00000000
00000100
00000000
00000000
00000010
00000000
00000000
00001001
00000000
00001000
00000000
00000010
00000000
00000001
00000000
,
00000100
00001000
00000100
00000001
00000010
00000001
00000100
00001000
,
00000000
00000000
00000100
00000010
00000100
00000010
00010000
00001000
00010000
00001000
00100000
01000000
00100000
01000000
10000000
00010000
,
10000000
00010000
01000000
00000000
00100000
00000000
10000000
00000000
00100000
00000000
01000000
00000000
00010000
00000000
01000000
00000000
,
00100000
00010000
00001000
00000010
00001000
00010000
00001000
00000100
,
00000001
00000000
00001000
00000100
00001000
00000100
00010000
00001000
00010000
00001000
01000000
00010000
01000000
00010000
10000000
00100000
,
10000000
00100000
20000000
00000000
00000000
00000000
30020000
00000000
00000000
00000000
00130000
00010000
01000000
00100000
10000000
00010000
,
00100000
01000000
10000000
00000000
00000000
00000000
00000000
00000000
01000000
00000000
00010000
00001000
00010000
00000000
00000110
00000000
,
00001001
00000000
00000000
00000000
00000100
00000020
00000200
00000000
00000000
00000000
00000000
00000000
00000000
00000000
00000000
00000000
,
00000000
00000330
00000000
00000000
;

//---------------dance-single - ----------------
#NOTES:
     dance-single:
     :
     Challenge:
     18:
     1.004210,1.107396,0.660226,0.242730,1.029176,724.000000,656.000000,68.000000,25.000000,0.000000,0.000000,1.004210,1.107396,0.660226,0.242730,1.029176,724.000000,656.000000,68.000000,25.000000,0.000000,0.000000:
0000
0000
0000
0000
,
0000
0000
0000
0000
,
0000
0000
0000
0000
,
0000
0000
0000
0000
,
1000
0000
0100
0000
1001
0000
0001
0100
,
0000
0010
0000
0110
0000
0000
0000
1000
,
0000
0001
0000
1000
0100
0010
0000
0010
,
0000
1001
0000
0001
0100
0010
0000
0010
,
0000
0000
0000
1001
0000
0000
0000
0000
0000
1000
0000
0000
0000
0001
0000
0010
0000
0000
0000
0000
0000
0100
0000
0000
,
0000
1000
0000
0010
0000
0000
0000
0000
0000
0100
0000
0000
0000
0001
0000
0010
0000
0100
0000
1000
0000
0001
0000
0000
,
0000
0000
0100
0000
0000
0000
0020
0000
0030
0000
0000
0000
1001
0000
0000
0000
0000
0000
1000
0000
0000
0100
0000
0000
0000
0000
0000
0100
0000
0000
1000
0000
0000
0000
0000
0000
0010
0000
0000
1000
0000
0000
0002
0000
0000
0000
0000
0000
,
0100
0000
0103
0000
0010
1000
0000
1000
0001
0000
1002
0000
0000
0000
0010
0000
,
0010
0000
0013
0000
0100
1000
0000
0010
0100
0000
0001
0010
0100
0010
0000
0001
,
0100
0000
0110
0000
1000
0100
0010
0001
1000
0010
0100
0001
1000
0100
0001
0100
,
1000
0010
0100
0001
1000
0100
0000
0100
1000
0000
2001
0000
0000
0000
0010
0000
,
0010
0000
3010
0000
0100
0001
0000
0001
1000
0000
1200
0000
0000
0000
0010
0000
,
0010
0000
0310
0000
0001
0100
0000
1000
0100
0000
0001
0010
0100
1000
0000
0010
,
0100
0000
0110
0000
0001
0010
0100
1000
0001
0100
0010
0100
1000
0100
0001
1000
,
0100
0010
0001
1000
0001
0100
0000
0100
0010
0000
0010
2000
0000
0000
3001
0010
,
0100
0000
1001
0000
1000
0100
0000
0100
0010
0000
0010
0002
0000
0000
0103
0010
,
1000
0000
1001
0000
0010
1000
0000
1000
0100
0000
0100
0002
0000
0000
1003
0010
,
0001
0000
0011
0000
0001
0100
0001
0100
0010
1000
0100
0100
0001
0010
0001
0010
,
0100
1000
0010
0010
0001
0100
0000
0100
0001
0000
0001
2000
0010
0000
3010
0100
,
0010
0000
1001
0000
1000
0100
0000
0100
0010
0000
0010
2000
0010
0000
3010
0001
,
0010
0000
1001
0000
0001
0100
0000
0100
1000
0000
1000
0200
0001
0000
0301
0010
,
0001
0000
1001
0000
1000
0100
0010
0001
1000
0100
0001
1000
0010
0100
0001
1000
,
0010
0001
0100
0010
0100
0000
1001
0000
1001
0000
0001
0010
0100
0000
1000
0000
,
1000
0000
0001
0000
0100
0010
0000
1000
0010
0000
0100
0010
1000
0000
1000
0001
,
0010
0000
0010
0000
0001
0100
0000
0010
0001
0000
1000
0100
0010
1000
0000
0001
,
0010
0000
0010
0000
0100
1000
0010
1000
0100
0010
0001
0100
0010
1000
0010
0100
,
0001
0010
0100
1000
1100
0000
0101
0000
0001
1000
0010
0000
1010
0000
0011
0000
,
0001
0100
0010
0000
1010
0000
1100
0000
1000
0001
0100
0000
0101
0000
1010
0000
,
0001
0010
0100
0000
1001
0000
1001
0000
1000
0000
1100
0000
0110
0000
0001
0100
,
0010
0000
0100
0000
0001
0010
0100
1000
0001
0100
0010
0100
1000
0100
0001
1000
,
0100
0010
0002
0000
0000
0000
0100
0000
0000
0000
0100
0000
0000
0000
0100
0000
,
0000
0000
0103
0001
0010
0000
0100
0000
1000
0000
1000
0000
1100
0000
1000
0000
,
1001
0000
0001
0000
0101
0000
0010
1000
0010
0000
1000
0000
0100
0000
0010
0000
,
0110
0000
1001
0001
0100
0010
1010
0001
,
0101
0000
1000
0000
1100
0000
0010
0001
0010
0000
1001
0000
0100
0000
1000
0001
,
0100
0010
0100
0000
0002
0000
0010
0000
0013
0000
0100
0000
2000
0000
0010
0000
,
3010
0000
0100
0000
0001
0000
1000
0100
0010
0000
0001
0000
0100
0000
0010
0000
,
0010
0100
0010
0000
1010
0000
2010
0000
0100
0000
3100
0000
0011
0000
0012
0000
,
0100
0000
0000
0000
0000
0000
0000
0000
0000
0000
0000
0000
0000
0000
0000
0000
0000
0000
0000
0000
0000
0000
0000
0000
0103
0000
0000
0000
0000
0000
0000
0000
0000
0000
0000
0000
0000
0000
0000
0000
0000
0000
0000
0000
0000
0000
0000
0000
1001
0000
0000
0000
0000
0000
0000
0000
0000
0000
0000
0000
0000
0000
0000
0000
0000
0000
0000
0000
0000
0000
0000
0000
1001
0000
0000
0000
0000
0000
0000
0000
0000
0000
0000
0000
0000
0000
0000
0000
0000
0000
0000
0000
0000
0000
0000
0000
0000
0000
0000
0000
0000
0000
0000
0000
0000
0000
0000
0000
0000
0000
0000
0000
0000
0000
0000
0000
0000
0000
0000
0000
1000
0000
0000
0000
0000
0000
0000
0000
0000
0000
0000
0000
0000
0000
0000
0000
0000
0000
0000
0000
0000
0000
0000
0000
0001
0000
0000
0000
0000
0000
0000
0000
0000
0000
0000
0000
0000
0100
0000
0000
0000
0000
0000
0000
0000
0000
0000
0000
0010
0000
0000
0000
0000
0000
0000
0000
0000
0000
0000
0000
1000
0000
0000
0000
0000
0000
0000
0000
0000
0000
0000
0000
,
0000
0100
0000
0000
0000
0000
0000
0000
0000
0000
0000
0000
0010
0000
0000
0000
0000
0000
0000
0000
0000
0000
0000
0000
0001
0000
0000
0000
0000
0000
0000
0000
0000
0000
0000
0000
0000
0000
0000
0000
0000
0000
0000
0000
0000
0000
0000
0000
0100
0000
0000
0000
0000
0000
0000
0000
0000
0000
0000
0000
0000
0000
0000
0000
0000
0000
0000
0000
0000
0000
0000
0000
0001
0000
0000
0000
0000
0000
0000
0000
0000
0000
0000
0000
0000
0000
0000
0000
0000
0000
0000
0000
0000
0000
0000
0000
0010
0000
0000
0000
0000
0000
0000
0000
0000
0000
0000
0000
0000
0000
0000
0000
0000
0000
0000
0000
0000
0000
0000
0000
0100
0000
0000
0000
0000
0000
0000
0000
0000
0000
0000
0000
0000
0000
0000
0000
0000
0000
0000
0000
0000
0000
0000
0000
1000
0000
0000
0000
0000
0000
0000
0000
0000
0000
0000
0000
0000
0000
0000
0000
0000
0000
0000
0000
0000
0000
0000
0000
0010
0000
0000
0000
0000
0000
0000
0000
0000
0000
0000
0000
0000
0000
0000
0000
0000
0000
0000
0000
0000
0000
0000
0000
,
1000
0000
0100
0000
0010
0001
0100
0000
0010
0000
0001
0000
0010
0000
1000
0000
,
0100
0000
1001
0000
0001
0010
0100
0000
0100
0000
1100
0000
1000
0001
0100
0000
,
0100
0000
1010
0000
0010
0100
0001
0000
0010
0100
0001
0000
0100
1000
0010
0000
,
0100
0001
1000
0000
0100
0000
0010
0000
1000
0000
0010
0000
0001
0000
0100
0000
,
0010
0000
0100
0000
1000
0100
0001
0000
0010
0000
0100
0000
1000
0000
0001
0100
,
0010
0000
1010
0000
1000
0001
0100
0000
1100
0000
0011
0000
0001
1000
0100
0000
,
0101
0000
0001
0010
0100
0010
0001
1000
0010
0100
0010
0001
0010
1000
0100
0010
,
0002
0000
0000
0000
0000
0000
0000
0000
0000
0000
0000
0000
0000
0000
0000
0000
0000
0000
0000
0000
0000
0000
0000
0000
0000
0003
0000
0000
0000
0000
0000
0000
0000
0000
0000
0000
0000
0000
0000
0000
0000
0000
0000
0000
0000
0000
0000
0000
1000
0000
0000
0000
0000
0000
0000
0000
0000
0000
0000
0000
0100
0000
0000
0000
0000
0000
0000
0000
0000
0000
0000
0000
0000
0000
0000
0000
0000
0000
0000
0000
0000
0000
0000
0000
0100
0000
0000
0000
0000
0000
0000
0000
0000
0000
0000
0000
2000
0000
0000
0000
0000
0000
0000
0000
0000
0000
0000
0000
0000
0000
0000
0000
0000
0000
0000
0000
0000
0000
0000
0000
0000
0000
0000
0000
0000
0000
0000
0000
0000
0000
0000
0000
0000
0000
0000
0000
0000
0000
0000
0000
0000
0000
0000
0000
0001
0000
0000
0000
0000
0000
0000
0000
0000
0000
0000
0000
0000
0000
0000
0000
0000
0000
0000
0000
0000
0000
0000
0000
0001
0000
0000
0000
0000
0000
0000
0000
0000
0000
0000
0000
0000
0000
0000
0000
0000
0000
0000
0000
0000
0000
0000
0000
,
3001
0000
0100
0010
0000
0010
0100
0000
0002
0000
0000
0000
1000
0000
1000
0000
,
1003
0000
0010
0001
0000
0010
1000
0000
0100
0010
0001
0100
0000
0100
0001
0000
,
1001
0000
0001
0010
1000
0010
0001
0100
1000
0100
0001
0010
0100
1000
0010
0100
,
0001
1000
0100
0010
0000
0001
0100
0000
0201
0000
0000
0000
1000
0000
0010
0000
,
0301
0000
1000
0100
0000
0010
0001
0000
1002
0000
0000
0000
0010
0000
1000
0000
,
0103
0000
0010
1000
0000
0100
0010
0000
1000
0010
0001
0100
0000
0100
0010
0000
,
1001
0000
0001
0010
0100
1000
0010
0001
0010
0100
1000
0001
0010
1000
0001
0010
,
0100
0000
1000
0000
0001
0100
0000
0100
0001
0000
1000
0000
0010
0000
1000
0100
,
0010
0000
0001
0000
0100
0010
0000
0010
0100
0000
0001
0000
1000
0000
0010
0100
,
0001
0000
0010
1000
0000
0001
0100
0000
0010
0001
0100
1000
0000
0001
0010
0000
,
0110
0000
1000
0100
0010
1000
0010
0001
0100
0010
0001
0010
1000
0100
0010
0001
,
1000
0001
0100
0000
0100
0000
0010
0000
0010
0000
1000
0000
1000
0000
0001
0000
,
0001
0011
0011
1100
1100
1010
1010
0101
,
0101
0000
0001
1000
0100
0001
1000
0010
0100
1000
0010
0100
0001
0010
1000
0001
,
0100
0010
0001
0100
0001
0100
0010
1000
0100
0100
0001
0010
0001
0010
0100
1000
,
0010
0010
0001
1000
0002
0000
0000
0000
0103
0000
0010
0100
0010
0000
1010
0000
,
0011
0002
0000
0000
1003
0001
2002
0000
0000
0000
0000
0000
0000
0000
0000
0000
,
0000
3003
0000
0000
0000
0000
0000
0000
;

//---------------dance-double - ----------------
#NOTES:
     dance-double:
     :
     Challenge:
     18:
     0.945954,1.109399,0.203893,0.174766,1.038885,682.000000,661.000000,21.000000,18.000000,0.000000,0.000000,0.945954,1.109399,0.203893,0.174766,1.038885,682.000000,661.000000,21.000000,18.000000,0.000000,0.000000:
// measure 0
00000000
00000000
00000000
00000000
,  // measure 1
00000000
00000000
00000000
00000000
,  // measure 2
00000000
00000000
00000000
00000000
,  // measure 3
00000000
00000000
00000000
00000000
,  // measure 4
10000000
00000000
01000000
00000000
01100000
00000000
00001000
00010000
,  // measure 5
00000000
00100000
00000000
10010000
00000000
01000000
00010000
00001000
,  // measure 6
00000000
00001000
00000000
00000001
00000100
00000010
00000000
00000010
,  // measure 7
00000000
00000110
00000000
00000001
00000010
00001000
00000000
00001000
,  // measure 8
00000000
00000000
00000000
00011000
00000000
00000000
00000000
00000000
00000000
00100000
00000000
00000000
00000000
01000000
00000000
00010000
00000000
00000000
00000000
00000000
00000000
10000000
00000000
00000000
,  // measure 9
00000000
01000000
00000000
00100000
00000000
00000000
00000000
00000000
00000000
00001000
00000000
00000000
00000000
00000010
00000000
00000001
00000000
00000010
00000000
00001000
00000000
00010000
00000000
00000000
,  // measure 10
00000000
00000000
00100000
00000000
00000000
00000000
02000000
00000000
03000000
00000000
00000000
00000000
10010000
00000000
00000000
00000000
00000000
00000000
10000000
00000000
00000000
00100000
00000000
00000000
00000000
00000000
00000000
00100000
00000000
00000000
10000000
00000000
00000000
00000000
00000000
00000000
01000000
00000000
00000000
00100000
00000000
00000000
00010000
00000000
00000000
00000000
00000000
00000000
,  // measure 11
00100000
00010000
00001000
00000000
00000100
00000010
00000000
00000001
00000010
00000000
00002000
00000000
00000000
00000000
00013000
00000000
,  // measure 12
00000010
00000000
00000010
00001000
00000001
00000000
00000001
00000100
00001000
00000000
00010000
00001000
00100000
00000000
00010000
10000000
,  // measure 13
01000000
00000000
10000000
00000000
00100000
10000000
01000000
10000000
00100000
01000000
00001000
01000000
00010000
00100000
00001000
00010000
,  // measure 14
00000010
00001000
00000100
00000010
00000001
00000100
00000000
00000100
00000001
00000000
00000010
00000100
00010000
00000000
00001000
00000100
,  // measure 15
00000010
00000000
00010000
00000000
00001000
00010000
00000000
01000000
10000000
00000000
00200000
00000000
00000000
00000000
01300000
00000000
,  // measure 16
01000000
00000000
00010000
10000000
01000000
00000000
00010000
00001000
00010000
00000000
00000010
00001000
00000001
00000000
00000100
00001000
,  // measure 17
00010000
00000000
00100000
10000000
00010000
00100000
01000000
10000000
01000000
00010000
00001000
00100000
00001000
00010000
00000010
00001000
,  // measure 18
00000100
00000001
00000100
00001000
00000001
00000100
00000000
00000100
00000010
00000000
00000010
00000200
00000000
00000000
00001300
00000000
,  // measure 19
00010000
00000000
00010000
00100000
01000000
10000000
00000000
10000000
01000000
00000000
01000000
00020000
00000000
00000000
00031000
00000000
,  // measure 20
00000010
00000000
00000010
00001000
00000001
00000010
00000000
00000010
00001000
00000000
00001000
00020000
00000000
00000000
00130000
00000000
,  // measure 21
01000000
00000000
01000000
00010000
10000000
00100000
01000000
00010000
10000000
01000000
00100000
00010000
00001000
00000100
00000010
00000001
,  // measure 22
00001000
00000010
00000100
00000001
00001000
00000010
00000000
00000010
00000100
00000000
00000100
00000001
00000010
00000000
00000010
00001000
,  // measure 23
00010000
00000000
00010000
00100000
01000000
10000000
00000000
10000000
01000000
00000000
01000000
00010000
00100000
00000000
00100000
00001000
,  // measure 24
00010000
00000000
00010000
00000010
00001000
00000100
00000000
00000100
00000001
00000000
00000001
00000100
00000010
00000000
00000010
00001000
,  // measure 25
00010000
00000000
00010000
00100000
01000000
00001000
00100000
00001000
01000000
00001000
00100000
00001000
00010000
00000010
00010000
00000100
,  // measure 26
00010000
00000010
00010000
00000100
00010000
00000000
00011000
00000000
00011000
00000000
00010000
00100000
10000000
00000000
00010000
00100000
,  // measure 27
10000000
00000000
00010000
00000000
00001000
00000010
00000000
00000100
00001000
00000000
00000010
00010000
00000100
00000000
00001000
00000000
,  // measure 28
00000001
00000000
00000100
00000000
00000010
00000000
00010000
00100000
00000000
01000000
00001000
00000000
00100000
00000000
00010000
10000000
,  // measure 29
00000000
00100000
01000000
00000000
00010000
10000000
01000000
00100000
00001000
01000000
00010000
00100000
00001000
00010000
00000010
00001000
,  // measure 30
00000001
00000010
00000100
00001000
00000001
00000000
00002001
00000000
00000100
00000000
00003001
00000100
00001000
00000000
00002001
00000000
,  // measure 31
00010000
00000000
00103000
00010000
01000000
00000000
02010000
00000000
00100000
00000000
13000000
01000000
00010000
00000000
00210000
00000000
,  // measure 32
00001000
00000000
01300000
10000000
00010000
00000000
00000000
00000000
01000000
00000000
00001000
00000000
00000010
00000000
00010000
00000000
,  // measure 33
00100000
00001000
10010000
00000000
00011000
00000000
00001001
00000000
,  // measure 34
00011000
20010000
00000000
01000000
00000000
01000000
00000000
01000000
,  // measure 35
00000000
00000000
31000000
00010000
10000000
00000000
00100000
00000000
00010000
00000000
00001000
00000000
00000100
00000000
00000001
00000000
,  // measure 36
00001000
00000000
00000010
00000000
00000001
00000000
00000100
00000010
00000100
00000000
00001000
00000000
00000001
00000000
00000010
00000000
,  // measure 37
00001000
00010000
01000000
10000000
00010000
00100000
00001000
00000010
,  // measure 38
00010000
00000000
01000000
00000000
10000000
00000000
00100000
01000000
00100000
00000000
00010000
00000000
00000010
00000000
00001000
00000000
,  // measure 39
00000100
00000010
00000100
00000010
00000100
00000000
00010000
00000000
00000010
00000000
00001000
00000000
00100000
00000000
10000000
00000000
,  // measure 40
01000000
00000000
00010000
00000000
00000100
00000000
00001000
00010000
00001000
00000000
00000010
00000000
00000100
00000000
00000001
00000000
,  // measure 41
00000010
00001000
00010000
00000000
00100000
00000000
00100000
00000000
01000000
00000000
00000000
00000000
00000100
00000000
00000100
00000000
,  // measure 42
00000010
00000000
00000000
00000000
00000000
00000000
00000000
00000000
00000000
00000000
00000000
00000000
00000000
00000000
00000000
00000000
00000000
00000000
00000000
00000000
00000000
00000000
00000000
00000000
00000000
00000000
00000000
00000000
00000000
00000000
00000000
00000000
00000000
00000000
00000000
00000000
00000000
00000000
00000000
00000000
00000000
00000000
00000000
00000000
00000000
00000000
00000000
00000000
00011000
00000000
00000000
00000000
00000000
00000000
00000000
00000000
00000000
00000000
00000000
00000000
00000000
00000000
00000000
00000000
00000000
00000000
00000000
00000000
00000000
00000000
00000000
00000000
00011000
00000000
00000000
00000000
00000000
00000000
00000000
00000000
00000000
00000000
00000000
00000000
00000000
00000000
00000000
00000000
00000000
00000000
00000000
00000000
00000000
00000000
00000000
00000000
00000000
00000000
00000000
00000000
00000000
00000000
00000000
00000000
00000000
00000000
00000000
00000000
00000000
00000000
00000000
00000000
00000000
00000000
00000000
00000000
00000000
00000000
00000000
00000000
10000000
00000000
00000000
00000000
00000000
00000000
00000000
00000000
00000000
00000000
00000000
00000000
00000000
00000000
00000000
00000000
00000000
00000000
00000000
00000000
00000000
00000000
00000000
00000000
00010000
00000000
00000000
00000000
00000000
00000000
00000000
00000000
00000000
00000000
00000000
00000000
00000000
10000000
00000000
00000000
00000000
00000000
00000000
00000000
00000000
00000000
00000000
00000000
01000000
00000000
00000000
00000000
00000000
00000000
00000000
00000000
00000000
00000000
00000000
00000000
00010000
00000000
00000000
00000000
00000000
00000000
00000000
00000000
00000000
00000000
00000000
00000000
,  // measure 43
00000000
00001000
00000000
00000000
00000000
00000000
00000000
00000000
00000000
00000000
00000000
00000000
00000010
00000000
00000000
00000000
00000000
00000000
00000000
00000000
00000000
00000000
00000000
00000000
00000001
00000000
00000000
00000000
00000000
00000000
00000000
00000000
00000000
00000000
00000000
00000000
00000000
00000000
00000000
00000000
00000000
00000000
00000000
00000000
00000000
00000000
00000000
00000000
00000100
00000000
00000000
00000000
00000000
00000000
00000000
00000000
00000000
00000000
00000000
00000000
00000000
00000000
00000000
00000000
00000000
00000000
00000000
00000000
00000000
00000000
00000000
00000000
00000010
00000000
00000000
00000000
00000000
00000000
00000000
00000000
00000000
00000000
00000000
00000000
00000000
00000000
00000000
00000000
00000000
00000000
00000000
00000000
00000000
00000000
00000000
00000000
00000001
00000000
00000000
00000000
00000000
00000000
00000000
00000000
00000000
00000000
00000000
00000000
00000000
00000000
00000000
00000000
00000000
00000000
00000000
00000000
00000000
00000000
00000000
00000000
00001000
00000000
00000000
00000000
00000000
00000000
00000000
00000000
00000000
00000000
00000000
00000000
00000000
00000000
00000000
00000000
00000000
00000000
00000000
00000000
00000000
00000000
00000000
00000000
00000100
00000000
00000000
00000000
00000000
00000000
00000000
00000000
00000000
00000000
00000000
00000000
00000000
00000000
00000000
00000000
00000000
00000000
00000000
00000000
00000000
00000000
00000000
00000000
00001000
00000000
00000000
00000000
00000000
00000000
00000000
00000000
00000000
00000000
00000000
00000000
00000000
00000000
00000000
00000000
00000000
00000000
00000000
00000000
00000000
00000000
00000000
00000000
,  // measure 44
00010000
00000000
00100000
00000000
10000000
01000000
00100000
00000000
01000000
00000000
10000000
00000000
00100000
00000000
00010000
00000000
,  // measure 45
00000010
00000000
00001000
00000000
00000100
00000001
00001000
00000000
00000010
00000000
00000001
00000000
00000100
00001000
00010000
00000000
,  // measure 46
00100000
00000000
00010000
00000000
10000000
01000000
00010000
00000000
00100000
00000000
01000000
00000000
00100000
00000000
00010000
00001000
,  // measure 47
00010000
00001000
00010000
00000000
00100000
00000000
00001000
00000000
00000100
00000000
00000001
00000000
00001000
00000000
00000010
00000000
,  // measure 48
00010000
00000000
00100000
00000000
00010000
00001000
01000000
00000000
00010000
00000000
00100000
00000000
10000000
00000000
00100000
00000000
,  // measure 49
00001000
00000000
01000000
00000000
00100000
00010000
00001000
00000000
00000010
00000000
00000100
00000000
00001000
00010000
00001000
00000000
,  // measure 50
00000001
00000000
00000100
00000000
00000010
00001000
00010000
00000000
01000000
00010000
00100000
00000000
10000000
00100000
00010000
00000000
,  // measure 51
10010000
00000000
00000000
00000000
00000001
00000100
00000000
00000100
00000001
00000000
00000010
00001000
00010000
00000000
00000100
00001000
,  // measure 52
00010000
00000000
00100000
00010000
00000000
10000000
00010000
00000000
02000000
00000000
00000000
00000000
00100000
00000000
03100000
00000000
,  // measure 53
10000000
00010000
00100000
01000000
00000000
10000000
01000000
00000000
00010000
00001000
00000010
00000001
00000000
00000010
00000100
00000000
,  // measure 54
00001000
00000001
00000100
00000010
00010000
00000100
00001000
00000001
00000100
00000010
00010000
00001000
00100000
00010000
01000000
10000000
,  // measure 55
01000000
00100000
10000000
00010000
00000000
00010000
10000000
00000000
01000000
00010000
00001000
00000000
00100000
00010000
00001000
00000000
,  // measure 56
00000100
00001000
00000010
00000100
00000000
00000001
00000010
00000000
00002000
00000000
00000000
00000000
00010000
00000000
00013000
00000000
,  // measure 57
00000010
00001000
00000001
00000100
00000000
00000010
00010000
00000000
00001000
00100000
01000000
10000000
00000000
00010000
01000000
00000000
,  // measure 58
00100000
10000000
00010000
00100000
01000000
10000000
00010000
01000000
00001000
00100000
00010000
01000000
00001000
00010000
00000100
00001000
,  // measure 59
00000010
00000001
00000010
00001000
00000000
00001000
00000001
00000000
00000100
00000000
00000010
00001000
00010000
00000000
00001000
00010000
,  // measure 60
01000000
00000000
00100000
10000000
00000000
10000000
00010000
00000000
00200000
00000000
00000000
00000000
01000000
00000000
01300000
00000000
,  // measure 61
10000000
00010000
01000000
00100000
00000000
00010000
00001000
00000000
00000010
00000001
00000100
00000010
00000000
00001000
00010000
00000000
,  // measure 62
01000000
00100000
10000000
00010000
00100000
00001000
00010000
01000000
10000000
00100000
01000000
00001000
00010000
00001000
00000010
00000001
,  // measure 63
00000100
00000010
00001000
00000000
00000001
00000000
00000100
00000000
00010000
00000000
00001000
00000000
00100000
00000000
00010000
00000000
,  // measure 64
10000000
01000000
00001000
00100000
01000000
00001000
00010000
00000010
,  // measure 65
00000100
00000000
00001000
00000001
00000100
00000010
00010000
00001000
00000010
00000001
00000100
00000010
00010000
00001000
00010000
01000000
,  // measure 66
00100000
00010000
10000000
00100000
01000000
00010000
10000000
01000000
00100000
00010000
00001000
00000100
00000001
00000100
00001000
00000010
,  // measure 67
00000100
00000001
00000010
00000100
00000020
00000000
00000000
00000000
00001030
00000000
00010000
00100000
01000000
00000000
01010000
00000000
,  // measure 68
10010000
20000000
00000000
00000000
31000000
00200000
02000000
00000000
00000000
00000000
00000000
00000000
00000000
00000000
00000000
00000000
,  // measure 69
00000000
03300000
00000000
00000000
;

//---------------dance-double - ----------------
#NOTES:
     dance-double:
     :
     Edit:
     18:
     0.988952,1.107396,0.699063,0.223312,0.961212,713.000000,641.000000,72.000000,23.000000,0.000000,0.000000,0.988952,1.107396,0.699063,0.223312,0.961212,713.000000,641.000000,72.000000,23.000000,0.000000,0.000000:
00000000
00000000
00000000
00000000
,
00000000
00000000
00000000
00000000
,
00000000
00000000
00000000
00000000
,
00000000
00000000
00000000
00000000
,
10000000
00000000
01000000
00000000
10010000
00000000
00010000
01000000
,
00000000
00100000
00000000
01100000
00000000
00000000
00000000
10000000
,
00000000
00010000
00000000
10000000
01000000
00100000
00000000
00100000
,
00000000
10010000
00000000
00010000
01000000
00100000
00000000
00100000
,
00000000
00000000
00000000
10010000
00000000
00000000
00000000
00000000
00000000
10000000
00000000
00000000
00000000
00010000
00000000
00100000
00000000
00000000
00000000
00000000
00000000
01000000
00000000
00000000
,
00000000
10000000
00000000
00100000
00000000
00000000
00000000
00000000
00000000
01000000
00000000
00000000
00000000
00010000
00000000
00100000
00000000
10000000
00000000
00100000
00000000
00010000
00000000
00000000
,
00000000
00000000
01000000
00000000
00000000
00000000
00100000
00000000
00000000
00000000
00000000
00000000
10010000
00000000
00000000
00000000
00000000
00000000
10000000
00000000
00000000
01000000
00000000
00000000
00000000
00000000
00000000
01000000
00000000
00000000
10000000
00000000
00000000
00000000
00000000
00000000
00100000
00000000
00000000
10000000
00000000
00000000
00020000
00000000
00000000
00000000
00000000
00000000
,
01000000
00000000
01030000
00000000
00100000
10000000
00000000
10000000
00010000
00000000
10020000
00000000
00000000
00000000
01000000
00000000
,
01000000
00000000
01030000
00000000
00100000
01000000
00000000
00100000
10000000
00000000
00010000
00100000
01000000
00100000
00000000
00010000
,
01000000
00000000
00100000
00000000
10000000
01000000
00100000
00010000
10000000
00100000
01000000
00010000
10000000
01000000
00010000
01000000
,
10000000
00100000
01000000
00010000
10000000
01000000
00000000
01000000
10000000
00000000
20010000
00000000
00000000
00000000
00100000
00000000
,
00100000
00000000
30100000
00000000
01000000
00010000
00000000
00010000
10000000
00000000
12000000
00000000
00000000
00000000
00100000
00000000
,
00100000
00000000
03100000
00000000
00010000
01000000
00000000
10000000
01000000
00000000
00010000
00100000
01000000
10000000
00000000
00100000
,
01000000
00000000
01000000
00000000
00010000
00100000
01000000
10000000
00010000
01000000
00100000
01000000
10000000
01000000
00010000
10000000
,
01000000
00100000
00010000
10000000
00010000
01000000
00000000
01000000
00100000
00000000
00100000
20000000
00000000
00000000
30010000
00000000
,
00110000
00000000
10010000
00000000
10000000
01000000
00000000
01000000
00100000
00000000
00100000
00020000
00000000
00000000
01030000
00000000
,
01010000
00000000
10010000
00000000
00100000
10000000
00000000
10000000
01000000
00000000
01000000
00020000
00000000
00000000
01030000
00000000
,
11000000
00000000
00110000
00000000
00010000
01000000
00010000
01000000
00100000
10000000
01000000
01000000
00010000
00100000
00010000
00100000
,
01000000
10000000
00100000
00100000
00010000
01000000
00000000
01000000
00010000
00000000
00010000
20000000
00100000
00000000
30100000
01000000
,
00100000
00000000
10010000
00000000
10000000
01000000
00000000
01000000
00100000
00000000
00100000
20000000
00100000
00000000
30100000
00010000
,
00100000
00000000
10010000
00000000
00010000
01000000
00000000
01000000
10000000
00000000
10000000
02000000
00010000
00000000
03010000
00100000
,
00010000
00000000
10010000
00000000
00000000
00000000
00010000
01000000
10000000
00000000
00010000
00100000
10000000
00000000
10000000
01000000
,
00010000
00000000
10000000
00100000
00010000
00000000
10010000
00000000
10010000
00000000
00010000
00100000
01000000
00000000
10000000
00000000
,
10000000
00000000
00010000
00000000
01000000
00100000
00000000
10000000
00100000
00000000
01000000
00100000
10000000
00000000
10000000
00010000
,
00100000
00000000
00100000
00000000
01000000
00000000
10000000
00010000
00000000
01000000
00100000
00000000
00010000
00000000
10000000
01000000
,
00000000
00010000
00100000
00000000
01000000
10000000
00100000
10000000
01000000
00100000
00010000
01000000
00100000
10000000
00100000
01000000
,
00010000
00100000
01000000
10000000
11000000
00000000
01010000
00000000
00010000
10000000
00100000
00000000
10100000
00000000
00110000
00000000
,
00010000
01000000
00100000
00000000
10100000
00000000
11000000
00000000
10000000
00010000
01000000
00000000
01010000
00000000
10100000
00000000
,
00010000
00100000
01000000
00000000
10010000
00000000
10010000
00000000
10000000
00000000
11000000
00000000
01100000
00000000
00010000
01000000
,
00100000
00000000
01000000
00000000
00010000
00100000
01000000
10000000
00010000
01000000
00100000
01000000
10000000
01000000
00010000
10000000
,
01000000
00100000
00020000
00000000
00000000
00000000
01000000
00000000
00000000
00000000
01000000
00000000
00000000
00000000
01000000
00000000
,
00000000
00000000
01030000
00010000
00100000
00000000
01000000
00000000
10000000
00000000
10000000
00000000
11000000
00000000
10010000
00000000
,
00010000
00000000
01000000
00000000
01010000
00000000
00100000
10000000
00100000
00000000
10000000
00000000
01000000
00000000
11000000
00000000
,
01100000
00000000
10010000
00010000
01000000
00100000
10100000
11000000
,
00010000
00000000
01010000
00000000
00010000
00000000
00100000
00010000
00100000
00000000
10010000
00000000
01000000
00000000
10000000
00010000
,
01000000
00100000
01000000
00000000
00020000
00000000
00100000
00000000
00130000
00000000
01000000
00000000
20000000
00000000
00100000
00000000
,
30100000
00000000
01000000
00000000
00010000
00000000
10000000
01000000
00100000
00000000
00010000
00000000
01000000
00000000
00100000
00000000
,
00100000
01000000
00100000
00000000
10100000
00000000
20100000
00000000
01000000
00000000
31000000
00000000
00110000
00000000
00120000
00000000
,
01000000
00000000
00000000
00000000
00000000
00000000
00000000
00000000
00000000
00000000
00000000
00000000
00000000
00000000
00000000
00000000
00000000
00000000
00000000
00000000
00000000
00000000
00000000
00000000
01030000
00000000
00000000
00000000
00000000
00000000
00000000
00000000
00000000
00000000
00000000
00000000
00000000
00000000
00000000
00000000
00000000
00000000
00000000
00000000
00000000
00000000
00000000
00000000
10010000
00000000
00000000
00000000
00000000
00000000
00000000
00000000
00000000
00000000
00000000
00000000
00000000
00000000
00000000
00000000
00000000
00000000
00000000
00000000
00000000
00000000
00000000
00000000
10010000
00000000
00000000
00000000
00000000
00000000
00000000
00000000
00000000
00000000
00000000
00000000
00000000
00000000
00000000
00000000
00000000
00000000
00000000
00000000
00000000
00000000
00000000
00000000
00000000
00000000
00000000
00000000
00000000
00000000
00000000
00000000
00000000
00000000
00000000
00000000
00000000
00000000
00000000
00000000
00000000
00000000
00000000
00000000
00000000
00000000
00000000
00000000
10000000
00000000
00000000
00000000
00000000
00000000
00000000
00000000
00000000
00000000
00000000
00000000
00000000
00000000
00000000
00000000
00000000
00000000
00000000
00000000
00000000
00000000
00000000
00000000
00010000
00000000
00000000
00000000
00000000
00000000
00000000
00000000
00000000
00000000
00000000
00000000
00000000
01000000
00000000
00000000
00000000
00000000
00000000
00000000
00000000
00000000
00000000
00000000
00100000
00000000
00000000
00000000
00000000
00000000
00000000
00000000
00000000
00000000
00000000
00000000
10000000
00000000
00000000
00000000
00000000
00000000
00000000
00000000
00000000
00000000
00000000
00000000
,
00000000
01000000
00000000
00000000
00000000
00000000
00000000
00000000
00000000
00000000
00000000
00000000
00100000
00000000
00000000
00000000
00000000
00000000
00000000
00000000
00000000
00000000
00000000
00000000
00010000
00000000
00000000
00000000
00000000
00000000
00000000
00000000
00000000
00000000
00000000
00000000
00000000
00000000
00000000
00000000
00000000
00000000
00000000
00000000
00000000
00000000
00000000
00000000
01000000
00000000
00000000
00000000
00000000
00000000
00000000
00000000
00000000
00000000
00000000
00000000
00000000
00000000
00000000
00000000
00000000
00000000
00000000
00000000
00000000
00000000
00000000
00000000
00010000
00000000
00000000
00000000
00000000
00000000
00000000
00000000
00000000
00000000
00000000
00000000
00000000
00000000
00000000
00000000
00000000
00000000
00000000
00000000
00000000
00000000
00000000
00000000
00100000
00000000
00000000
00000000
00000000
00000000
00000000
00000000
00000000
00000000
00000000
00000000
00000000
00000000
00000000
00000000
00000000
00000000
00000000
00000000
00000000
00000000
00000000
00000000
01000000
00000000
00000000
00000000
00000000
00000000
00000000
00000000
00000000
00000000
00000000
00000000
00000000
00000000
00000000
00000000
00000000
00000000
00000000
00000000
00000000
00000000
00000000
00000000
10000000
00000000
00000000
00000000
00000000
00000000
00000000
00000000
00000000
00000000
00000000
00000000
00000000
00000000
00000000
00000000
00000000
00000000
00000000
00000000
00000000
00000000
00000000
00000000
00100000
00000000
00000000
00000000
00000000
00000000
00000000
00000000
00000000
00000000
00000000
00000000
00000000
00000000
00000000
00000000
00000000
00000000
00000000
00000000
00000000
00000000
00000000
00000000
,
10000000
01000000
00010000
10000000
00100000
00010000
10000000
01000000
,
10000000
00000000
10010000
00000000
00010000
00100000
01000000
00000000
01000000
00000000
11000000
00000000
10000000
00010000
01000000
00000000
,
01000000
00000000
10100000
00000000
00100000
01000000
00010000
00000000
00100000
01000000
00010000
00000000
01000000
10000000
00100000
00000000
,
01000000
00010000
10000000
00000000
01000000
00000000
00100000
00000000
10000000
00000000
00100000
00000000
00010000
00000000
01000000
00000000
,
00100000
00000000
01000000
00000000
10000000
01000000
00010000
00000000
00100000
00000000
01000000
00000000
10000000
00000000
00010000
01000000
,
00100000
00000000
10100000
00000000
10000000
00010000
01000000
00000000
11000000
00000000
00110000
00000000
00010000
10000000
01000000
00000000
,
01010000
00000000
10100000
00000000
10000000
01000000
00100000
00000000
10000000
00100000
00010000
00000000
01000000
00100000
10000000
00000000
,
10010000
00000000
00000000
00000000
10000000
01000000
00000000
01000000
20000000
00000000
00000000
00000000
00010000
00000000
00010000
00000000
,
30010000
00000000
01000000
00100000
00000000
00100000
01000000
00000000
00020000
00000000
00000000
00000000
10000000
00000000
10000000
00000000
,
10030000
00000000
00100000
00010000
00000000
00100000
10000000
00000000
01000000
00100000
00010000
01000000
00000000
01000000
00010000
00000000
,
10010000
00000000
00010000
00100000
10000000
00100000
00010000
01000000
10000000
01000000
00010000
00100000
01000000
10000000
00100000
01000000
,
00010000
10000000
01000000
00100000
00000000
00010000
01000000
00000000
02010000
00000000
00000000
00000000
10000000
00000000
00100000
00000000
,
03010000
00000000
10000000
01000000
00000000
00100000
00010000
00000000
20010000
00000000
00000000
00000000
00100000
00000000
00010000
00000000
,
31000000
00000000
00100000
10000000
00000000
01000000
00100000
00000000
10000000
00100000
00010000
01000000
00000000
01000000
00100000
00000000
,
10010000
00000000
00010000
00100000
01000000
10000000
00100000
00010000
00100000
01000000
10000000
00010000
00100000
10000000
00010000
00100000
,
01000000
00000000
10000000
00000000
00010000
01000000
00000000
01000000
00010000
00000000
10000000
00000000
00100000
00000000
10000000
01000000
,
00100000
00000000
00010000
00000000
01000000
00100000
00000000
00100000
01000000
00000000
00010000
00000000
10000000
00000000
00100000
01000000
,
00010000
00000000
00100000
10000000
00000000
00010000
01000000
00000000
00100000
00010000
01000000
10000000
00000000
00010000
00100000
00000000
,
01100000
00000000
10000000
01000000
00100000
10000000
00100000
00010000
01000000
00100000
00010000
00100000
10000000
01000000
00100000
00010000
,
10000000
00010000
01000000
00000000
01000000
00000000
00100000
00000000
00100000
00000000
10000000
00000000
10000000
00000000
00010000
00000000
,
00010000
00110000
00110000
11000000
11000000
10100000
10100000
01010000
,
01010000
00000000
00010000
10000000
01000000
00010000
10000000
00100000
01000000
10000000
00100000
01000000
00010000
00100000
10000000
00010000
,
01000000
00100000
00010000
01000000
00010000
01000000
00100000
10000000
01000000
01000000
00010000
00100000
00010000
00100000
01000000
10000000
,
00100000
00100000
00010000
10000000
00020000
00000000
00000000
00000000
01030000
00000000
00100000
01000000
00100000
00000000
10100000
00000000
,
00120000
00000000
00000000
00000000
10030000
00010000
20020000
00000000
00000000
00000000
00000000
00000000
00000000
00000000
00000000
00000000
,
00000000
30030000
00000000
00000000
00000000
00000000
00000000
00000000
;
