#TITLE:Padam Padam;
#SUBTITLE:;
#ARTIST:Kylie Minogue;
#TITLETRANSLIT:;
#SUBTITLETRANSLIT:;
#ARTISTTRANSLIT:;
#GENRE:;
#CREDIT:;
#BANNER:;
#BACKGROUND:;
#LYRICSPATH:;
#CDTITLE:;
#MUSIC:Padam Padam.ogg;
#OFFSET:-0.280000;
#SAMPLESTART:48.557999;
#SAMPLELENGTH:12.000000;
#SELECTABLE:YES;
#BPMS:0.000000=128.000000
;
#STOPS:
;
#BGCHANGES:;
#KEYSOUNDS:;
#ATTACKS:;

//---------------dance-single - ----------------
#NOTES:
     dance-single:
     :
     Hard:
     13:
     0.557293,0.617666,0.701776,0.216725,0.087722,378.000000,310.000000,68.000000,21.000000,0.000000,0.000000,0.557293,0.617666,0.701776,0.216725,0.087722,378.000000,310.000000,68.000000,21.000000,0.000000,0.000000:
0000
0000
0000
0000
,
0000
0000
0000
0000
,
0000
1000
0001
0000
1000
0001
0000
1000
,
0001
0000
1000
0001
0000
1000
0010
0001
,
0000
0100
0010
0000
0100
0010
0000
0100
,
0010
0000
0100
0010
0000
0100
0010
0000
,
0100
1000
0010
0000
0100
0010
0000
0100
,
0001
0010
0100
0000
0010
0100
0000
0001
,
1000
1000
0010
0100
,
0001
0000
0001
0020
0000
0031
0100
0020
,
0000
0031
0010
0100
1000
0100
0001
0000
,
1000
0000
1000
0100
0010
0000
0011
2000
,
0000
0000
0000
3100
1000
0010
0001
0010
,
2000
3200
0320
0000
,
0031
0000
1000
0000
0010
0100
0010
0001
,
0020
0000
0000
0000
2030
0000
0000
0000
3100
0000
0010
0100
0010
0000
0001
0000
,
1000
1010
0101
1001
,
0011
0000
0010
0100
0000
1000
0001
1000
,
0000
0010
0010
0010
0001
0010
1000
0100
,
0001
0200
0000
0010
0000
0310
0000
1002
,
0000
0000
1003
0100
0010
1000
0001
0010
,
0100
0001
1000
0100
0020
0100
0100
0000
,
0130
0000
0000
0001
1000
0010
0001
0100
,
1001
0000
0110
0000
1001
0000
0100
0010
,
0100
0000
0000
0000
0000
0000
0000
0000
0000
0000
0000
0000
0000
0000
0000
1000
,
0001
0000
0000
0000
0000
0000
1001
0001
,
0100
0010
0110
0100
0001
0010
0110
0100
,
1000
0000
0001
0100
0010
0000
0100
0000
0001
1000
0000
0100
0010
0000
0001
0000
,
1000
0010
0110
0010
1000
0100
0110
0010
,
0001
0000
1000
0010
0100
0000
0001
0000
0011
0000
0000
0000
0110
0000
0000
0000
,
2100
0000
3001
0100
0102
0000
0103
0010
,
1010
0000
1000
0000
1001
0000
0001
0000
0021
0000
0000
0130
1000
0000
0001
0000
,
0102
0000
1003
0010
2010
0000
3001
0010
,
0011
1000
1010
0001
0101
1000
1100
0001
,
1000
0010
0110
0010
1000
0100
0110
0010
,
0001
0000
1000
0010
0100
0000
0001
0000
0010
0001
0000
1000
0010
0000
0100
0000
,
0001
0010
0110
0010
0001
0100
0110
0010
,
1000
0000
0001
0010
0100
0000
1000
0000
1010
0000
0001
0000
1001
0000
0010
0000
,
0021
0000
0130
1000
1020
0000
0130
0001
,
0101
0000
1001
0000
1100
0000
0110
0000
0021
0000
0000
0031
0100
0000
0010
0000
,
2010
0000
3001
0010
0210
0000
1300
0001
,
1001
0100
0110
0001
0011
0100
0101
1000
,
1100
0010
0001
0010
1100
0000
1001
0001
,
0100
0000
0101
0000
0010
0000
1000
0000
1100
0000
0000
0001
0010
0000
0001
0000
,
0101
0010
1000
0010
0101
0000
1001
0001
,
0010
0000
0110
0000
0100
0000
1000
0000
1010
0000
0000
0001
0100
0000
0001
0000
,
1001
0010
0100
0010
1001
0000
1100
0000
,
1010
0000
0010
0000
0100
0000
0101
0000
1001
0000
0000
0001
0010
0000
0100
0000
,
0110
1000
0001
1000
0110
0000
1001
0000
,
1010
0000
1000
0000
0100
0000
1001
0000
0011
0000
0000
0001
0100
0001
1000
0000
;

//---------------dance-single - ----------------
#NOTES:
     dance-single:
     :
     Easy:
     7:
     0.324350,0.386041,0.299287,0.041281,0.000000,220.000000,191.000000,29.000000,4.000000,0.000000,0.000000,0.324350,0.386041,0.299287,0.041281,0.000000,220.000000,191.000000,29.000000,4.000000,0.000000,0.000000:
0000
0000
0000
0000
,
0000
0000
0000
0000
,
0000
0000
1000
0000
0000
0001
0000
0000
,
1000
0000
0000
0001
0000
0000
0100
0000
,
0000
0000
0010
0000
0000
0100
0000
0000
,
0010
0000
0000
0100
0000
0000
1000
0000
,
0000
0000
0001
0000
0000
0010
0000
0000
,
0000
0000
0100
0000
0000
1000
0000
0000
,
0001
0010
0100
1000
,
0001
0010
0100
1000
,
0010
0100
0001
1000
,
0010
0100
0001
1000
,
0100
0010
0001
1000
,
0100
0010
0001
1000
,
0001
0100
0010
1000
,
0001
0100
0010
1000
,
0001
0010
1000
0100
,
0001
0010
1000
0100
,
0001
0100
0010
0001
,
1000
0010
0100
1000
,
0001
0010
0100
0001
,
1000
0100
0010
1000
,
0001
0100
1000
0010
,
0001
0010
1000
0100
,
0002
0000
0003
0000
,
2000
0000
3000
1001
,
0001
0011
1000
1100
,
0001
0100
0001
0000
1000
0000
1001
0000
,
0010
1010
0100
0101
,
1000
0100
1000
0000
0001
0000
0010
0000
,
1000
1100
0001
0011
,
0001
1000
0001
0000
0100
0000
0110
0000
,
0010
1010
0100
0101
,
1000
0100
1001
0110
,
1010
0101
0010
1100
,
0001
0010
0001
0000
0100
0000
1001
0000
,
0100
1100
0010
0011
,
1000
0010
1000
0000
0100
0000
0010
0000
,
0011
0000
1000
0001
1000
0000
0010
1000
,
0010
0100
0110
0010
,
2000
0000
3002
0000
,
0013
0100
1001
0110
,
1000
1000
0001
0001
,
0010
0100
0010
0100
0010
0000
1001
0000
,
0100
0101
0010
1010
,
1000
0100
1000
0100
1000
0000
0001
0000
,
1000
1000
0100
0100
,
0001
0010
0001
0010
0001
0000
1010
0000
,
0100
1001
0010
0110
,
0001
1000
0001
1000
0001
0000
0100
0010
;

//---------------dance-single - ----------------
#NOTES:
     dance-single:
     :
     Medium:
     10:
     0.414284,0.463250,0.237365,0.175444,0.005160,281.000000,258.000000,23.000000,17.000000,0.000000,0.000000,0.414284,0.463250,0.237365,0.175444,0.005160,281.000000,258.000000,23.000000,17.000000,0.000000,0.000000:
0000
0000
0000
0000
,
0000
0000
0000
0000
,
0000
1000
0100
0000
1000
0100
0000
1000
,
0001
0000
1000
0100
0000
1000
0001
0000
,
0000
0001
0100
0000
0001
0100
0000
0001
,
1000
0000
0001
0100
0000
0001
1000
0000
,
0000
0100
0010
0000
0100
0010
0000
0100
,
0000
0001
1000
0000
0001
1000
0000
0001
,
1000
0002
0010
0100
,
2003
0100
0010
3001
,
0020
1000
0001
0230
,
0001
0000
1000
0000
0310
0000
0001
1000
,
0000
0000
0000
0001
0100
1000
0100
0001
,
0020
0230
2300
0000
,
3000
0000
0000
0000
1000
0010
0001
0010
,
2000
3200
0320
0032
,
1003
1100
0001
0011
,
0001
0000
1000
0010
0000
1000
0010
0100
,
0000
0001
0010
0001
0010
0100
1000
0001
,
1000
0001
0000
0100
0000
0100
0000
0100
,
0000
0000
0000
0001
0100
1000
0100
0001
,
2000
3200
0320
0000
,
0030
0000
0000
0001
0010
1000
0010
0001
,
0020
0000
0230
0000
2300
0000
0000
0001
,
3001
0000
0000
0000
0000
0000
0000
0000
0000
0000
0000
0000
0000
0000
0000
0100
,
0010
0000
0000
0000
0000
0000
1001
0001
,
0100
0010
0000
0100
0001
0010
0000
0001
,
0100
0010
1000
0000
0010
0000
1001
1000
,
0100
0010
0000
0100
1000
0010
0000
1000
,
0100
0010
0001
0000
0100
0000
0110
0000
,
1001
0000
0001
0010
0100
0000
0010
0001
,
0100
0001
0010
0001
0100
0000
1001
1000
,
0010
0000
1001
0001
0100
0000
0110
0000
,
1000
0100
0010
0100
1000
0000
1001
0000
,
0001
0100
0010
0100
0001
0100
0010
0100
,
0001
0010
0100
0010
0001
0000
1001
0000
,
1000
0010
0100
0010
1000
0010
0100
0010
,
1000
0100
0001
0100
1000
0000
1001
0000
,
1001
0000
0001
0100
0010
0000
0100
0001
,
0010
1000
0010
0001
0100
0000
0110
0010
,
1000
0000
1001
0001
0100
0000
0110
0010
,
1000
0100
0010
0001
0010
0100
1000
0001
,
0010
0001
0100
0000
0110
0000
0100
0001
,
1000
0001
0010
0100
1000
0000
1001
0000
,
0001
0100
0010
0000
0110
0000
0010
0100
,
0001
0010
0001
1000
0100
0000
0110
0000
,
0010
0001
1000
0000
1010
0000
0010
1000
,
0100
0010
0001
0100
0001
0000
0011
0000
,
0010
0100
1000
0000
1001
0000
1000
0010
,
0001
0010
1000
0100
0010
0000
0001
1000
;

//---------------dance-double - ----------------
#NOTES:
     dance-double:
     :
     Hard:
     14:
     0.508640,0.566194,0.433450,0.299287,0.056761,345.000000,303.000000,42.000000,29.000000,0.000000,0.000000,0.508640,0.566194,0.433450,0.299287,0.056761,345.000000,303.000000,42.000000,29.000000,0.000000,0.000000:
// measure 0
00000000
00000000
00000000
00000000
,  // measure 1
00000000
00000000
00000000
00000000
,  // measure 2
00000000
10000000
00010000
00000000
10000000
01000000
00000000
10000000
,  // measure 3
00010000
00000000
10000000
01000000
00000000
10000000
00100000
00010000
,  // measure 4
00000000
00001000
00010000
00000000
00001000
01000000
00000000
00001000
,  // measure 5
00010000
00000000
00001000
01000000
00000000
00001000
00010000
00000000
,  // measure 6
00001000
00000010
00000001
00000000
00001000
00000001
00000000
00000001
,  // measure 7
00001000
00000010
00000001
00000000
00000010
00001000
00000000
00000001
,  // measure 8
00000020
00000230
00002300
00003020
,  // measure 9
00000032
00000000
00000013
00000100
00000000
00001000
00000100
00000001
,  // measure 10
00000000
00000001
00000010
00001000
00010000
00100000
10000000
00000000
,  // measure 11
00010000
00000000
01000000
00010000
00100000
00000000
01000000
20000000
,  // measure 12
00000000
00000000
30000000
00100000
00010000
00001000
00000100
00000001
,  // measure 13
00000020
00000230
00002300
00000000
,  // measure 14
00003000
00000000
00000000
00000000
00000001
00000010
00001000
00010000
,  // measure 15
00200000
00000000
20300000
00000000
32000000
00000000
03100000
00010000
,  // measure 16
10000000
10100000
01001000
00110000
,  // measure 17
10010000
00000000
10000000
00100000
00000000
10000000
01000000
00100000
,  // measure 18
00000000
10000000
00100000
00010000
00001000
00000100
00000001
00000100
,  // measure 19
00001000
00000020
00000000
00000032
00000000
00000023
00000000
00001030
,  // measure 20
00000200
00000000
00000310
00000001
00000100
00000010
00000001
00000010
,  // measure 21
00001000
00010000
01000000
10000000
01000000
00010000
00100000
01000000
,  // measure 22
00020000
00000000
10000000
00000000
01030000
00010000
00001000
00000100
,  // measure 23
00000010
00001000
00000001
00000010
00000100
00000000
00001000
00000001
,  // measure 24
00001001
00000000
00000000
00000000
00000000
00000000
00000000
00000000
00000000
00000000
00000000
00000000
00000000
00000000
00000000
00001000
,  // measure 25
00010000
00000000
00000000
00000000
00000000
00000000
10100000
10000000
,  // measure 26
01000000
00010000
00011000
00010000
00100000
10000000
10010000
10000000
,  // measure 27
01000000
00000000
00100000
00001000
00010000
00000000
00000010
00000000
00010000
00000000
00001000
00000000
00001100
00000000
00000100
00000000
,  // measure 28
00000001
00000010
00000110
00000100
00010000
00000010
00000110
00000100
,  // measure 29
00000001
00000000
00001000
00000100
00000010
00000000
00001000
00000000
00011000
00000000
00000000
00000000
01010000
00000000
00000000
00000000
,  // measure 30
21000000
00000000
30100000
01000000
01020000
00000000
00130000
00001000
,  // measure 31
00011000
00000000
01000000
00000000
00011000
00000000
00000010
00000000
00011000
00000000
00000000
00100000
00001000
00000000
00010000
00000000
,  // measure 32
00200000
00000000
00310000
00001000
00000200
00000000
00000310
00010000
,  // measure 33
00002000
00000010
00013000
00001000
00200000
00010000
00301000
00000100
,  // measure 34
00000001
00000010
00000110
00000100
00010000
00000010
00000110
00000100
,  // measure 35
00000001
00000000
00000010
00000001
00001000
00000000
00000100
00000000
00000010
00000000
00001000
00000000
00011000
00000000
00010000
00000000
,  // measure 36
00100000
10000000
10010000
10000000
01000000
00010000
00011000
00010000
,  // measure 37
00100000
00000000
10000000
00010000
01000000
00000000
00001000
00000000
00011000
00000000
00000000
00000000
00001010
00000000
00000000
00000000
,  // measure 38
00000012
00000000
00000103
00000010
00002010
00000000
00003100
00010000
,  // measure 39
00011000
00000000
01000000
00000000
10010000
00000000
00100000
00000000
00011000
00000000
00000000
00000010
00001000
00000000
00000100
00000000
,  // measure 40
00020000
00000000
00031000
00100000
00020000
00000000
01030000
00001000
,  // measure 41
00020000
00000010
00031000
00100000
00020000
00001000
00130000
10000000
,  // measure 42
10010000
01000000
00001000
01000000
10010000
00000000
00101000
00000000
,  // measure 43
01000000
00000000
10000000
00000000
00100000
00000000
00010000
00000000
00001000
00000000
00000000
00000100
00000010
00000000
00000100
00000000
,  // measure 44
00000101
00000010
00010000
00000010
00000101
00000000
00010010
00000000
,  // measure 45
00001000
00000000
00010000
00000000
00100000
00000000
10000000
00000000
01000000
00000000
00000000
00100000
01000000
00000000
00010000
00000000
,  // measure 46
00011000
00000010
00000100
00000010
00011000
00000000
00000110
00000000
,  // measure 47
00000001
00000000
00000010
00000000
00000100
00000000
00010000
00000000
00001000
00000000
00000000
00010000
00100000
00000000
01000000
00000000
,  // measure 48
11000000
00100000
00010000
00100000
11000000
00000000
01001000
00000000
,  // measure 49
00100000
00000000
00001000
00000000
00010000
00000000
00001000
00000000
00000100
00000000
00000000
00000001
00001000
00000000
00000001
00000000
;

//---------------dance-single - ----------------
#NOTES:
     dance-single:
     :
     Beginner:
     2:
     0.138586,0.178798,0.041281,0.000000,0.000000,94.000000,90.000000,4.000000,0.000000,0.000000,0.000000,0.138586,0.178798,0.041281,0.000000,0.000000,94.000000,90.000000,4.000000,0.000000,0.000000,0.000000:
0000
0000
0000
0000
,
0000
0000
0000
0000
,
0000
0000
0000
0000
,
0000
0000
0000
0000
,
0000
0000
0000
0000
,
0000
0000
0000
0000
,
0000
0000
0000
0000
,
0000
0000
0000
0000
,
1000
0001
1000
0000
,
0100
0000
0010
0000
,
0001
0010
0001
0000
,
0100
0000
0010
0000
,
1000
0000
0000
0000
,
0110
0000
0000
0000
,
1001
0000
0000
0000
,
0001
0000
1000
0000
,
0100
0010
0100
0000
,
1000
0000
0010
0000
,
0001
1000
0001
0000
,
0100
0000
1000
0000
,
0010
0000
0000
0000
,
0110
0000
0000
0000
,
1001
0000
0000
0000
,
0100
0100
0100
0000
,
0100
0000
0000
0000
,
0000
0000
0000
0000
,
1000
0000
1000
0000
,
1000
1000
1000
0000
,
0001
0000
0001
0000
,
0001
0001
0001
0000
,
0100
0000
0100
0000
,
0100
0100
0100
0000
,
0010
0000
0010
0000
,
0010
0010
0010
0000
,
1000
0100
1000
0000
,
1000
0000
1000
0000
,
0001
0010
0001
0000
,
0001
0000
0001
0000
,
0100
0000
0100
0000
,
0010
0100
0010
0000
,
1000
0000
1000
0000
,
0001
0100
0001
0000
,
1000
0000
0100
0000
,
0010
0000
0001
0000
,
1000
1000
1000
0000
,
0001
0000
0100
0000
,
0010
0000
0010
0000
,
0100
0100
0100
0000
,
1000
0000
0010
0000
,
0001
0000
1000
0000
;

//---------------dance-double - ----------------
#NOTES:
     dance-double:
     :
     Medium:
     10:
     0.403964,0.411777,0.185764,0.154804,0.005160,274.000000,256.000000,18.000000,15.000000,0.000000,0.000000,0.403964,0.411777,0.185764,0.154804,0.005160,274.000000,256.000000,18.000000,15.000000,0.000000,0.000000:
00000000
00000000
00000000
00000000
,
00000000
00000000
00000000
00000000
,
00000000
10000000
01000000
00000000
10000000
01000000
00000000
10000000
,
01000000
00000000
10000000
01000000
00000000
01000000
00010000
00000000
,
00000000
00001000
00010000
00000000
00001000
00010000
00000000
00001000
,
00010000
00000000
00001000
00010000
00000000
00010000
00000010
00000000
,
00000100
00000001
00000100
00000000
00000001
00000100
00000000
00000001
,
00000000
00000100
00001000
00000000
00010000
00001000
00000000
00001000
,
00200000
00010000
01000000
00310000
,
20000000
00100000
00010000
30100000
,
10000000
01000000
00010000
00001000
00000010
00000001
00001000
00000000
,
00000010
00000000
00000100
00000000
00000001
00000000
00001000
00001000
,
00000000
00000000
00000000
00000100
00010000
00000010
00010000
00001000
,
00200000
00302000
00023000
00000000
,
00030000
00000000
00000000
00000000
00100000
10000000
00100000
01000000
,
20000000
32000000
03200000
00320000
,
00031000
00011000
00000010
00001010
,
00000100
00000000
00000001
00001000
00000000
00000001
00000010
00000100
,
00000000
00000010
00000001
00000010
00000100
00010000
00001000
00000000
,
00010000
00100000
00000000
01000000
00000000
00010000
00000000
10000000
,
00000000
00000000
00000000
01000000
00100000
00001000
00100000
00001000
,
00020000
00030020
00000230
00000000
,
00000300
00000000
00000000
00000001
00000100
00000010
00000100
00000010
,
00000002
00000000
00000023
00000000
00000230
00000000
00000000
00001000
,
00001300
00000000
00000000
00000000
00000000
00000000
00000000
00000000
00000000
00000000
00000000
00000000
00000000
00000000
00000000
01000000
,
00100000
00000000
00000000
00000000
00000000
00000000
10010000
10000000
,
01000000
00100000
00000000
01000000
10000000
00100000
00000000
00010000
,
00001000
00100000
00001000
00000000
00010000
00000000
00011000
00000100
,
00001000
00000010
00000000
00000100
00000001
00000010
00000000
00000100
,
00010000
00000010
00010000
00000000
00000100
00000000
00000010
00000000
,
00001001
00000000
00000001
00000100
00000010
00000000
00010000
00001000
,
00100000
00001000
01000000
00001000
00100000
00000000
00001000
00010000
,
00100000
00000000
10000000
01000000
00100000
00000000
10010000
00000000
,
00010000
01000000
00001000
00010000
00000100
00000000
00000110
00000000
,
00000010
00000001
00000100
00000001
00000010
00000001
00000100
00000000
,
00001000
00010000
00000100
00010000
00001000
00000000
00011000
00000000
,
00100000
01000000
10000000
01000000
00100000
01000000
10000000
00000000
,
00100000
00010000
00001000
00010000
00000100
00000000
00000110
00000000
,
00001001
00000000
00000001
00000100
00000010
00000000
00010000
00000100
,
00000010
00000100
00010000
00001000
00010000
00000000
00100000
01000000
,
00010000
00000000
10000000
01000000
00100000
00000000
00001000
00000000
,
00010000
00000010
00000100
00000010
00001000
00000000
00001001
00000000
,
00000001
00000010
00001000
00000010
00000100
00000000
00000110
00000000
,
00000100
00010000
00001000
00100000
00010000
00000000
01010000
00000000
,
01000000
00100000
10000000
00100000
00010000
00000000
00011000
00000000
,
00001000
00100000
00010000
01000000
00001000
00000000
00011000
00000000
,
00010000
00000100
00000010
00000001
00000010
00000000
00001100
00000000
,
00010000
00001000
00000100
00001000
00010000
00000000
00110000
00000000
,
00100000
10000000
01000000
00100000
01000000
00000000
01010000
00000000
,
00010000
00001000
00000100
00000001
00001000
00000000
00001000
00000001
;

//---------------dance-double - ----------------
#NOTES:
     dance-double:
     :
     Easy:
     6:
     0.297813,0.360305,0.237365,0.041281,0.000000,202.000000,179.000000,23.000000,4.000000,0.000000,0.000000,0.297813,0.360305,0.237365,0.041281,0.000000,202.000000,179.000000,23.000000,4.000000,0.000000,0.000000:
00000000
00000000
00000000
00000000
,
00000000
00000000
00000000
00000000
,
00000000
00000000
10000000
00000000
00000000
10000000
00000000
00000000
,
01000000
00000000
00000000
01000000
00000000
00000000
01000000
00000000
,
00000000
00000000
00010000
00000000
00000000
00010000
00000000
00000000
,
00001000
00000000
00000000
00001000
00000000
00000000
00001000
00000000
,
00000000
00000000
00000010
00000000
00000000
00000010
00000000
00000000
,
00000000
00000000
00000001
00000000
00000000
00000001
00000000
00000000
,
00000001
00000010
00000100
00001000
,
00000001
00000010
00001000
00000000
,
00010000
00100000
10000000
00100000
,
01000000
00100000
10000000
00000000
,
01000000
00100000
00010000
10000000
,
01000000
00010000
00001000
00000000
,
00000100
00000010
00001000
00000001
,
00000010
00000100
00001000
00000000
,
00000001
00000100
00001000
00010000
,
00100000
01000000
00100000
10000000
,
00010000
00100000
01000000
00100000
,
00010000
10000000
01000000
00010000
,
00001000
00000100
00000001
00001000
,
00000100
00000010
00000100
00001000
,
00000001
00000100
00000010
00000100
,
00000001
00000010
00001000
00010000
,
00200000
00000000
00300000
00000000
,
02000000
00000000
03000000
10010000
,
10000000
11000000
10000000
11000000
,
01000000
00010000
00001000
00000010
,
00000001
00000011
00000001
00000011
,
00000001
00000100
00001000
00010000
,
00001000
00011000
00001000
00011000
,
00001000
00100000
01000000
10000000
,
00010000
10100000
00010000
10100000
,
00010000
00100000
01100000
10010000
,
10000000
11000000
10000000
11000000
,
10000000
01000000
00010000
00001000
,
00000100
00000110
00000100
00000110
,
00000100
00000001
00000010
00001000
,
00010000
00010010
00010000
00010010
,
00010000
00001000
00010000
00000000
00011000
00000000
00001000
00000000
,
00200000
00000000
02300000
00000000
,
13000000
00010000
01100000
10010000
,
10000000
01000000
00100000
01000000
,
00100000
00001000
00100000
00001000
00100000
00000000
00011000
00000000
,
00001000
00000100
00000010
00000100
,
00000001
00000010
00000001
00000010
00000001
00000000
00001001
00000000
,
00000001
00000100
00000000
00000100
,
00001000
00010000
00001000
00010000
00001000
00000000
00011000
00000000
,
00010000
00100000
00000000
00100000
,
10000000
00010000
10000000
00010000
10000000
00000000
01000000
01000000
;
