#TITLE:MONDO STREET;
#SUBTITLE:;
#ARTIST:Orange Lounge;
#TITLETRANSLIT:;
#SUBTITLETRANSLIT:;
#ARTISTTRANSLIT:;
#GENRE:;
#CREDIT:;
#BANNER:MONDO STREET.png;
#BACKGROUND:MONDO STREET-bg.png;
#LYRICSPATH:;
#CDTITLE:;
#MUSIC:MONDO STREET.ogg;
#OFFSET:0.000000;
#SAMPLESTART:37.610001;
#SAMPLELENGTH:15.000000;
#SELECTABLE:YES;
#DISPLAYBPM:180.000000;
#BPMS:0.000000=188.300003
,4.000000=180.000000
,80.000000=183.000000
,82.000000=180.000000
,207.000000=181.000000
,209.000000=180.000000
;
#STOPS:
;
#BGCHANGES:;
#KEYSOUNDS:;
#ATTACKS:;

//---------------dance-single - ----------------
#NOTES:
     dance-single:
     :
     Beginner:
     2:
     0.128484,0.176176,0.076777,0.021936,0.000000,82.000000,75.000000,7.000000,2.000000,0.000000,0.000000,0.128484,0.176176,0.076777,0.021936,0.000000,82.000000,75.000000,7.000000,2.000000,0.000000,0.000000:
0000
0000
0000
0000
,
0000
0000
0000
0000
,
0000
0000
0000
0000
,
0000
0000
0000
0000
,
0000
1000
0000
1000
,
0000
0001
0000
0001
,
0000
1000
0000
1000
,
0000
0001
0000
0001
,
0000
0200
0000
0300
,
0000
0100
0000
0000
,
0000
0200
0000
0300
,
0000
0100
0000
0000
,
0000
1000
0000
0000
,
0000
1000
0000
0000
,
0000
0010
0000
0000
,
0000
0100
0000
0000
,
0000
0001
0000
0000
,
0000
0001
0000
0000
,
0000
0010
0000
0000
,
0000
0100
0000
0000
,
0000
1000
0000
1000
,
0000
1000
0000
0000
,
0000
0001
0000
0001
,
0000
0001
0000
0000
,
0000
0010
0000
0000
,
0000
0010
0000
0000
,
0000
0100
0000
0000
,
0000
0100
0000
0000
,
0000
1000
0000
0000
,
0000
1001
0000
0000
,
0000
0001
0000
0000
,
0000
1001
0000
0000
,
0000
0010
0000
0000
,
0000
0110
0000
0000
,
0000
0100
0000
0000
,
0000
0110
0000
0000
,
0000
1000
0000
1000
,
0000
1000
0000
1000
,
0000
1000
0000
1000
,
0000
1000
0000
0000
,
0000
0001
0000
0001
,
0000
0001
0000
0001
,
0000
0001
0000
0000
,
0000
0100
0000
0000
,
0000
1001
0000
0000
,
0000
0100
0000
0000
,
0000
1001
0000
0000
,
0000
0100
0000
0000
,
0000
1000
0000
0001
,
0000
1000
0000
0000
,
0000
0001
0000
1000
,
0000
0001
0000
0000
,
0000
0010
0000
0000
,
0000
0001
0000
0000
,
0000
0100
0000
0000
,
0000
1000
0000
0000
,
0000
0010
0000
0000
,
0000
0010
0000
0000
,
0000
0010
0000
0010
,
0000
0010
0000
0000
,
0000
0100
0000
0000
,
0000
1000
0000
0000
,
0000
0100
0000
0000
,
0000
0001
0000
0000
,
0000
1001
0000
0000
,
0000
0000
0000
0000
;

//---------------dance-single - ----------------
#NOTES:
     dance-single:
     :
     Easy:
     6:
     0.311809,0.435984,0.219363,0.263236,0.000000,199.000000,179.000000,20.000000,24.000000,0.000000,0.000000,0.311809,0.435984,0.219363,0.263236,0.000000,199.000000,179.000000,20.000000,24.000000,0.000000,0.000000:
0000
0000
0000
0000
,
0000
0000
0000
0000
,
0000
0000
0000
0000
,
0000
0000
0000
0000
,
0000
1000
0100
1000
,
0000
0001
0100
0001
,
0000
1000
0100
1000
,
0000
0001
0100
0001
,
0000
1000
0001
1000
,
0001
0100
0000
0100
,
0000
0001
1000
0001
,
1000
2002
0000
0000
,
3003
1000
0100
0010
,
0001
0010
0100
1000
,
0000
0001
0010
0100
,
1000
0100
0010
0001
,
0000
1000
0010
0100
,
0001
0100
0010
1000
,
0000
0001
0100
0010
,
1000
0010
0100
0001
,
0000
1000
0010
2000
,
0000
3001
0010
0002
,
0000
1003
0001
0200
,
0000
0301
1000
0200
,
0000
0310
0001
0200
,
0000
0310
1000
0200
,
0000
0310
0010
0020
,
0000
0230
0000
0000
,
0300
1000
0010
0001
,
0100
2002
0000
0000
,
3003
0001
0010
1000
,
0100
2002
0000
0000
,
3003
1000
0001
1000
,
0001
0220
0000
0000
,
0330
0001
1000
0001
,
1000
0220
0000
0000
,
0330
0010
1000
0001
,
1000
0010
0100
1001
,
1001
0010
0001
1000
,
0001
0010
0100
1001
,
1001
0001
0001
1000
,
1000
0001
0001
1000
,
1000
0220
0000
0000
,
0330
1000
0001
1001
,
0000
1000
0100
0001
,
0100
1000
0100
0001
,
0100
1000
0100
0001
,
0100
1000
0010
0200
,
0300
0001
0100
1000
,
0100
0001
0100
1000
,
0100
0001
0100
1000
,
0100
0001
0010
0200
,
0300
1000
0000
0100
,
0000
0001
0000
0010
,
0010
0001
0000
0100
,
0000
1000
0000
0010
,
0010
0001
0000
0100
,
0000
1000
0000
0010
,
0010
1000
0000
0100
,
0000
0001
0000
0010
,
0000
1001
0000
1001
,
0000
0110
0000
0110
,
0000
1100
0000
0101
,
0000
1100
0000
0101
,
0000
0000
2002
0000
,
0000
0000
0000
0000
,
0000
3003
0000
0000
,
0000
0000
0000
0000
;

//---------------dance-single - ----------------
#NOTES:
     dance-single:
     :
     Medium:
     8:
     0.423058,0.508648,0.449695,0.438726,0.000000,270.000000,229.000000,41.000000,40.000000,0.000000,0.000000,0.423058,0.508648,0.449695,0.438726,0.000000,270.000000,229.000000,41.000000,40.000000,0.000000,0.000000:
0000
0000
0000
0000
,
0000
0000
0000
0000
,
0000
0000
0000
0000
,
0000
0000
0000
0000
,
0000
0000
0001
0000
1000
0100
0010
0002
,
0000
0000
0103
0000
0010
1000
0001
0200
,
0000
0000
0301
0000
1000
0100
1000
0020
,
0000
0000
1030
0000
0001
1000
0010
0200
,
0000
0000
0310
0000
1000
0001
0010
0002
,
0000
0000
0013
0000
0100
1000
0001
2000
,
0000
0000
3001
0000
0100
0010
1000
0020
,
0000
0230
0300
2002
,
3003
0000
0100
0100
0002
0000
0000
1003
,
0000
0000
0100
0100
2000
0000
0000
3001
,
0000
0000
0010
0010
0002
0000
0000
1003
,
0000
0000
0010
0010
2000
0000
0000
3001
,
0000
0000
0010
0100
2000
0000
0000
3001
,
0000
0000
1000
0001
2000
0000
0000
3100
,
0000
0000
0010
0100
2000
0000
0000
3001
,
0000
0000
1000
0001
2000
0000
0000
3100
,
0000
0000
1000
0000
0000
1001
0000
0000
,
0000
0000
0001
0000
0000
1001
0000
0000
,
0000
0000
0010
0000
0000
1100
0000
0000
,
0000
0000
0010
0000
0000
0101
0000
0000
,
0000
0000
1001
0000
0000
1010
0000
0000
,
0000
0000
1001
0000
0000
0011
0000
0000
,
0000
0000
1001
0000
0000
0110
0000
0000
,
0000
0200
0300
2002
,
3003
0000
1000
0000
1100
0000
0010
0001
,
0100
0002
0000
0000
1000
0000
0000
1003
,
0000
0000
0001
0000
0101
0000
0010
1000
,
0000
2001
0000
0000
0001
0000
0000
3001
,
0000
0000
1000
0000
1010
0000
0100
0001
,
0010
0002
0000
0000
0100
0000
0000
0103
,
0000
0000
0001
0000
0011
0000
0100
1000
,
0000
2001
0000
0000
0100
0000
0000
3100
,
0000
0000
1001
0000
0000
0110
0000
0000
,
1001
0000
0000
0110
0000
0000
1100
0000
,
0101
0000
1001
0000
0000
0110
0000
0000
,
1001
0000
0000
0110
0000
0000
1010
0000
,
0011
0000
1000
1000
0000
0001
0001
0000
,
0010
0010
0000
0100
0100
0000
1000
0000
,
0001
2002
0000
0000
,
3003
0200
0300
2002
,
3003
0000
1000
0001
1000
0000
0000
1001
,
0000
0000
0001
1000
0001
0000
0000
1001
,
0000
0000
0010
0100
1000
0000
0000
1010
,
0000
0000
0010
0100
0001
0000
0000
0011
,
0000
0000
0001
0100
0010
0000
0000
0110
,
0000
0000
1000
0100
0010
0000
0000
0110
,
0000
0000
0010
0001
1000
0000
0000
1001
,
0000
0000
0010
1000
0001
0000
0000
1001
,
0000
0000
0001
0000
1000
0000
0001
0100
,
0001
0100
0000
0000
0010
0010
1000
0002
,
0000
0000
1003
0000
0001
0000
1000
0100
,
1000
0100
0000
0000
0010
0010
0001
2000
,
0000
0000
3001
0000
1000
0000
0001
0010
,
0001
0010
0000
0000
0100
0100
1000
0002
,
0000
0000
1003
0000
0001
0000
1000
0010
,
1000
0010
0000
0000
0100
0100
0001
2000
,
0000
0000
3001
0001
0200
0000
0000
0310
,
0000
0000
1000
1000
0200
0000
0000
0310
,
0000
0000
0100
0100
2000
0000
0000
3001
,
0000
0000
0100
0100
0002
0000
0000
1003
,
0000
0000
2002
0000
,
0000
0000
0000
0000
,
0000
3003
0000
0000
,
0000
0000
0000
0000
;

//---------------dance-single - ----------------
#NOTES:
     dance-single:
     :
     Hard:
     12:
     0.664357,0.799305,0.811644,0.252268,0.032904,424.000000,350.000000,74.000000,23.000000,0.000000,0.000000,0.664357,0.799305,0.811644,0.252268,0.032904,424.000000,350.000000,74.000000,23.000000,0.000000,0.000000:
0000
0000
0000
0000
,
0000
0000
0000
0000
,
0000
0000
0000
0000
,
0000
0000
0000
0000
,
0000
0000
0001
0000
1000
0100
1000
0020
,
0000
0100
0130
0000
0001
1000
0001
0200
,
0000
0010
0310
0000
1000
0100
1000
0002
,
0000
1000
1003
0000
0010
0100
0010
2000
,
0000
0001
3001
0000
0010
0100
0010
0001
,
1000
0100
2000
0000
3001
0100
0010
1000
,
0100
1000
0002
0000
0013
0100
0010
0001
,
1000
0000
0010
0000
0200
0000
0000
0000
0300
0000
0000
0000
0001
1000
0001
1000
,
0001
0010
0100
1000
0001
0000
1000
0001
,
0000
0010
0100
1000
0100
0000
0010
0001
,
0000
1000
0001
1000
0010
0000
0100
0001
,
0000
1000
0100
1000
0010
0000
1000
0001
,
0000
1000
0001
1000
0010
0000
0100
0010
,
0000
1000
0001
0100
0010
0000
0100
0001
,
0000
0010
0001
0010
0100
0000
1000
0010
,
0000
0100
0001
0100
0010
0000
1000
0001
,
1000
0001
1001
0000
0000
1001
0000
0001
,
0010
0100
1100
0000
0000
0101
0000
1000
,
0010
0100
0101
0000
0000
1100
0000
0001
,
0100
0010
1010
0000
0000
0011
0000
1000
,
0100
0010
0011
0000
0000
1010
0000
0010
,
1000
0100
0110
0000
0000
0110
0000
0010
,
0001
0100
0110
0000
0000
0110
0000
0010
,
1000
0000
0001
0000
2002
0000
0000
0000
0000
0000
3003
0000
0001
1000
0001
1000
,
0001
0100
0010
1000
0010
0100
0001
0010
,
0100
2000
0000
0000
3001
0000
1001
1001
,
0000
0000
0001
0010
0001
1000
0010
0100
,
0001
0020
0000
0000
0130
0000
0110
0110
,
0000
0000
0010
0001
0100
0010
1000
0100
,
0010
0002
0000
0000
0103
0000
0101
1001
,
0000
0000
0010
1000
0100
0010
0001
0100
,
0010
2000
0000
0000
3100
0000
1100
1001
,
0000
0000
1001
0000
1000
1100
0000
0001
,
0101
0000
0010
1001
0000
0000
1010
0000
,
0011
0000
1001
0000
1000
1100
0000
0001
,
0101
0000
0010
1001
0000
0000
0110
0000
,
1001
0000
1100
1100
0000
0101
0101
0000
,
1001
1001
0000
1001
1001
0000
0110
0000
,
1001
0110
1001
1100
,
0101
0000
0000
0000
0001
0000
0010
0000
0100
0000
1000
0000
0001
0100
0001
0100
,
0001
1000
1001
0002
0100
0103
0000
0110
,
0000
0000
1001
2000
0100
3100
0000
0110
,
0000
0000
1100
0200
0010
0310
0000
0011
,
0000
0000
0101
0200
0010
0310
0000
1010
,
0000
0000
1001
1000
0100
0001
0100
0110
,
0000
0000
1001
0001
0100
1000
0100
0110
,
0000
0000
1010
0010
0100
0001
0010
0011
,
0000
0000
1100
0100
0010
0001
0100
0101
,
0000
0000
0001
0010
0001
1000
0010
0001
,
0010
1000
0100
0010
0001
1000
0010
0200
,
0000
0000
0301
0010
0001
1000
0100
0001
,
0100
1000
0010
0100
0001
1000
0100
0020
,
0100
0130
1000
0100
1000
0001
0100
1000
,
0100
0001
0010
0100
1000
0001
0100
0020
,
0000
0000
1030
0100
1000
0001
0010
1000
,
0010
0001
0100
0010
1000
0001
0010
0200
,
0010
0310
0001
1000
1001
0000
0000
0011
,
0000
0000
0100
1000
1001
0000
0000
1010
,
0000
0000
0100
0001
1001
0000
0000
1100
,
0000
0000
0010
0001
1001
0000
0000
0101
,
0000
0000
2002
0000
,
0000
0000
0000
0000
,
0000
3003
0000
0000
;

//---------------dance-double - ----------------
#NOTES:
     dance-double:
     :
     Easy:
     6:
     0.277338,0.435984,0.142586,0.296140,0.000000,177.000000,164.000000,13.000000,27.000000,0.000000,0.000000,0.277338,0.435984,0.142586,0.296140,0.000000,177.000000,164.000000,13.000000,27.000000,0.000000,0.000000:
00000000
00000000
00000000
00000000
,
00000000
00000000
00000000
00000000
,
00000000
00000000
00000000
00000000
,
00000000
00000000
00000000
00000000
,
00000000
00000001
00001000
00000001
,
00000000
00000100
00001000
00010000
,
00000000
00001000
00010000
01000000
,
00000000
10000000
00010000
10000000
,
00000000
10000000
00100000
00010000
,
00001000
00022000
00000000
00000000
,
00033000
00010000
00001000
00000010
,
00000001
00002002
00000000
00000000
,
00003003
00000001
00000000
00000100
,
00000000
00001000
00010000
00100000
,
00000000
10000000
00000000
01000000
,
00000000
00010000
00001000
00000010
,
00000000
00000001
00000000
00000100
,
00000000
00001000
00010000
00100000
,
00000000
10000000
00000000
01000000
,
00000000
00010000
00001000
00000010
,
00000000
00000002
00000000
00000103
,
00000000
00002000
00000000
00013000
,
00000000
00200000
00000000
10300000
,
00000000
02000000
00000000
03010000
,
00000000
00002000
00000000
00003010
,
00000000
00000002
00000000
00000103
,
00000000
00002000
00000000
00013000
,
00000000
02000000
00000000
00000000
,
03000000
10000000
00100000
10000000
,
00100000
02000000
00000000
00000000
,
03000000
00010000
00100000
00010000
,
00100000
00002000
00000000
00000000
,
00003000
00010000
00000010
00010000
,
00000010
00002000
00000000
00000000
,
00003000
00000001
00000010
00000001
,
00000010
00000200
00000000
00000000
,
00000300
00001000
00000001
00001000
,
00000001
00000100
00000100
00001001
,
00001001
00000100
00010000
00001000
,
01000000
00100000
00100000
10010000
,
10010000
20000000
00000000
30020000
,
00000000
20030000
00000000
30010000
,
10000000
20020000
00000000
00000000
,
30030000
10000000
00010000
20020000
,
30030000
10000000
01000000
00100000
,
00010000
00100000
00001000
00010000
,
00000010
00001000
00000010
00000100
,
00000001
00000010
00000100
00000200
,
00000300
00000010
00000001
00000010
,
00000100
00010000
00001000
00010000
,
00001000
00100000
00010000
01000000
,
00100000
10000000
01000000
02000000
,
03000000
10000000
00000000
00010000
,
00000000
01000000
00000000
00001000
,
00001000
00010000
00000000
00000010
,
00000000
00001000
00000000
00000001
,
00000001
00000100
00000000
00000010
,
00000000
00010000
00000000
00001000
,
00001000
00100000
00000000
01000000
,
00000000
10000000
00000000
00010000
,
00000000
10000000
10000000
11000000
,
00000000
00010000
00010000
01010000
,
00000000
00001000
00001000
00001100
,
00000000
00000001
00000001
00000101
,
00000000
00000000
00002002
00000000
,
00000000
00000000
00000000
00000000
,
00000000
00003003
00000000
00000000
,
00000000
00000000
00000000
00000000
;

//---------------dance-double - ----------------
#NOTES:
     dance-double:
     :
     Medium:
     8:
     0.412089,0.508648,0.307108,0.449695,0.000000,263.000000,235.000000,28.000000,41.000000,0.000000,0.000000,0.412089,0.508648,0.307108,0.449695,0.000000,263.000000,235.000000,28.000000,41.000000,0.000000,0.000000:
00000000
00000000
00000000
00000000
,
00000000
00000000
00000000
00000000
,
00000000
00000000
00000000
00000000
,
00000000
00000000
00000000
00000000
,
00000000
00000000
01000000
00000000
10000000
00000000
00010000
01000000
,
00010000
00000000
00100000
00000000
00001000
00000000
00010000
00001000
,
00010000
00000000
00000010
00000000
00001000
00000000
00000100
00000010
,
00000100
00000000
00001000
00000000
00000001
00000000
00000100
00000010
,
00000100
00000000
00001000
00000000
00010000
00000000
01000000
00100000
,
01000000
00000000
00100000
00000000
00010000
00000000
10000000
01000000
,
10000000
00000000
00010000
00000000
01000000
00000000
00001000
00010000
,
00001000
00020000
00030000
00022000
,
00033000
00000000
00001000
00010000
00002000
00000000
00000000
00013000
,
00000000
00000000
00000010
00001000
00000200
00000000
00000000
00001300
,
00000000
00000000
00000001
00000100
00000020
00000000
00000000
00000130
,
00000000
00000000
00000001
00000100
00002000
00000000
00000000
00013000
,
00000000
00000000
01000000
10000000
02000000
00000000
00000000
03100000
,
00000000
00000000
00010000
10000000
00200000
00000000
00000000
01300000
,
00000000
00000000
00001000
00010000
00002000
00000000
00000000
01003000
,
00000000
00000000
00010000
00100000
00020000
00000000
00000000
10030000
,
00000000
00000000
00100000
00000000
00000000
10010000
00000000
00000000
,
01000000
00000000
01000000
00000000
00000000
10010000
00000000
00000000
,
00100000
00000000
00100000
00000000
00000000
00011000
00000000
00000000
,
00000010
00000000
00000010
00000000
00000000
00011000
00000000
00000000
,
00000000
00000000
00000100
00000000
00000000
00001001
00000000
00000000
,
00000010
00000000
00000010
00000000
00000000
00001001
00000000
00000000
,
00000110
00000000
00000110
00000000
00000000
00001001
00000000
00000000
,
00000100
00000200
00000300
00002002
,
00003003
00000000
00000100
00000000
00000100
00000000
00010000
00001000
,
01000000
00020000
00000000
00000000
00100000
00000000
00000000
00130000
,
00000000
00000000
01000000
00000000
01000000
00000000
10000000
00010000
,
00000000
20010000
00000000
00000000
01000000
00000000
00000000
31000000
,
00000000
00000000
00010000
00000000
00010000
00000000
00001000
00010000
,
00000100
00002000
00000000
00000000
00000010
00000000
00000000
00003010
,
00000000
00000000
00000100
00000000
00000100
00000000
00000001
00001000
,
00000000
00001002
00000000
00000000
00000100
00000000
00000000
00000103
,
00000000
00000000
00001001
00000000
00000000
00011000
00000000
00000000
,
10010000
00000000
00000000
01100000
00000000
00000000
11000000
00000000
,
01010000
00000000
10010000
00000000
00000000
00011000
00000000
00000000
,
00001001
00000000
00000000
00000110
00000000
00000000
00000011
00000000
,
00001010
00000000
00000001
00000100
00000000
00000100
00000001
00000000
,
00001000
00000100
00000000
00000100
00001000
00000000
00000010
00000000
,
00010000
00022000
00000000
00000000
,
00033000
02000000
03000000
20020000
,
30030000
00000000
10000000
01000000
00020000
00000000
00000000
00031000
,
00000000
00000000
00000100
00000001
00000020
00000000
00000000
00000130
,
00000000
00000000
00001000
00000001
00000200
00000000
00000000
00001300
,
00000000
00000000
00010000
00100000
20000000
00000000
00000000
30010000
,
00000000
00000000
10000000
01000000
00200000
00000000
00000000
00301000
,
00000000
00000000
00010000
00000100
00002000
00000000
00000000
00003010
,
00000000
00000000
00000100
00000001
00002000
00000000
00000000
00003001
,
00000000
00000000
00000100
00001000
00020000
00000000
00000000
00031000
,
00000000
00000000
00010000
00000000
01000000
00000000
10000000
00100000
,
10000000
00100000
00000000
00000000
01000000
01000000
00010000
20000000
,
00000000
00000000
30010000
00000000
00100000
00000000
01000000
00010000
,
01000000
00010000
00000000
00000000
00001000
00001000
00010000
00000200
,
00000000
00000000
00001300
00000000
00000010
00000000
00000100
00000001
,
00000100
00000001
00000000
00000000
00000010
00000010
00000001
00002000
,
00000000
00000000
00003100
00000000
00010000
00000000
00001000
00010000
,
00001000
00010000
00000000
00000000
00000010
00000010
00000100
00000002
,
00000000
00000000
00001003
00000100
00002000
00000000
00000000
00003010
,
00000000
00000000
00010000
00001000
00020000
00000000
00000000
00031000
,
00000000
00000000
00100000
00010000
00200000
00000000
00000000
01300000
,
00000000
00000000
10000000
00100000
20000000
00000000
00000000
30010000
,
00000000
00000000
20020000
00000000
,
00000000
00000000
00000000
00000000
,
00000000
30030000
00000000
00000000
;

//---------------dance-double - ----------------
#NOTES:
     dance-double:
     :
     Hard:
     12:
     0.590714,0.799305,0.482599,0.307108,0.032904,377.000000,333.000000,44.000000,28.000000,0.000000,0.000000,0.590714,0.799305,0.482599,0.307108,0.032904,377.000000,333.000000,44.000000,28.000000,0.000000,0.000000:
00000000
00000000
00000000
00000000
,
00000000
00000000
00000000
00000000
,
00000000
00000000
00000000
00000000
,
00000000
00000000
00000000
00000000
,
00000000
00000000
00100000
01000000
10000000
00100000
01000000
00001000
,
00010000
00000000
00000100
00000010
00000001
00000100
00000010
00010000
,
00001000
00000000
00000010
00000001
00000100
00000010
00010000
00001000
,
01000000
00000000
00010000
00100000
01000000
10000000
00010000
00100000
,
00001000
00000000
01000000
00100000
10000000
00010000
00100000
00001000
,
00000010
00000001
00000100
00000001
00001000
00000100
00010000
00000100
,
00000010
00000001
00000100
00001000
00010000
00100000
01000000
00010000
,
10000000
00000000
00100000
00000000
02000000
00000000
00000000
00000000
03000000
00000000
00000000
00000000
00001000
00010000
00001000
00010000
,
00001000
00100000
01000000
00100000
00001000
00010000
00000010
00000100
,
00000000
00000001
00000010
00000100
00000010
00000001
00001000
00000100
,
00000000
00010000
00000010
00000100
00001000
00000100
00000001
00000010
,
00000000
00001000
00100000
00010000
01000000
00100000
10000000
00010000
,
00000000
10000000
01000000
10000000
00100000
01000000
00001000
00010000
,
00000000
01000000
10000000
00100000
00010000
00001000
00000010
00000001
,
00000000
00000100
00010000
00000100
00000010
00001000
00000100
00010000
,
00000000
00001000
00100000
00010000
01000000
00100000
10000000
00010000
,
00100000
01000000
20000000
00000000
00000000
30010000
00000000
01000000
,
00001000
00010000
00000020
00000000
00000000
00000130
00000000
00000001
,
00001000
00000100
00020000
00000000
00000000
01030000
00000000
10000000
,
00100000
00010000
00002000
00000000
00000000
00003100
00000000
00000001
,
00000010
00000100
00000020
00000000
00000000
00001030
00000000
00000010
,
00000001
00000100
00002000
00000000
00000000
00013000
00000000
00100000
,
10000000
01000000
00200000
00000000
00000000
10300000
00000000
00100000
,
00001000
00000000
00010000
00000000
00002000
00000000
00000000
00000000
00013000
00000000
00000000
00000000
00001000
00010000
00001000
00010000
,
00001000
01000000
00100000
10000000
00010000
00100000
00001000
00100000
,
01000000
20000000
00000000
00000000
30010000
00000000
00000000
10010000
,
00000000
00000000
00100000
01000000
00001000
00100000
00010000
01000000
,
00001000
00000200
00000000
00000000
00000310
00000000
00000000
00000110
,
00000000
00000000
00001000
00000001
00000010
00001000
00010000
00100000
,
01000000
00020000
00000000
00000000
10030000
00000000
00000000
10010000
,
00000000
00000000
01000000
00100000
00001000
00000010
00000100
00001000
,
00000010
00000200
00000000
00000000
00000310
00000000
00000000
00000110
,
00000000
00000000
00000101
00000000
00000000
00001010
00000000
00000000
,
00011000
00000000
00000000
00110000
00000000
00000000
11000000
00000000
,
01010000
00000000
11000000
00000000
00000000
00110000
00000000
00000000
,
00011000
00000000
00000000
00001010
00000000
00000000
00000101
00000000
,
00001100
00000000
00001001
00001100
00000000
00010100
00011000
00000000
,
00011000
01001000
00000000
01010000
10010000
00000000
01100000
00000000
,
10010000
20020000
00000000
00000000
,
30030000
00000000
00000000
00000000
00100000
00000000
00000000
00000000
01000000
00000000
00000000
00000000
10000000
00010000
10000000
00010000
,
10000000
01000000
01000000
00100000
00020000
00000000
00000000
01030000
,
00000000
00000000
00100000
10000000
02000000
00000000
00000000
03010000
,
00000000
00000000
00001000
00000100
00000001
00000020
00000000
00000130
,
00000000
00000000
00001000
00000010
00010000
00002000
00000000
00003100
,
00000000
00000000
00000001
00000010
00000100
00010000
00001000
00010000
,
00000000
00000000
00001000
00000100
00000010
00000100
00001000
00010000
,
00000000
00000000
00100000
01000000
00100000
10000000
01000000
00100000
,
00000000
00000000
00010000
00100000
01000000
10000000
00100000
10000000
,
00000000
00000000
11000000
00000000
01010000
00000000
10000000
00100000
,
01000000
00001000
00010000
00000010
00001000
00000001
00000100
00000020
,
00000000
00000030
00000101
00000000
00001100
00000000
00000001
00000010
,
00000001
00000100
00000010
00010000
00001000
00000100
00000010
00020000
,
00000000
00030000
00011000
00000000
00011000
00000000
00001000
00010000
,
01000000
10000000
00100000
01000000
00010000
00100000
00001000
00020000
,
00000000
00030000
00011000
00000000
00011000
00000000
00010000
00001000
,
00000010
00000100
00001000
00000001
00000010
00000100
00001000
00000020
,
00000000
00000000
00000130
00000000
00001001
00000000
00000000
00000201
,
00000000
00000000
00001300
00000000
00011000
00000000
00000000
00021000
,
00000000
00000000
01030000
00000000
11000000
00000000
00000000
10200000
,
00000000
00000000
00310000
00000000
00011000
00000000
00000000
00011000
,
00000000
00000000
00022000
00000000
,
00000000
00000000
00000000
00000000
,
00000000
00033000
00000000
00000000
;

//---------------dance-single - ----------------
#NOTES:
     dance-single:
     :
     Challenge:
     17:
     1.009071,1.089961,1.689097,0.559376,0.268720,644.000000,490.000000,154.000000,51.000000,0.000000,0.000000,1.009071,1.089961,1.689097,0.559376,0.268720,644.000000,490.000000,154.000000,51.000000,0.000000,0.000000:
// measure 0
0000
0000
0000
0000
,  // measure 1
0000
0000
0000
0000
,  // measure 2
0000
0000
0000
0000
,  // measure 3
0000
0000
0000
0000
,  // measure 4
0000
0000
0000
0000
1000
0100
0010
0000
0001
0000
0010
0000
0100
0000
2002
0000
,  // measure 5
0000
0000
3003
0000
0001
0010
0100
0000
1000
0000
0010
0000
0100
0000
0201
0000
,  // measure 6
0010
0000
0310
0000
1000
0001
0010
0000
0100
0000
1000
0000
0010
0000
0220
0000
,  // measure 7
0000
0000
0330
0000
0001
1000
0100
0000
0010
0000
0001
0000
1000
0000
1020
0000
,  // measure 8
0100
0000
0130
0000
0001
0010
0100
0000
1100
0000
1000
0000
0001
0000
0101
0000
,  // measure 9
0100
0000
0010
0000
1000
0001
0010
0000
0011
0000
0010
0000
0100
0000
1100
0000
,  // measure 10
1000
0000
0001
0000
0100
0010
1000
0000
1001
0000
0001
0000
0010
0000
0110
0000
,  // measure 11
0000
0000
2002
0000
0000
0000
0000
0000
3003
0000
0000
0000
0001
1000
0001
1000
,  // measure 12
0001
1001
1000
0100
0010
0100
1000
0010
,  // measure 13
0000
0100
0001
1000
0001
0010
0100
1000
,  // measure 14
0000
0001
0100
0001
1000
0010
0001
0010
,  // measure 15
0000
0100
1000
0100
0001
0010
0100
0010
,  // measure 16
0000
0001
0100
0010
0110
0010
1000
0001
,  // measure 17
1001
1000
0100
0010
0110
0010
0001
0100
,  // measure 18
0101
0100
1000
0100
0110
0010
1000
0001
,  // measure 19
0011
0010
1000
0010
0110
0100
1000
1000
,  // measure 20
0001
0001
1002
0100
0103
0101
0100
0010
,  // measure 21
1010
1000
2001
0100
3100
1100
0100
0010
,  // measure 22
0011
0001
0201
0010
0310
1010
1000
0001
,  // measure 23
1001
1000
1200
0010
0310
0011
0001
1000
,  // measure 24
0100
0010
1001
0010
0100
1001
0100
0010
,  // measure 25
1000
0001
0110
0001
1000
0110
1000
0001
,  // measure 26
1000
0100
0011
0001
0100
1010
1000
0100
,  // measure 27
0010
0000
0001
0000
2002
0000
0000
0000
0000
0000
3003
0000
1000
0010
1000
0010
,  // measure 28
1000
0000
1000
0100
0010
0000
0001
0000
1000
0000
0001
0000
0101
0000
0100
0000
,  // measure 29
0110
2010
0000
3100
1100
0000
1001
2002
,  // measure 30
0000
3003
0011
0010
0100
1000
1001
0010
,  // measure 31
1010
0102
0000
0013
0011
0000
1001
2002
,  // measure 32
0000
0000
3003
0000
1000
0100
0010
0000
0001
0000
1000
0000
0001
0100
0010
0000
,  // measure 33
1000
2100
0100
3100
0011
0001
0101
1010
,  // measure 34
0000
0000
1010
0000
1000
0100
0010
0000
0001
0000
1000
0000
0010
0100
0001
0000
,  // measure 35
0010
0021
0100
0130
1100
1000
1001
0110
,  // measure 36
0001
0100
0010
0000
1020
0000
1000
0000
0130
0000
1200
0000
1000
0000
0310
0000
,  // measure 37
0021
0001
0130
0201
0001
0310
1010
1000
,  // measure 38
1001
0000
0000
0000
1100
0000
1000
0010
0100
0000
0101
0000
0001
1000
0100
0000
,  // measure 39
0110
0000
0010
0001
0100
0000
0110
0000
0010
1000
0100
0000
0110
0000
0010
0000
,  // measure 40
1001
0000
1010
0210
0301
0011
0210
1300
,  // measure 41
1010
0021
0031
0101
1200
1300
1001
0100
,  // measure 42
0110
0000
1001
0000
0001
1000
0000
1000
,  // measure 43
0001
0000
0000
0000
0011
0000
0010
0000
0110
0000
0100
0000
1000
0001
0100
0010
,  // measure 44
1000
1000
1001
0001
0101
0100
0010
1010
,  // measure 45
0010
0000
1000
0100
0010
0000
0001
0000
0011
0000
0001
0000
0100
0000
0110
0000
,  // measure 46
0010
1000
0001
0010
0100
0000
1000
0000
1010
0000
0010
0000
0100
0000
0101
0000
,  // measure 47
0001
0000
1000
0100
0010
0000
0001
0000
1001
0000
1000
0000
0010
0000
0110
0000
,  // measure 48
0010
1000
0001
0010
0100
0000
1000
0000
1100
0000
1001
0000
1000
0000
1010
0000
,  // measure 49
1001
0000
0001
0100
0010
0000
1000
0000
1001
0000
0101
0000
0100
0000
0110
0000
,  // measure 50
0010
1000
0001
0010
0100
0000
0010
0000
0110
0000
1010
0000
0010
0000
0110
0000
,  // measure 51
0011
0000
0001
0010
0100
0000
1000
0000
1010
0000
0011
0000
0001
0000
0101
0000
,  // measure 52
1000
0100
0010
0001
1002
0000
1003
0000
2010
0000
3010
0000
0120
0000
0130
0000
,  // measure 53
0101
0011
1001
0100
1010
1001
1100
0022
,  // measure 54
0000
0033
0102
0103
0210
0310
1020
1030
,  // measure 55
1100
0110
0011
0001
0101
0110
1010
2001
,  // measure 56
0100
3100
0012
0103
2010
3100
0012
0103
,  // measure 57
0110
1010
1001
0010
0110
1100
1010
0202
,  // measure 58
0000
0303
1200
0310
0201
0310
2100
3010
,  // measure 59
1001
0101
0110
1000
1100
0101
1100
1002
,  // measure 60
0100
0000
0103
0000
0010
1000
0001
0000
1001
0000
0000
0000
0010
0000
0120
0000
,  // measure 61
0000
0000
0000
0000
0031
0100
1000
0000
0110
0000
1000
0100
0001
0000
0110
0000
,  // measure 62
0000
0000
0011
0000
1000
0010
0001
0010
1000
0000
1000
0100
0000
0100
0010
0000
,  // measure 63
0001
0100
0010
0100
0001
0000
1000
0100
0010
0000
1001
0000
0010
0100
1000
0100
,  // measure 64
0001
0100
1000
0100
0000
0000
0000
0000
2002
0000
0000
0000
0000
0000
0000
0000
,  // measure 65
0000
0000
0000
0000
,  // measure 66
0000
3003
0000
0000
;

//---------------dance-double - ----------------
#NOTES:
     dance-double:
     :
     Challenge:
     17:
     0.969899,1.089961,1.491670,0.625185,0.252268,619.000000,483.000000,136.000000,57.000000,0.000000,0.000000,0.969899,1.089961,1.491670,0.625185,0.252268,619.000000,483.000000,136.000000,57.000000,0.000000,0.000000:
00000000
00000000
00000000
00000000
,
00000000
00000000
00000000
00000000
,
00000000
00000000
00000000
00000000
,
00000000
00000000
00000000
00000000
,
00000000
00000000
00000000
00000000
00000001
00000010
00000100
00000000
00001000
00000000
00000010
00000000
00000100
00000000
00000202
00000000
,
00000000
00000000
00000303
00000000
00001000
00000010
00010000
00000000
00001000
00000000
00100000
00000000
01000000
00000000
20000000
00000000
,
00010000
00000000
30010000
00000000
10000000
01000000
00100000
00000000
00010000
00000000
01000000
00000000
00100000
00000000
20200000
00000000
,
00000000
00000000
30300000
00000000
00010000
00100000
00001000
00000000
00010000
00000000
00000010
00000000
00000100
00000000
00000002
00000000
,
00001000
00001003
00000100
00000010
00000011
00000001
00000010
00001010
,
00001000
00010000
00011000
00000000
01001000
01000000
00100000
10100000
,
00100000
00010000
00110000
00000000
00011000
00010000
00001000
00200000
,
00000000
00000000
02000000
00000000
00000000
00000000
00000000
00000000
03300000
00000000
00000000
00000000
00010000
00001000
00010000
00001000
,
00010000
00100000
10000000
01000000
00100000
10000000
00010000
01000000
,
00000000
00001000
00010000
00100000
00001000
00010000
00000010
00000100
,
00000000
00010000
00001000
00000010
00000100
00000001
00000010
00010000
,
00000000
00001000
00000100
00010000
01000000
10000000
00100000
00010000
,
00000000
00001000
00100000
00010000
10010000
10000000
01000000
00100000
,
01100000
00100000
00001000
00010000
00011000
00001000
00000100
00000010
,
00001010
00001000
00000001
00000010
00000011
00000010
00001000
00000010
,
00000110
00000100
00010000
00001000
00011000
00010000
00100000
00100000
,
01000000
01000000
20010000
01000000
31000000
10020000
01000000
01030000
,
00100000
00010000
00021000
00000100
00030100
00012000
01000000
01003000
,
00001000
00010000
00010020
00000100
00000130
00020010
00001000
00031000
,
00000010
00000001
00000012
00000100
00000103
00002010
00000100
00003100
,
00000010
00000001
00000101
00000100
00000010
00001010
00001000
00010000
,
01000000
10000000
11000000
01000000
00100000
00110000
00010000
00001000
,
00100000
01000000
01010000
00010000
00001000
00001010
00000010
00000001
,
00001000
00000000
00000010
00000000
00000220
00000000
00000000
00000000
00000000
00000000
00000330
00000000
00001000
00000001
00001000
00000001
,
00001000
00000000
00000010
00000100
00000001
00000000
00001000
00000000
00000010
00000000
00001000
00000000
00001100
00000000
00010000
00000000
,
00011000
00201000
00000000
00310000
01010000
00000000
10010000
20020000
,
00000000
30030000
10100000
01000000
00010000
01000000
00110000
00001000
,
00011000
00010020
00000000
00001030
00001100
00000000
00001001
00002002
,
00000000
00000000
00003003
00000000
00000100
00000001
00000010
00000000
00001000
00000000
00000010
00000000
00000100
00010000
00001000
00000000
,
00100000
00210000
01000000
01300000
11000000
10000000
10010000
02020000
,
00000000
00000000
03030000
00000000
00100000
10000000
01000000
00000000
00010000
00000000
01000000
00000000
00100000
00001000
00010000
00000000
,
00000010
00001020
00000100
00000130
00000101
00000001
00000011
00001001
,
00001000
00000010
00000100
00000000
00000201
00000000
00000001
00000000
00000310
00000000
00020010
00000000
00000010
00000000
00031000
00000000
,
00102000
00100000
01003000
02010000
00010000
03100000
10100000
00000000
,
10010000
00000000
00000000
00000000
11000000
00000000
10000000
01000000
00100000
00000000
00110000
00000000
00010000
00001000
00000100
00000000
,
00001100
00000000
00000100
00000010
00000001
00000000
00000101
00000000
00000100
00000010
00001000
00000000
00001100
00000000
00001000
00000000
,
00001001
00000000
00000101
00000021
00001030
00011000
00021000
00130000
,
10100000
12000000
03010000
00011000
00012000
00003010
00000110
00000001
,
00001001
00000000
00000110
00000000
00010000
00001000
00000000
00001000
,
00010000
00000000
00000000
00000000
00100000
00000000
10000000
00000000
01000000
00000000
10000000
00000000
00100000
01000000
00100000
01000000
,
00100000
10000000
10100000
10000000
10010000
00010000
00100000
01100000
,
10000000
00000000
00100000
01000000
00010000
00000000
00100000
00000000
00101000
00000000
00001000
00000000
00010000
00000000
00010010
00000000
,
00010000
00001000
00010000
00001000
00010000
00000000
00000100
00000000
00001100
00000000
00001000
00000000
00000001
00000000
00000101
00000000
,
00000100
00000000
00000010
00000100
00000010
00000000
00010000
00000000
00010010
00000000
00010000
00000000
00001000
00000000
01001000
00000000
,
01000000
00100000
01000000
00100000
10000000
00000000
00010000
00000000
00110000
00000000
00100000
00000000
00001000
00000000
01001000
00000000
,
00001000
00000000
00010000
00000010
00010000
00000000
00000100
00000000
00001100
00000000
00001000
00000000
00000010
00000000
00000110
00000000
,
00000100
00000001
00000100
00000001
00000100
00000000
00001000
00000000
00011000
00000000
00010000
00000000
00000100
00000000
00000110
00000000
,
00000010
00000000
00001000
00010000
00001000
00000000
01000000
00000000
01010000
00000000
00010000
00000000
00100000
00000000
01100000
00000000
,
01000000
10000000
01000000
00100000
00120000
00000000
10030000
00000000
10020000
00000000
01030000
00000000
01020000
00000000
00130000
00000000
,
00110000
00101000
00011000
00010000
00010010
00001010
00001001
00000202
,
00000000
00000303
00002010
00003001
00002001
00003100
00002100
00003010
,
00001010
00010010
00011000
00001000
00101000
00110000
01100000
21000000
,
00010000
30010000
10020000
01030000
20010000
30100000
10020000
01030000
,
01010000
00001000
00011000
00000010
00001010
00000001
00000101
00002200
,
00000000
00003300
00000012
00000103
00002010
00003100
00000012
00000103
,
00001010
00010010
00011000
00001000
00101000
00110000
10010000
10200000
,
01000000
00000000
01300000
00000000
00010000
10000000
00010000
00000000
10010000
00000000
00000000
00000000
00100000
00000000
01200000
00000000
,
00000000
00000000
00000000
00000000
00301000
00010000
01000000
00000000
00011000
00000000
00010000
00001000
00000010
00000000
00011000
00000000
,
00000000
00000000
00001001
00000000
00000001
00000100
00000010
00000100
00000001
00000000
00001000
00000010
00000000
00001000
00000010
00000000
,
00010000
00000100
00001000
00000100
00010000
00000000
00001000
00010000
00100000
00000000
01000000
00000000
00010000
10000000
00100000
01000000
,
00100000
10000000
00010000
00100000
00000000
00000000
00000000
00000000
02200000
00000000
00000000
00000000
00000000
00000000
00000000
00000000
,
00000000
00000000
00000000
00000000
,
00000000
03300000
00000000
00000000
;
