#TITLE:Electrified;
#SUBTITLE:;
#ARTIST:SySF.;
#TITLETRANSLIT:;
#SUBTITLETRANSLIT:;
#ARTISTTRANSLIT:;
#GENRE:;
#CREDIT:;
#BANNER:Electrified.png;
#BACKGROUND:Electrified-bg.png;
#LYRICSPATH:;
#CDTITLE:;
#MUSIC:Electrified.ogg;
#OFFSET:0.000000;
#SAMPLESTART:63.439999;
#SAMPLELENGTH:15.000000;
#SELECTABLE:YES;
#DISPLAYBPM:140.000000;
#BPMS:0.000000=140.078003
,4.000000=139.994003
,212.000000=140.078003
;
#STOPS:
;
#BGCHANGES:;
#KEYSOUNDS:;
#ATTACKS:;

//---------------dance-single - ----------------
#NOTES:
     dance-single:
     :
     Beginner:
     3:
     0.152071,0.161977,0.000000,0.000000,0.000000,104.000000,104.000000,0.000000,0.000000,0.000000,0.000000,0.152071,0.161977,0.000000,0.000000,0.000000,104.000000,104.000000,0.000000,0.000000,0.000000,0.000000:
0000
0000
0000
0000
,
0000
0000
0000
0000
,
0000
0000
0000
0000
,
0010
0000
0000
0000
,
0100
0000
0000
0000
,
0001
0000
0000
0000
,
1000
0000
0000
0000
,
0001
0001
0000
0000
,
1000
1000
0000
0000
,
0100
0000
1000
0000
,
0010
0000
0001
0000
,
1000
1000
0000
0000
,
0010
0010
0000
0000
,
0001
0000
0010
0000
,
0001
0000
0100
0000
,
1000
1000
0000
0000
,
0001
0001
0000
0000
,
0010
0000
0100
0000
,
0100
0000
0001
0000
,
0010
0000
0100
0000
,
1000
1000
1000
0000
,
0010
0000
0100
0000
,
0001
0000
1000
0000
,
0001
0000
0100
0000
,
0001
0001
0001
0000
,
0010
0000
0100
0000
,
0010
0000
0001
0000
,
0010
0000
1000
0000
,
0001
0001
0001
0000
,
0010
0000
0100
0000
,
0010
0000
0001
0000
,
0010
0000
0100
0000
,
1000
1000
1000
0000
,
0010
0000
0000
0000
,
0100
0000
0000
0000
,
0001
0000
1000
0000
,
0001
0001
0001
0000
,
0100
0000
0001
0000
,
0010
0000
0100
0000
,
0001
0000
0100
0000
,
0010
0010
0010
0000
,
0001
0000
1000
0000
,
0001
0000
1000
0000
,
0010
0000
0001
0000
,
1000
1000
1000
0000
,
0001
0000
0100
0000
,
1000
0000
0100
0000
,
0010
0000
0100
0000
,
0001
0001
0001
0000
,
0010
0000
0001
0000
,
1000
0000
0010
0000
,
0001
0000
1000
0000
,
0100
0100
0100
0100
,
0000
0000
0000
0000
;

//---------------dance-single - ----------------
#NOTES:
     dance-single:
     :
     Easy:
     4:
     0.214946,0.215969,0.000000,0.020471,0.000000,147.000000,147.000000,0.000000,2.000000,0.000000,0.000000,0.214946,0.215969,0.000000,0.020471,0.000000,147.000000,147.000000,0.000000,2.000000,0.000000,0.000000:
0000
0000
0000
0000
,
0000
0000
0000
0000
,
0000
0000
0000
0000
,
1000
1000
1000
0000
,
0001
0001
0001
0000
,
0100
0100
0100
0000
,
0010
0000
0010
0000
,
1000
1000
1000
0000
,
0001
0001
0001
0000
,
0010
0000
0100
0000
,
1000
0001
1000
0000
,
0001
0001
0001
0000
,
1000
1000
1000
0000
,
1000
0000
0100
0000
,
0010
0100
0010
0000
,
0001
0001
0001
0000
,
1000
1000
1000
0000
,
0100
0000
0010
0000
,
0010
0100
1000
0000
,
1000
1000
0001
0001
,
1000
0001
1000
0000
,
0100
0000
0010
0000
,
1000
0100
0001
0000
,
0010
0010
0100
0100
,
0010
0100
0010
0000
,
0100
0010
0100
0000
,
0010
0001
0010
0000
,
0100
1000
0100
0000
,
0010
0100
0010
0000
,
1000
0001
1000
0000
,
0100
0001
0100
0000
,
0010
0100
0010
0000
,
0001
0010
0001
0000
,
0200
0000
0000
0000
,
0020
0000
0000
0330
,
1000
0000
0001
0000
,
1000
1000
1000
0000
,
0001
0010
0001
0000
,
1000
0001
0010
0000
,
1000
1000
0001
0001
,
0100
0010
0100
0000
,
1000
0010
1000
0000
,
0001
1000
0001
0000
,
0100
0100
0010
0010
,
1000
0001
1000
0000
,
1000
0100
0001
0000
,
1000
0010
1000
0000
,
0100
0100
0010
0010
,
0001
0010
0001
0000
,
0001
0100
1000
0000
,
0001
1000
0100
0000
,
0001
0001
1000
1000
,
0100
0100
0010
0010
,
0000
0000
0000
0000
;

//---------------dance-single - ----------------
#NOTES:
     dance-single:
     :
     Medium:
     6:
     0.326074,0.323954,0.143297,0.010236,0.000000,223.000000,209.000000,14.000000,1.000000,0.000000,0.000000,0.326074,0.323954,0.143297,0.010236,0.000000,223.000000,209.000000,14.000000,1.000000,0.000000,0.000000:
0000
0000
0000
0000
,
0000
0000
0000
0000
,
0000
0000
0000
0000
,
0010
1000
0100
0000
,
0010
0001
0100
0000
,
1000
1000
0001
0001
,
0010
0100
1000
0100
,
0001
0100
0001
0000
,
1000
0100
1000
0010
,
0100
0001
0010
1000
,
0010
0100
0001
0110
,
1000
0000
1000
0000
0100
0010
0100
0000
,
0001
0000
0001
0000
1000
0010
1000
0000
,
0001
1000
0100
1000
,
0001
0010
0100
1001
,
0010
0000
0010
0000
1000
0100
1000
0000
,
0001
0000
0001
0000
0100
0010
0100
0000
,
0010
1000
0100
1000
,
0010
0000
1000
0000
0001
0100
0001
0000
,
0010
1100
0010
0101
,
1000
0001
1000
0110
,
0010
0001
0100
0010
,
0001
0000
0010
0000
1000
0100
1000
0000
,
0001
0110
1000
0110
,
0001
1000
0010
1001
,
0010
0000
0100
0000
0010
0010
0010
0000
,
0100
0000
1000
0000
0001
0001
0001
0000
,
0010
0000
0001
0000
1000
1000
1000
0000
,
0001
0010
0100
1001
,
0100
0000
0010
0000
0100
0100
0100
0000
,
0010
0000
1000
0000
0001
0001
0001
0000
,
0100
0000
0010
0000
0100
0100
0100
0000
,
1000
0100
0010
1001
,
0020
0000
0000
0000
,
0100
0000
0100
0030
,
0010
0001
0100
1000
,
0001
0000
1000
0000
0010
0100
0010
0000
,
1000
0100
0001
0010
,
0001
0000
1000
0000
0100
0010
0100
0000
,
0001
0010
0100
1000
,
0010
1000
0001
0110
,
0001
0100
1000
0010
,
1000
0000
0001
0000
1000
0100
1000
0000
,
0010
1000
0001
0010
,
0001
0100
1000
0110
,
0001
0010
1000
0010
,
0001
0000
0100
0000
0001
1000
0001
0000
,
0010
0100
0010
0001
,
1000
0100
1000
0110
,
1000
0010
0001
0100
,
1000
0000
0001
0000
0010
0100
0010
0000
,
1000
0100
1000
0001
,
0010
0100
0001
1001
,
0000
0000
0000
0000
;

//---------------dance-single - ----------------
#NOTES:
     dance-single:
     :
     Hard:
     10:
     0.440127,0.432451,0.286595,0.092120,0.061413,301.000000,273.000000,28.000000,9.000000,0.000000,0.000000,0.440127,0.432451,0.286595,0.092120,0.061413,301.000000,273.000000,28.000000,9.000000,0.000000,0.000000:
0000
0000
0000
0000
,
0000
0000
0000
0000
,
0000
0000
0000
0000
,
1000
0000
0000
0010
0000
0000
1000
0000
0000
0000
0001
0000
0100
0000
0000
0000
,
0010
0000
0000
0100
0000
0000
0010
0000
0000
0000
1000
0000
0100
0000
0000
0000
,
1000
0000
0000
0001
0000
0000
1000
0000
0000
0000
0001
0000
1000
0000
0000
0000
,
0010
0000
0000
0000
0100
0000
0000
0001
0000
0000
1000
0000
0100
0000
0000
0000
,
0010
0000
0000
0100
0000
0000
0010
0000
0000
0000
0100
0000
1000
0000
0000
0000
,
0010
0000
0000
0100
0000
0000
0010
0000
0000
0000
0100
0000
0001
0000
0000
0000
,
0110
0000
1001
0000
1000
0100
0001
0100
,
0000
0010
0100
0000
1000
0000
0110
0000
,
0001
0000
1100
0000
0010
1000
0100
1000
,
0000
0001
0100
0010
0000
0100
0001
0000
,
1100
0000
0101
0000
0010
0100
0001
1000
,
0000
0001
0010
0000
0100
0000
1001
0000
,
0010
0000
0101
0000
0001
0100
1000
0100
,
0000
0001
1000
0010
0000
0100
0001
0000
,
0010
0000
0001
1000
0100
0000
0010
0001
,
0100
0001
0010
0000
1000
0000
0100
0000
,
0011
0000
1001
0000
0101
0000
1000
0100
,
0001
0000
0100
0000
1000
0000
0000
0000
0001
1000
0000
0000
1001
0000
0000
0000
,
0010
0000
1000
0001
0100
0000
0010
1000
,
0100
1000
0010
0000
0001
0000
0100
0000
,
1010
0000
1001
0000
1100
0000
0001
0100
,
1000
0000
0100
0000
0001
0000
0000
0000
0010
0100
0000
0000
1001
0000
0000
0000
,
0010
0001
0100
0001
0020
0000
0031
0010
,
0100
0010
0002
0000
0103
0010
1000
0010
,
0200
0000
0301
1000
0100
1000
0002
0000
,
0013
0000
0000
0100
0010
0000
0001
0000
0100
0000
0000
0000
1010
0000
0000
0000
,
0100
0001
0010
0001
0200
0000
0301
0100
,
0010
0100
0002
0000
0013
0100
1000
0100
,
0020
0000
0031
1000
0010
1000
0002
0000
,
0103
0000
0000
0010
0100
0000
0001
0000
0010
0000
0000
0000
1100
0000
0000
0000
,
0020
0000
0000
0000
,
0100
1000
0100
0031
,
0010
1100
0010
0101
,
1000
0010
0001
0010
1000
0100
0001
0000
,
0001
0000
0100
0010
1000
0000
0100
1000
,
0000
0101
0000
1100
0000
0010
0100
0000
,
1000
0001
0010
0000
0100
0010
0001
0100
,
0000
0010
0001
1000
0000
0100
0010
0000
,
1000
0000
0100
0010
0001
0000
0100
1000
,
0000
1001
0000
0110
0000
0001
0010
0000
,
0100
1000
0001
0000
1000
0010
0100
0001
,
0000
1000
0010
1000
0000
0001
0100
0000
,
1000
0000
0010
0100
0001
0000
0010
0001
,
0000
1100
0000
1010
0000
0100
0010
0000
,
0001
1000
0100
0000
0010
0100
1000
0010
,
0000
0100
1000
0001
0000
0010
0100
0000
,
0001
0000
0100
0010
1000
0000
0001
0010
,
0000
1100
0000
0101
0000
1000
0100
0000
,
0010
1000
0100
0000
0010
0001
1000
0010
,
0000
0000
0001
0000
0100
0000
0000
0000
1000
0001
0000
0000
0001
1000
0000
0000
;

//---------------dance-double - ----------------
#NOTES:
     dance-double:
     :
     Easy:
     5:
     0.261737,0.269962,0.010236,0.020471,0.000000,179.000000,178.000000,1.000000,2.000000,0.000000,0.000000,0.261737,0.269962,0.010236,0.020471,0.000000,179.000000,178.000000,1.000000,2.000000,0.000000,0.000000:
00000000
00000000
00000000
00000000
,
00000000
00000000
00000000
00000000
,
00000000
00000000
00000000
00000000
,
00000001
00000010
00000100
00000000
,
00001000
00000010
00000100
00000000
,
00001000
00001000
00010000
00010000
,
00100000
10000000
01000000
10000000
,
00010000
10000000
01000000
00000000
,
00100000
01000000
10000000
00000000
,
00010000
00001000
00000010
00000100
,
00001000
00000001
00001000
00000000
,
00000100
00000100
00001000
00001000
,
00010000
00010000
01000000
01000000
,
10000000
00100000
01000000
01000000
,
00010000
00100000
01000000
00000000
,
00010000
00010000
00001000
00001000
,
00000010
00000010
00000001
00000001
,
00001000
00000001
00000100
00000010
,
00001000
00010000
01000000
00000000
,
00010000
00100000
00010000
01000000
,
00100000
10000000
00010000
00000000
,
00100000
00010000
00001000
00000100
,
00000010
00000001
00001000
00000000
,
00000001
00000001
00000100
00000100
,
00001000
00010000
00001000
00000000
,
00010000
00100000
01000000
01000000
,
00010000
10000000
01000000
01000000
,
00010000
00001000
00000010
00000001
,
00000100
00000010
00000100
00000000
,
00000001
00000100
00001000
00001000
,
00010000
01000000
10000000
10000000
,
00100000
10000000
01000000
10000000
,
00010000
01000000
00100000
00010000
,
00022000
00000000
00000000
00000000
,
00000000
00000000
00000000
00033000
,
00001000
00001000
00000100
00000100
,
00000010
00001000
00000100
00000000
,
00000010
00000001
00001000
00000100
,
00000010
00001000
00010000
00100000
,
10000000
10000000
00010000
00010000
,
01000000
00100000
01000000
00000000
,
10000000
01000000
00010000
00001000
,
00010000
00100000
00010000
00001000
,
00000010
00000010
00000100
00000100
,
00001000
00000001
00001000
00000000
,
00000010
00000100
00001000
00010000
,
00100000
01000000
00010000
00100000
,
01000000
01000000
00100000
00100000
,
00001000
00010000
00001000
00000000
,
00010000
01000000
10000000
00100000
,
00010000
00001000
00000100
00000010
,
00001000
00001000
00000001
00000001
,
00000010
00001000
00010000
00001000
,
00000000
00000000
00000000
00000000
;

//---------------dance-double - ----------------
#NOTES:
     dance-double:
     :
     Medium:
     6:
     0.331923,0.350950,0.214946,0.010236,0.000000,227.000000,206.000000,21.000000,1.000000,0.000000,0.000000,0.331923,0.350950,0.214946,0.010236,0.000000,227.000000,206.000000,21.000000,1.000000,0.000000,0.000000:
00000000
00000000
00000000
00000000
,
00000000
00000000
00000000
00000000
,
00000000
00000000
00000000
00000000
,
01000000
10000000
00100000
00010000
,
00001000
00010000
00001000
00000100
,
00000001
00000001
00001000
00001000
,
00000001
00000100
00001000
00010000
,
00100000
10000000
01000000
00010000
,
00000100
00010000
00001000
00011000
,
00000010
00000001
00000100
00000010
,
00000100
00001000
00010000
00100000
,
10000000
01010000
00100000
00011000
,
00000100
00001010
00000001
00000110
,
00001000
00000001
00000010
00000100
,
00000010
00001000
00010000
01000000
,
00100000
10010000
00100000
01010000
,
00001000
00011000
00000010
00001001
,
00000010
00000001
00001000
00000010
,
00000100
00000000
00001000
00000000
00010000
00001000
00010000
00000000
,
00100000
10000000
01000000
00010000
,
00001000
00010000
00001000
00000000
00000100
00000000
00001001
00000000
,
00000001
00000010
00001000
00010000
,
00100000
00000000
10000000
00000000
00010000
00100000
00010000
00000000
,
10000000
01000000
00100000
01000000
,
00010000
00001000
00010000
00000000
00000010
00000000
00001001
00000000
,
00000100
00000010
00000001
00001010
,
00000100
00001000
00010000
00011000
,
01000000
10000000
00100000
00010000
,
00001000
00000000
00010000
00001000
00010000
00000000
00001100
00000000
,
00000010
00000100
00001000
00011000
,
01000000
10000000
00100000
01010000
,
10000000
00100000
10000000
01000000
,
00010000
00000000
00001000
00010000
00001000
00000000
00011000
00000000
,
00000200
00000000
00000000
00000000
,
00000010
00000000
00000010
00000300
,
00000100
00000001
00000010
00001000
,
00010000
00000000
00100000
00000000
10000000
00010000
10000000
00000000
,
00010000
01000000
00100000
00010000
,
00001000
00000000
00000010
00000000
00000001
00000100
00000001
00000000
,
00001000
00000100
00000010
00000001
,
00000100
00001000
00010000
00011000
,
00100000
10000000
00010000
01000000
,
00010000
00000000
00100000
00000000
00001000
00010000
00001000
00000000
,
00000100
00000001
00001000
00000010
,
00000100
00000001
00000010
00001100
,
00010000
01000000
00100000
10000000
,
01000000
00000000
00010000
00000000
00001000
00010000
00001000
00000000
,
00000100
00000010
00001000
00000001
,
00000010
00000100
00010000
00011000
,
00100000
10000000
01000000
00010000
,
00001000
00000000
00000100
00000000
00000001
00001000
00000001
00000000
,
00000100
00000001
00000010
00001000
,
00010000
00100000
10000000
01010000
,
00000000
00000000
00000000
00000000
;

//---------------dance-double - ----------------
#NOTES:
     dance-double:
     :
     Hard:
     11:
     0.432816,0.405423,0.102355,0.030707,0.163768,296.000000,286.000000,10.000000,3.000000,0.000000,0.000000,0.432816,0.405423,0.102355,0.030707,0.163768,296.000000,286.000000,10.000000,3.000000,0.000000,0.000000:
00000000
00000000
00000000
00000000
,
00000000
00000000
00000000
00000000
,
00000000
00000000
00000000
00000000
,
00001000
00000000
00000000
00010000
00000000
00000000
01000000
00000000
00000000
00000000
00010000
00000000
00001000
00000000
00000000
00000000
,
00000100
00000000
00000000
00001000
00000000
00000000
00010000
00000000
00000000
00000000
00100000
00000000
10000000
00000000
00000000
00000000
,
01000000
00000000
00000000
01000000
00000000
00000000
01000000
00000000
00000000
00000000
00100000
00000000
01000000
00000000
00000000
00000000
,
00010000
00000000
00000000
00000000
00001000
00000000
00000000
00000100
00000000
00000000
00000010
00000000
00000100
00000000
00000000
00000000
,
00001000
00000000
00000000
00010000
00000000
00000000
00100000
00000000
00000000
00000000
00010000
00000000
00001000
00000000
00000000
00000000
,
00000010
00000000
00000000
00001000
00000000
00000000
00010000
00000000
00000000
00000000
01000000
00000000
10000000
00000000
00000000
00000000
,
10100000
00000000
01010000
00000000
10000000
01000000
00010000
00001000
,
00000000
00000010
00000001
00000000
00001000
00000010
00000100
00000000
,
00001000
00000000
00001000
00000000
00010000
00000010
00001000
00000000
,
00000100
00000000
00000100
00000000
00010000
00001000
00010000
00000000
,
01001000
00000000
00010010
00000000
00000100
00001000
00000010
00010000
,
00000000
00100000
01000000
00000000
00010000
00100000
10000000
00000000
,
00010000
00000000
00010000
00000000
00001000
00010000
01000000
00000000
,
10000000
00000000
10000000
00000000
00100000
00010000
00001000
00000000
,
00000010
00000000
00000000
00000000
00000001
00000000
00001000
00000000
00000100
00000000
00000000
00010000
00000000
00000000
00000010
00000000
,
00000100
00000001
00000010
00000000
00001000
00000000
00011000
00000000
,
00020000
00100000
00001000
00130000
,
10000000
00000000
01000000
00000000
00010000
00000000
00000000
00000000
00001000
00010000
00000000
00000000
00011000
00000000
00000000
00000000
,
00000010
00000000
00000000
00000000
00000100
00000000
00001000
00000000
00000010
00000000
00000000
00000100
00000000
00000000
00001000
00000000
,
00010000
00100000
10000000
00000000
01000000
00000000
01010000
00000000
,
00002000
00000010
00010000
00003010
,
00000001
00000000
00000100
00000000
00001000
00000000
00000000
00000000
00000100
00000010
00000000
00000000
00001001
00000000
00000000
00000000
,
00000010
00000000
00000000
00000000
00010000
00000000
00001000
00000000
00100000
00000000
00000000
00100000
00000000
00000000
01000000
00000000
,
10000000
00000000
00000000
00000000
00100000
00000000
00010000
00000000
00001000
00000000
00000000
00001000
00000000
00000000
00000010
00000000
,
00000001
00000000
00000000
00000000
00000001
00000000
00001000
00000000
00000100
00000000
00000000
00000100
00000000
00000000
00001000
00000000
,
00000010
00000000
00000000
00000100
00000001
00000000
00000010
00000000
00001000
00000000
00000000
00000000
00011000
00000000
00000000
00000000
,
01000000
00000000
00000000
00000000
00100000
00000000
00010000
00000000
10000000
00000000
00000000
10000000
00000000
00000000
00100000
00000000
,
01000000
00000000
00000000
00000000
01000000
00000000
00010000
00000000
00001000
00000000
00000000
00001000
00000000
00000000
00000010
00000000
,
00000100
00000000
00000000
00000000
00000001
00000000
00000100
00000000
00001000
00000000
00000000
00001000
00000000
00000000
00010000
00000000
,
01000000
00000000
00000000
00100000
01000000
00000000
10000000
00000000
00100000
00000000
00000000
00000000
01010000
00000000
00000000
00000000
,
00002000
00000000
00000000
00000000
,
00100000
00100000
00010000
00013000
,
00001000
00000100
00000001
00000010
,
00001000
00010000
00100000
00010000
00001000
00010000
01000000
00000000
,
10000000
00000000
01000000
00000000
00100000
00000000
00000000
00010000
10000000
00000000
00100000
00000000
01000000
00000000
00000000
00000000
,
00010000
00000000
00100000
00000000
00001000
00000000
00000000
01000000
00010000
00000000
00100000
00000000
00001000
00000000
00000000
00000000
,
00001000
00000000
00000100
00000000
00000001
00000000
00000000
00001000
00000100
00000000
00000010
00000000
00000001
00000000
00000100
00000000
,
00000000
00001000
00000000
00010000
00000000
00100000
10000000
00000000
,
00010000
00000000
00100000
00000000
01000000
00000000
00000000
10000000
01000000
00000000
00010000
00000000
00001000
00000000
00000000
00000000
,
00000010
00000000
00001000
00000000
00010000
00000000
00000000
00001000
00000100
00000000
00000010
00000000
00001000
00000000
00000000
00000000
,
00000001
00000000
00001000
00000000
00000010
00000000
00000000
00010000
00000100
00000000
00000010
00000000
00000001
00000000
00000100
00000000
,
00000000
00000010
00000100
00001000
00000000
00010000
00001000
00000000
,
00010000
00000000
01000000
00000000
00100000
00000000
00000000
00010000
10000000
00000000
00100000
00000000
00010000
00000000
00000000
00000000
,
00001000
00000000
00000010
00000000
00000001
00000000
00000000
00001000
00000100
00000000
00000010
00000000
00000001
00000000
00000000
00000000
,
00001000
00000000
00000010
00000000
00000100
00000000
00000000
00000001
00000100
00000000
00001000
00000000
00010000
00000000
00100000
00000000
,
00000000
10000000
00000000
01000000
00000000
00100000
00010000
00000000
,
10000000
00000000
00100000
00000000
01000000
00000000
00000000
00100000
10000000
00000000
01000000
00000000
00010000
00000000
00000000
00000000
,
00001000
00000000
00000010
00000000
00000100
00000000
00000000
00000010
00000001
00000000
00001000
00000000
00000010
00000000
00000000
00000000
,
00010000
00000000
00001000
00000000
00000100
00000000
00000000
00000010
00001000
00000000
00010000
00000000
01000000
00000000
10000000
00000000
,
00000000
00000000
01000000
00000000
00010000
00000000
00100000
00000000
00000000
00001000
00010000
00000000
00000100
00001000
00000000
00000000
;

//---------------dance-single - ----------------
#NOTES:
     dance-single:
     :
     Challenge:
     13:
     0.573189,0.675704,0.409421,0.225181,0.337772,392.000000,352.000000,40.000000,22.000000,0.000000,0.000000,0.573189,0.675704,0.409421,0.225181,0.337772,392.000000,352.000000,40.000000,22.000000,0.000000,0.000000:
0000
0000
0000
0000
,
0000
0000
0000
0000
,
0000
0000
0000
0000
,
0100
0000
0000
0100
0000
0000
0200
0000
0000
0000
0000
0000
0000
0000
0300
0000
,
0010
0000
0000
0010
0000
0000
0020
0000
0000
0000
0100
0000
0000
0000
0030
0000
,
0002
0000
0000
0020
0003
0000
2000
0030
0000
0000
3020
0000
0000
0000
0030
0000
,
0001
0000
0000
1000
0010
0000
1000
0010
0000
0000
0100
0000
0000
0001
0000
0000
,
1000
0000
0000
1000
0000
0000
2000
0000
0000
0000
0000
0000
0000
0000
3000
0000
,
0001
0000
0000
0001
0000
0000
0002
0000
0000
0000
1003
0100
0010
0000
0000
0000
,
1001
0000
0110
0000
0001
0100
1000
0100
,
0000
0010
1000
0010
0000
1000
0100
0010
,
0011
0000
1100
0000
0001
0010
1000
0010
,
0000
0001
0100
0001
0000
1000
0010
0100
,
1100
0000
0101
0000
1000
0100
0010
1000
,
0000
0001
0100
1000
0000
0010
0100
0010
,
0011
0000
1010
0000
1000
0100
0010
0001
,
0011
0000
0001
0000
1001
0000
1000
0000
0010
1000
0000
0001
0100
0000
0010
0100
,
0010
1000
0100
0001
0200
0000
0301
0100
,
1000
0010
0200
0000
1000
0000
0301
0000
,
0021
0000
0030
0100
1200
0000
0300
0010
,
0001
0000
1000
0000
0001
0000
0000
0000
0100
0010
0000
0000
0110
0000
0000
0000
,
0001
0000
0010
0000
0100
0000
0010
0000
0001
0100
0010
0000
1000
0100
0010
0000
,
0100
0000
1000
0000
0010
0000
1000
0000
0001
1000
0100
0000
0010
0001
1000
0000
,
1200
0000
0300
0010
0021
0000
0030
0100
,
1000
0000
1000
0000
1000
0000
0000
0000
0010
0100
0000
0100
1001
0000
0000
0000
,
1000
0100
1000
0100
0010
0001
0010
0000
0200
0000
0000
0000
1300
0000
0001
0000
,
0100
0001
0100
0001
1000
0010
1000
0000
0001
1000
0001
1000
0100
0000
0010
0000
,
0001
0010
0001
0010
0100
1000
0100
0000
0020
0000
0000
0000
0031
0000
0100
0000
,
1010
0000
0000
0001
1000
0000
0000
0100
0010
0000
0000
0001
1000
0000
1000
0000
,
0001
0100
0001
0100
0010
1000
0010
0000
0200
0000
0000
0000
0301
0000
0010
0000
,
0100
1000
0100
1000
0001
1000
0100
1000
0001
0100
0002
0000
1000
0000
1003
0000
,
1001
0000
0000
0001
0010
0001
0010
0000
0001
0000
0100
0000
0110
0000
0000
0000
,
1000
0000
0000
1000
0100
0000
0000
0010
0001
0000
0100
0000
0010
0100
0010
0000
,
2000
0000
0000
0000
,
3000
0000
0000
0000
,
0001
0011
1001
1010
,
1100
0000
1000
0000
1001
0000
0001
0000
0101
0000
0100
0000
0010
1000
0010
1000
,
0002
0000
1003
0100
0001
0100
1000
1010
,
0000
0101
0000
0011
0000
0010
0100
0000
,
2100
0000
3001
0100
0010
0100
0001
0011
,
0000
1100
0000
0011
0000
0001
0100
0000
,
1020
0000
1030
0001
0010
1000
0010
0011
,
0000
0000
0001
0000
1000
0010
1000
0000
0010
0100
0010
0000
0100
0001
0100
0000
,
0010
0000
1000
0100
0001
0100
1000
0001
,
0000
0000
0010
0000
0001
0100
0001
0000
0100
0010
0100
0000
0010
1000
0000
0000
,
1001
0000
0001
0010
0100
0010
0001
0101
,
0000
0000
1000
0000
0010
1000
0010
0000
0100
0010
0100
0000
0001
0010
0001
0000
,
1000
0010
0001
0010
0100
0001
1000
1100
,
0000
0000
0001
0000
1000
0010
1000
0000
0100
0010
0100
0000
1000
0000
0001
0000
,
1001
0000
0010
0001
0100
0010
0100
0101
,
0000
0000
0010
0000
0001
0100
0001
0000
1000
0010
1000
0000
0001
0010
0001
0000
,
0100
1000
0100
0001
1000
0100
0010
0110
,
0000
0000
0001
0000
1000
0001
1000
0000
0010
0100
0001
1000
0001
0100
0000
0000
;

//---------------dance-double - ----------------
#NOTES:
     dance-double:
     :
     Challenge:
     13:
     0.551256,0.675704,0.327537,0.194475,0.307066,377.000000,345.000000,32.000000,19.000000,0.000000,0.000000,0.551256,0.675704,0.327537,0.194475,0.307066,377.000000,345.000000,32.000000,19.000000,0.000000,0.000000:
00000000
00000000
00000000
00000000
,
00000000
00000000
00000000
00000000
,
00000000
00000000
00000000
00000000
,
00010000
00000000
00000000
00010000
00000000
00000000
00020000
00000000
00000000
00000000
00000000
00000000
00030000
00000000
00000000
00000000
,
00001000
00000000
00000000
00001000
00000000
00000000
00002000
00000000
00000000
00000000
00020000
00000000
00033000
00000000
00000000
00000000
,
00100000
00000000
00000000
10000000
00000000
00000000
00010000
00000000
00000000
00000000
02000000
00000000
00000000
00000000
03000000
00000000
,
00001000
00000000
00000000
00001000
00010000
00000000
00000010
00001000
00000000
00000000
00000001
00000000
00000000
00000100
00000000
00000000
,
00001000
00000000
00000000
00001000
00000000
00000000
00002000
00000000
00000000
00000000
00000000
00000000
00000000
00000000
00003000
00000000
,
00010000
00000000
00000000
00010000
00000000
00000000
00020000
00000000
00000000
00000000
01030000
00100000
01000000
00000000
00000000
00000000
,
10010000
00000000
01100000
00000000
00100000
10000000
00010000
01000000
,
00000000
00001000
00010000
01000000
00000000
00010000
00001000
00000100
,
00000101
00000000
00001010
00000000
00000001
00000010
00000100
00001000
,
00000000
00000010
00010000
00001000
00000000
01000000
00010000
00100000
,
10100000
00000000
00110000
00000000
00001000
00010000
00100000
01000000
,
00000000
00010000
00001000
00000010
00000000
00001000
00000100
00000010
,
00001010
00000000
00000011
00000000
00000001
00000100
00000010
00010000
,
00001000
00000000
00001000
00000000
00100000
00000000
00010000
00000000
01000000
00010000
01000000
00000000
00100000
10000000
00100000
10000000
,
00010000
01000000
10000000
01000000
00020000
00000000
00031000
00000010
,
00000001
00000010
00002000
00000000
00003100
00000010
00000001
00000000
,
00002000
00000000
00003000
00000010
00000210
00000000
00000300
00001000
,
00010000
00000000
01000000
00000000
10000000
00000000
00000000
00000000
00100000
01000000
00000000
00000000
10010000
00000000
00000000
00000000
,
10000000
00000000
01000000
00000000
00100000
00000000
00001000
00000000
01000000
00010000
10000000
00000000
00100000
00000000
00010000
00000000
,
00000100
00000000
00001000
00000000
00000001
00000000
00000010
00000000
00000100
00000010
00001000
00000000
00010000
00000000
00000000
00000000
,
00200000
00000000
00300000
10000000
10020000
00000000
00030000
10000000
,
11000000
00000000
01100000
00000000
01010000
00000000
00000000
00000000
00010000
00001000
00000000
00000000
00011000
00000000
00000000
00000000
,
00010000
00000010
00010000
00000010
00001000
00000100
00001000
00000000
00000002
00000000
00000000
00000000
00000013
00000000
00000100
00000000
,
00001000
00000010
00001000
00000010
00010000
00000100
00010000
00000000
00001000
00100000
00001000
00100000
00010000
00000000
01000000
00000000
,
00100000
10000000
00100000
10000000
00010000
00100000
00010000
00000000
01000000
00000000
00100000
00000000
01000000
00000000
00000000
00000000
,
00001000
00000000
00000000
00001000
01000000
00000000
00000000
10000000
01000000
00000000
00000000
00010000
00100000
00000000
00100000
00000000
,
00010000
10000000
00010000
10000000
00100000
01000000
00100000
00000000
00020000
00000000
00000000
00000000
00031000
00000000
00100000
00000000
,
00010000
01000000
00010000
01000000
00001000
00010000
00001000
00010000
00000100
00010000
00001000
00000000
00000020
00000000
00000000
00000000
,
00000031
00000000
00000000
00000001
00001000
00000000
00000000
00000001
00000100
00000000
00000010
00000000
00000110
00000000
00000000
00000000
,
00010000
00000000
00000000
00010000
00001000
00000000
00000000
00100000
01000000
00000000
00100000
00000000
01000000
00100000
01000000
00000000
,
20000000
00000000
30000000
00000000
,
00000000
00000000
00000000
00000000
,
00000010
00000110
00000101
00001100
,
00010000
00000000
00100000
00000000
10000000
00000000
01000000
00000000
00100000
00000000
00001000
00000000
00010000
00001000
00010000
00001000
,
00020000
00000000
00030010
00001000
00000001
00000010
00000100
00010100
,
00000000
00101000
00000000
00010100
00000000
01000000
10000000
00000000
,
00200000
00000000
00310000
00100000
10000000
00010000
01000000
01001000
,
00000000
00010010
00000000
01001000
00000000
00000100
00000001
00000000
,
00000020
00000000
00000130
00010000
00000010
00001000
00000001
00000101
,
00000000
00000000
00000001
00000000
00000010
00000100
00000010
00000000
00000100
00001000
00000100
00000000
00010000
00000000
00001000
00000000
,
00010000
00000000
00100000
10000000
01000000
00100000
00001000
01001000
,
00000000
00000000
00010000
00000000
10000000
00100000
10000000
00000000
00100000
01000000
00100000
00000000
01000000
00010000
00000000
00000000
,
10010000
00000000
10000000
01000000
00100000
00001000
00010000
00010010
,
00000000
00000000
00000010
00000000
00001000
00000100
00001000
00000000
00000001
00000010
00000001
00000000
00000100
00000000
00000001
00000000
,
00000010
00000100
00010000
00001000
00010000
00100000
01000000
01010000
,
00000000
00000000
00001000
00000000
00100000
00010000
00100000
00000000
01000000
10000000
01000000
00000000
10000000
00000000
00100000
00000000
,
01000000
00000000
00001000
00100000
01000000
00010000
00001000
01001000
,
00000000
00000000
01000000
00000000
00010000
10000000
00010000
00000000
00100000
01000000
00100000
00000000
00001000
00000000
00010000
00000000
,
00001000
00000100
00000001
00000010
00000100
00001000
00000010
00010010
,
00000000
00000000
00010000
00000000
00000100
00000010
00000100
00000000
00001000
00000010
00000100
00000010
00001000
00000001
00000000
00000000
;
