#VERSION:0.83;
#TITLE:Earthquake;
#SUBTITLE:;
#ARTIST:Venom One feat. Jonathan Mendelsohn;
#TITLETRANSLIT:;
#SUBTITLETRANSLIT:;
#ARTISTTRANSLIT:;
#GENRE:;
#ORIGIN:;
#CREDIT:;
#BANNER:Earthquake.png;
#BACKGROUND:Earthquake-bg.png;
#PREVIEWVID:;
#JACKET:;
#CDIMAGE:;
#DISCIMAGE:;
#LYRICSPATH:;
#CDTITLE:;
#MUSIC:Earthquake.ogg;
#OFFSET:-1.923000;
#SAMPLESTART:7.017000;
#SAMPLELENGTH:18.645000;
#SELECTABLE:YES;
#BPMS:0.000=132.000;
#STOPS:;
#DELAYS:;
#WARPS:;
#TIMESIGNATURES:0.000=4=4;
#TICKCOUNTS:0.000=4;
#COMBOS:0.000=1;
#SPEEDS:0.000=1.000=0.000=0;
#SCROLLS:0.000=1.000;
#FAKES:;
#LABELS:0.000=Song Start;
#BGCHANGES:;
#KEYSOUNDS:;
#ATTACKS:
;

//---------------dance-single - ----------------
#NOTEDATA:;
#CHARTNAME:;
#STEPSTYPE:dance-single;
#DESCRIPTION:;
#CHARTSTYLE:;
#DIFFICULTY:Hard;
#METER:13;
#RADARVALUES:0.525984,0.582198,0.317051,0.501145,0.342620,360.000000,329.000000,31.000000,49.000000,0.000000,0.000000,0.000000,0.000000,0.000000,0.525984,0.582198,0.317051,0.501145,0.342620,360.000000,329.000000,31.000000,49.000000,0.000000,0.000000,0.000000,0.000000,0.000000;
#CREDIT:;
#NOTES:
0000
0000
0000
0000
,
0001
0000
0000
0001
0010
0000
0100
0000
1000
0000
0100
0000
1000
0000
0000
1000
,
0010
0100
0001
0000
2002
0000
3003
0000
,
0001
0100
0002
0000
0010
0000
0013
0000
,
0100
1000
0010
0000
0010
0100
0001
0000
,
1000
0100
2000
0000
0010
0000
3010
0000
,
0100
0001
0010
0000
0010
0100
1000
0000
,
0002
2003
3100
1100
,
2000
3002
0103
0101
,
1000
0000
0000
1000
0010
0000
0100
0000
0001
0000
0100
0000
0001
0000
0000
0001
,
0010
0100
1000
0000
1000
0010
0100
0010
,
1000
0100
1100
0000
0010
0001
1000
0010
,
0001
0010
1010
0000
0001
0010
0100
0000
,
1000
0001
0101
0000
0010
0100
1000
0100
,
0001
0100
1100
0000
0010
0100
0010
1000
,
0001
0000
0000
0001
0010
0000
0100
0000
1000
0000
0100
0000
1000
0000
0000
1000
,
0010
0100
0001
0000
1000
0100
0010
0001
,
1000
0000
0000
1000
0010
0000
0100
0000
0001
0000
0100
0000
0001
0000
0000
0001
,
0010
0100
1000
0000
0001
0100
0010
0000
,
0120
0000
0000
1000
0000
0000
1030
0000
2200
0000
0000
0000
3300
0000
0000
0000
,
2002
0000
3003
0010
0220
0000
0330
0000
,
2001
0000
0000
0100
0000
0000
3100
0000
0220
0000
0000
0000
0330
0000
0000
0000
,
1200
0000
0000
0320
0000
0000
0031
0000
0101
0000
0000
0000
1100
0000
0000
0000
,
1002
0000
0000
0100
0000
0000
0103
0000
0220
0000
0000
0000
0330
0000
0000
0000
,
2020
0000
3030
0000
1001
0020
0000
0030
,
0210
0000
0000
0001
0000
0000
0301
0000
1001
0000
0010
0000
0000
0000
0010
0000
,
1001
0000
0000
1000
0000
0000
1000
0000
1010
0000
0010
0000
0110
0000
0000
0000
,
0001
0010
0100
1000
,
0001
0100
1000
0000
1000
0010
0001
0000
,
1000
0010
0001
0100
,
1000
0000
0010
0000
0001
0000
0000
0000
0010
0000
0000
0001
0100
0000
0000
0010
,
1000
0000
0100
0000
0100
0001
1000
0000
,
1001
0010
0100
0000
1000
0001
0100
0000
,
0010
0010
0100
0100
,
0000
0000
0000
0000
0000
0000
0110
0100
,
2001
0000
3000
0010
1000
0000
0020
0000
0030
0100
1000
0000
0200
0000
0300
0001
,
1000
0000
0002
0000
0003
0010
0100
0000
0010
0000
0001
1000
0000
0001
1000
0000
,
0200
0000
0300
0010
0001
0000
0020
0000
0030
0100
0001
0000
0200
0000
0300
1000
,
0001
0000
2000
0000
3000
0010
1000
0000
0010
0000
0100
0001
0000
1000
0001
0000
,
0020
0000
0030
0100
0001
0000
0200
0000
0300
0010
0001
0000
0020
0000
0030
0001
,
0100
0000
0002
0000
0003
0100
1000
0000
0100
0000
0010
0100
0000
0001
0010
0000
,
0200
0000
0300
0010
1000
0000
0020
0000
0030
0100
1000
0000
0200
0000
0300
0010
,
0001
0000
0020
0000
0030
0100
0001
0000
0100
0000
1000
0010
0000
0100
0001
0000
,
2000
0000
0000
3001
0010
0000
0010
0100
0000
0100
1000
0000
0001
0000
1000
0000
,
0010
0000
0100
0001
0010
0001
0000
0000
1001
0000
1000
0100
0000
0100
0010
0000
,
0002
0000
0000
0103
0010
0000
0010
1000
0000
1000
0100
0000
0010
0000
0100
0000
,
0001
0000
0100
1000
0001
1000
0000
0000
1001
0000
0001
0100
0000
0100
1000
0000
,
0200
0000
0000
0310
0001
0000
0010
1000
0000
0010
0001
0000
0010
0000
0100
0000
,
0001
0000
1000
0100
0010
0001
0000
0000
1001
0000
0100
0010
0000
0010
1000
0000
,
0020
0000
0000
0130
1000
0000
1000
0100
0000
0100
0001
0000
0010
0000
1000
0000
,
0010
0000
0100
0001
0000
0100
0000
0000
1000
0000
0000
0001
0000
0000
0100
0000
,
0020
0000
0000
0200
0000
0000
0330
0000
;

//---------------dance-single - ----------------
#NOTEDATA:;
#CHARTNAME:;
#STEPSTYPE:dance-single;
#DESCRIPTION:;
#CHARTSTYLE:;
#DIFFICULTY:Medium;
#METER:9;
#RADARVALUES:0.363805,0.365120,0.030682,0.153412,0.107388,249.000000,246.000000,3.000000,15.000000,0.000000,0.000000,0.000000,0.000000,0.000000,0.363805,0.365120,0.030682,0.153412,0.107388,249.000000,246.000000,3.000000,15.000000,0.000000,0.000000,0.000000,0.000000,0.000000;
#CREDIT:;
#NOTES:
0000
0000
0000
0000
,
1000
0000
1000
0100
0010
0000
0001
0000
,
0001
0010
0100
0000
2000
0000
0000
0000
,
3001
0100
0001
0000
1000
0000
0001
0000
,
1000
0010
1000
0000
0100
0000
0010
0000
,
0100
1000
0100
0000
0010
0000
0001
0000
,
0100
0001
0100
0000
1000
0000
0100
0000
,
0001
0001
1000
1000
,
0100
0001
0100
0000
0100
1000
0100
0000
,
1000
0000
1000
0010
0100
0000
0001
0000
,
0001
0100
0010
0000
1000
0000
0001
0000
,
1000
0100
0010
0000
0001
0100
0001
0000
,
1000
0010
0100
0001
1000
0100
1000
0000
,
0001
0100
0001
0000
1000
0100
0010
0000
,
0001
1000
0010
0100
0001
0010
0001
0000
,
0001
0000
0001
0100
0010
0000
1000
0000
,
1000
0010
0100
0000
0001
0000
1000
0000
,
0001
0000
0001
0010
0100
0000
1000
0000
,
1000
0100
0010
0000
0001
0000
1000
0000
,
2000
0000
3002
0000
,
0203
0000
0010
0010
0320
0000
0000
0000
,
0230
0000
0302
0000
,
0023
0000
0100
0100
0230
0000
0000
0000
,
2300
0000
3002
0000
,
0203
0000
1000
1000
2300
0000
0000
0000
,
3200
0000
0302
0000
,
0013
0000
0000
0001
0000
0000
0001
0000
1000
0000
0001
0000
1001
0000
0000
0000
,
0001
0010
0100
1000
,
0010
0001
1000
0000
0100
1000
0001
0000
,
0100
1000
0010
0100
,
0001
0010
1000
0000
1000
0100
0001
0000
,
0100
0010
1000
0001
,
0100
1000
0010
0000
0010
0001
0100
0000
,
0001
1000
0001
0100
,
0010
0000
0000
1001
,
1001
0000
0000
0001
0000
0000
0100
0000
0000
0001
0000
0000
1000
0000
0000
0010
,
0000
0000
1000
0000
0000
0001
0000
0000
0010
0000
0000
0100
0000
0000
1000
0000
,
0100
0000
0000
0010
0000
0000
0001
0000
0000
0100
0000
0000
0001
0000
0000
0010
,
0000
0000
0100
0000
0000
1000
0000
0000
0001
0000
0000
0100
0000
0000
0010
0000
,
1000
0000
0000
0001
0000
0000
0100
0000
0000
1000
0000
0000
0100
0000
0000
0001
,
0000
0000
0010
0000
0000
1000
0000
0000
0010
0000
0000
0100
0000
0000
1000
0000
,
0001
0000
0000
0100
0000
0000
0010
0000
0000
1000
0000
0000
0001
0000
0000
0010
,
0000
0000
0100
0000
0000
1000
0000
0000
0001
0000
0000
0100
0000
0000
0010
0000
,
1000
0000
1000
0100
0000
0100
1000
0000
,
1000
0001
0000
0001
0100
0000
0010
1000
,
0010
0000
0010
0100
0000
0100
1000
0000
,
1000
0100
0000
0100
0001
0000
0010
0100
,
0010
0000
0010
1000
0000
0010
0001
0000
,
0100
1000
0000
0100
0001
0000
0010
0001
,
0010
0000
0100
1000
0000
0010
0100
0000
,
0001
1000
0000
0100
0010
0000
0001
1000
,
0001
0000
0000
0000
;

//---------------dance-single - ----------------
#NOTEDATA:;
#CHARTNAME:;
#STEPSTYPE:dance-single;
#DESCRIPTION:;
#CHARTSTYLE:;
#DIFFICULTY:Easy;
#METER:3;
#RADARVALUES:0.176789,0.286880,0.143184,0.153412,0.000000,121.000000,107.000000,14.000000,15.000000,0.000000,0.000000,0.000000,0.000000,0.000000,0.176789,0.286880,0.143184,0.153412,0.000000,121.000000,107.000000,14.000000,15.000000,0.000000,0.000000,0.000000,0.000000,0.000000;
#CREDIT:;
#NOTES:
0000
0000
0000
0000
,
0000
0000
0000
0000
,
0000
0000
0000
0000
,
1000
1000
1000
0000
,
0100
0000
0100
0000
,
0001
0001
0001
0000
,
0010
0000
0010
0000
,
0100
0100
0100
0000
,
0010
0010
0010
0000
,
1001
0001
1000
0000
,
1001
1000
0001
0001
,
1000
0100
0000
0100
,
0000
0010
0000
0010
,
0001
0100
0000
0100
,
0000
0010
0000
0010
,
1001
0001
1000
0000
,
1001
0001
1000
1000
,
0110
0010
0100
0000
,
0110
0010
0100
0100
,
0020
0000
0030
0000
,
0002
0000
0003
0000
,
2000
0000
3000
0000
,
0200
0000
0300
0000
,
0020
0000
0030
0000
,
0002
0000
0003
0000
,
2000
0000
3000
0000
,
0100
0010
0001
1000
,
0200
0000
0300
0000
,
2000
0000
3000
0000
,
0002
0000
0003
0000
,
0020
0000
0030
0000
,
0200
0000
0300
0000
,
2000
0000
3000
0000
,
0002
0000
0003
0000
,
2000
0000
3000
0000
,
1001
0001
1000
0000
,
0010
0000
0100
0000
,
0110
0010
0100
0000
,
0001
0000
1000
0000
,
0011
0010
0001
0000
,
1000
0000
0100
0000
,
1100
0100
1000
0000
,
0010
0000
1000
0000
,
1010
0010
1000
0000
,
0001
0000
0100
0000
,
0101
0100
0001
0000
,
0010
0000
0100
0000
,
1001
0010
0100
0000
,
0001
0000
1000
0000
,
0110
0001
1000
0000
,
0010
0000
0100
0000
,
0100
0000
0000
0000
;

//---------------dance-single - ----------------
#NOTEDATA:;
#CHARTNAME:;
#STEPSTYPE:dance-single;
#DESCRIPTION:;
#CHARTSTYLE:;
#DIFFICULTY:Beginner;
#METER:1;
#RADARVALUES:0.086203,0.130400,0.030682,0.040910,0.000000,59.000000,56.000000,3.000000,4.000000,0.000000,0.000000,0.000000,0.000000,0.000000,0.086203,0.130400,0.030682,0.040910,0.000000,59.000000,56.000000,3.000000,4.000000,0.000000,0.000000,0.000000,0.000000,0.000000;
#CREDIT:;
#NOTES:
0000
0000
0000
0000
,
0000
0000
0000
0000
,
0000
0000
0000
0000
,
1000
0000
1000
0000
,
1000
0000
0000
0000
,
0001
0000
0001
0000
,
0001
0000
0000
0000
,
0100
0000
0000
0000
,
0010
0000
0000
0000
,
1001
0000
0000
0000
,
0000
0000
0000
0000
,
0001
0000
0001
0000
,
0001
0000
0000
0000
,
1000
0000
1000
0000
,
1000
0000
0000
0000
,
1001
0000
0000
0000
,
0000
0000
0000
0000
,
0110
0000
0000
0000
,
0000
0000
0000
0000
,
0002
0000
0000
0000
,
0003
0000
0000
0000
,
2000
0000
0000
0000
,
3000
0000
0000
0000
,
0020
0000
0000
0000
,
0030
0000
0000
0000
,
0200
0000
0000
0000
,
0300
0000
0000
0000
,
1000
0000
0000
0000
,
1000
0000
1000
0000
,
1000
0000
0000
0000
,
1000
0000
1000
0100
,
0001
0000
0000
0000
,
0010
0000
0000
0000
,
0010
0000
0000
0000
,
0000
0000
0000
0000
,
1000
0000
0000
0000
,
1000
0000
1000
0000
,
0001
0000
0000
0000
,
0001
0000
0001
0000
,
0010
0000
0000
0000
,
0010
0000
0010
0000
,
0100
0000
0000
0000
,
0100
0000
0100
0000
,
0001
0000
0000
0000
,
0001
0000
0001
0000
,
0010
0000
0000
0000
,
0010
0000
0010
0000
,
1000
0000
0000
0000
,
1000
0000
1000
0000
,
0100
0000
0000
0000
,
0100
0000
0100
0000
,
0001
0000
0000
0000
;

//---------------dance-double - ----------------
#NOTEDATA:;
#CHARTNAME:;
#STEPSTYPE:dance-double;
#DESCRIPTION:;
#CHARTSTYLE:;
#DIFFICULTY:Hard;
#METER:12;
#RADARVALUES:0.447086,0.529271,0.010227,0.204549,0.286369,306.000000,305.000000,1.000000,20.000000,0.000000,0.000000,0.000000,0.000000,0.000000,0.447086,0.529271,0.010227,0.204549,0.286369,306.000000,305.000000,1.000000,20.000000,0.000000,0.000000,0.000000,0.000000,0.000000;
#CREDIT:;
#NOTES:
// measure 0
00000000
00000000
00000000
00000000
,  // measure 1
00000100
00000000
00000000
00001000
00010000
00000000
00100000
00000000
10000000
00000000
00000000
00000000
00100000
00000000
00000000
00010000
,  // measure 2
00001000
00000100
00000001
00000000
00000020
00000000
00000000
00000000
,  // measure 3
00000031
00000100
00000001
00000000
00000010
00000000
00001000
00000000
,  // measure 4
00010000
01000000
10000000
00000000
00100000
00000000
01000000
00000000
,  // measure 5
00001000
00100000
01000000
00000000
10000000
01000000
00010000
00000000
,  // measure 6
00001000
00000100
00000001
00000000
00000010
00000000
00000100
00000000
,  // measure 7
00010000
00000010
00000100
00000000
00000001
00000010
00001000
00000000
,  // measure 8
00010000
00000000
00100000
00000000
10000000
01000000
10000000
00000000
,  // measure 9
00100000
00000000
00000000
00010000
00001000
00000000
00000100
00000000
00000001
00000000
00000000
00000000
00000100
00000000
00000000
00001000
,  // measure 10
00010000
00100000
10000000
00000000
01000000
00010000
01000000
10000000
,  // measure 11
00100000
10000000
01000000
00000000
00100000
10000000
00100000
00010000
,  // measure 12
01000000
00001000
00000100
00000000
00000010
00001000
00000001
00000100
,  // measure 13
00000001
00000010
00001000
00000000
00000010
00000001
00000100
00000010
,  // measure 14
00010000
01000000
10000000
00000000
00100000
00010000
00100000
10000000
,  // measure 15
01000000
00000000
00000000
00010000
00001000
00000000
00000010
00000000
00000001
00000000
00000000
00000000
00000010
00000000
00000000
00001000
,  // measure 16
00010000
01000000
10000000
00000000
10000000
00100000
00010000
00001000
,  // measure 17
00000010
00000000
00000000
00001000
00010000
00000000
01000000
00000000
10000000
00000000
00000000
00000000
00100000
00000000
00000000
00010000
,  // measure 18
00001000
00000100
00000001
00000000
00000001
00000010
00001000
00010000
,  // measure 19
02000000
00000000
00000000
13000000
00200000
00000000
00000000
00000000
,  // measure 20
20300000
00000000
00000000
31000000
00020000
00000000
00000000
00000000
,  // measure 21
00032000
00000000
00000000
00003100
00000002
00000000
00000000
00000000
,  // measure 22
00000023
00000000
00000000
00000100
00000000
00000000
00000130
00000000
00000002
00000000
00000000
00000000
00002003
00000000
00000000
00000000
,  // measure 23
00023000
00000000
00000000
00130000
02000000
00000000
00000000
00000000
,  // measure 24
23000000
00000000
00000000
00000000
32000000
00010000
00000000
03010000
,  // measure 25
00002000
00000000
00000000
00000010
00000000
00000000
00003010
00000000
00000002
00000000
00001000
00000000
00000000
00000000
00001003
00000000
,  // measure 26
00000002
00000000
00000000
00000010
00000000
00000000
00000013
00000000
00000100
00000000
00001000
00000000
00020000
00000000
00000000
00000000
,  // measure 27
00130000
10000000
00010000
01000000
,  // measure 28
10000000
01000000
00010000
00000000
10000000
01000000
00010000
00000000
,  // measure 29
00001000
00000010
00000001
00000100
,  // measure 30
00001000
00000000
00000100
00000000
00000001
00000000
00000000
00000000
00000010
00000000
00000000
00000010
00001000
00000000
00000000
00010000
,  // measure 31
00001000
00000000
01000000
00000000
10000000
01000000
00010000
00000000
,  // measure 32
00100000
01000000
10000000
00000000
01000000
00010000
00001000
00000000
,  // measure 33
00000100
00000001
00000010
00000100
,  // measure 34
00000000
00000000
00000000
00000000
00000000
00000000
01100000
00100000
,  // measure 35
10000000
00000000
00000000
01000000
00000000
00000000
00100000
00000000
00000000
00001000
00000000
00000000
01000000
00000000
00000000
00010000
,  // measure 36
00000000
00000000
10000000
00000000
00000000
00100000
00000000
00000000
10000000
00000000
00000000
01000000
00000000
00000000
00010000
00000000
,  // measure 37
00001000
00000000
00000000
00000100
00000000
00000000
00000001
00000000
00000000
00000010
00000000
00000000
00000100
00000000
00000000
00010000
,  // measure 38
00000000
00000000
00000010
00000000
00000000
00000100
00000000
00000000
00000001
00000000
00000000
00000100
00000000
00000000
00001000
00000000
,  // measure 39
00010000
00000000
00000000
00100000
00000000
00000000
01000000
00000000
00000000
10000000
00000000
00000000
01000000
00000000
00000000
00010000
,  // measure 40
00000000
00000000
00100000
00000000
00000000
00010000
00000000
00000000
10000000
00000000
00000000
01000000
00000000
00000000
00010000
00000000
,  // measure 41
00001000
00000000
00000000
00000010
00000000
00000000
00000100
00000000
00000000
00001000
00000000
00000000
00000001
00000000
00000000
00000100
,  // measure 42
00000000
00000000
00000001
00000000
00000000
00000010
00000000
00000000
00000001
00000000
00000000
00000100
00000000
00000000
00001000
00000000
,  // measure 43
00010000
00000000
00100000
10000000
00100000
00000000
01000000
00010000
00000000
00000000
10000000
00000000
01000000
00100000
01000000
00000000
,  // measure 44
00010000
00000000
01000000
10000000
01000000
00000000
10000000
00000000
00100000
00000000
00000000
00010000
00000000
00010000
00001000
00000000
,  // measure 45
00000010
00000000
00000001
00000010
00000001
00000000
00000010
00000100
00000000
00000000
00001000
00000000
00000010
00000100
00000010
00000000
,  // measure 46
00000100
00000000
00000001
00000010
00000001
00000000
00000100
00000000
00001000
00000000
00000000
00010000
00000000
00010000
00100000
00000000
,  // measure 47
10000000
00000000
01000000
10000000
01000000
00000000
00100000
01000000
00000000
00000000
00010000
00000000
01000000
00100000
01000000
00000000
,  // measure 48
10000000
00000000
00010000
00100000
00010000
00000000
10000000
00000000
01000000
00000000
00000000
00010000
00000000
00010000
00001000
00000000
,  // measure 49
00000010
00000000
00000100
00000001
00000100
00000000
00000010
00000001
00000000
00000000
00001000
00000000
00000001
00000100
00000001
00000000
,  // measure 50
00000010
00000000
00000100
00000010
00000100
00000000
00010000
00000000
00001000
00000000
00000000
00100000
00000000
00000000
00001000
00000000
,  // measure 51
00020000
00000000
00000000
00002000
00000000
00000000
00033000
00000000
;

//---------------dance-double - Copied from----------------
#NOTEDATA:;
#CHARTNAME:Copied from;
#STEPSTYPE:dance-double;
#DESCRIPTION:Copied from;
#CHARTSTYLE:;
#DIFFICULTY:Medium;
#METER:8;
#RADARVALUES:0.352117,0.368700,0.040910,0.132957,0.025569,241.000000,237.000000,4.000000,13.000000,0.000000,0.000000,0.000000,0.000000,0.000000,0.352117,0.368700,0.040910,0.132957,0.025569,241.000000,237.000000,4.000000,13.000000,0.000000,0.000000,0.000000,0.000000,0.000000;
#CREDIT:Copied from;
#NOTES:
// measure 0
00000000
00000000
00000000
00000000
,  // measure 1
10000000
00000000
10000000
01000000
00010000
00000000
00001000
00000000
,  // measure 2
00010000
00100000
10000000
00000000
02000000
00000000
00000000
00000000
,  // measure 3
03010000
00001000
00010000
00000000
00000010
00000000
00000010
00000000
,  // measure 4
00000100
00000001
00000100
00000000
00001000
00000000
00010000
00000000
,  // measure 5
00100000
01000000
00100000
00000000
10000000
00000000
10000000
00000000
,  // measure 6
00100000
10000000
00100000
00000000
01000000
00000000
00001000
00000000
,  // measure 7
00010000
00000100
00010000
00000000
00001000
00000000
00001000
00000000
,  // measure 8
00000010
00000001
00000010
00000000
00000100
00000000
00000010
00000000
,  // measure 9
00000001
00000000
00000001
00000100
00001000
00000000
00010000
00000000
,  // measure 10
00001000
00000010
00000001
00000000
00000100
00000000
00001000
00000000
,  // measure 11
00010000
00100000
01000000
00000000
00010000
10000000
00010000
00000000
,  // measure 12
00100000
01000000
10000000
00000000
01000000
00000000
00010000
00000000
,  // measure 13
00001000
00000010
00000001
00000000
00000100
00000010
00000100
00000000
,  // measure 14
00001000
00000100
00000001
00000000
00000010
00000100
00001000
00010000
,  // measure 15
01000000
00000000
10000000
01000000
00010000
00000000
00001000
00000000
,  // measure 16
00010000
00100000
10000000
00000000
00100000
00000000
00010000
00000000
,  // measure 17
00001000
00000000
00001000
00000100
00000001
00000000
00000010
00000000
,  // measure 18
00000001
00000010
00001000
00000000
00010000
00000000
00001000
00000000
,  // measure 19
00020000
00000000
00230000
00000000
,  // measure 20
20300000
00000000
31000000
00010000
,  // measure 21
00002000
00000000
00003020
00000000
,  // measure 22
00000032
00000000
00000013
00001000
,  // measure 23
00020000
00000000
00230000
00000000
,  // measure 24
20300000
00000000
30100000
00010000
,  // measure 25
00002000
00000000
00003200
00000000
,  // measure 26
00000301
00000000
00000000
00000100
00000000
00000000
00001000
00000000
00010000
00000000
00000000
00000000
00001000
00000000
00010000
00000000
,  // measure 27
00100000
10000000
00100000
00010000
,  // measure 28
00100000
10000000
00010000
00000000
01000000
00010000
10000000
00000000
,  // measure 29
01000000
00010000
00001000
00010000
,  // measure 30
01000000
00010000
00001000
00000000
00000010
00001000
00010000
00000000
,  // measure 31
00000100
00001000
00000001
00001000
,  // measure 32
00000100
00001000
00000001
00000000
00000010
00000001
00001000
00000000
,  // measure 33
00000100
00010000
00001000
01000000
,  // measure 34
00001000
00000000
00000000
00011000
,  // measure 35
00001000
00000000
00000000
00001000
00000000
00000000
00000100
00000000
00000001
00000000
00000000
00000000
00000010
00000000
00000000
00000000
,  // measure 36
00000001
00000000
00000100
00001000
00010000
00000000
00010000
00001000
,  // measure 37
01000000
00000000
00000000
01000000
00000000
00000000
00010000
00000000
10000000
00000000
00000000
00000000
00100000
00000000
00000000
00000000
,  // measure 38
10000000
00000000
01000000
10000000
00100000
00000000
00100000
00010000
,  // measure 39
00001000
00000000
00000000
00001000
00000000
00000000
00000010
00000000
00000001
00000000
00000000
00000000
00000100
00000000
00000000
00000000
,  // measure 40
00000010
00000000
00000100
00001000
00010000
00000000
00010000
00100000
,  // measure 41
10000000
00000000
00000000
10000000
00000000
00000000
01000000
00000000
00010000
00000000
00000000
00000000
01000000
00000000
00000000
00000000
,  // measure 42
10000000
00100000
00010000
00001000
,  // measure 43
00000010
00000001
00000010
00000001
00001000
00000000
00000001
00000000
,  // measure 44
00000100
00000010
00010000
00010100
,  // measure 45
00010000
00001000
00010000
00001000
01000000
00000000
00100000
00000000
,  // measure 46
10000000
01000000
00010000
01100000
,  // measure 47
00100000
00001000
00100000
00001000
00010000
00000000
00000010
00000000
,  // measure 48
00001000
00000001
00000100
00000110
,  // measure 49
00000001
00000100
00000001
00000100
00001000
00000000
00010000
00000000
,  // measure 50
00100000
10000000
01000000
00000000
00100000
00010000
01000000
00000000
,  // measure 51
00200000
00000000
00300000
00000000
;

//---------------dance-double - Copied from----------------
#NOTEDATA:;
#CHARTNAME:Copied from;
#STEPSTYPE:dance-double;
#DESCRIPTION:Copied from;
#CHARTSTYLE:;
#DIFFICULTY:Easy;
#METER:3;
#RADARVALUES:0.131496,0.182560,0.000000,0.153412,0.000000,90.000000,90.000000,0.000000,15.000000,0.000000,0.000000,0.000000,0.000000,0.000000,0.131496,0.182560,0.000000,0.153412,0.000000,90.000000,90.000000,0.000000,15.000000,0.000000,0.000000,0.000000,0.000000,0.000000;
#CREDIT:Copied from;
#NOTES:
// measure 0
00000000
00000000
00000000
00000000
,  // measure 1
00000000
00000000
00000000
00000000
,  // measure 2
00000000
00000000
00000000
00000000
,  // measure 3
10000000
00000000
00100000
00000000
,  // measure 4
01000000
00000000
00010000
00000000
,  // measure 5
00100000
00000000
00001000
00000000
,  // measure 6
00010000
00000000
00000100
00000000
,  // measure 7
00001000
00000000
00000010
00000000
,  // measure 8
00000100
00000000
00000001
00000000
,  // measure 9
00000010
00000010
00000010
00000000
,  // measure 10
00000100
00000100
00000100
00000000
,  // measure 11
00000001
00000000
00000100
00000000
,  // measure 12
00000010
00000000
00001000
00000000
,  // measure 13
00000100
00000000
00010000
00000000
,  // measure 14
00001000
00000000
00100000
00000000
,  // measure 15
01000000
01000000
01000000
00000000
,  // measure 16
00100000
00100000
00100000
00000000
,  // measure 17
00001000
00001000
00001000
00000000
,  // measure 18
00010000
00010000
00010000
00000000
,  // measure 19
00000020
00000000
00000030
00000000
,  // measure 20
00000002
00000000
00000003
00000000
,  // measure 21
00000200
00000000
00000300
00000000
,  // measure 22
00000020
00000000
00000030
00000000
,  // measure 23
00020000
00000000
00030000
00000000
,  // measure 24
00002000
00000000
00003000
00000000
,  // measure 25
00200000
00000000
00300000
00000000
,  // measure 26
01000000
01000000
01000000
01000000
,  // measure 27
02000000
00000000
03000000
00000000
,  // measure 28
20000000
00000000
30000000
00000000
,  // measure 29
00020000
00000000
00030000
00000000
,  // measure 30
00200000
00000000
00300000
00000000
,  // measure 31
00002000
00000000
00003000
00000000
,  // measure 32
00020000
00000000
00030000
00000000
,  // measure 33
00000020
00000000
00000030
00000000
,  // measure 34
00000200
00000000
00000300
00000000
,  // measure 35
00000001
00000000
00000100
00000000
,  // measure 36
00000100
00000000
00000000
00000000
,  // measure 37
00001000
00000000
00010000
00000000
,  // measure 38
00010000
00000000
00000000
00000000
,  // measure 39
01000000
00000000
10000000
00000000
,  // measure 40
10000000
00000000
00000000
00000000
,  // measure 41
00100000
00000000
00010000
00000000
,  // measure 42
00010000
00000000
00000000
00000000
,  // measure 43
00001000
00001000
00001000
00000000
,  // measure 44
00000100
00000000
00000001
00000000
,  // measure 45
00001000
00001000
00001000
00000000
,  // measure 46
00000010
00000000
00010000
00000000
,  // measure 47
00001000
00001000
00001000
00000000
,  // measure 48
00100000
00000000
01000000
00000000
,  // measure 49
10000000
10000000
10000000
00000000
,  // measure 50
00100000
00000000
00010000
00000000
,  // measure 51
00001000
00000000
00000000
00000000
;
