#VERSION:0.83;
#TITLE:Don't Kill the Magic;
#SUBTITLE:;
#ARTIST:MAGIC!;
#TITLETRANSLIT:;
#SUBTITLETRANSLIT:;
#ARTISTTRANSLIT:;
#GENRE:;
#ORIGIN:;
#CREDIT:;
#BANNER:;
#BACKGROUND:;
#PREVIEWVID:;
#JACKET:;
#CDIMAGE:;
#DISCIMAGE:;
#LYRICSPATH:;
#CDTITLE:;
#MUSIC:Don't Kill the Magic.mp3;
#OFFSET:0.480000;
#SAMPLESTART:30.200001;
#SAMPLELENGTH:12.000000;
#SELECTABLE:YES;
#BPMS:0.000=130.000;
#STOPS:;
#DELAYS:;
#WARPS:;
#TIMESIGNATURES:0.000=4=4;
#TICKCOUNTS:0.000=4;
#COMBOS:0.000=1;
#SPEEDS:0.000=1.000=0.000=0;
#SCROLLS:0.000=1.000;
#FAKES:;
#LABELS:0.000=Song Start;
#BGCHANGES:;
#KEYSOUNDS:;
#ATTACKS:
;

//---------------dance-single - ----------------
#NOTEDATA:;
#CHARTNAME:;
#STEPSTYPE:dance-single;
#DESCRIPTION:;
#CHARTSTYLE:;
#DIFFICULTY:Hard;
#METER:12;
#RADARVALUES:0.541276,0.567824,1.001435,0.320046,0.005162,367.000000,270.000000,97.000000,31.000000,0.000000,0.000000,0.000000,0.000000,0.000000,0.541276,0.567824,1.001435,0.320046,0.005162,367.000000,270.000000,97.000000,31.000000,0.000000,0.000000,0.000000,0.000000,0.000000;
#CREDIT:;
#NOTES:
0000
0000
0000
0000
1000
0100
0020
0000
,
0100
0000
0130
0000
0001
0100
1000
0000
,
0010
0000
0100
0000
0001
0010
0200
0000
,
0010
0000
0310
0000
1000
0010
0001
0000
,
0100
0000
0010
0000
1000
0010
0200
0000
,
0010
0000
0310
0000
0001
0010
1000
0000
,
0100
0000
0010
0000
0001
0100
0020
0000
,
0100
0000
0130
0000
1000
0100
0001
0000
,
0010
0000
0100
0000
1000
0100
0010
0000
,
0001
1001
1001
1001
0000
0100
0010
0000
,
1000
1010
1010
1010
0000
1000
0100
0000
,
0010
0011
0011
0011
0000
0001
1000
0000
,
0010
0110
0110
0110
0000
0100
0001
0000
,
1000
1001
1100
1001
0000
1000
0010
0000
,
0100
1001
0011
1001
0000
0001
1000
0000
,
0100
1100
0101
1001
0000
1000
0100
0000
,
0010
0000
0011
0000
1010
0000
1001
0000
0000
0000
0100
0010
0100
0000
0001
0000
,
0101
0000
0110
0000
1100
0000
1001
0100
,
0110
0000
1010
0000
0011
0001
0100
0001
,
1001
1100
0101
1002
,
0023
0000
2030
0000
3100
0001
0100
0001
,
1010
0000
0011
0000
0101
0000
0110
0100
,
1001
0000
0101
0000
1100
1000
0001
1000
,
1010
0110
0011
2001
,
3200
0000
0302
0000
0013
1000
0010
1000
,
1100
0010
0001
1000
0200
0000
0310
0001
,
0100
0000
0110
0000
1001
0001
0010
0001
,
0100
0010
1000
0001
0200
0000
0310
1000
,
1001
0000
0110
0100
0001
0010
0100
1000
,
1010
0000
0011
0000
0101
0000
1100
1000
,
1010
0000
0110
0000
0011
0001
1000
0001
,
0101
0110
1100
2001
,
3200
0000
0302
0000
0013
1000
0010
1000
,
1200
0000
0000
0300
,
1001
0000
0001
1000
0200
0000
1300
0001
,
0200
0000
0301
1000
0200
0000
0310
0000
,
0110
0000
0010
0001
0200
0000
0310
1000
,
0200
0000
0310
0001
0200
0000
0310
0000
,
1001
0000
1010
0001
0100
0000
0011
1000
,
0100
0000
1010
0001
0100
0000
0011
1000
,
0100
0000
1001
0000
0110
0000
1001
0001
,
0021
0230
2300
3010
,
1010
0000
0110
0000
0011
0000
1001
0100
,
0110
0000
0101
0000
1100
1000
0010
1000
,
1001
0011
1010
2001
,
3020
0000
0032
0000
0103
1000
0100
1000
,
0011
0000
0110
0000
1010
0000
1100
0100
,
0101
0000
1001
0000
0011
0001
0100
0001
,
1010
1100
0101
1002
,
0023
0000
2030
0000
3100
0001
0100
0001
,
1010
0000
0000
0000
;

//---------------dance-single - ----------------
#NOTEDATA:;
#CHARTNAME:;
#STEPSTYPE:dance-single;
#DESCRIPTION:;
#CHARTSTYLE:;
#DIFFICULTY:Medium;
#METER:8;
#RADARVALUES:0.380516,0.438773,0.619444,0.299398,0.000000,258.000000,198.000000,60.000000,29.000000,0.000000,0.000000,0.000000,0.000000,0.000000,0.380516,0.438773,0.619444,0.299398,0.000000,258.000000,198.000000,60.000000,29.000000,0.000000,0.000000,0.000000,0.000000,0.000000;
#CREDIT:;
#NOTES:
0000
0000
1000
0010
,
0200
0000
0000
0000
0301
0010
0001
0000
,
1000
0100
0001
0010
,
0200
0000
0000
0000
1300
0010
1000
0000
,
0001
0010
1000
0100
,
0020
0000
0000
0000
0031
0100
0001
0000
,
1000
0010
0001
0100
,
0020
0000
0000
0000
1030
0100
1000
0000
,
0001
0010
1000
0001
,
0100
0010
0010
0010
0000
0000
1010
0000
,
0000
0100
0100
0100
0000
0000
0011
0000
,
0000
0001
0001
0001
0000
0000
1100
0000
,
0000
1000
1000
1000
0000
0000
0101
0000
,
0000
0010
0010
0010
0000
0000
0110
0000
,
0000
0001
0001
0001
0000
0000
1001
0000
,
0000
0100
0100
0100
0000
0000
0110
0000
,
0000
0001
0001
0001
0000
0000
1001
0000
,
0100
0011
1000
1100
,
0101
1000
1010
0110
,
0101
0011
1010
2001
,
0002
3003
0010
1001
,
0100
1010
0001
0101
,
1100
0001
0011
0110
,
1100
1010
0011
1002
,
2000
3003
0010
1001
,
1000
0000
0100
1000
0100
0000
0010
0001
,
0020
0000
0000
0000
0130
1000
0100
0000
,
0010
0000
0001
0000
0100
0010
0100
0010
,
2000
0000
3100
1001
,
0010
1100
0001
0011
,
1010
0001
0101
0110
,
1010
1100
0101
1002
,
2000
3003
0100
0010
,
0200
0000
0300
0000
,
0002
1003
2000
3100
,
0200
0000
0310
0001
0010
0000
0010
0000
,
2000
3010
0020
0031
,
0002
0000
0013
0100
0010
0000
0010
0000
,
0002
0013
0020
0130
,
0200
0000
0301
1000
0001
0000
0001
0000
,
2000
3010
0020
0130
,
0200
0301
0001
1001
,
0010
0101
1000
1010
,
0011
1000
1100
0110
,
0011
0101
1100
0210
,
0020
0330
0100
1001
,
0010
1100
0001
0011
,
1010
0001
0101
0110
,
1010
1100
0101
0210
,
0020
0330
0100
1001
,
0110
0000
0000
0000
;

//---------------dance-double - ----------------
#NOTEDATA:;
#CHARTNAME:;
#STEPSTYPE:dance-double;
#DESCRIPTION:;
#CHARTSTYLE:;
#DIFFICULTY:Hard;
#METER:13;
#RADARVALUES:0.486706,0.438773,0.082593,0.371667,0.000000,330.000000,322.000000,8.000000,36.000000,0.000000,0.000000,0.000000,0.000000,0.000000,0.486706,0.438773,0.082593,0.371667,0.000000,330.000000,322.000000,8.000000,36.000000,0.000000,0.000000,0.000000,0.000000,0.000000;
#CREDIT:;
#NOTES:
00000000
00000000
00000000
00000000
00010000
01000000
20000000
00000000
,
00100000
00000000
30100000
00000000
00010000
00100000
10000000
00100000
,
00000000
00100000
00010000
00000000
00001000
00000010
00000002
00000000
,
00000100
00000000
00000103
00000000
00001000
00000100
00000001
00000100
,
00000000
00000100
00001000
00000000
00010000
00100000
02000000
00000000
,
00010000
00000000
03010000
00000000
00100000
01000000
10000000
00100000
,
00000000
01000000
00001000
00000000
00001000
00000010
00000002
00000000
,
00000100
00000000
00000103
00000000
00000010
00001000
00000001
00000010
,
00000000
00000100
00010000
00000000
00010000
00100000
01000000
00000000
,
10000000
01000000
00010000
10010000
00000000
00010000
00100000
00000000
,
00100000
00001000
00010000
00011000
00000000
00010000
00001000
00000000
,
00001000
00000010
00000001
00000101
00000000
00000100
00000010
00000000
,
00000010
00000100
00001000
00011000
00000000
00010000
00001000
00010000
,
00100000
01000000
10000000
11000000
00000000
01000000
00010000
00000000
,
00010000
00100000
01000000
01010000
00000000
00010000
00001000
00000000
,
00001000
00000100
00000001
00001001
00000000
00000001
00000010
00000000
,
00000010
00000100
00010000
00010010
00000000
00010000
00100000
01000000
,
10000000
01000000
00010000
01000000
10000000
01000000
00010000
00001000
,
00000010
00000001
00000010
00001000
00000100
00000001
00001000
00000010
,
00000002
00000000
00000103
00001000
00010000
01000000
20000000
00000000
,
32000000
00000000
03200000
00000000
00310000
00001000
00000100
00000010
,
00000001
00000010
00001000
00000010
00000001
00000010
00001000
00010000
,
01000000
10000000
01000000
00010000
00100000
10000000
00010000
01000000
,
20000000
00000000
31000000
00010000
00001000
00000100
00000002
00000000
,
00000023
00000000
00000230
00000000
00010300
00001000
00000100
00000010
,
00000001
00000010
00001000
00000001
00000100
00001000
00010000
00100000
,
02000000
00000000
13000000
01000000
00010000
00100000
10000000
00010000
,
01000000
00010000
00001000
00000100
00000010
00000001
00001000
00000100
,
00000002
00000000
00000013
00000100
00010000
00001000
00000010
00000100
,
00000001
00000100
00001000
00000100
00000001
00000100
00001000
00010000
,
00100000
10000000
00100000
00010000
01000000
10000000
00010000
00100000
,
20000000
00000000
30100000
00010000
00001000
00000010
00000001
00000100
,
00001000
00010000
01000000
10000000
01000000
00010000
00001000
00000100
,
00000001
00000000
00000000
00000000
,
00002000
00000000
00013000
01000000
00020000
00000000
00031000
00000010
,
00002000
00000000
00013000
01000000
00020000
00000000
00032000
00000000
,
00023000
00000000
00031000
00000001
00002000
00000000
00013000
00001000
,
00020000
00000000
10030000
00010000
20000000
00000000
30020000
00000000
,
00032000
00000000
00013000
10000000
00020000
00000000
00031000
00000001
,
00002000
00000000
00013000
10000000
00020000
00000000
00032000
00000000
,
00023000
00000000
00031000
00000001
00002000
00000000
00013000
00001000
,
00020000
20030000
30020000
10030000
,
10000000
00100000
00010000
00100000
10000000
00100000
00010000
00001000
,
00000100
00000001
00000100
00001000
00000010
00000001
00001000
00000100
,
00000001
00000100
00001000
00010000
00100000
01000000
10000000
01000000
,
00010000
00100000
02000000
00000000
03010000
00001000
00000010
00000001
,
00001000
00000100
00000001
00000100
00000010
00000001
00000010
00001000
,
00010000
00100000
10000000
00010000
01000000
10000000
01000000
00100000
,
00010000
00001000
00000010
00000100
00000001
00000100
00001000
00010000
,
00100000
01000000
10000000
00100000
00010000
00001000
00000010
00000100
,
00000001
00000000
00000000
00000000
;

//---------------dance-single - ----------------
#NOTEDATA:;
#CHARTNAME:;
#STEPSTYPE:dance-single;
#DESCRIPTION:;
#CHARTSTYLE:;
#DIFFICULTY:Easy;
#METER:5;
#RADARVALUES:0.215331,0.258102,0.165185,0.206481,0.000000,146.000000,130.000000,16.000000,20.000000,0.000000,0.000000,0.000000,0.000000,0.000000,0.215331,0.258102,0.165185,0.206481,0.000000,146.000000,130.000000,16.000000,20.000000,0.000000,0.000000,0.000000,0.000000,0.000000;
#CREDIT:;
#NOTES:
0000
0000
1000
0010
,
2000
0000
3000
0000
,
1001
0000
0001
0100
,
0002
0000
0003
0000
,
1001
0000
1000
0100
,
2000
0000
3000
0000
,
1001
0000
0001
0100
,
0002
0000
0003
0000
,
1001
0000
1000
0010
,
0220
0330
0100
0001
,
2002
3003
0001
0010
,
0220
0330
0100
1000
,
2002
3003
0100
0100
,
0220
0330
1000
1000
,
2002
3003
0010
0010
,
0220
0330
0001
0001
,
2002
3003
0000
0001
,
1001
1000
0000
0010
,
0000
0001
0001
0001
,
0000
0100
0000
1000
,
1000
1000
0000
0010
,
0110
0100
0000
0001
,
0000
0010
0010
0010
,
0000
1000
0000
0100
,
0100
0100
0000
0010
,
0001
0001
0000
1000
,
0000
0010
0001
0001
,
0001
0100
0000
0010
,
0000
1000
1000
1000
,
0100
0010
0000
0001
,
0000
1000
1000
1000
,
0000
0010
0000
0001
,
0001
0001
0000
0100
,
0000
0000
0000
0000
,
0001
0001
0000
0001
,
0000
0001
0000
0001
,
0100
1000
0000
1000
,
0000
1000
0000
1000
,
0010
0001
0000
0001
,
0000
0001
0000
0001
,
0010
1000
0000
1000
,
0000
1000
0000
1000
,
1001
0001
0000
0100
,
0000
1000
1000
1000
,
0000
0010
0000
0001
,
0001
0001
0000
0100
,
0110
0010
0000
1000
,
0000
0100
0100
0100
,
0000
0001
0000
0010
,
0010
0010
0010
0010
,
0100
0000
0000
0000
;

//---------------dance-double - ----------------
#NOTEDATA:;
#CHARTNAME:;
#STEPSTYPE:dance-double;
#DESCRIPTION:;
#CHARTSTYLE:;
#DIFFICULTY:Medium;
#METER:9;
#RADARVALUES:0.353968,0.361343,0.082593,0.991111,0.000000,240.000000,232.000000,8.000000,96.000000,0.000000,0.000000,0.000000,0.000000,0.000000,0.353968,0.361343,0.082593,0.991111,0.000000,240.000000,232.000000,8.000000,96.000000,0.000000,0.000000,0.000000,0.000000,0.000000;
#CREDIT:;
#NOTES:
00000000
00000000
00000000
00000000
00000001
00000100
00000001
00000000
,
00000020
00000000
00000100
00000000
00000130
00001000
00000001
00000000
,
00000100
00000000
00000010
00000000
00010000
00001000
00010000
00000000
,
00002000
00000000
00100000
00000000
00103000
01000000
10000000
00000000
,
00010000
00000000
10000000
00000000
00100000
01000000
00100000
00000000
,
02000000
00000000
10000000
00000000
13000000
01000000
00010000
00000000
,
00100000
00000000
00001000
00000000
00010000
01000000
00010000
00000000
,
00002000
00000000
00000010
00000000
00003010
00000001
00001000
00000000
,
00000010
00000000
00000100
00000000
00000001
00001000
00000001
00000000
,
00000010
00000100
00000010
00000210
00000000
00000000
00001300
00000000
,
00000001
00001000
00000001
00001002
00000000
00000000
00000103
00000000
,
00001000
00010000
00001000
00021000
00000000
00000000
00130000
00000000
,
01000000
00010000
01000000
01020000
00000000
00000000
10030000
00000000
,
01000000
10000000
01000000
12000000
00000000
00000000
03010000
00000000
,
00001000
00010000
00001000
00021000
00000000
00000000
00030010
00000000
,
00000100
00000001
00000100
00000102
00000000
00000000
00000013
00000000
,
00000001
00001000
00000001
00002001
00000000
00000000
00003001
00000000
,
00000002
00000000
00000203
00000000
00000302
00000000
00000103
00001000
,
00000200
00002300
00003200
00002300
,
00023000
00000000
00230000
00000000
00320000
00000000
00130000
10000000
,
00200000
00000000
20300000
00000000
30020000
00000000
10030000
00010000
,
20000000
00000000
32000000
00000000
23000000
00000000
31000000
00010000
,
02000000
03020000
02030000
03020000
,
00032000
00000000
00003020
00000000
00002030
00000000
00003010
00000001
,
00000020
00000000
00000032
00000000
00000103
00000001
00000200
00000000
,
00000301
00000000
00000001
00000010
00001000
00000000
00010000
01000000
,
10000000
00000000
00000000
00000000
00100000
01000000
00010000
00000000
,
00010000
00000000
10000000
01000000
00010000
00000000
00001000
00000010
,
00000001
00000000
00000000
00001000
00000010
00000100
00000001
00000000
,
00000002
00000000
00000023
00000000
00000032
00000000
00000013
00001000
,
00000020
00002030
00003020
00002030
,
00023000
00000000
00230000
00000000
00320000
00000000
00130000
10000000
,
00200000
00000000
20300000
00000000
30200000
00000000
10300000
00010000
,
20000000
00000000
30000000
00000000
,
00020000
01000000
20030000
01000000
,
30020000
01000000
02030000
00001000
,
03002000
00100000
00023000
00000010
,
00032000
01000000
00023000
00000010
,
00030200
00001000
00000320
00000001
,
00000230
00001000
00000320
00000001
,
00000230
00001000
00020300
00001000
,
00032000
00203000
02300000
13000000
,
20000000
00000000
30200000
00000000
20300000
00000000
30100000
00010000
,
00200000
00320000
00230000
00320000
,
00032000
00000000
00003020
00000000
00002030
00000000
00003010
00000001
,
00000020
00000000
00000032
00000000
00000023
00000000
00000031
00001000
,
00000002
00000000
00000203
00000000
00000302
00000000
00000103
00001000
,
00000200
00002300
00003200
00002300
,
00023000
00000000
00230000
00000000
00320000
00000000
00130000
10000000
,
00200000
20300000
30200000
20300000
,
31000000
00000000
00000000
00000000
;

//---------------dance-double - ----------------
#NOTEDATA:;
#CHARTNAME:;
#STEPSTYPE:dance-double;
#DESCRIPTION:;
#CHARTSTYLE:;
#DIFFICULTY:Easy;
#METER:4;
#RADARVALUES:0.209431,0.258102,0.082593,0.206481,0.000000,142.000000,134.000000,8.000000,20.000000,0.000000,0.000000,0.000000,0.000000,0.000000,0.209431,0.258102,0.082593,0.206481,0.000000,142.000000,134.000000,8.000000,20.000000,0.000000,0.000000,0.000000,0.000000,0.000000;
#CREDIT:;
#NOTES:
00000000
00000000
10000000
00100000
,
20000000
00000000
31000000
01000000
,
01000000
00000000
00010000
00100000
,
00020000
00000000
00031000
00001000
,
00001000
00000000
00001000
00000100
,
00002000
00000000
00003010
00000010
,
00000010
00000000
00000001
00000100
,
00000002
00000000
00000013
00000010
,
00000010
00000000
00000100
00000100
,
00002002
00003003
00000010
00000010
,
00000220
00000330
00010000
00010000
,
00022000
00033000
01000000
01000000
,
02200000
03300000
10000000
10000000
,
20020000
30030000
01000000
01000000
,
02200000
03300000
00010000
00010000
,
00022000
00033000
00000010
00000010
,
00000220
00000330
00000000
00000000
,
00001000
00000001
00000000
00000100
,
00000000
00000001
00000100
00001000
,
00010000
00100000
00000000
10000000
,
00000000
00100000
10000000
00010000
,
00000000
10000000
00000000
01000000
,
00000000
10000000
01000000
00010000
,
00001000
00000010
00000000
00000001
,
00000000
00000100
00000001
00001000
,
00000001
00000010
00000000
00000010
,
00000000
00001000
00000000
00001000
,
00010000
00100000
00000000
00100000
,
00000000
10000000
00010000
10000000
,
00010000
10000000
00000000
00100000
,
00000000
10000000
00100000
00010000
,
00001000
00000010
00000000
00000001
,
00000000
00001000
00000001
00000100
,
00000000
00000000
00000000
00000000
,
00000000
00000001
00000000
00000010
,
00000000
00000100
00000000
00001000
,
00000000
00010000
00000000
00100000
,
00000000
01000000
00000000
10000000
,
00000000
10000000
00000000
00100000
,
00000000
01000000
00000000
00010000
,
00000000
00001000
00000000
00000010
,
00000000
00000100
00000000
00000001
,
00001000
00000001
00000000
00000010
,
00000000
00000001
00000010
00001000
,
00010000
00100000
00000000
10000000
,
00000000
00010000
00000000
00100000
,
00010000
10000000
00000000
01000000
,
00000000
10000000
01000000
00010000
,
00001000
00000010
00000000
00000001
,
00000000
00000100
00001000
00010000
,
00100000
00000000
00000000
00000000
;

//---------------dance-single - ----------------
#NOTEDATA:;
#CHARTNAME:;
#STEPSTYPE:dance-single;
#DESCRIPTION:;
#CHARTSTYLE:;
#DIFFICULTY:Beginner;
#METER:1;
#RADARVALUES:0.135688,0.154861,0.041296,0.000000,0.000000,92.000000,88.000000,4.000000,0.000000,0.000000,0.000000,0.000000,0.000000,0.000000,0.135688,0.154861,0.041296,0.000000,0.000000,92.000000,88.000000,4.000000,0.000000,0.000000,0.000000,0.000000,0.000000,0.000000;
#CREDIT:;
#NOTES:
0000
0000
0000
0000
,
1000
0000
0000
0000
,
0100
0000
0000
0000
,
0001
0000
0000
0000
,
0010
0000
0000
0000
,
0001
0000
0000
0000
,
0100
0000
0000
0000
,
1000
0000
0000
0000
,
0010
0000
0000
0001
,
0001
0000
0000
1000
,
1000
0000
0000
0010
,
0010
0000
0000
0100
,
0100
0000
0000
0001
,
0001
0000
0000
1000
,
1000
0000
0000
0010
,
0010
0000
0000
0100
,
0100
0000
0000
0000
,
0001
0000
0001
0000
,
0001
0000
1000
1000
,
1000
0000
0100
0000
,
0100
0000
0000
0000
,
1000
0000
1000
0000
,
1000
0000
0001
0001
,
0001
0000
0010
0000
,
0010
0000
0000
0000
,
1000
0000
1000
0000
,
1001
0000
0000
0000
,
0001
0000
0001
0000
,
1001
0000
0000
0000
,
0100
0000
0100
0000
,
0100
0000
0010
0010
,
0010
0000
1000
0000
,
0001
0000
0000
0000
,
1001
0000
0000
0000
,
0000
1000
0000
1000
,
0000
1000
0000
1000
,
0000
0001
0000
0001
,
0000
0001
0000
0001
,
0000
1000
0000
1000
,
0000
1000
0000
1000
,
0000
0001
0000
0001
,
0000
0001
0000
0001
,
1000
0000
1000
0000
,
1000
0000
0010
0010
,
0010
0000
0001
0000
,
0001
0000
0000
0000
,
0100
0000
0100
0000
,
0100
0000
0010
0010
,
0010
0000
1000
0000
,
1000
0000
0000
0000
,
1001
0000
0000
0000
;
