#VERSION:0.83;
#TITLE:Dirty Sexy Money;
#SUBTITLE:;
#ARTIST:David Guetta & Afrojack (feat. Charli XCX & French Montana);
#TITLETRANSLIT:;
#SUBTITLETRANSLIT:;
#ARTISTTRANSLIT:;
#GENRE:;
#ORIGIN:;
#CREDIT:;
#BANNER:;
#BACKGROUND:;
#PREVIEWVID:;
#JACKET:;
#CDIMAGE:;
#DISCIMAGE:;
#LYRICSPATH:;
#CDTITLE:;
#MUSIC:Dirty Sexy Money.mp3;
#OFFSET:-4.820000;
#SAMPLESTART:47.560001;
#SAMPLELENGTH:13.400000;
#SELECTABLE:YES;
#BPMS:0.000=160.000;
#STOPS:;
#DELAYS:;
#WARPS:;
#TIMESIGNATURES:0.000=4=4;
#TICKCOUNTS:0.000=4;
#COMBOS:0.000=1;
#SPEEDS:0.000=1.000=0.000=0;
#SCROLLS:0.000=1.000;
#FAKES:;
#LABELS:0.000=Song Start;
#BGCHANGES:;
#KEYSOUNDS:;
#ATTACKS:
;

//---------------dance-single - ----------------
#NOTEDATA:;
#CHARTNAME:;
#STEPSTYPE:dance-single;
#DESCRIPTION:;
#CHARTSTYLE:;
#DIFFICULTY:Hard;
#METER:12;
#RADARVALUES:0.561034,0.624994,0.527268,0.190907,0.031818,432.000000,374.000000,58.000000,21.000000,0.000000,0.000000,0.000000,0.000000,0.000000,0.561034,0.624994,0.527268,0.190907,0.031818,432.000000,374.000000,58.000000,21.000000,0.000000,0.000000,0.000000,0.000000,0.000000;
#CREDIT:;
#NOTES:
0000
0000
0000
0000
,
1002
0000
0000
0023
0000
0000
0230
0000
,
0000
0000
0300
0000
,
2001
0000
0000
3020
0000
0000
0230
0000
,
0000
0000
0300
0000
,
1001
0000
0001
1000
0100
0000
1000
0001
,
0100
0000
0001
1000
0200
0000
0000
0000
,
0310
0100
1000
0010
0100
0000
0100
0000
,
0010
0100
0001
0010
0100
0000
0100
1000
,
0020
0000
0000
0230
0000
0000
1300
0100
,
0001
0000
1000
0010
0100
0000
0001
0000
,
0020
0000
0000
0230
0000
0000
2300
0000
,
0010
0010
0000
0010
3000
0000
0000
0000
,
1001
0000
0001
0100
0010
0000
1000
0100
,
0010
0000
0001
0100
0020
0000
0000
0000
,
0130
1000
0100
0001
1000
0000
1000
0000
,
0001
0010
1000
0010
0100
0000
0100
1000
,
0002
0000
0000
0203
0000
0000
1300
0100
,
0010
0000
0100
0001
1000
0100
0010
0000
,
2000
0000
0000
3020
0000
0000
0032
0000
,
0100
0100
0000
0100
0003
0000
0001
1000
,
0001
0000
0110
0000
1000
0010
0100
0001
,
1000
0100
0010
0001
1000
0010
0100
1000
,
0100
0000
0110
0000
0001
0100
1000
0100
,
0001
0010
1000
0010
0001
0100
0010
1000
,
0100
0000
0000
0000
1001
0000
0000
0000
0001
0000
0100
0001
0100
0000
0010
0000
,
1000
0000
0100
1000
0100
0000
0010
0000
0001
0000
0100
0001
0100
0000
0010
0000
,
1000
0100
0010
0001
1000
0100
0010
0001
,
0200
0000
0000
0000
0310
1000
0001
1000
,
0100
0100
0100
0010
0010
0010
0001
0001
,
0001
0100
1001
0010
,
0100
0100
0100
0001
0001
0001
0010
0010
,
0010
1000
0110
0001
,
1000
1000
1000
0010
0010
0010
0001
0001
,
0001
1001
0110
1001
,
0100
0100
0100
1000
1000
0010
0100
0010
,
0101
1010
0101
1010
,
0001
0001
0001
0010
0010
0010
0100
0100
,
0100
0001
1100
0001
,
1000
1000
1000
0010
0010
0010
0100
0100
,
0100
0001
1010
0001
,
0010
0010
0010
0100
0100
0100
1000
1000
,
1000
0110
1001
0110
,
1000
1000
1000
0100
0100
0010
0001
0010
,
1100
0011
1100
0011
,
1000
1100
1100
1010
,
1001
0000
0000
0001
0000
1000
0001
0000
0100
0001
0000
0000
,
0010
0011
0011
1001
,
1100
0000
0000
1000
0000
0001
1000
0000
0010
1000
0000
0000
,
1100
0011
0101
1010
,
0001
0100
0001
0100
0010
1000
0010
1000
,
0001
0100
1000
0100
0001
0010
1000
0010
,
0200
0000
0300
0000
,
1001
0001
0100
0001
1000
0100
1000
0001
,
0110
1000
0110
0001
,
0110
0100
0001
0100
0010
1000
0010
0100
,
1001
0010
1001
0100
,
0011
0100
1000
0100
0011
0000
1010
0000
,
0101
1000
1100
0001
,
1010
0001
0100
0001
1000
0100
1000
0000
,
0020
0000
0000
0000
0130
0001
1000
0001
,
0010
0010
0010
0100
0100
0100
1000
1000
,
1000
0001
0110
1000
,
0001
0001
0001
0010
0010
0010
0100
0100
,
0100
0001
1100
0001
,
1000
1000
1000
0010
0010
0010
0001
0001
,
0001
1010
0101
1010
,
0001
0001
0001
0010
0010
0100
1000
0100
,
1001
0110
1001
0110
;

//---------------dance-single - ----------------
#NOTEDATA:;
#CHARTNAME:;
#STEPSTYPE:dance-single;
#DESCRIPTION:;
#CHARTSTYLE:;
#DIFFICULTY:Medium;
#METER:9;
#RADARVALUES:0.428568,0.531245,0.209089,0.190907,0.000000,330.000000,307.000000,23.000000,21.000000,0.000000,0.000000,0.000000,0.000000,0.000000,0.428568,0.531245,0.209089,0.190907,0.000000,330.000000,307.000000,23.000000,21.000000,0.000000,0.000000,0.000000,0.000000,0.000000;
#CREDIT:;
#NOTES:
0000
0000
0000
0000
,
2000
0000
0000
0100
0000
0000
0200
0000
,
0000
0000
3300
0000
,
0002
0000
0000
0100
0000
0000
0200
0000
,
0000
0000
0303
0000
,
1000
0000
0001
0010
0001
0000
1000
0100
,
1000
0000
0001
0010
0002
0000
0000
0000
,
1003
0001
1000
0000
0010
0000
0010
0000
,
0100
0001
0100
0000
0001
0000
0010
0000
,
0200
0000
0000
1000
0000
0000
2000
0000
,
0000
0000
3300
0000
,
0020
0000
0000
0001
0000
0000
0002
0000
,
0000
0000
0033
0000
,
0001
0000
1000
0010
1000
0000
0001
0100
,
0001
0000
1000
0010
2000
0000
0000
0000
,
3100
0010
0100
0000
1000
0000
0100
0000
,
0010
0001
0010
0000
0100
0000
1000
0000
,
0020
0000
0000
0100
0000
0000
0200
0000
,
0000
0000
0330
0000
,
2000
0000
0000
0001
0000
0000
0002
0000
,
0000
0000
0000
0000
3003
0000
1000
0001
,
1000
1000
0100
0100
,
0001
0000
0001
0000
0010
0000
0010
0100
,
0010
0010
1000
1000
,
0001
0000
0001
0000
0100
0000
0100
0010
,
0100
0000
0100
0000
0001
0100
0001
0000
,
1000
0100
1000
0000
0001
1000
0001
0000
,
0100
0100
0010
0010
,
2002
0000
3003
0000
,
0001
0010
0001
0010
0001
0010
0001
0010
,
0001
1000
1001
0000
,
1000
0100
1000
0100
1000
0100
1000
0100
,
1000
0001
1001
0000
,
0100
0010
0100
0010
0100
0010
0100
0010
,
0100
0001
1000
0001
,
0010
0100
0010
0100
0010
0100
0010
0100
,
1000
1000
0001
0001
,
1000
0010
1000
0010
1000
0010
1000
0010
,
1000
0100
0110
0000
,
0001
0010
0001
0010
0001
0010
0001
0010
,
0001
0100
0110
0000
,
1000
0001
1000
0001
1000
0001
1000
0001
,
1000
0010
0100
0010
,
1000
0001
1000
0001
1000
0001
1000
0001
,
0010
0010
0100
0100
,
2000
0001
0001
0001
,
3001
0000
0001
0100
1000
0100
0001
0000
,
0020
0100
0100
0100
,
0130
0000
0100
1000
0010
1000
0100
0000
,
0110
0110
1001
1001
,
0110
0000
0100
0001
1000
0001
0100
0000
,
0101
0101
1010
1010
,
2002
0000
3003
0000
,
0001
0100
0001
0100
0010
0000
1000
0010
,
1000
0001
1100
0011
,
1000
0001
1000
0000
0010
0100
0001
0100
,
0010
1000
0101
0010
,
1000
0100
0010
0100
1000
0000
0011
0000
,
1000
0100
1000
0000
1001
0000
0110
0000
,
0001
1000
0010
1000
0001
0000
0010
0000
,
0200
0000
0300
0000
,
1000
0100
1000
0100
1000
0100
1000
0100
,
1000
0001
1001
0000
,
0001
0010
0001
0010
0001
0010
0001
0010
,
0001
0100
0110
0000
,
1000
0001
1000
0001
1000
0001
1000
0001
,
1000
0100
0010
0001
,
0100
0010
0100
0010
0100
0010
0100
0010
,
1000
1000
0001
0001
;

//---------------dance-single - ----------------
#NOTEDATA:;
#CHARTNAME:;
#STEPSTYPE:dance-single;
#DESCRIPTION:;
#CHARTSTYLE:;
#DIFFICULTY:Easy;
#METER:6;
#RADARVALUES:0.283114,0.406246,0.154544,0.081817,0.000000,218.000000,201.000000,17.000000,9.000000,0.000000,0.000000,0.000000,0.000000,0.000000,0.283114,0.406246,0.154544,0.081817,0.000000,218.000000,201.000000,17.000000,9.000000,0.000000,0.000000,0.000000,0.000000,0.000000;
#CREDIT:;
#NOTES:
0000
0000
0000
0000
,
0100
0000
0000
0100
0000
0000
0200
0000
,
0000
0000
0300
0000
,
0010
0000
0000
0010
0000
0000
0020
0000
,
0000
0000
0030
0000
,
1000
0000
1000
0000
,
1000
0000
1000
0000
,
1000
1000
1000
0000
,
0001
0001
0001
0100
,
0010
0000
0000
0010
0000
0000
0020
0000
,
0000
0000
0030
0000
,
0100
0000
0000
0100
0000
0000
0200
0000
,
0000
0000
0300
0000
,
0010
0000
0010
0000
,
0100
0000
0100
0000
,
0010
0010
0010
0000
,
0100
0100
0100
0001
,
1000
0000
0000
1000
0000
0000
2000
0000
,
0000
0000
3000
0000
,
0001
0000
0000
0001
0000
0000
0002
0000
,
0000
0000
0003
0000
,
1000
1000
1000
1000
,
0001
0001
0001
0001
,
0010
0010
0010
0010
,
0100
0100
0100
0100
,
1000
1000
0010
0010
,
0100
0100
0001
0001
,
0010
0010
0010
0010
,
0020
0000
0030
0000
,
1000
1000
1000
1000
,
1000
0000
1001
0000
,
0001
0001
0001
0001
,
0001
0000
0110
0000
,
0100
0100
0100
0100
,
0100
0010
0010
0010
,
0100
0100
0010
0010
,
0110
0110
0110
0000
,
0001
0001
0001
0001
,
0001
0000
1001
0000
,
1000
1000
1000
1000
,
1000
0000
0110
0000
,
0100
0100
0100
0100
,
0100
0010
0010
0010
,
0100
0100
0010
0010
,
0110
0110
0110
0000
,
1000
1000
1000
1000
,
0100
0001
0100
0001
,
0010
0010
0010
0010
,
1000
0001
1000
0001
,
0100
0100
0010
0010
,
1000
0100
0001
0010
,
0100
0100
0010
0010
,
0200
0000
0300
0000
,
0001
0000
0000
0001
0000
0000
0001
0000
,
0100
0100
0100
0000
,
1000
0000
0000
1000
0000
0000
1000
0000
,
0100
0100
0100
0000
,
0010
0000
0000
0010
0000
0000
0010
0000
,
0100
0000
1001
0000
,
0100
0000
0000
0100
0000
0000
0100
0000
,
0020
0000
0030
0000
,
0100
0100
0100
0100
,
0100
0000
0110
0000
,
0010
0010
0010
0010
,
0010
0000
1001
0000
,
0001
0001
0001
0001
,
0001
1000
1000
1000
,
0010
0010
0100
0100
,
1001
1001
0110
0110
;

//---------------dance-single - ----------------
#NOTEDATA:;
#CHARTNAME:;
#STEPSTYPE:dance-single;
#DESCRIPTION:;
#CHARTSTYLE:;
#DIFFICULTY:Beginner;
#METER:2;
#RADARVALUES:0.142856,0.218748,0.090908,0.090908,0.000000,110.000000,100.000000,10.000000,10.000000,0.000000,0.000000,0.000000,0.000000,0.000000,0.142856,0.218748,0.090908,0.090908,0.000000,110.000000,100.000000,10.000000,10.000000,0.000000,0.000000,0.000000,0.000000,0.000000;
#CREDIT:;
#NOTES:
0000
0000
0000
0000
,
0000
0000
0000
0000
,
0000
0000
0000
0000
,
0000
0000
0000
0000
,
0000
0000
0000
0000
,
0001
0000
0001
0000
,
0001
0000
0001
0000
,
0200
0000
0300
0000
,
2000
0000
3000
0000
,
0020
0000
0000
0000
,
0030
0000
0000
0000
,
0002
0000
0000
0000
,
0003
0000
0000
0000
,
1000
0000
1000
0000
,
1000
0000
1000
0000
,
0200
0000
0300
0000
,
0002
0000
0003
0000
,
0020
0000
0000
0000
,
0030
0000
0000
0000
,
2000
0000
0000
0000
,
3000
0000
0000
0000
,
1001
0000
0001
0000
,
0001
0000
0001
0000
,
1001
0000
1000
0000
,
1000
0000
1000
0000
,
1001
0000
0100
0000
,
0100
0000
0100
0000
,
0100
0000
0010
0000
,
0010
0000
0000
0000
,
1000
0001
1000
0000
,
1000
0000
0000
0000
,
0001
1000
0001
0000
,
0001
0000
0000
0000
,
1000
0001
1000
0000
,
1000
0000
0000
0000
,
0100
0000
0100
0000
,
1001
0000
0000
0000
,
0010
0100
0010
0000
,
0010
0000
0000
0000
,
0100
0010
0100
0000
,
0100
0000
0000
0000
,
0010
0100
0010
0000
,
0010
0000
0000
0000
,
0001
0000
1000
0000
,
2002
0000
3003
0000
,
1000
0000
0000
0000
,
0001
0000
0000
0000
,
0100
0000
0000
0000
,
0010
0000
0000
0000
,
1000
0000
0001
0000
,
0100
0000
0010
0000
,
1000
0001
0100
0010
,
0000
0000
0000
0000
,
0001
0000
1000
0000
,
1001
0000
0000
0000
,
0100
0000
0010
0000
,
0110
0000
0000
0000
,
1001
0000
0000
0000
,
0110
0000
0000
0000
,
1001
0000
0000
0000
,
0000
0000
0000
0000
,
0001
1000
0001
0000
,
0001
0000
0000
0000
,
1000
0001
1000
0000
,
1000
0000
0000
0000
,
0010
0100
0010
0000
,
0010
0000
0000
0000
,
1000
0000
0001
0000
,
1000
0001
1000
0001
;

//---------------dance-double - ----------------
#NOTEDATA:;
#CHARTNAME:;
#STEPSTYPE:dance-double;
#DESCRIPTION:;
#CHARTSTYLE:;
#DIFFICULTY:Hard;
#METER:12;
#RADARVALUES:0.558437,0.531728,0.309088,0.190907,0.086363,430.000000,396.000000,34.000000,21.000000,0.000000,0.000000,0.000000,0.000000,0.000000,0.558437,0.531728,0.309088,0.190907,0.086363,430.000000,396.000000,34.000000,21.000000,0.000000,0.000000,0.000000,0.000000,0.000000;
#CREDIT:;
#NOTES:
// measure 0
00000000
00000000
00000000
00000000
,  // measure 1
00000002
00000000
00000000
00000023
00000000
00000000
00002030
00000000
,  // measure 2
00000000
00000000
00003000
00000000
,  // measure 3
00020000
00000000
00000000
00230000
00000000
00000000
20300000
00000000
,  // measure 4
00000000
00000000
30000000
00000000
,  // measure 5
10010000
00000000
10000000
01000000
00100000
00000000
01000000
00100000
,  // measure 6
00010000
00000000
00100000
00010000
00002000
00000000
00000000
00000000
,  // measure 7
00003100
00000010
00000001
00000010
00000100
00000000
00000100
00000000
,  // measure 8
00010000
00000010
00001000
00000010
00010000
00000000
00010000
00001000
,  // measure 9
00200000
00000000
00000000
02300000
00000000
00000000
13000000
01000000
,  // measure 10
00010000
00000000
00001000
00000010
00000100
00000010
00000001
00000000
,  // measure 11
00002000
00000000
00000000
00003020
00000000
00000000
00000230
00000000
,  // measure 12
00000001
00000001
00000000
00000001
00000300
00000000
00000000
00000000
,  // measure 13
00001001
00000000
00000001
00001000
00000100
00000000
00001000
00000100
,  // measure 14
00000010
00000000
00000100
00000010
00002000
00000000
00000000
00000000
,  // measure 15
00013000
00100000
01000000
00100000
10000000
00000000
10000000
00000000
,  // measure 16
00010000
00100000
10000000
00100000
01000000
00000000
01000000
00010000
,  // measure 17
00002000
00000000
00000000
00003200
00000000
00000000
00000310
00001000
,  // measure 18
00000001
00000000
00000001
00000010
00000100
00000010
00001000
00000000
,  // measure 19
00020000
00000000
00000000
00230000
00000000
00000000
20300000
00000000
,  // measure 20
00010000
00010000
00000000
00010000
30000000
00000000
00100000
01000000
,  // measure 21
00100000
00000000
10010000
00000000
10000000
01000000
00100000
01000000
,  // measure 22
00010000
00001000
00100000
00001000
00010000
00000010
00000100
00000001
,  // measure 23
00000100
00000000
00000110
00000000
00000010
00000001
00000010
00001000
,  // measure 24
00000100
00010000
00001000
00100000
00001000
00010000
00100000
01000000
,  // measure 25
00100000
00000000
00000000
00000000
10010000
00000000
00000000
00000000
10000000
00000000
00000000
10000000
01000000
00000000
00100000
00000000
,  // measure 26
01000000
00000000
00000000
10000000
01000000
00000000
00100000
00000000
01000000
00000000
00000000
10000000
01000000
00000000
00100000
00000000
,  // measure 27
00001000
00010000
00001000
00010000
00000010
00000100
00000010
00000100
,  // measure 28
00000002
00000000
00000000
00000000
00001003
00000100
00000010
00000001
,  // measure 29
00000100
00000100
00000001
00000010
00000010
00000001
00000100
00000100
,  // measure 30
00001000
00000000
00010000
00000000
00100000
01000000
00010000
10000000
,  // measure 31
01000000
01000000
00100000
00010000
00010000
00100000
10000000
10000000
,  // measure 32
00100000
00000000
00010000
00000000
10000000
01000000
00010000
00001000
,  // measure 33
00000010
00000001
00001000
00000001
00000100
00001000
00000100
00000001
,  // measure 34
00001000
00000110
00001001
00000110
,  // measure 35
00000001
00000001
00000010
00001000
00001000
00010000
00001000
00010000
,  // measure 36
00100000
01000000
00000000
00000000
00100000
01000000
00000000
00000000
00010000
10000000
00000000
00000000
00010000
10000000
00000000
00000000
,  // measure 37
01000000
01000000
00100000
00010000
00010000
00100000
10000000
10000000
,  // measure 38
00100000
00000000
01000000
00000000
00100000
00001000
00010000
00000100
,  // measure 39
00001000
00001000
00000001
00000010
00000010
00000001
00000100
00000100
,  // measure 40
00000010
00000000
00000100
00000000
00000001
00000100
00001000
00010000
,  // measure 41
00100000
10000000
00010000
00100000
00010000
10000000
01000000
10000000
,  // measure 42
00100000
10100000
01010000
10100000
,  // measure 43
10000000
10000000
00010000
00100000
00100000
00001000
00010000
00001000
,  // measure 44
00010000
00000010
00000000
00000000
00010000
00000010
00000000
00000000
00000100
00000010
00000000
00000000
00000100
00000010
00000000
00000000
,  // measure 45
00001000
00000101
00000101
00001001
,  // measure 46
00000011
00000000
00000000
00000100
00000000
00010000
00001000
00000000
00010000
00000010
00000000
00000000
,  // measure 47
00010000
00011000
00011000
00101000
,  // measure 48
11000000
00000000
00000000
10000000
00000000
00100000
01000000
00000000
00010000
01000000
00000000
00000000
,  // measure 49
01001000
00010010
00101000
00010100
,  // measure 50
00000010
00000100
00000010
00000100
00001000
00000001
00001000
00000001
,  // measure 51
00000100
00001000
00000100
00000001
00000010
00001000
00010000
00100000
,  // measure 52
02000000
00000000
03000000
00000000
,  // measure 53
10010000
00010000
01000000
00010000
10000000
00100000
10000000
01000000
,  // measure 54
00010000
00001000
00011000
00010000
,  // measure 55
00010010
00000010
00001000
00000010
00000100
00000001
00000100
00000010
,  // measure 56
00001000
00000100
00000110
00000010
,  // measure 57
00000011
00000001
00000100
00001000
00010000
00000000
00001000
00000000
,  // measure 58
01001000
01000000
01100000
00100000
,  // measure 59
10100000
00100000
10000000
00100000
01000000
00010000
01000000
00000000
,  // measure 60
00002000
00000000
00000000
00000000
00003010
00000001
00001000
00000001
,  // measure 61
00000100
00000100
00000010
00010000
00010000
00000010
00000100
00000100
,  // measure 62
00000001
00000000
00001000
00000000
00000001
00000010
00001000
00010000
,  // measure 63
01000000
01000000
00100000
00001000
00001000
00100000
00010000
00010000
,  // measure 64
10000000
00000000
01000000
00000000
00100000
00001000
00010000
00001000
,  // measure 65
00000100
00000001
00000010
00000001
00001000
00000010
00000100
00000010
,  // measure 66
00001000
00001001
00000110
00001001
,  // measure 67
00000001
00000001
00000010
00001000
00001000
00010000
00100000
10000000
,  // measure 68
00010000
01000000
00000000
00000000
00010000
01000000
00000000
00000000
00001000
00010000
00000000
00000000
00001000
00010000
00000000
00000000
;

//---------------dance-double - ----------------
#NOTEDATA:;
#CHARTNAME:;
#STEPSTYPE:dance-double;
#DESCRIPTION:;
#CHARTSTYLE:;
#DIFFICULTY:Medium;
#METER:10;
#RADARVALUES:0.416879,0.468746,0.145453,0.163635,0.000000,321.000000,305.000000,16.000000,18.000000,0.000000,0.000000,0.000000,0.000000,0.000000,0.416879,0.468746,0.145453,0.163635,0.000000,321.000000,305.000000,16.000000,18.000000,0.000000,0.000000,0.000000,0.000000,0.000000;
#CREDIT:;
#NOTES:
00000000
00000000
00000000
00000000
,
10000000
00000000
00000000
00010000
00000000
00000000
02000000
00000000
,
00000000
00000000
03000000
00000000
,
00001000
00000000
00000000
00010000
00000000
00000000
00002000
00000000
,
00000000
00000000
00003000
00000000
,
00000010
00000000
00000001
00000100
00000001
00000000
00001000
00000010
,
00001000
00000000
00000001
00000100
00000002
00000000
00000000
00000000
,
00000013
00000100
00000010
00000000
00000100
00000000
00010000
00000000
,
00001000
00010000
00001000
00000000
00010000
00000000
00100000
00000000
,
20000000
00000000
00000000
00010000
00000000
00000000
00020000
00000000
,
00000000
00000000
30030000
00000000
,
00200000
00000000
00000000
01000000
00000000
00000000
02000000
00000000
,
00000000
00000000
03300000
00000000
,
01000000
00000000
10000000
00100000
10000000
00000000
00010000
01000000
,
00010000
00000000
10000000
00100000
20000000
00000000
00000000
00000000
,
31000000
00100000
01000000
00000000
00010000
00000000
00001000
00000000
,
00010000
00000100
00010000
00000000
00000010
00000000
00000100
00000000
,
00000002
00000000
00000000
00000010
00000000
00000000
00000020
00000000
,
00000000
00000000
00000033
00000000
,
00002000
00000000
00000000
00000100
00000000
00000000
00000200
00000000
,
00000000
00000000
00000000
00000000
00003300
00000000
00010000
00001000
,
00010000
00001000
00100000
00100000
,
01000000
00000000
01000000
00000000
10000000
00000000
10000000
00010000
,
10000000
10000000
00100000
00100000
,
00010000
00000000
00010000
00000000
00001000
00000000
00001000
00010000
,
00001000
00000000
00001000
00000000
00000010
00000001
00000010
00000000
,
00000010
00000100
00000010
00000000
00000010
00001000
00000010
00000000
,
00000001
00000010
00001000
00010000
,
00200000
00000000
00300000
00000000
,
10000000
01000000
10000000
01000000
10000000
01000000
10000000
01000000
,
10000000
00100000
01100000
00000000
,
00001000
00010000
00001000
00010000
00001000
00010000
00001000
00010000
,
00001000
00000010
00000110
00000000
,
00000001
00000100
00000001
00000100
00000001
00000100
00000001
00000100
,
00000001
00000010
00000100
00000010
,
00001000
00010000
00001000
00010000
00001000
00010000
00001000
00010000
,
00100000
00100000
01000000
01000000
,
00010000
10000000
00010000
10000000
00010000
10000000
00010000
10000000
,
00010000
00100000
01100000
00000000
,
00100000
00001000
00100000
00001000
00100000
00001000
00100000
00001000
,
00100000
00001000
00011000
00000000
,
00010000
00000010
00010000
00000010
00010000
00000010
00010000
00000010
,
00010000
00000100
00000010
00000100
,
00001000
00000001
00001000
00000001
00001000
00000001
00001000
00000001
,
00000100
00000100
00000010
00000010
,
00020000
00001000
00001000
00001000
,
00031000
00000000
00100000
01000000
10000000
01000000
00100000
00000000
,
00002000
00010000
00010000
00010000
,
00013000
00000000
00000010
00000100
00000001
00000100
00000010
00000000
,
00000100
00000101
00000100
00001100
,
00001000
00000000
00010000
00001000
00100000
00001000
00010000
00000000
,
00001000
01001000
01000000
01100000
,
20020000
00000000
30030000
00000000
,
10000000
00010000
10000000
00010000
00100000
00000000
01000000
00000000
,
01000000
00010000
00011000
00001000
,
00000100
00000001
00000100
00000000
00000001
00000010
00000100
00000010
,
00000001
00001000
00001010
00000010
,
00000100
00001000
00010000
00001000
00100000
00000000
00110000
00000000
,
10010000
01000000
01100000
10000000
,
01000000
00100000
00010000
00100000
01000000
00000000
00010000
00000000
,
00002000
00000000
00003000
00000000
,
00000010
00000001
00000010
00000001
00000010
00000001
00000010
00000001
,
00000010
00000100
00001100
00000000
,
00010000
00000010
00010000
00000010
00010000
00000010
00010000
00000010
,
00010000
00001000
00011000
00000000
,
01000000
00100000
01000000
00100000
01000000
00100000
01000000
00100000
,
01000000
00010000
10000000
00010000
,
00100000
00001000
00100000
00001000
00010000
00000100
00010000
00000100
,
00001000
00001000
00000001
00000001
;

//---------------dance-double - ----------------
#NOTEDATA:;
#CHARTNAME:;
#STEPSTYPE:dance-double;
#DESCRIPTION:;
#CHARTSTYLE:;
#DIFFICULTY:Easy;
#METER:6;
#RADARVALUES:0.271426,0.374997,0.090908,0.081817,0.000000,209.000000,199.000000,10.000000,9.000000,0.000000,0.000000,0.000000,0.000000,0.000000,0.271426,0.374997,0.090908,0.081817,0.000000,209.000000,199.000000,10.000000,9.000000,0.000000,0.000000,0.000000,0.000000,0.000000;
#CREDIT:;
#NOTES:
00000000
00000000
00000000
00000000
,
10000000
00000000
00000000
10000000
00000000
00000000
20000000
00000000
,
00000000
00000000
30000000
00000000
,
00010000
00000000
00000000
00010000
00000000
00000000
00020000
00000000
,
00000000
00000000
00030000
00000000
,
10000000
00000000
01000000
00000000
,
00100000
00000000
01000000
00000000
,
10000000
10000000
10000000
00000000
,
00010000
00010000
00010000
00100000
,
00001000
00000000
00000000
00001000
00000000
00000000
00002000
00000000
,
00000000
00000000
00003000
00000000
,
00000100
00000000
00000000
00000100
00000000
00000000
00000200
00000000
,
00000000
00000000
00000300
00000000
,
00000001
00000000
00000100
00000000
,
00000010
00000000
00000100
00000000
,
00000001
00000001
00000001
00000000
,
00000010
00000010
00000010
00000100
,
00010000
00000000
00000000
00010000
00000000
00000000
00020000
00000000
,
00000000
00000000
00030000
00000000
,
00100000
00000000
00000000
00100000
00000000
00000000
00200000
00000000
,
00000000
00000000
00300000
00000000
,
10000000
10000000
01000000
01000000
,
00010000
00010000
00001000
00001000
,
00010000
00000000
00000010
00000010
,
00000100
00000100
00000001
00000001
,
00000010
00000000
00000100
00000100
,
00010000
00010000
00001000
00001000
,
01000000
01000000
00100000
00100000
,
20000000
00000000
30000000
00000000
,
10000000
01000000
00100000
01000000
,
10000000
00000000
01100000
00000000
,
00001000
00010000
00100000
00010000
,
00001000
00000000
00011000
00000000
,
00000100
00000010
00000001
00000010
,
00000100
00001000
00001000
00001000
,
00000010
00000100
00000010
00000000
,
00001000
00001000
00001000
00000000
,
00000001
00000010
00000100
00000010
,
00000001
00000000
00000110
00000000
,
00010000
00001000
00000100
00001000
,
00010000
00000000
00011000
00000000
,
00100000
01000000
10000000
01000000
,
00100000
00010000
00010000
00010000
,
01000000
00100000
01000000
00000000
,
00010000
00010000
00010000
00000000
,
10000000
10000000
10000000
10000000
,
00100000
00010000
00100000
00010000
,
00001000
00001000
00001000
00001000
,
00000010
00000001
00000010
00000001
,
00000100
00000100
00000100
00000100
,
00000010
00010000
00000010
00010000
,
00001000
00001000
00001000
00001000
,
00200000
00000000
00300000
00000000
,
00010000
10000000
00010000
00000000
,
01000000
00100000
01000000
00000000
,
10000000
01000000
10000000
01000000
,
00100000
00100000
00100000
00000000
,
00001000
00010000
00001000
00000000
,
00010000
00000010
00010000
00000000
,
00000100
00001000
00000100
00001000
,
00000002
00000000
00000003
00000000
,
00000010
00000001
00000100
00000001
,
00000010
00000000
00000110
00000000
,
00001000
00010000
00100000
00010000
,
00001000
00000000
00011000
00000000
,
01000000
00010000
00100000
00010000
,
01000000
00100000
00100000
00100000
,
10000000
00010000
10000000
00000000
,
01100000
01100000
01100000
01100000
;
