#VERSION:0.83;
#TITLE:Castlevania (Freestylin' Mix);
#SUBTITLE:;
#ARTIST:WaveGroup feat. Nicky G;
#TITLETRANSLIT:;
#SUBTITLETRANSLIT:;
#ARTISTTRANSLIT:;
#GENRE:;
#ORIGIN:;
#CREDIT:;
#BANNER:Castlevania (Freestylin' Mix).png;
#BACKGROUND:Castlevania (Freestylin' Mix)-bg.png;
#PREVIEWVID:;
#JACKET:Castlevania (Freestylin' Mix)-jacket.png;
#CDIMAGE:;
#DISCIMAGE:;
#LYRICSPATH:;
#CDTITLE:;
#MUSIC:Castlevania (Freestylin' Mix).ogg;
#OFFSET:0.000000;
#SAMPLESTART:56.667000;
#SAMPLELENGTH:15.000000;
#SELECTABLE:YES;
#DISPLAYBPM:127.000000;
#BPMS:0.000=127.000;
#STOPS:;
#DELAYS:;
#WARPS:;
#TIMESIGNATURES:0.000=4=4;
#TICKCOUNTS:0.000=4;
#COMBOS:0.000=1;
#SPEEDS:0.000=1.000=0.000=0;
#SCROLLS:0.000=1.000;
#FAKES:;
#LABELS:0.000=Song Start;
#BGCHANGES:;
#KEYSOUNDS:;
#ATTACKS:
;

//---------------dance-single - ----------------
#NOTEDATA:;
#CHARTNAME:;
#STEPSTYPE:dance-single;
#DESCRIPTION:;
#CHARTSTYLE:;
#DIFFICULTY:Beginner;
#METER:2;
#RADARVALUES:0.108787,0.171558,0.035012,0.061271,0.000000,87.000000,83.000000,4.000000,7.000000,0.000000,0.000000,0.000000,0.000000,0.000000,0.108787,0.171558,0.035012,0.061271,0.000000,87.000000,83.000000,4.000000,7.000000,0.000000,0.000000,0.000000,0.000000,0.000000;
#CREDIT:;
#DISPLAYBPM:127.000000;
#NOTES:
0000
0000
0000
0000
,
0000
0000
0000
0000
,
0001
0000
0000
0000
,
1000
0000
0000
0000
,
0001
0000
0000
0000
,
1000
0000
1000
0000
,
0002
0000
0000
0003
,
0001
0000
0000
0000
,
2000
0000
0000
3000
,
1000
0000
1000
0000
,
1000
0000
0000
0000
,
0001
0000
0001
0000
,
0001
0000
0000
0000
,
1001
0000
0000
0000
,
0100
0000
0100
0000
,
0100
0000
0000
0000
,
0010
0000
0010
0000
,
0010
0000
0000
1000
,
0000
1000
0000
0001
,
0000
0001
0000
1000
,
0000
1000
0000
0000
,
0010
0000
0000
0000
,
0010
0000
0000
0000
,
0100
0000
0000
0000
,
0100
0000
0000
0000
,
0001
0000
0001
0000
,
0001
0000
0001
0000
,
1000
0000
1000
0000
,
1000
0000
1000
0000
,
0010
0000
0010
0000
,
0100
0000
0000
0000
,
0100
0000
0100
0000
,
0010
0000
0000
0000
,
2000
0000
0000
3000
,
1000
0000
0000
0000
,
0002
0000
0000
0003
,
0001
0000
0000
0000
,
2000
0000
0000
3000
,
1000
1000
1000
1000
,
1000
0000
0000
0000
,
0110
0000
0000
0000
,
0010
0000
0010
0000
,
0100
0000
0100
0000
,
0001
0000
0001
0000
,
1000
0000
1000
0000
,
1001
0000
0000
0000
,
0001
0000
0001
0000
,
2000
0000
0000
3000
,
1000
0000
0000
0000
,
0002
0000
0000
0003
,
0001
0000
0000
0000
,
0010
0000
0010
0000
,
0001
0001
0001
0000
,
0100
0000
0100
0000
,
1000
1000
1000
0000
,
0001
0000
0000
0000
,
1001
0000
0000
0000
;

//---------------dance-single - ----------------
#NOTEDATA:;
#CHARTNAME:;
#STEPSTYPE:dance-single;
#DESCRIPTION:;
#CHARTSTYLE:;
#DIFFICULTY:Easy;
#METER:4;
#RADARVALUES:0.192565,0.247271,0.070024,0.262589,0.000000,154.000000,146.000000,8.000000,30.000000,0.000000,0.000000,0.000000,0.000000,0.000000,0.192565,0.247271,0.070024,0.262589,0.000000,154.000000,146.000000,8.000000,30.000000,0.000000,0.000000,0.000000,0.000000,0.000000;
#CREDIT:;
#DISPLAYBPM:127.000000;
#NOTES:
0000
0000
0000
0000
,
0000
0000
0000
0000
,
0000
0000
0000
0000
,
0000
0000
0000
0000
,
0001
0000
1000
0000
,
0010
0001
1000
0000
,
0002
0003
2000
3000
,
0001
1000
0100
0000
,
2000
3000
0002
0003
,
0020
0000
0130
0000
,
0002
0000
1003
0000
,
0020
0000
0130
0000
,
0001
0100
0010
1000
,
0002
0000
0000
0003
,
0001
1000
0001
1000
,
1001
0001
0000
0001
,
0000
1000
0000
1000
,
0001
0100
0000
0100
,
0010
1000
0000
1000
,
0100
0010
0000
0010
,
0001
1000
0000
1000
,
0010
0200
0000
0301
,
1000
0002
0000
0003
,
0010
0200
0000
1300
,
2001
0000
3001
0000
,
1000
0002
0000
0103
,
0010
2000
0000
3000
,
0001
2000
0000
3100
,
0010
0002
0000
0003
,
0100
0000
0110
0000
,
0020
0030
0200
0300
,
1000
0000
1001
0000
,
0002
0003
2000
3000
,
0002
0103
2000
3100
,
0002
0013
2000
3010
,
0001
0100
0001
0100
,
0020
0000
0000
0030
,
0110
0000
0000
0000
,
1000
0100
0010
0001
,
1001
0000
0000
0000
,
0000
0000
0000
0000
,
0001
0100
0010
1000
,
0010
0100
0001
0000
,
1000
0100
0010
0001
,
0010
0100
1000
0000
,
0001
1000
0001
1000
,
0002
2003
3002
1003
,
1001
0010
1000
0100
,
0001
0010
0002
0003
,
0100
1000
0010
0001
,
1000
0100
0001
0010
,
1000
1000
0001
0001
,
0100
0001
0100
0001
,
2000
0000
0000
3100
,
0010
0100
0001
0010
,
1001
0000
0000
0000
,
1000
0100
0010
0000
;

//---------------dance-single - ----------------
#NOTEDATA:;
#CHARTNAME:;
#STEPSTYPE:dance-single;
#DESCRIPTION:;
#CHARTSTYLE:;
#DIFFICULTY:Medium;
#METER:8;
#RADARVALUES:0.332613,0.396509,0.201318,0.210071,0.000000,266.000000,243.000000,23.000000,24.000000,0.000000,0.000000,0.000000,0.000000,0.000000,0.332613,0.396509,0.201318,0.210071,0.000000,266.000000,243.000000,23.000000,24.000000,0.000000,0.000000,0.000000,0.000000,0.000000;
#CREDIT:;
#DISPLAYBPM:127.000000;
#NOTES:
0000
0000
0000
0000
,
0000
0000
0000
0000
,
0000
0000
0000
0000
,
0000
0000
0000
0000
,
1001
0000
0020
0000
,
1030
0000
0100
0000
0010
0001
0010
0000
,
1000
0100
1000
0000
0001
0100
0001
0000
,
0100
0000
0010
0000
1000
0010
1000
0000
,
0100
0001
0100
0000
0100
1000
0100
0000
,
0020
0130
0002
1003
,
0020
0130
0002
1003
,
0200
1300
0020
0031
,
0200
1300
0020
0031
,
0200
0001
0010
1300
,
0100
0010
0001
1000
0100
0010
0100
0001
,
1000
0000
0100
0000
1000
1000
0100
0000
,
0001
0000
0010
0000
0001
0001
0010
0000
,
0001
0011
1000
1100
,
0001
0011
1000
1100
,
0001
0101
1000
1010
,
0101
1100
0101
0000
,
0020
1030
0010
0001
,
0200
0000
1300
0000
0010
0001
0100
0000
,
0020
0130
0001
1000
,
1001
0000
0000
0000
0220
0000
0000
0330
,
1002
0013
1000
0100
,
2001
0000
3010
0110
0000
0000
0101
0000
,
1100
0000
0010
0001
0000
0000
0001
0000
,
1000
0100
1000
0100
0001
0010
0100
1000
,
0001
0000
0100
0000
1000
0001
1000
0000
,
0010
1000
0100
0000
0010
1000
0100
0000
,
1000
0000
0100
0000
0001
1000
0001
0000
,
0010
0001
0100
0000
0010
0001
0100
0000
,
1000
0000
0001
0000
1000
0000
0001
0100
,
0010
0100
0010
1000
,
0100
0001
1000
0001
1000
0000
0100
0000
,
1000
0010
0100
0000
0001
0010
0100
0000
,
0110
0000
0000
0000
,
0001
0010
0001
0000
0100
0010
0100
0000
,
0110
0000
0000
0000
,
0000
0000
0000
0000
,
0010
0000
0100
0000
0001
1000
0001
0000
,
0010
0001
0100
0000
0010
0001
0100
0000
,
1000
0000
0001
0000
0100
0010
0100
0000
,
1000
0100
0001
0000
1000
0100
0001
0000
,
0001
0001
0100
0100
0010
0010
1000
0000
,
0110
1001
0110
1001
,
0002
1003
0020
0130
,
0002
1003
0020
0130
,
0002
0013
2000
3100
,
0002
0000
0013
0000
0001
1000
0001
1000
,
0001
0100
0010
0100
,
0001
0100
0001
0000
1000
0100
1000
0000
,
0100
0010
0100
0010
,
1000
0010
1000
0000
0001
0010
0001
0000
,
0100
1000
0010
0001
,
1000
0100
1000
0000
1000
0001
0000
0000
;

//---------------dance-single - ----------------
#NOTEDATA:;
#CHARTNAME:;
#STEPSTYPE:dance-single;
#DESCRIPTION:;
#CHARTSTYLE:;
#DIFFICULTY:Hard;
#METER:13;
#RADARVALUES:0.455154,0.503843,0.140047,0.210071,0.336989,364.000000,348.000000,16.000000,24.000000,0.000000,0.000000,0.000000,0.000000,0.000000,0.455154,0.503843,0.140047,0.210071,0.336989,364.000000,348.000000,16.000000,24.000000,0.000000,0.000000,0.000000,0.000000,0.000000;
#CREDIT:;
#DISPLAYBPM:127.000000;
#NOTES:
0000
0000
0000
0000
,
0000
0000
0000
0000
,
0000
0000
0000
0000
,
0000
0000
0000
0000
,
1000
0100
0000
1000
0000
0100
0000
0000
0000
0000
0000
0000
0001
0100
0001
0100
,
0001
0000
0000
0100
0000
0000
0010
0000
1000
0001
0000
0000
0000
0000
0000
0000
,
1100
0000
1000
0000
0000
0001
0000
0000
1000
0100
1000
0100
0000
0000
0000
0000
,
0010
0000
0001
0100
0000
0001
0100
0000
0001
0000
1000
0100
0000
1000
0100
0000
,
1000
0000
0010
0000
0000
0100
0000
0000
0001
0100
0001
0100
0000
0000
0000
0000
,
0010
0000
1000
0100
0000
1000
0100
0000
1000
0000
0001
0100
0000
0001
0100
0000
,
0010
0000
0000
1000
0000
0000
0100
0000
0001
0000
0000
0010
0000
0000
0001
0000
,
1000
0000
0000
0100
0000
0000
0001
0000
0010
0000
0000
0001
0000
0000
1000
0000
,
0010
0000
0000
0100
0000
0000
0001
0000
1000
0000
0000
0010
0000
0000
0001
0000
,
0100
0000
0000
1000
0000
0000
0100
0000
0010
0000
0000
0000
0001
0000
0100
0000
,
0120
0000
0000
0000
2030
0000
0000
0000
0200
3000
0000
0000
0020
0300
0000
0000
,
0032
0000
0200
0003
2000
0300
3200
0000
0002
0300
2000
0003
3100
1000
0100
1000
,
2100
0000
3010
0000
0001
0010
0100
0000
,
1000
0010
0100
0001
0100
0010
1000
0000
,
0001
1000
0000
0001
0000
0020
0000
0000
0000
0000
0000
0030
1000
0000
0100
0000
,
0001
0000
0000
1000
0000
0000
0010
0000
0001
0200
0000
0000
0000
0000
0300
0000
,
1000
0010
0000
1000
0000
0200
0000
0000
0000
0000
0000
0000
1300
0000
0100
0000
,
0011
0000
1000
0000
0001
0000
0100
0000
0010
0100
0010
0000
1001
0000
0000
0000
,
1000
0000
0000
0100
1000
0000
0000
0000
0001
0000
0100
0000
0010
0000
0000
0000
,
0001
0000
1000
0100
0000
0000
0110
0000
0000
0000
0000
0000
1001
0000
0000
0000
,
0001
0000
0000
0010
0001
0000
0000
0000
0001
0000
0100
0000
0001
0000
0000
0000
,
0001
0010
0100
1000
0002
0200
0000
0303
,
0101
0000
1100
1000
0000
0001
1000
0001
,
0100
0000
0010
1010
0000
0001
0101
0000
,
0101
0000
0001
0100
0000
0000
0110
0000
,
1000
0100
1000
0001
0010
0100
1000
0001
,
2000
0000
3200
0000
0301
0010
0001
0000
,
0001
0010
0001
0010
0000
0000
0100
0000
1000
0010
1000
0010
0000
0000
0100
0000
,
0002
0000
0203
0000
1300
0010
1000
0000
,
1000
0100
1000
0100
0000
0000
0010
0000
0001
0100
0001
0100
0000
0000
0010
0000
,
0200
0000
0000
0000
0010
0000
0000
0000
0301
0000
0000
0000
1000
0100
1000
0100
,
1000
0000
0001
0010
0000
0001
0100
1000
,
0010
1000
0001
0100
0001
0010
1000
0100
,
1000
0000
0000
0000
0000
0010
0000
0000
0000
0000
0000
1000
0000
0000
0000
0000
0001
0000
0000
0000
0000
0100
0000
0000
0000
0000
0000
0010
0000
0000
0000
0000
1000
0000
0000
0000
0000
0100
0000
0000
0000
0000
0000
0010
0000
0000
0000
0000
0001
0000
0000
0000
0000
0000
0000
0000
0010
0000
0000
0000
0000
0000
0000
0000
,
0001
0000
0000
0000
,
1001
0100
0010
1000
0110
0001
0100
0010
,
1001
0000
0000
0000
,
0000
0000
0000
0000
,
1000
0100
0001
0100
1000
0100
0001
0010
,
1000
0010
0001
1000
0100
0000
0000
0000
,
0001
0100
1000
0100
0001
0100
1000
0010
,
0001
0010
1000
0001
0100
0000
0000
0000
,
1000
0100
1000
0002
0203
0302
1003
0000
,
0010
0000
1000
0100
0000
0100
1000
0000
0001
0000
0010
0001
0000
0001
0010
0000
,
0010
0000
0000
0001
0000
0000
0100
0000
1000
0000
0000
0010
0000
0000
1000
0000
,
0001
0000
0000
0100
0000
0000
1000
0000
0010
0000
0000
1000
0000
0000
0001
0000
,
0010
0000
0000
0100
0000
0000
1000
0000
0001
0000
0000
0010
0000
0000
1000
0000
,
0001
0000
0010
0000
0000
0001
0000
0000
0100
0000
0001
0000
0100
0000
1000
0000
,
0100
0010
1000
0000
0100
0010
0001
0000
,
0100
0000
0100
0000
0001
0000
0001
0000
1000
0000
1000
0000
0010
1000
0000
0000
,
1000
0001
0100
0010
0100
0001
1000
0000
,
0100
0000
0100
0000
1000
0000
1000
0000
0001
0000
0001
0000
1000
0010
0000
0000
,
1000
0100
0000
0100
0000
1000
0000
0000
0000
0000
0010
0000
0000
0001
0000
0000
,
0100
0000
0000
0010
0000
0000
0001
0000
1000
0100
0000
0000
0000
0000
0000
0000
;

//---------------dance-double - ----------------
#NOTEDATA:;
#CHARTNAME:;
#STEPSTYPE:dance-double;
#DESCRIPTION:;
#CHARTSTYLE:;
#DIFFICULTY:Beginner;
#METER:2;
#RADARVALUES:0.108787,0.171558,0.035012,0.061271,0.000000,87.000000,83.000000,4.000000,7.000000,0.000000,0.000000,0.000000,0.000000,0.000000,0.108787,0.171558,0.035012,0.061271,0.000000,87.000000,83.000000,4.000000,7.000000,0.000000,0.000000,0.000000,0.000000,0.000000;
#CREDIT:;
#DISPLAYBPM:127.000000;
#NOTES:
// measure 0
00000000
00000000
00000000
00000000
,  // measure 1
00000000
00000000
00000000
00000000
,  // measure 2
10000000
00000000
00000000
00000000
,  // measure 3
10000000
00000000
00000000
00000000
,  // measure 4
00010000
00000000
00000000
00000000
,  // measure 5
00010000
00000000
00010000
00000000
,  // measure 6
02000000
00000000
00000000
03000000
,  // measure 7
01000000
00000000
00000000
00000000
,  // measure 8
00020000
00000000
00000000
00030000
,  // measure 9
00010000
00000000
00010000
00000000
,  // measure 10
00010000
00000000
00000000
00000000
,  // measure 11
00001000
00000000
00001000
00000000
,  // measure 12
00001000
00000000
00000000
00000000
,  // measure 13
00011000
00000000
00000000
00000000
,  // measure 14
00010000
00000000
00010000
00000000
,  // measure 15
00010000
00000000
00000000
00000000
,  // measure 16
00001000
00000000
00001000
00000000
,  // measure 17
00001000
00000000
00000000
00000100
,  // measure 18
00000000
00000100
00000000
00000010
,  // measure 19
00000000
00000010
00000000
00000100
,  // measure 20
00000000
00000100
00000000
00000000
,  // measure 21
00000001
00000000
00000000
00000000
,  // measure 22
00000001
00000000
00000000
00000000
,  // measure 23
00000100
00000000
00000000
00000000
,  // measure 24
00000100
00000000
00000000
00000000
,  // measure 25
00001000
00000000
00001000
00000000
,  // measure 26
00001000
00000000
00001000
00000000
,  // measure 27
00010000
00000000
00010000
00000000
,  // measure 28
00010000
00000000
00010000
00000000
,  // measure 29
00100000
00000000
00100000
00000000
,  // measure 30
01000000
00000000
00000000
00000000
,  // measure 31
01000000
00000000
01000000
00000000
,  // measure 32
00100000
00000000
00000000
00000000
,  // measure 33
00020000
00000000
00000000
00030000
,  // measure 34
00010000
00000000
00000000
00000000
,  // measure 35
20000000
00000000
00000000
30000000
,  // measure 36
10000000
00000000
00000000
00000000
,  // measure 37
02000000
00000000
00000000
03000000
,  // measure 38
01000000
01000000
01000000
01000000
,  // measure 39
01000000
00000000
00000000
00000000
,  // measure 40
01100000
00000000
00000000
00000000
,  // measure 41
00010000
00000000
00010000
00000000
,  // measure 42
00001000
00000000
00001000
00000000
,  // measure 43
00010000
00000000
00010000
00000000
,  // measure 44
00001000
00000000
00001000
00000000
,  // measure 45
00011000
00000000
00000000
00000000
,  // measure 46
00000010
00000000
00000010
00000000
,  // measure 47
00000200
00000000
00000000
00000300
,  // measure 48
00000100
00000000
00000000
00000000
,  // measure 49
00000002
00000000
00000000
00000003
,  // measure 50
00000001
00000000
00000000
00000000
,  // measure 51
00001000
00000000
00001000
00000000
,  // measure 52
00000100
00000100
00000100
00000000
,  // measure 53
00000010
00000000
00000010
00000000
,  // measure 54
00000001
00000001
00000001
00000000
,  // measure 55
00001000
00000000
00000000
00000000
,  // measure 56
00001001
00000000
00000000
00000000
;

//---------------dance-double - ----------------
#NOTEDATA:;
#CHARTNAME:;
#STEPSTYPE:dance-double;
#DESCRIPTION:;
#CHARTSTYLE:;
#DIFFICULTY:Easy;
#METER:5;
#RADARVALUES:0.186313,0.247271,0.043765,0.262589,0.000000,149.000000,144.000000,5.000000,30.000000,0.000000,0.000000,0.000000,0.000000,0.000000,0.186313,0.247271,0.043765,0.262589,0.000000,149.000000,144.000000,5.000000,30.000000,0.000000,0.000000,0.000000,0.000000,0.000000;
#CREDIT:;
#DISPLAYBPM:127.000000;
#NOTES:
// measure 0
00000000
00000000
00000000
00000000
,  // measure 1
00000000
00000000
00000000
00000000
,  // measure 2
00000000
00000000
00000000
00000000
,  // measure 3
00000000
00000000
00000000
00000000
,  // measure 4
00100000
00000000
01000000
00000000
,  // measure 5
00001000
00100000
00010000
00000000
,  // measure 6
00000020
00000030
00000200
00000300
,  // measure 7
00000001
00000100
00001000
00000000
,  // measure 8
00020000
00030000
00002000
00003000
,  // measure 9
00200000
00000000
01300000
00000000
,  // measure 10
20000000
00000000
30010000
00000000
,  // measure 11
00020000
00000000
00130000
00000000
,  // measure 12
00001000
00010000
00000010
00000100
,  // measure 13
00000002
00000000
00000000
00000003
,  // measure 14
00000100
00000100
00000001
00000001
,  // measure 15
00000100
00001000
00000000
00001000
,  // measure 16
00000000
00010000
00000000
00010000
,  // measure 17
00100000
10000000
00000000
10000000
,  // measure 18
01000000
00010000
00000000
00010000
,  // measure 19
00001000
00000100
00000000
00000100
,  // measure 20
00000001
00001000
00000000
00000001
,  // measure 21
00000100
00002000
00000000
00013000
,  // measure 22
01000000
20000000
00000000
30000000
,  // measure 23
00010000
00200000
00000000
00301000
,  // measure 24
00020000
00000000
00031000
00000000
,  // measure 25
00010000
00000200
00000000
00000310
,  // measure 26
00000001
00002000
00000000
00003000
,  // measure 27
00000010
00000200
00000000
00001300
,  // measure 28
00010000
02000000
00000000
03000000
,  // measure 29
00100000
00000000
01100000
00000000
,  // measure 30
20000000
30000000
00020000
00030000
,  // measure 31
01000000
00000000
00001000
00000000
,  // measure 32
00020000
00030000
00002000
00003000
,  // measure 33
00000200
00000310
00002000
00003001
,  // measure 34
00000200
00001300
00020000
00031000
,  // measure 35
00100000
00010000
00100000
00010000
,  // measure 36
20000000
00000000
00000000
30000000
,  // measure 37
10010000
00000000
00000000
00000000
,  // measure 38
10000000
01000000
00010000
00001000
,  // measure 39
00011000
00000000
00000000
00000000
,  // measure 40
00000000
00000000
00000000
00000000
,  // measure 41
00000001
00000100
00000010
00001000
,  // measure 42
00000010
00000100
00000001
00000000
,  // measure 43
00001000
00000100
00010000
00001000
,  // measure 44
00100000
00010000
01000000
00000000
,  // measure 45
10000000
00010000
10000000
00010000
,  // measure 46
20000000
32000000
03020000
00031000
,  // measure 47
00011000
00001000
00100000
00001000
,  // measure 48
00010000
00000100
00000020
00000030
,  // measure 49
00000001
00001000
00000001
00000000
,  // measure 50
00000001
00000100
00001000
00010000
,  // measure 51
00001000
00001000
00100000
00000000
,  // measure 52
00010000
01000000
00010000
01000000
,  // measure 53
00020000
00000000
00000000
00130000
,  // measure 54
10000000
01000000
00010000
00001000
,  // measure 55
00011000
00000000
00000000
00000000
,  // measure 56
00001000
00000100
00000010
00000000
;

//---------------dance-double - ----------------
#NOTEDATA:;
#CHARTNAME:;
#STEPSTYPE:dance-double;
#DESCRIPTION:;
#CHARTSTYLE:;
#DIFFICULTY:Medium;
#METER:8;
#RADARVALUES:0.332613,0.396509,0.192565,0.192565,0.000000,266.000000,244.000000,22.000000,22.000000,0.000000,0.000000,0.000000,0.000000,0.000000,0.332613,0.396509,0.192565,0.192565,0.000000,266.000000,244.000000,22.000000,22.000000,0.000000,0.000000,0.000000,0.000000,0.000000;
#CREDIT:;
#DISPLAYBPM:127.000000;
#NOTES:
// measure 0
00000000
00000000
00000000
00000000
,  // measure 1
00000000
00000000
00000000
00000000
,  // measure 2
00000000
00000000
00000000
00000000
,  // measure 3
00000000
00000000
00000000
00000000
,  // measure 4
00100000
01000000
10010000
00000000
,  // measure 5
00010000
00000000
00001000
00000000
00000100
00000010
00000100
00000000
,  // measure 6
00000001
00000100
00000001
00000000
00001000
00000100
00001000
00000000
,  // measure 7
00010000
00000000
00001000
00000000
01000000
00100000
01000000
00000000
,  // measure 8
00010000
01000000
00010000
00000000
10000000
01000000
10000000
00000000
,  // measure 9
02000000
03010000
02000000
13000000
,  // measure 10
00200000
00310000
00002000
00013000
,  // measure 11
00000200
00000301
00000200
00001300
,  // measure 12
00000020
00000031
00000020
00001030
,  // measure 13
00010000
00001000
00100000
00010000
,  // measure 14
01000000
00010000
01000000
00010000
10000000
00100000
10000000
00100000
,  // measure 15
10000000
00000000
01000000
00000000
00010000
00010000
00001000
00000000
,  // measure 16
00010000
00000000
00000010
00000000
00001000
00001000
00000100
00000000
,  // measure 17
00000010
00000011
00001000
00001100
,  // measure 18
00000001
00000101
00001000
00001100
,  // measure 19
00010000
00011000
00100000
00110000
,  // measure 20
10010000
11000000
01010000
00000000
,  // measure 21
20000000
30100000
01000000
00010000
,  // measure 22
00002000
00000000
00013000
00000000
00000010
00001000
00000100
00000000
,  // measure 23
00000002
00000103
00001000
00010000
,  // measure 24
00011000
00000000
00000000
00000000
02200000
00000000
00000000
03300000
,  // measure 25
10020000
00130000
10000000
01000000
,  // measure 26
00020000
00000000
00031000
00011000
00000000
00000000
00010100
00000000
,  // measure 27
00001100
00000000
00000100
00001000
00000000
00000000
00000010
00000000
,  // measure 28
00000100
00000001
00000100
00000001
00001000
00000010
00000100
00000001
,  // measure 29
00000100
00000000
00001000
00000000
00010000
00001000
00010000
00000000
,  // measure 30
00100000
00010000
01000000
00000000
00100000
10000000
01000000
00000000
,  // measure 31
00010000
00000000
00001000
00000000
00010000
00001000
00010000
00000000
,  // measure 32
00000010
00001000
00000100
00000000
00000010
00000001
00000100
00000000
,  // measure 33
00001000
00000000
00010000
00000000
00001000
00000000
00010000
01000000
,  // measure 34
00100000
00010000
10000000
00010000
,  // measure 35
00100000
00010000
10000000
00010000
10000000
00000000
01000000
00000000
,  // measure 36
00010000
00001000
00010000
00000000
00000100
00001000
00000100
00000000
,  // measure 37
00000110
00000000
00000000
00000000
,  // measure 38
00000001
00000100
00001000
00000000
00001000
00010000
00100000
00000000
,  // measure 39
01100000
00000000
00000000
00000000
,  // measure 40
00000000
00000000
00000000
00000000
,  // measure 41
10000000
00000000
01000000
00000000
00010000
00001000
00010000
00000000
,  // measure 42
00000010
00001000
00000100
00000000
00000010
00000001
00000100
00000000
,  // measure 43
00001000
00000000
00010000
00000000
00001000
00010000
00001000
00000000
,  // measure 44
00100000
00010000
01000000
00000000
00100000
10000000
01000000
00000000
,  // measure 45
00010000
00010000
00001000
00001000
00010000
00010000
00001000
00000000
,  // measure 46
00000110
00001001
00000110
00001001
,  // measure 47
00000200
00001300
00020000
00130000
,  // measure 48
20000000
31000000
00020000
00031000
,  // measure 49
00002000
00003100
00000002
00000013
,  // measure 50
00002000
00000000
00013000
00000000
00001000
00010000
00001000
00010000
,  // measure 51
00001000
01000000
00100000
01000000
,  // measure 52
00010000
01000000
00010000
00000000
10000000
01000000
10000000
00000000
,  // measure 53
01000000
00010000
00001000
00000100
,  // measure 54
00000010
00000100
00000010
00000000
00000100
00000010
00000100
00000000
,  // measure 55
00000001
00000100
00001000
00010000
,  // measure 56
00001000
00010000
00001000
00000000
00100000
00010000
00000000
00000000
;

//---------------dance-double - ----------------
#NOTEDATA:;
#CHARTNAME:;
#STEPSTYPE:dance-double;
#DESCRIPTION:;
#CHARTSTYLE:;
#DIFFICULTY:Hard;
#METER:12;
#RADARVALUES:0.430146,0.503843,0.113789,0.183812,0.188189,344.000000,331.000000,13.000000,21.000000,0.000000,0.000000,0.000000,0.000000,0.000000,0.430146,0.503843,0.113789,0.183812,0.188189,344.000000,331.000000,13.000000,21.000000,0.000000,0.000000,0.000000,0.000000,0.000000;
#CREDIT:;
#DISPLAYBPM:127.000000;
#NOTES:
// measure 0
00000000
00000000
00000000
00000000
,  // measure 1
00000000
00000000
00000000
00000000
,  // measure 2
00000000
00000000
00000000
00000000
,  // measure 3
00000000
00000000
00000000
00000000
,  // measure 4
10000000
01000000
00000000
10000000
00000000
01000000
00000000
00000000
00000000
00000000
00000000
00000000
00010000
00000000
00001000
00000000
,  // measure 5
00010000
00000000
00000000
00000010
00000000
00000000
00001000
00000000
00000001
00000100
00000000
00000000
00000000
00000000
00000000
00000000
,  // measure 6
00000110
00000000
00000001
00000000
00000000
00000100
00000000
00000000
00001000
00000000
00010000
00000000
00000010
00000000
00000000
00000000
,  // measure 7
00000100
00001000
00020000
00030000
01000000
10000000
00020000
00030000
,  // measure 8
10000000
01000000
10000000
00010000
10000000
00100000
10000000
00000000
,  // measure 9
01000000
00010000
00002000
00003000
00000100
00000001
00002000
00003000
,  // measure 10
00000001
00000000
00000000
00000100
00000000
00000000
00001000
00000000
00010000
00000000
00000000
00100000
00000000
00000000
00010000
00000000
,  // measure 11
00001000
00000000
00000000
00000010
00000000
00000000
00001000
00000000
00010000
00000000
00000000
01000000
00000000
00000000
10000000
00000000
,  // measure 12
00010000
00000000
00000000
00100000
00000000
00000000
00001000
00000000
00010000
00000000
00000000
00000010
00000000
00000000
00001000
00000000
,  // measure 13
00000001
00000000
00000000
00000100
00000000
00000000
00001000
00000000
00010000
00000000
00000000
00000000
00100000
00000000
10000000
00000000
,  // measure 14
10010000
01000000
00001000
00010000
,  // measure 15
00000010
00001000
00000001
00000100
00000001
00000100
00001000
00010000
,  // measure 16
00001000
00000000
00100000
00000000
00010000
00100000
01000000
00000000
,  // measure 17
10000000
00100000
01000000
00010000
01000000
10000000
00010000
00000000
,  // measure 18
00100000
10000000
00000000
00100000
00000000
10000000
00000000
00000000
00000000
00000000
00000000
00000000
01000000
00000000
00010000
00000000
,  // measure 19
00001000
00000000
00000000
00010000
00000000
00000000
00000010
00000000
00001000
00000010
00000000
00000000
00000000
00000000
00000000
00000000
,  // measure 20
00000001
00000010
00000000
00000001
00000000
00000100
00000000
00000000
00000000
00000000
00000000
00000000
00001000
00000000
00010000
00000000
,  // measure 21
00001000
00000000
00101000
00000000
00100000
00010000
10000000
00000000
,  // measure 22
00010000
00000000
00000000
01000000
00010000
00000000
00000000
00000000
00001000
00000000
00100000
00000000
00010000
00000000
00000000
00000000
,  // measure 23
00001000
00000000
00010000
00001000
00000000
00000000
00000200
00000000
00000000
00000000
00000300
00000000
00000110
00000000
00000000
00000000
,  // measure 24
00000001
00000000
00000000
00000100
00000001
00000000
00000000
00000000
00000100
00000000
00001000
00000000
00010000
00000000
00000000
00000000
,  // measure 25
00100000
00001000
00100000
00010000
20000000
02000000
00000000
33000000
,  // measure 26
00110000
00000000
00101000
00010000
00000000
00000010
00010000
00001000
,  // measure 27
00000100
00000000
00000001
00000101
00000000
00001000
00001100
00000000
,  // measure 28
00000110
00000000
00010000
00001000
00000000
00000000
01001000
00000000
,  // measure 29
00010000
01000000
00010000
10000000
00100000
01000000
00010000
10000000
,  // measure 30
02000000
00000000
03020000
00000000
00031000
00010000
00001000
00000000
,  // measure 31
00010000
00000010
00001000
00000100
00010000
00000010
00001000
00000100
,  // measure 32
00000020
00000000
00000032
00000000
00000103
00001000
00010000
00000000
,  // measure 33
00001000
00100000
00010000
01000000
00001000
00100000
00010000
01000000
,  // measure 34
00200000
00000000
00000000
00000000
00000000
00000000
00000000
00000000
00000000
00000000
00300000
00000000
10000000
00100000
10000000
00100000
,  // measure 35
20000000
00000000
00000000
32000000
00000000
03020000
00032000
00003200
,  // measure 36
00000302
00001003
00000010
00000100
00000001
00000100
00001000
00010000
,  // measure 37
00100000
00000000
00000000
00000000
00000000
01000000
00000000
00000000
00000000
00000000
00000000
00010000
00000000
00000000
00000000
00000000
10000000
00000000
00000000
00000000
00000000
01000000
00000000
00000000
00000000
00000000
00000000
00100000
00000000
00000000
00000000
00000000
00010000
00000000
00000000
00000000
00000000
00100000
00000000
00000000
00000000
00000000
00000000
01000000
00000000
00000000
00000000
00000000
10000000
00000000
00000000
00000000
00000000
00000000
00000000
00000000
01000000
00000000
00000000
00000000
00000000
00000000
00000000
00000000
,  // measure 38
00010000
00000000
00000000
00000000
,  // measure 39
00011000
00010000
00000010
00001000
00001001
00000001
00000100
00000010
,  // measure 40
00000110
00000000
00000000
00000000
,  // measure 41
00000000
00000000
00000000
00000000
,  // measure 42
10000000
01000000
10000000
00010000
10000000
00100000
10000000
01000000
,  // measure 43
00010000
00001000
00000100
00000010
00000001
00000000
00000000
00000000
,  // measure 44
00000001
00000100
00000001
00001000
00000001
00000010
00000001
00000100
,  // measure 45
00001000
00010000
00100000
01000000
10000000
00000000
00000000
00000000
,  // measure 46
10000000
01000000
10000000
00020000
02030000
03002000
00013000
00000000
,  // measure 47
00000010
00000000
00001000
00000100
00000000
00000100
00001000
00000000
00000001
00000000
00000100
00000001
00000000
00000001
00000100
00000000
,  // measure 48
00000001
00000100
00001000
00010000
00001000
00100000
00001000
00010000
,  // measure 49
00000100
00010000
01000000
10000000
00010000
01000000
00100000
00000000
,  // measure 50
10000000
01000000
00010000
00001000
00010000
00000010
00010000
00001000
,  // measure 51
01000000
00001000
00000100
00000001
00001000
00000100
00000010
00000001
,  // measure 52
00000100
00001000
00010000
00000000
00001000
00010000
01000000
00000000
,  // measure 53
00100000
00000000
00100000
00000000
00001000
00000000
00001000
00000000
00010000
00000000
00010000
00000000
00000010
00001000
00000000
00000000
,  // measure 54
00010000
00000010
00000100
00001000
00010000
01000000
00100000
00000000
,  // measure 55
00001000
00000000
00001000
00000000
00100000
00000000
00100000
00000000
00010000
00000000
00010000
00000000
10000000
01000000
00000000
00000000
,  // measure 56
10000000
01000000
00000000
00010000
00000000
01000000
00000000
00000000
00000000
00000000
00100000
00000000
00000000
00000000
10000000
00000000
,  // measure 57
01000000
00000000
00000000
00010000
00000000
00000000
00001000
00000000
00000100
00000010
00000000
00000000
00000000
00000000
00000000
00000000
;

//---------------dance-single - ----------------
#NOTEDATA:;
#CHARTNAME:;
#STEPSTYPE:dance-single;
#DESCRIPTION:;
#CHARTSTYLE:;
#DIFFICULTY:Challenge;
#METER:16;
#RADARVALUES:0.581447,0.656418,0.341366,0.586449,0.726496,465.000000,426.000000,39.000000,67.000000,0.000000,0.000000,0.000000,0.000000,0.000000,0.581447,0.656418,0.341366,0.586449,0.726496,465.000000,426.000000,39.000000,67.000000,0.000000,0.000000,0.000000,0.000000,0.000000;
#CREDIT:;
#DISPLAYBPM:127.000000;
#NOTES:
0000
0000
0000
0000
,
0000
0000
0000
0000
,
0001
0000
0000
0001
0000
0000
0000
0000
0000
0100
0000
0000
0000
0000
0000
2000
0000
0000
0000
0000
0000
0000
0000
0000
0000
0000
0000
0000
0000
0000
3000
0000
0000
0000
0010
0000
1000
0000
0000
0000
0010
0000
0100
0000
0000
0000
0010
0000
,
0001
0000
0000
0010
0000
0000
1000
0000
0200
0020
0000
0000
0000
0000
0330
0000
,
1000
0000
0000
1000
0000
0000
0000
0000
0000
0010
0000
0000
0000
0000
0000
0002
0000
0000
0000
0000
0000
0000
0000
0000
0000
0000
0000
0000
0000
0000
0003
0000
0000
0000
1000
0000
0100
0000
0000
0000
0010
0000
0100
0000
0000
0000
0001
0000
,
0100
0000
0000
0010
0000
0000
0100
0000
2000
0002
0000
0000
0000
0000
3003
0000
,
1001
0000
0100
0000
0000
0010
0000
0000
0001
1000
0100
2000
0000
0000
0000
0000
,
3001
0010
0000
1000
0000
0001
0010
0000
1000
0100
0000
0001
0000
0100
1000
0000
,
1001
0000
1000
0000
0000
0010
0000
0000
0100
0001
0010
0002
0000
0000
0000
0000
,
1003
0100
0000
0001
0000
0010
0100
0000
1000
0010
0000
0001
0000
0100
0010
0000
,
2000
0000
0000
3200
0000
0000
0301
0000
0020
0000
0000
0230
0000
0000
0310
0000
,
2000
0000
0000
3002
0000
0000
0103
0000
0002
0000
0000
0203
0000
0000
1300
0000
,
0002
0000
0000
0023
0000
0000
1030
0000
0002
0000
0000
0023
0000
0000
1030
0000
,
0200
0000
0000
0320
0000
0000
0031
0000
0101
0000
0100
0010
1000
0010
1000
0001
,
0200
0000
0000
0000
,
0310
0000
0001
0000
0100
0000
0001
0000
0010
0000
1000
0100
0010
0001
1000
0100
,
0011
0000
0001
0000
1000
0000
2100
0010
,
3000
0000
0001
0000
0010
0100
0000
0000
1000
0000
1000
0000
0010
0100
0000
0000
,
1000
0000
0000
1000
0000
0000
0000
0000
0000
0100
0000
0000
0000
0000
0000
1002
0000
0000
0000
0000
0000
0000
0000
0000
0000
0000
0000
0000
0000
0000
0003
0000
0000
0000
0100
0000
1000
0000
0000
0000
0100
0000
0010
0000
0000
0000
0100
0000
,
0001
0000
0000
0100
0000
0000
1000
0000
0001
0020
0000
0000
0000
0000
0030
0000
,
1000
0000
0000
1000
0000
0000
0000
0000
0000
0010
0000
0000
0000
0000
0000
2001
0000
0000
0000
0000
0000
0000
0000
0000
0000
0000
0000
0000
0000
0000
3000
0000
0000
0000
0010
0000
0001
0000
0000
0000
0010
0000
0100
0000
0000
0000
0010
0000
,
1000
0000
0100
0000
0011
0000
0001
0000
0100
0001
0010
0000
1001
0000
0000
0000
,
0001
0001
0000
0010
0010
0000
0100
0100
0000
1000
1000
0000
1001
0000
0000
0000
,
1000
0000
0000
0010
0001
0000
0100
0010
0100
0000
0000
0000
0110
0000
0000
0000
,
1100
0000
0101
1000
0000
0100
0011
0000
,
2000
0000
0000
0000
0000
0000
0000
0000
3001
0001
0100
0010
1000
1000
0000
0000
,
0010
1000
0000
1000
0100
0000
0100
0001
0000
0001
0010
0000
0100
0000
1000
0001
,
0200
0000
0301
1020
0000
1030
0021
0000
,
0130
0100
0000
1000
1000
0000
0010
0010
0000
0001
0001
0000
0100
0000
0000
0000
,
1000
0000
0100
0000
0011
0000
1000
0000
0010
1000
0001
0000
0001
0100
0000
0000
,
0001
0000
0010
0000
0001
0100
0010
0000
1000
0100
0010
0200
0000
0000
0000
0000
,
0301
0010
0001
0010
0000
1000
0100
0000
0001
0100
0001
0100
0000
1000
0010
0000
,
0001
0000
0010
0000
0100
0010
1000
0000
0010
0001
0100
0002
0000
0000
0000
0000
,
1003
0010
1000
0100
0000
0010
1000
0000
0001
0010
0001
0100
0000
1000
0010
0000
,
2200
0000
0000
0000
0000
0000
0000
0000
0000
0000
3300
0000
0010
1000
0100
0010
,
0002
0000
0103
2000
0000
3020
0000
0031
,
1000
0100
0001
0010
0001
1000
0010
0100
,
1000
0000
0010
0000
0001
0000
0001
0000
0100
0000
1000
0000
1000
0000
0010
0000
0100
0000
0010
0000
0000
0001
0000
0000
,
2002
0000
0000
3003
0000
0000
0000
0000
,
0010
0001
0100
0000
0101
0000
0010
0000
0010
1000
0100
0000
1100
0000
0010
0000
,
0020
0000
0000
0000
0000
0030
0000
0000
,
0000
0000
0000
0000
0000
0000
1000
0000
0000
0010
0000
0000
0000
0000
0000
0001
0000
0000
0000
0000
0000
0001
0000
0000
0010
0000
0000
0000
0100
0000
0000
0000
2000
0000
0000
0000
0000
0000
0000
0000
0000
0000
0000
0000
0000
0000
0000
0000
,
3001
0000
0000
0001
0000
0000
0000
0000
0000
0011
0000
0000
0000
0000
0000
0202
0000
0000
0000
0000
0000
0000
0000
0000
0000
0000
0000
0303
0000
0000
0000
0000
0000
0000
1000
0000
0010
0000
0000
0000
0010
0000
0001
0000
0000
0000
0010
0000
,
0100
0000
0000
1010
0000
0000
0101
0000
0010
0200
0000
0000
0000
0000
0000
0000
,
0301
0000
0000
0001
0000
0000
0000
0000
0000
1100
0000
0000
0000
0000
0000
2020
0000
0000
0000
0000
0000
0000
0000
0000
0000
0000
0000
3030
0000
0000
0000
0000
0000
0000
0001
0000
1000
0000
0000
0000
1000
0000
0010
0000
0000
0000
0010
0000
,
0001
0000
0000
1010
0000
0000
0101
0000
1100
0000
1000
0100
0010
0100
1000
0100
,
0010
0001
0001
1200
0301
1020
0031
0000
,
1000
0000
0001
0100
0000
1000
0100
0000
0010
0000
0001
0010
0000
1000
0010
0000
,
0012
0000
0000
0203
0000
0000
1300
0000
0020
0000
0000
0230
0000
0000
1300
0000
,
0002
0000
0000
0203
0000
0000
0301
0000
0002
0000
0000
2003
0000
0000
3100
0000
,
0200
0000
0000
0320
0000
0000
1030
0000
0002
0000
0000
0023
0000
0000
0130
0000
,
0001
0000
0010
0000
1000
0000
0001
0000
0100
0000
1000
0001
0010
0001
0010
0100
,
1000
0010
0001
0200
0000
0000
0000
0000
0310
0000
0001
0000
1000
0000
0001
0000
,
0100
0000
0110
0000
0010
0001
0000
0000
1000
0000
0110
0000
0010
1000
0000
0000
,
0001
0100
1000
0020
0000
0000
0000
0000
0130
0000
1000
0000
0001
0000
0100
0000
,
0010
0000
0110
0000
0100
1000
0000
0000
0001
0000
0110
0000
0100
0001
0000
0000
,
1000
1000
0000
0011
0000
0101
0000
0001
0100
0010
1000
0001
0100
0010
1000
0100
,
0020
0000
0000
0032
0000
0000
0203
0000
0010
0320
0000
0030
0000
0000
0000
0000
;

//---------------dance-double - ----------------
#NOTEDATA:;
#CHARTNAME:;
#STEPSTYPE:dance-double;
#DESCRIPTION:;
#CHARTSTYLE:;
#DIFFICULTY:Challenge;
#METER:16;
#RADARVALUES:0.552687,0.605924,0.087530,0.498919,0.726496,442.000000,432.000000,10.000000,57.000000,0.000000,0.000000,0.000000,0.000000,0.000000,0.552687,0.605924,0.087530,0.498919,0.726496,442.000000,432.000000,10.000000,57.000000,0.000000,0.000000,0.000000,0.000000,0.000000;
#CREDIT:;
#DISPLAYBPM:127.000000;
#NOTES:
// measure 0
00000000
00000000
00000000
00000000
,  // measure 1
00000000
00000000
00000000
00000000
,  // measure 2
00000001
00000000
00000000
00000100
00000000
00000000
00000000
00000000
00000000
00000010
00000000
00000000
00000000
00000000
00000000
00000020
00000000
00000000
00000000
00000000
00000000
00000000
00000000
00000000
00000000
00000000
00000000
00000000
00000000
00000000
00000000
00000000
00000000
00000030
00000100
00000000
00001000
00000000
00000000
00000000
00010000
00000000
00001000
00000000
00000000
00000000
00100000
00000000
,  // measure 3
00001000
00000000
00000000
01000000
00000000
00000000
00100000
00000000
00010000
20000000
00000000
00000000
00000000
00000000
30000000
00000000
,  // measure 4
00010000
00000000
00000000
00100000
00000000
00000000
00000000
00000000
00000000
01000000
00000000
00000000
00000000
00000000
00000000
02000000
00000000
00000000
00000000
00000000
00000000
00000000
00000000
00000000
00000000
00000000
00000000
00000000
00000000
00000000
00000000
00000000
00000000
03000000
00010000
00000000
00001000
00000000
00000000
00000000
00100000
00000000
00001000
00000000
00000000
00000000
00010000
00000000
,  // measure 5
00000100
00000000
00000000
00000010
00000000
00000000
00001000
00000000
00000001
00000200
00000000
00000000
00000000
00000000
00000300
00000000
,  // measure 6
00001001
00000000
00000001
00000000
00000000
00000100
00000000
00000000
00001000
00000100
00000010
00000200
00000000
00000000
00000000
00000000
,  // measure 7
00000301
00000010
00000000
00001000
00000000
00000100
00001000
00000000
00010000
00100000
00000000
10000000
00000000
01000000
10000000
00000000
,  // measure 8
10010000
00000000
00100000
00000000
00000000
00010000
00000000
00000000
01000000
10000000
01000000
00200000
00000000
00000000
00000000
00000000
,  // measure 9
10300000
01000000
00000000
00010000
00000000
00100000
01000000
00000000
00001000
00000100
00000000
00000001
00000000
00000010
00000100
00000000
,  // measure 10
00000002
00000000
00000000
00000023
00000000
00000000
00000130
00000000
00020000
00000000
00000000
00030020
00000000
00000000
00000031
00000000
,  // measure 11
00002000
00000000
00000000
00023000
00000000
00000000
01030000
00000000
20000000
00000000
00000000
30020000
00000000
00000000
01030000
00000000
,  // measure 12
20000000
00000000
00000000
30200000
00000000
00000000
01300000
00000000
00002000
00000000
00000000
00003020
00000000
00000000
00001030
00000000
,  // measure 13
00000200
00000000
00000000
00000302
00000000
00000000
00000013
00000000
00001000
00000000
00000001
00000100
00000010
00000100
00000001
00000100
,  // measure 14
00002000
00000000
00000000
00000000
,  // measure 15
01003000
00000000
00010000
00000000
00100000
00000000
10000000
00000000
01000000
00000000
10000000
00100000
01000000
00010000
10000000
00100000
,  // measure 16
00020000
00000000
00031000
00000000
00100000
00000000
01010000
00011000
,  // measure 17
00000000
00000000
00000010
00000000
00000001
00000100
00000000
00000000
00001000
00000000
00001000
00000000
00000010
00000100
00000000
00000000
,  // measure 18
00000001
00000000
00000000
00000010
00000000
00000000
00000000
00000000
00000000
00001000
00000000
00000000
00000000
00000000
00000000
00002000
00000000
00000000
00000000
00000000
00000000
00000000
00000000
00000000
00000000
00000000
00000000
00000000
00000000
00000000
00000000
00000000
00000000
00003000
00000100
00000000
00001000
00000000
00000000
00000000
00010000
00000000
00001000
00000000
00000000
00000000
00100000
00000000
,  // measure 19
00010000
00000000
00000000
01000000
00000000
00000000
10000000
00000000
00100000
02000000
00000000
00000000
00000000
00000000
00000000
00000000
,  // measure 20
13000000
00000000
00000000
10000000
00000000
00000000
00000000
00000000
00000000
00100000
00000000
00000000
00000000
00000000
00000000
00020000
00000000
00000000
00000000
00000000
00000000
00000000
00000000
00000000
00000000
00000000
00000000
00000000
00000000
00000000
00000000
00000000
00000000
00030000
01000000
00000000
00100000
00000000
00000000
00000000
00010000
00000000
00001000
00000000
00000000
00000000
00000100
00000000
,  // measure 21
00000010
00000000
00000001
00000000
00000100
00000000
00001000
00000000
00000010
00000100
00000010
00000000
00001001
00000000
00000000
00000000
,  // measure 22
00000001
00000010
00000000
00000100
00000010
00000000
00001000
00000100
00000000
00001000
00010000
00000000
01000000
00000000
10000000
00000000
,  // measure 23
00100000
00000000
00010000
10000000
00000000
01000000
01000000
00000000
,  // measure 24
10000000
00100000
00000000
00010000
01000000
00000000
00010000
00001000
00000000
00010000
00000010
00000000
00000100
00000000
00000000
00000000
,  // measure 25
00000001
00000000
00000010
00000000
00000100
00000000
00001000
00000000
00000001
00000100
00000010
00001000
00000100
00000200
00000000
00000000
,  // measure 26
00000310
00001000
00000000
00000001
00000010
00000000
00001000
00010000
00000000
00001000
00000100
00000000
00001000
00000000
00100000
00000000
,  // measure 27
01000000
00000000
10000000
10100000
00000000
00100000
00110000
00000000
,  // measure 28
00001000
00010000
00000000
00100000
00001000
00000000
00010000
00000100
00000000
00001000
00010000
00000000
01000000
00000000
00010000
00000000
,  // measure 29
00000010
00000000
00001000
00000000
00000001
00000000
00000100
00000000
00001000
00000100
00010000
00000000
00001000
00010000
00000000
00000000
,  // measure 30
00100000
00000000
10000000
00000000
01000000
10000000
00100000
00000000
01000000
00100000
00010000
00200000
00000000
00000000
00000000
00000000
,  // measure 31
10300000
01000000
00100000
01000000
00000000
00010000
01000000
00000000
00001000
00010000
00001000
00000100
00000000
00000010
00000001
00000000
,  // measure 32
00000100
00000000
00000010
00000000
00000100
00000001
00000010
00000000
00000100
00000010
00001000
00000020
00000000
00000000
00000000
00000000
,  // measure 33
00000031
00001000
00000001
00000100
00000000
00001000
00000100
00000000
00010000
00001000
00100000
00001000
00000000
00010000
01000000
00000000
,  // measure 34
00200000
00000000
00000000
00000000
00000000
00000000
00000000
00000000
00000000
00000000
00300000
00000000
10000000
01000000
00100000
00010000
,  // measure 35
02000000
00000000
03001000
00000020
00000000
00000230
00000000
00000301
,  // measure 36
00000001
00000010
00000100
00001000
00010000
00100000
01000000
10000000
,  // measure 37
10000000
00000000
00100000
00000000
00010000
00000000
00001000
00000000
00010000
00000000
00000100
00000000
00001000
00000000
00000010
00000000
00000100
00000000
00000001
00000000
00000000
00000010
00000000
00000000
,  // measure 38
00002002
00000000
00000000
00003003
00000000
00000000
00000000
00000000
,  // measure 39
00010000
00001000
01000000
00000000
00100000
00000000
00100000
00000000
00001000
00010000
00000100
00000000
00000010
00000000
00000010
00000000
,  // measure 40
00020000
00000000
00000000
00000000
00000000
00030000
00000000
00000000
,  // measure 41
00000000
00000000
00000000
00000000
00000000
00000000
10000000
00000000
00000000
00100000
00000000
00000000
00000000
00000000
00000000
01000000
00000000
00000000
00000000
00000000
00000000
00001000
00000000
00000000
00000100
00000000
00000000
00000000
00000001
00000000
00000000
00000000
00002000
00000000
00000000
00000000
00000000
00000000
00000000
00000000
00000000
00000000
00000000
00000000
00000000
00000000
00000000
00000000
,  // measure 42
00003001
00000000
00000000
00000010
00000000
00000000
00000000
00000000
00000000
00000100
00000000
00000000
00000000
00000000
00000000
00000200
00000000
00000000
00000000
00000000
00000000
00000000
00000000
00000000
00000000
00000000
00000000
00000000
00000000
00000000
00000300
00000000
00000000
00000000
00000001
00000000
00000100
00000000
00000000
00000000
00000010
00000000
00000100
00000000
00000000
00000000
00001000
00000000
,  // measure 43
00010000
00000000
00000000
00100000
00000000
00000000
01000000
00000000
10000000
00020000
00000000
00000000
00000000
00000000
00000000
00000000
,  // measure 44
00130000
00000000
00000000
01000000
00000000
00000000
00000000
00000000
00000000
10000000
00000000
00000000
00000000
00000000
00000000
20000000
00000000
00000000
00000000
00000000
00000000
00000000
00000000
00000000
00000000
00000000
00000000
00000000
00000000
00000000
00000000
00000000
00000000
30000000
00100000
00000000
01000000
00000000
00000000
00000000
00100000
00000000
00010000
00000000
00000000
00000000
00001000
00000000
,  // measure 45
01000000
00000000
00001000
00000000
00010000
00000000
00000100
00000000
00000010
00000000
00000001
00001000
00000010
00001000
00000001
00001000
,  // measure 46
00000010
00000001
00000001
00001000
00010000
10000000
00010000
00000000
,  // measure 47
10000000
00000000
00100000
10000000
00000000
01000000
00010000
00000000
00001000
00000000
00000010
00001000
00000000
00000100
00000001
00000000
,  // measure 48
00002000
00000000
00000000
00003002
00000000
00000000
00000103
00000000
00000020
00000000
00000000
00000032
00000000
00000000
00000103
00000000
,  // measure 49
00002000
00000000
00000000
02003000
00000000
00000000
03010000
00000000
20000000
00000000
00000000
32000000
00000000
00000000
03000000
00000000
,  // measure 50
00200000
00000000
00000000
20300000
00000000
00000000
30010000
00000000
02000000
00000000
00000000
03002000
00000000
00000000
00003010
00000000
,  // measure 51
00000100
00000000
00001000
00000000
00000010
00000000
00000001
00000000
00000100
00000000
00001000
00010000
00000100
00001000
00000010
00010000
,  // measure 52
00000100
00001000
00000001
00000020
00000000
00000000
00000000
00000000
00001030
00000000
00010000
00000000
00100000
00000000
01000000
00000000
,  // measure 53
10000000
00000000
10000000
00000000
00100000
00010000
00000000
00000000
00001000
00000000
00001000
00000000
00000010
00010000
00000000
00000000
,  // measure 54
00001000
00010000
00100000
20000000
00000000
00000000
00000000
00000000
31000000
00000000
00010000
00000000
00100000
00000000
00010000
00000000
,  // measure 55
00001000
00000000
00001000
00000000
00000010
00000001
00000000
00000000
00000100
00000000
00000100
00000000
00001000
00000010
00000000
00000000
,  // measure 56
00000001
00000010
00000000
00000011
00000000
00001010
00000000
00010000
00001000
01000000
00010000
00100000
00001000
01000000
00010000
10000000
,  // measure 57
02000000
00000000
00000000
03200000
00000000
00000000
00320000
00000000
01000000
02030000
00000000
03000000
00000000
00000000
00000000
00000000
;

//---------------dance-double - ----------------
#NOTEDATA:;
#CHARTNAME:;
#STEPSTYPE:dance-double;
#DESCRIPTION:;
#CHARTSTYLE:;
#DIFFICULTY:Edit;
#METER:10;
#RADARVALUES:0.578946,0.656418,0.341366,0.586449,0.717743,463.000000,424.000000,39.000000,67.000000,0.000000,0.000000,0.000000,0.000000,0.000000,0.578946,0.656418,0.341366,0.586449,0.717743,463.000000,424.000000,39.000000,67.000000,0.000000,0.000000,0.000000,0.000000,0.000000;
#CREDIT:;
#DISPLAYBPM:127.000000;
#NOTES:
00000000
00000000
00000000
00000000
,
00000000
00000000
00000000
00000000
,
00010000
00000000
00000000
00010000
00000000
00000000
00000000
00000000
00000000
01000000
00000000
00000000
00000000
00000000
00000000
20000000
00000000
00000000
00000000
00000000
00000000
00000000
00000000
00000000
00000000
00000000
00000000
00000000
00000000
00000000
30000000
00000000
00000000
00000000
00100000
00000000
10000000
00000000
00000000
00000000
00100000
00000000
01000000
00000000
00000000
00000000
00100000
00000000
,
00010000
00000000
00000000
00100000
00000000
00000000
10000000
00000000
02000000
00200000
00000000
00000000
00000000
00000000
03300000
00000000
,
10000000
00000000
00000000
10000000
00000000
00000000
00000000
00000000
00000000
00100000
00000000
00000000
00000000
00000000
00000000
00020000
00000000
00000000
00000000
00000000
00000000
00000000
00000000
00000000
00000000
00000000
00000000
00000000
00000000
00000000
00030000
00000000
00000000
00000000
10000000
00000000
01000000
00000000
00000000
00000000
00100000
00000000
01000000
00000000
00000000
00000000
00010000
00000000
,
01000000
00000000
00000000
00100000
00000000
00000000
01000000
00000000
20000000
00020000
00000000
00000000
00000000
00000000
30030000
00000000
,
10010000
00000000
01000000
00000000
00000000
00100000
00000000
00000000
00010000
10000000
01000000
20000000
00000000
00000000
00000000
00000000
,
30010000
00100000
00000000
10000000
00000000
00010000
00100000
00000000
10000000
01000000
00000000
00010000
00000000
01000000
10000000
00000000
,
10010000
00000000
10000000
00000000
00000000
00100000
00000000
00000000
01000000
00010000
00100000
00020000
00000000
00000000
00000000
00000000
,
10030000
01000000
00000000
00010000
00000000
00100000
01000000
00000000
10000000
00100000
00000000
00010000
00000000
01000000
00100000
00000000
,
20000000
00000000
00000000
32000000
00000000
00000000
03010000
00000000
00200000
00000000
00000000
02300000
00000000
00000000
03100000
00000000
,
20000000
00000000
00000000
30020000
00000000
00000000
01030000
00000000
00020000
00000000
00000000
02030000
00000000
00000000
13000000
00000000
,
00020000
00000000
00000000
00230000
00000000
00000000
10300000
00000000
00020000
00000000
00000000
00230000
00000000
00000000
10300000
00000000
,
02000000
00000000
00000000
03200000
00000000
00000000
00310000
00000000
01010000
00000000
01000000
00100000
10000000
00100000
10000000
00010000
,
02000000
00000000
00000000
00000000
,
03100000
00000000
00010000
00000000
01000000
00000000
00010000
00000000
00100000
00000000
10000000
01000000
00100000
00010000
10000000
01000000
,
00110000
00000000
00010000
00000000
10000000
00000000
21000000
00100000
,
30000000
00000000
00010000
00000000
00100000
01000000
00000000
00000000
10000000
00000000
10000000
00000000
00100000
01000000
00000000
00000000
,
10000000
00000000
00000000
10000000
00000000
00000000
00000000
00000000
00000000
01000000
00000000
00000000
00000000
00000000
00000000
10020000
00000000
00000000
00000000
00000000
00000000
00000000
00000000
00000000
00000000
00000000
00000000
00000000
00000000
00000000
00030000
00000000
00000000
00000000
01000000
00000000
10000000
00000000
00000000
00000000
01000000
00000000
00100000
00000000
00000000
00000000
01000000
00000000
,
00010000
00000000
00000000
01000000
00000000
00000000
10000000
00000000
00010000
00200000
00000000
00000000
00000000
00000000
00300000
00000000
,
10000000
00000000
00000000
10000000
00000000
00000000
00000000
00000000
00000000
00100000
00000000
00000000
00000000
00000000
00000000
20010000
00000000
00000000
00000000
00000000
00000000
00000000
00000000
00000000
00000000
00000000
00000000
00000000
00000000
00000000
30000000
00000000
00000000
00000000
00100000
00000000
00010000
00000000
00000000
00000000
00100000
00000000
01000000
00000000
00000000
00000000
00100000
00000000
,
10000000
00000000
01000000
00000000
00110000
00000000
00010000
00000000
01000000
00010000
00100000
00000000
10010000
00000000
00000000
00000000
,
00010000
00010000
00000000
00100000
00100000
00000000
01000000
01000000
00000000
10000000
10000000
00000000
10010000
00000000
00000000
00000000
,
10000000
00000000
00000000
00100000
00010000
00000000
01000000
00100000
01000000
00000000
00000000
00000000
01100000
00000000
00000000
00000000
,
11000000
00000000
01010000
10000000
00000000
01000000
00110000
00000000
,
20000000
00000000
00000000
00000000
00000000
00000000
00000000
00000000
30010000
00010000
01000000
00100000
10000000
10000000
00000000
00000000
,
00100000
10000000
00000000
10000000
01000000
00000000
01000000
00010000
00000000
00010000
00100000
00000000
01000000
00000000
10000000
00010000
,
02000000
00000000
03010000
10200000
00000000
10300000
00210000
00000000
,
01300000
01000000
00000000
10000000
10000000
00000000
00100000
00100000
00000000
00010000
00010000
00000000
01000000
00000000
00000000
00000000
,
10000000
00000000
01000000
00000000
00110000
00000000
10000000
00000000
00100000
10000000
00010000
00000000
00010000
01000000
00000000
00000000
,
00010000
00000000
01000000
00000000
00100000
00000000
01000000
00000000
10000000
00100000
01000000
00200000
00000000
00000000
00000000
00000000
,
00310000
01000000
00010000
01000000
00000000
10000000
00100000
00000000
00010000
00100000
00010000
00100000
00000000
10000000
01000000
00000000
,
00010000
00000000
00100000
00000000
10000000
00000000
00100000
00000000
01000000
00010000
00100000
00020000
00000000
00000000
00000000
00000000
,
01030000
00100000
10000000
00100000
00000000
01000000
10000000
00000000
00100000
01000000
00010000
01000000
00000000
00100000
00010000
00000000
,
22000000
00000000
00000000
00000000
00000000
00000000
00000000
00000000
00000000
00000000
33000000
00000000
00100000
10000000
01000000
00100000
,
00020000
00000000
01030000
20000000
00000000
30200000
00000000
00310000
,
10000000
01000000
00010000
00100000
01000000
10000000
00100000
00010000
,
00100000
00000000
01000000
00000000
00100000
00000000
00010000
00000000
01000000
00000000
10000000
00000000
01000000
00000000
00100000
00000000
01000000
00000000
00010000
00000000
00000000
00100000
00000000
00000000
,
20020000
00000000
00000000
30030000
00000000
00000000
00000000
00000000
,
00100000
00010000
01000000
00000000
01010000
00000000
00100000
00000000
00100000
10000000
01000000
00000000
11000000
00000000
00100000
00000000
,
00200000
00000000
00000000
00000000
00000000
00300000
00000000
00000000
,
00000000
00000000
00000000
00000000
00000000
00000000
10000000
00000000
00000000
00100000
00000000
00000000
00000000
00000000
00000000
00010000
00000000
00000000
00000000
00000000
00000000
00010000
00000000
00000000
00100000
00000000
00000000
00000000
01000000
00000000
00000000
00000000
20000000
00000000
00000000
00000000
00000000
00000000
00000000
00000000
00000000
00000000
00000000
00000000
00000000
00000000
00000000
00000000
,
30010000
00000000
00000000
00010000
00000000
00000000
00000000
00000000
00000000
00110000
00000000
00000000
00000000
00000000
00000000
02020000
00000000
00000000
00000000
00000000
00000000
00000000
00000000
00000000
00000000
00000000
00000000
03030000
00000000
00000000
00000000
00000000
00000000
00000000
10000000
00000000
00100000
00000000
00000000
00000000
00100000
00000000
00010000
00000000
00000000
00000000
00100000
00000000
,
01000000
00000000
00000000
10100000
00000000
00000000
01010000
00000000
00100000
02000000
00000000
00000000
00000000
00000000
00000000
00000000
,
03010000
00000000
00000000
00010000
00000000
00000000
00000000
00000000
00000000
11000000
00000000
00000000
00000000
00000000
00000000
20200000
00000000
00000000
00000000
00000000
00000000
00000000
00000000
00000000
00000000
00000000
00000000
30300000
00000000
00000000
00000000
00000000
00000000
00000000
00010000
00000000
10000000
00000000
00000000
00000000
10000000
00000000
00100000
00000000
00000000
00000000
00100000
00000000
,
00010000
00000000
00000000
10100000
00000000
00000000
01010000
00000000
11000000
00000000
10000000
01000000
00100000
01000000
10000000
01000000
,
00100000
00010000
00010000
12000000
03010000
10200000
00310000
00000000
,
10000000
00000000
00010000
01000000
00000000
10000000
01000000
00000000
00100000
00000000
00010000
00100000
00000000
10000000
00100000
00000000
,
00120000
00000000
00000000
02030000
00000000
00000000
13000000
00000000
00200000
00000000
00000000
02300000
00000000
00000000
13000000
00000000
,
00020000
00000000
00000000
02030000
00000000
00000000
03010000
00000000
00020000
00000000
00000000
20030000
00000000
00000000
31000000
00000000
,
02000000
00000000
00000000
03200000
00000000
00000000
10300000
00000000
00020000
00000000
00000000
00230000
00000000
00000000
01300000
00000000
,
00010000
00000000
00100000
00000000
10000000
00000000
00010000
00000000
01000000
00000000
10000000
00010000
00100000
00010000
00100000
01000000
,
10000000
00100000
00010000
02000000
00000000
00000000
00000000
00000000
03100000
00000000
00010000
00000000
10000000
00000000
00010000
00000000
,
01000000
00000000
01100000
00000000
00100000
00010000
00000000
00000000
10000000
00000000
01100000
00000000
00100000
10000000
00000000
00000000
,
00010000
01000000
10000000
00200000
00000000
00000000
00000000
00000000
01300000
00000000
10000000
00000000
00010000
00000000
01000000
00000000
,
00100000
00000000
01100000
00000000
01000000
10000000
00000000
00000000
00010000
00000000
01100000
00000000
01000000
00010000
00000000
00000000
,
10000000
10000000
00000000
00110000
00000000
01010000
00000000
00010000
01000000
00100000
10000000
00010000
01000000
00100000
10000000
01000000
,
00200000
00000000
00000000
00320000
00000000
00000000
02030000
00000000
00100000
03200000
00000000
00300000
00000000
00000000
00000000
00000000
;
