#VERSION:0.83;
#TITLE:Blinding Lights;
#SUBTITLE:;
#ARTIST:The Weeknd;
#TITLETRANSLIT:;
#SUBTITLETRANSLIT:;
#ARTISTTRANSLIT:;
#GENRE:;
#ORIGIN:;
#CREDIT:;
#BANNER:;
#BACKGROUND:;
#PREVIEWVID:;
#JACKET:;
#CDIMAGE:;
#DISCIMAGE:;
#LYRICSPATH:;
#CDTITLE:;
#MUSIC:Blinding Lights.mp3;
#OFFSET:-0.180000;
#SAMPLESTART:52.606998;
#SAMPLELENGTH:12.000000;
#SELECTABLE:YES;
#BPMS:0.000=171.080;
#STOPS:;
#DELAYS:;
#WARPS:;
#TIMESIGNATURES:0.000=4=4;
#TICKCOUNTS:0.000=4;
#COMBOS:0.000=1;
#SPEEDS:0.000=1.000=0.000=0;
#SCROLLS:0.000=1.000;
#FAKES:;
#LABELS:0.000=Song Start;
#BGCHANGES:;
#KEYSOUNDS:;
#ATTACKS:
;

//---------------dance-single - ----------------
#NOTEDATA:;
#CHARTNAME:;
#STEPSTYPE:dance-single;
#DESCRIPTION:;
#CHARTSTYLE:;
#DIFFICULTY:Hard;
#METER:11;
#RADARVALUES:0.518003,0.546876,0.416101,0.594430,0.000000,366.000000,324.000000,42.000000,60.000000,0.000000,0.000000,0.000000,0.000000,0.000000,0.518003,0.546876,0.416101,0.594430,0.000000,366.000000,324.000000,42.000000,60.000000,0.000000,0.000000,0.000000,0.000000,0.000000;
#CREDIT:;
#NOTES:
0000
0000
0000
0000
,
0000
0000
0000
0000
,
1000
0101
1000
0101
,
1000
0000
0101
0000
1000
0001
0101
0000
,
0001
1100
0001
1100
,
0001
0000
1100
0000
0001
0100
1000
0100
,
0002
0000
0000
0000
2003
0000
0000
3010
,
0100
0020
0000
2030
0000
3002
0000
0000
,
0203
0000
0000
0000
0320
0000
0000
1030
,
0001
2000
0000
3200
0000
0320
0000
0000
,
0130
1000
0000
1010
0000
1020
0000
0000
,
0130
0001
0000
0011
0000
0021
0000
0130
,
1000
1001
0010
1001
,
0100
0000
1001
0000
0001
0010
0100
1000
,
0001
0011
1000
0101
,
1000
0000
0011
0000
0010
0001
1000
0100
,
0010
0000
0100
0001
0000
0100
1000
0000
,
0001
0000
1100
0000
0100
1000
0010
0100
,
0001
0000
0010
0100
0000
0010
1000
0000
,
0010
0000
1001
0000
1000
0010
0100
0000
,
0001
1010
0001
1100
,
0001
0000
1010
0000
0010
1000
0100
0010
,
0002
0000
0013
1000
0020
0000
0130
0010
,
0001
0010
2000
0000
3010
0001
0100
0001
,
0020
0000
0130
0001
0200
0000
1300
0001
,
0010
0100
0002
0000
0103
1000
0010
0100
,
2000
0000
3100
0001
0200
0000
0310
0001
,
0010
0100
0002
0000
1003
0010
0001
0000
,
0010
1001
0100
1001
,
0010
0000
1001
0000
0100
0010
0100
0010
,
0110
0000
0001
0010
0100
2000
0000
0010
,
0000
3002
0000
0100
0000
2003
0000
0000
,
3100
0000
0001
0100
1000
0002
0000
0010
,
0000
2003
0000
0100
0000
3002
0000
0000
,
0103
0000
0010
1000
0100
0020
0000
0001
,
0000
0230
0000
1000
0000
0310
0000
0001
,
1000
0110
0001
0110
,
1000
0000
0110
1001
0000
0001
0010
0100
,
1000
0010
0200
0000
0301
0010
0200
0000
,
1300
0001
0200
0000
0310
1000
1001
0000
,
0001
0020
0000
0100
0000
1030
0010
0000
,
0001
0100
1000
0000
0001
0010
1000
0000
,
0002
0010
0000
1000
0000
0013
0100
0000
,
2000
0010
0000
0001
0000
3100
1000
0001
,
1000
0011
1000
0101
,
1000
0000
0010
0100
0000
0100
0001
1000
,
0100
0010
0002
0000
0103
0010
2000
0000
,
3001
0010
0200
0000
1300
0001
1001
0000
,
0100
0020
0000
1000
0000
0130
0001
0000
,
1000
0100
0001
0000
1000
0010
0001
0000
,
2000
0010
0000
0100
0000
3010
0001
0000
,
0020
0100
0000
1000
0000
0130
0001
1000
,
0001
0110
1000
0110
,
0001
0000
1001
0010
0000
0100
0010
0100
,
0002
0000
0000
0000
2003
0000
0000
3100
,
0010
0200
0000
2300
0000
3020
0000
0000
,
2030
0000
0000
0000
3002
0000
0000
0013
,
0100
0020
0000
0032
0000
0203
0000
0000
,
0310
1000
0000
1200
0000
0001
0000
0000
,
0310
0001
0000
0201
0000
1000
0000
0301
,
0100
0101
1000
1100
,
0010
0000
1010
0000
0010
0100
0010
0100
,
0002
0000
0010
0000
,
0100
0000
0000
0000
1003
0100
0010
0000
,
0001
0100
0000
1000
0000
0100
0002
0000
,
0000
0000
0000
0000
0000
0023
0000
0000
,
0130
1000
0000
0001
0000
0100
0020
0000
,
0031
1000
0000
0100
0000
0010
0200
0000
,
0302
0000
0000
2000
0000
0000
0000
0000
,
3003
0000
0000
0000
;

//---------------dance-single - ----------------
#NOTEDATA:;
#CHARTNAME:;
#STEPSTYPE:dance-single;
#DESCRIPTION:;
#CHARTSTYLE:;
#DIFFICULTY:Medium;
#METER:8;
#RADARVALUES:0.427424,0.478516,0.346751,0.227865,0.000000,302.000000,267.000000,35.000000,23.000000,0.000000,0.000000,0.000000,0.000000,0.000000,0.427424,0.478516,0.346751,0.227865,0.000000,302.000000,267.000000,35.000000,23.000000,0.000000,0.000000,0.000000,0.000000,0.000000;
#CREDIT:;
#NOTES:
0000
0000
0000
0000
,
0000
0000
0000
0000
,
1000
1100
0001
0101
,
1000
0000
1100
0000
0100
0010
0100
0000
,
0001
0011
1000
1010
,
0001
0000
0011
0000
0100
0010
0100
0000
,
0002
0000
0000
0000
1003
0000
0000
1000
,
0001
1000
0000
0100
0000
0100
0000
0000
,
0020
0000
0000
0000
0130
0000
0000
0010
,
0001
1000
0000
0010
0000
0010
0000
0000
,
1000
0100
0000
0001
0000
0002
0000
0003
,
0001
0100
0000
1000
0000
2000
0000
3001
,
0000
0101
1000
1100
,
0001
0000
0101
0000
0001
1000
0001
0000
,
0010
0100
1000
0000
,
1000
0000
0100
0000
0010
0001
0010
0000
,
0001
0000
0000
0100
0000
0000
0010
0000
,
0000
0000
1000
0000
0100
1000
0100
0000
,
0010
0000
0000
0001
0000
0000
1000
0000
,
0000
0000
0001
0000
0100
0010
0100
0000
,
0001
0001
1000
1000
,
0100
0000
0110
0000
0010
0100
0010
0000
,
0001
0011
1000
1010
,
0001
0000
0011
0000
0010
0100
0010
0000
,
0100
1100
0001
1001
,
0100
0000
0110
0000
0010
1000
0010
0000
,
0100
0101
1000
1001
,
0100
0000
0110
0000
0001
1000
0001
0000
,
0100
0100
0010
0010
,
0100
0000
0010
0000
0100
0010
0100
0000
,
1001
0000
0001
0000
0010
0002
0000
0100
,
0000
0100
0000
1000
0000
1003
0000
0000
,
0110
0000
1000
0000
0010
2000
0000
0001
,
0000
0001
0000
0100
0000
3100
0000
0000
,
0110
0000
0010
0000
0001
0200
0000
0010
,
0000
0010
0000
1000
0000
1300
0000
0010
,
0100
0110
0100
0110
,
0100
0000
0110
0000
0001
1000
0001
1000
,
0002
0100
0203
0010
,
0320
0000
1000
0000
1030
0001
1000
0000
,
0001
0000
0000
0010
0000
0000
0100
0000
,
1000
0000
0001
0001
,
1000
0001
0000
0100
0000
0100
0000
0000
,
0001
1000
0000
0010
0000
0010
0000
0001
,
1000
1001
0001
1001
,
1000
0000
1001
0000
0010
0100
0010
0000
,
2000
0100
3200
0001
,
0302
0000
0100
0000
0103
0010
0100
0000
,
1000
0000
0000
0010
0000
0000
0100
0000
,
0001
0000
1000
1000
,
0001
0010
0000
0100
0000
0100
0000
0000
,
1000
0100
0000
0010
0000
0010
0000
0001
,
0100
0110
0100
0110
,
0100
0110
0000
1001
,
0200
0000
0000
0000
0310
0000
0000
0010
,
0001
1000
0000
0010
0000
0010
0000
0000
,
0002
0000
0000
0000
0103
0000
0000
1000
,
0010
0100
0000
0001
0000
0001
0000
0000
,
1000
0020
0000
0100
0000
0130
0000
0000
,
0001
0020
0000
0100
0000
0130
0000
1000
,
0001
0011
1000
1010
,
0001
0000
0011
0000
1000
0001
1000
0000
,
2000
0000
0100
0000
,
3100
0000
0000
0000
0010
0001
1000
0000
,
0010
0000
0000
0010
0000
0000
0020
0000
,
0000
0000
0000
0000
0000
0130
0000
0000
,
0001
2000
0000
0100
0000
3100
0000
0000
,
1000
0002
0000
0010
0000
0013
0000
0000
,
0200
0000
0000
0020
0000
0000
0000
0000
,
0330
0000
0000
0000
;

//---------------dance-single - ----------------
#NOTEDATA:;
#CHARTNAME:;
#STEPSTYPE:dance-single;
#DESCRIPTION:;
#CHARTSTYLE:;
#DIFFICULTY:Easy;
#METER:6;
#RADARVALUES:0.329767,0.512696,0.336844,0.317029,0.000000,233.000000,199.000000,34.000000,32.000000,0.000000,0.000000,0.000000,0.000000,0.000000,0.329767,0.512696,0.336844,0.317029,0.000000,233.000000,199.000000,34.000000,32.000000,0.000000,0.000000,0.000000,0.000000,0.000000;
#CREDIT:;
#NOTES:
0000
0000
0000
0000
,
0000
0000
0000
0000
,
1000
1001
1000
1001
,
1000
1001
0100
0100
,
0001
1001
0001
1001
,
0001
1001
0010
0010
,
2000
3000
2000
3000
,
0001
0001
0100
0001
,
0002
0003
0002
0003
,
0010
0010
1000
0010
,
1000
0100
1100
0000
,
0001
0010
0011
0000
,
1001
0000
0110
0000
,
1000
0100
0001
0100
,
2000
0000
0100
0000
,
0001
0000
3010
0100
,
0002
0000
0010
0000
,
1000
0000
0103
0010
,
2000
0000
0100
0000
,
0001
0000
3010
0100
,
0002
0000
0010
0000
,
0100
0000
1003
0100
,
0010
0001
0001
0000
,
0010
0001
0001
0010
,
0100
1000
1000
0000
,
0100
1000
1000
0010
,
0100
1000
1000
0000
,
0100
0001
0001
0000
,
1001
0000
0110
0000
,
1000
0100
0010
0001
,
1001
0000
0110
0000
,
0001
0010
0100
1000
,
1100
0000
0101
0000
,
1000
0010
0100
0001
,
0101
0000
1100
0000
,
0001
1000
0100
0010
,
0001
1001
1000
1001
,
0001
1001
0100
0110
,
1002
0003
0020
0030
,
0200
0300
1000
1000
,
2000
3000
0020
0030
,
0200
0300
0001
0000
,
0001
0010
1000
1000
,
0100
0001
0001
0010
,
1000
1000
0000
0001
,
0000
1000
0010
0001
,
2001
3000
0020
0030
,
0200
0300
0001
0001
,
0002
0003
0020
0030
,
0200
0300
1000
0000
,
1000
1000
0100
0001
,
0001
0010
1000
1000
,
0100
0110
0100
0110
,
0100
0110
1001
0110
,
1002
0003
0002
0003
,
1000
1000
0010
1000
,
2000
3000
2000
3000
,
0100
0100
0001
0100
,
0001
0010
0011
0000
,
1000
0100
1100
0000
,
1001
0000
0110
0000
,
0001
0010
1000
0010
,
0002
0000
0000
0000
,
0000
0000
1003
1000
,
2000
0000
3200
0000
,
0320
0000
0130
0000
,
1000
1000
0020
0000
,
0031
0001
0020
0000
,
2030
0000
0002
0000
,
3003
0000
0000
0000
;

//---------------dance-double - ----------------
#NOTEDATA:;
#CHARTNAME:;
#STEPSTYPE:dance-double;
#DESCRIPTION:;
#CHARTSTYLE:;
#DIFFICULTY:Hard;
#METER:12;
#RADARVALUES:0.505266,0.512696,0.267494,0.564709,0.000000,357.000000,330.000000,27.000000,57.000000,0.000000,0.000000,0.000000,0.000000,0.000000,0.505266,0.512696,0.267494,0.564709,0.000000,357.000000,330.000000,27.000000,57.000000,0.000000,0.000000,0.000000,0.000000,0.000000;
#CREDIT:;
#NOTES:
// measure 0
00000000
00000000
00000000
00000000
,  // measure 1
00000000
00000000
00000000
00000000
,  // measure 2
00000001
00000110
00010000
00000110
,  // measure 3
00000001
00000000
00000110
00000000
00010000
00001000
00010000
00000000
,  // measure 4
00001000
01100000
10000000
01100000
,  // measure 5
00001000
00000000
01100000
00000000
10000000
00010000
10000000
00000000
,  // measure 6
20000000
00000000
00000000
00000000
30200000
00000000
00000000
10300000
,  // measure 7
01000000
00010000
00000000
00001000
00000000
00001000
00010000
00000000
,  // measure 8
00000020
00000000
00000000
00000000
00000230
00000000
00000000
00001300
,  // measure 9
00000100
00000001
00000000
00000010
00000000
00000010
00000100
00000000
,  // measure 10
00001000
00000001
00000000
00000100
00000000
00002000
00000000
00000000
,  // measure 11
00013000
00001000
00000000
00100000
00000000
02000000
00000000
20000000
,  // measure 12
33000000
10100000
00010000
00110000
,  // measure 13
10000000
00000000
10100000
00000000
00100000
00010000
00100000
00010000
,  // measure 14
00002000
00000010
00023000
00000010
,  // measure 15
00030200
00000000
00000010
00000000
00001300
00000001
00000100
00001000
,  // measure 16
00010000
00000000
00100000
10000000
00000000
00010000
00100000
00000000
,  // measure 17
01000000
00000000
10010000
00000000
10000000
01000000
00100000
00001000
,  // measure 18
01000000
00000000
00010000
10000000
00000000
00100000
00010000
00000000
,  // measure 19
00001000
00000000
00011000
00000000
00001000
00000100
00000001
00000000
,  // measure 20
00000020
00001000
00000032
00001000
,  // measure 21
00000023
00000000
00001000
00000000
00000031
00000100
00000010
00010000
,  // measure 22
00000200
00000000
00000310
00000001
00000020
00000000
00001030
00010000
,  // measure 23
00100000
10000000
00200000
00000000
01300000
00001000
00100000
00010000
,  // measure 24
20000000
00000000
31000000
00100000
02000000
00000000
13000000
00100000
,  // measure 25
00010000
00001000
00020000
00000000
00030100
00000010
00000001
00001000
,  // measure 26
00000200
00000000
00000310
00000001
00000020
00000000
00001030
00010000
,  // measure 27
00100000
10000000
00020000
00000000
00130000
01000000
00100000
00000000
,  // measure 28
00002000
01000000
00023000
01000000
,  // measure 29
00032000
00000000
01000000
00000000
00013000
01000000
10000000
01000000
,  // measure 30
00020000
00000000
00031000
00000010
00000001
00002000
00000000
00000010
,  // measure 31
00000000
00000010
00000000
00000001
00000000
00003001
00000000
00000000
,  // measure 32
00001001
00000000
00000001
00000100
00001000
00020000
00000000
00100000
,  // measure 33
00000000
00100000
00000000
00001000
00000000
00001000
00030000
00000000
,  // measure 34
00011000
00000000
00010000
01000000
10000000
00200000
00000000
00010000
,  // measure 35
00000000
00010000
00000000
10000000
00000000
10300000
00100000
01000000
,  // measure 36
00001000
00011000
01000000
00011000
,  // measure 37
00000100
00000000
00011000
00001000
00000000
00000010
00000001
00001000
,  // measure 38
00000010
00000100
00000002
00000000
00000013
00000100
00002000
00000000
,  // measure 39
00003001
00000100
00000020
00000000
00001030
00000001
00000100
00001000
,  // measure 40
00010000
00100000
00000000
10000000
00000000
01000000
20010000
00000000
,  // measure 41
00000000
00000000
30100000
00000000
00100000
10000000
01000000
00000000
,  // measure 42
00010000
00001000
00000010
00000001
00000000
00000001
00000010
00000000
,  // measure 43
00000100
00001000
00000010
00001000
00000000
00001000
00000001
00000100
,  // measure 44
00000010
00000110
00000100
00001100
,  // measure 45
00001000
00000000
00011000
00000000
00010000
00100000
01000000
00100000
,  // measure 46
10000000
00010000
00200000
00000000
01300000
10000000
00200000
00000000
,  // measure 47
00310000
00100000
20000000
00000000
30100000
10000000
01000000
00010000
,  // measure 48
00001000
00000100
00000000
00000001
00000000
00000010
00001002
00000000
,  // measure 49
00000000
00000000
00000103
00000000
00000100
00000001
00000010
00000000
,  // measure 50
00001000
00010000
00100000
01000000
00000000
01000000
00010000
00000000
,  // measure 51
10000000
01000000
00100000
10000000
00000000
10000000
00100000
01000000
,  // measure 52
00010000
00011000
00000010
00011000
,  // measure 53
00100000
00000000
00011000
00000000
00000000
00001000
00001000
00001000
,  // measure 54
00200000
00000000
00000000
00000000
02300000
00000000
00000000
13000000
,  // measure 55
00100000
00010000
00000000
00001000
00000100
00000001
00001000
00000000
,  // measure 56
00000020
00000000
00000000
00000000
00000230
00000000
00000000
00000301
,  // measure 57
00000010
00001000
00000000
00010000
01000000
10000000
00100000
00000000
,  // measure 58
10000000
01000000
00000000
00100000
00000000
00002000
00000000
00000000
,  // measure 59
00013000
00000010
00000000
00000100
00000000
00000002
00000000
00002000
,  // measure 60
00003003
00001100
00000001
00000101
,  // measure 61
00001000
00000000
00001100
00000001
00000000
00000001
00000100
00001000
,  // measure 62
00020000
00000000
00000000
00000000
00230000
00000000
00000000
01300000
,  // measure 63
00010000
20000000
00000000
32000000
00000000
03200000
00000000
00000000
,  // measure 64
00302000
00000000
00000000
00000000
00003020
00000000
00000000
00000130
,  // measure 65
00001000
00000002
00000000
00000203
00000000
00000320
00000000
00000000
,  // measure 66
00000031
00000010
00000000
00000100
00000000
00002000
00000000
00000000
,  // measure 67
00013000
00100000
00000000
01000000
00000000
10000000
01000000
00020000
,  // measure 68
00000000
20000000
00000000
00000000
,  // measure 69
30030000
00000000
00000000
00000000
;

//---------------dance-single - ----------------
#NOTEDATA:;
#CHARTNAME:;
#STEPSTYPE:dance-single;
#DESCRIPTION:;
#CHARTSTYLE:;
#DIFFICULTY:Beginner;
#METER:3;
#RADARVALUES:0.157099,0.273438,0.128793,0.247679,0.000000,111.000000,98.000000,13.000000,25.000000,0.000000,0.000000,0.000000,0.000000,0.000000,0.157099,0.273438,0.128793,0.247679,0.000000,111.000000,98.000000,13.000000,25.000000,0.000000,0.000000,0.000000,0.000000,0.000000;
#CREDIT:;
#NOTES:
0000
0000
0000
0000
,
0000
0000
0000
0000
,
0000
0001
0000
0001
,
0000
0001
0000
0001
,
0000
1000
0000
1000
,
0000
1000
0000
1000
,
0100
0000
0100
0000
,
0100
0000
0000
0000
,
0010
0000
0010
0000
,
0010
0000
0000
0000
,
0001
0000
0001
0000
,
1000
0000
1000
0000
,
1000
0000
0000
0000
,
0000
0000
0000
0000
,
0000
0001
0000
0001
,
0000
0001
0000
0001
,
0000
1000
0000
1000
,
0000
1000
0000
1000
,
0000
0100
0000
0100
,
0000
0100
0000
0010
,
0000
0010
0000
0010
,
0000
0001
0000
1000
,
2002
0000
3003
0000
,
0220
0000
0330
0000
,
2002
0000
3003
0000
,
0220
0000
0330
0000
,
2002
0000
3003
0000
,
0220
0000
0330
0000
,
0001
0000
0001
0000
,
0001
0000
0100
0100
,
0100
0000
0100
0000
,
0010
0000
0010
0010
,
1000
0000
1000
0000
,
0100
0000
0100
0100
,
0001
0000
0001
0000
,
1000
0000
1000
0000
,
0110
0000
0110
0000
,
0110
0000
0000
0000
,
2002
0000
3003
0000
,
0001
0000
0010
0000
,
0001
0000
0000
0000
,
1000
0000
0000
0000
,
0010
0000
0010
0000
,
0100
0000
0100
0000
,
2002
0000
0000
0000
,
3003
0000
0000
0000
,
0220
0000
0330
0000
,
0010
0000
0100
0000
,
0010
0000
0000
0000
,
0100
0000
0000
0000
,
0001
0000
0001
0000
,
1000
0000
1000
0000
,
2002
0000
0000
0000
,
3003
0000
0000
0000
,
1000
0000
1000
0000
,
1000
0000
0000
0000
,
0001
0000
0001
0000
,
0001
0000
0000
0000
,
0100
0000
0100
0000
,
0010
0000
0010
0000
,
0020
0000
0000
0000
,
0030
0000
0000
0000
,
2000
0000
0000
0000
,
3000
0000
0000
0000
,
0002
0000
0000
0000
,
0003
0000
0000
0000
,
0020
0000
0000
0000
,
0030
0000
0000
0000
,
0200
0000
0000
0000
,
0300
0000
0000
0000
;

//---------------dance-double - ----------------
#NOTEDATA:;
#CHARTNAME:;
#STEPSTYPE:dance-double;
#DESCRIPTION:;
#CHARTSTYLE:;
#DIFFICULTY:Medium;
#METER:8;
#RADARVALUES:0.414686,0.478516,0.257586,0.227865,0.000000,293.000000,267.000000,26.000000,23.000000,0.000000,0.000000,0.000000,0.000000,0.000000,0.414686,0.478516,0.257586,0.227865,0.000000,293.000000,267.000000,26.000000,23.000000,0.000000,0.000000,0.000000,0.000000,0.000000;
#CREDIT:;
#NOTES:
00000000
00000000
00000000
00000000
,
00000000
00000000
00000000
00000000
,
00001000
00011000
00010000
00011000
,
00001000
00000000
00011000
00000000
00001000
00100000
00001000
00000000
,
00010000
00011000
00001000
00011000
,
00010000
00000000
00011000
00000000
00010000
00000100
00010000
00000000
,
00002000
00000000
00000000
00000000
00103000
00000000
00000000
00010000
,
10000000
00010000
00000000
01000000
00000000
00001000
00000000
00000000
,
00020000
00000000
00000000
00000000
00030010
00000000
00000000
00001000
,
00000001
00001000
00000000
00000100
00000000
00010000
00000000
00000000
,
00001000
01000000
00000000
01000000
00000000
00002000
00000000
00003000
,
00010000
00000010
00000000
00000010
00000000
00020000
00000000
00031000
,
00000000
00011000
00010000
00011000
,
00001000
00000000
00011000
00000000
00010000
00000100
00010000
00000000
,
00001000
01000000
00010000
00000000
,
10000000
00000000
01000000
00000000
00100000
00010000
00100000
00000000
,
01000000
00000000
00000000
10000000
00000000
00000000
00100000
00000000
,
00000000
00000000
00010000
00000000
00001000
00010000
00001000
00000000
,
00000010
00000000
00000000
00000001
00000000
00000000
00001000
00000000
,
00000000
00000000
00000010
00000000
00000100
00000001
00000100
00000000
,
00000010
00000001
00000010
00000100
,
00001000
00000000
00011000
00000000
00001000
00100000
00001000
00000000
,
01000000
00010000
10000000
00010000
,
00100000
00000000
00001000
00000000
00010000
00000100
00010000
00000000
,
00000010
00001000
00000100
00000001
,
00000100
00000000
00001000
00000000
00000100
00010000
00000100
00000000
,
00010000
00001000
01000000
00100000
,
00010000
00000000
00100000
00000000
10000000
00010000
10000000
00000000
,
00010000
00100000
00001000
00010000
,
00000100
00000000
00001000
00000000
00000010
00000100
00000010
00000000
,
00001001
00000000
00000001
00000000
00000010
00000002
00000000
00001000
,
00000000
00001000
00000000
00000100
00000000
00000103
00000000
00000000
,
00000110
00000000
00000010
00000000
00010000
00002000
00000000
00000010
,
00000000
00000010
00000000
00010000
00000000
00013000
00000000
00000000
,
00011000
00000000
00010000
00000000
00100000
02000000
00000000
10000000
,
00000000
10000000
00000000
00010000
00000000
03010000
00000000
00010000
,
00100000
01100000
00100000
01100000
,
00100000
00000000
01100000
00000000
00001000
00010000
00001000
00010000
,
00002000
00000100
00003200
00000001
,
00000302
00000000
00000010
00000000
00000013
00000100
00000010
00000000
,
00001000
00000000
00000000
00010000
00000000
00000000
00100000
00000000
,
10000000
00010000
10000000
00000000
,
01000000
00010000
00000000
00001000
00000000
00001000
00000000
00000000
,
00000010
00001000
00000000
00010000
00000000
00010000
00000000
00000010
,
00000100
00000110
00000100
00000110
,
00000100
00000000
00000110
00000000
00001000
00010000
00001000
00000000
,
00020000
00100000
00230000
10000000
,
20300000
00000000
01000000
00000000
31000000
00100000
01000000
00000000
,
00010000
00000000
00000000
00001000
00000000
00000000
00000010
00000000
,
00000001
00001000
00000001
00000000
,
00000100
00001000
00000000
00010000
00000000
00010000
00000000
00000000
,
00100000
00010000
00000000
00001000
00000000
00001000
00000000
00100000
,
01000000
01100000
01000000
01100000
,
01000000
01100000
00000000
00011000
,
00020000
00000000
00000000
00000000
00030100
00000000
00000000
00001000
,
00000001
00001000
00000000
00000010
00000000
00010000
00000000
00000000
,
00002000
00000000
00000000
00000000
01003000
00000000
00000000
00010000
,
10000000
00010000
00000000
00100000
00000000
00001000
00000000
00000000
,
01000000
00002000
00000000
00010000
00000000
00013000
00000000
00000000
,
00000010
00020000
00000000
00001000
00000000
00031000
00000000
00000100
,
00000001
00000101
00001000
00001100
,
00010000
00000000
00011000
00000000
00001000
00010000
00001000
00000000
,
00200000
00000000
01000000
00000000
,
01300000
00000000
00000000
00000000
10000000
00010000
01000000
00000000
,
00100000
00000000
00000000
00010000
00000000
00000000
00002000
00000000
,
00000000
00000000
00000000
00000000
00000000
00003010
00000000
00000000
,
00000001
00000200
00000000
00001000
00000000
00001300
00000000
00000000
,
00010000
00200000
00000000
10000000
00000000
10300000
00000000
00000000
,
02000000
00000000
00000000
00200000
00000000
00000000
00000000
00000000
,
03300000
00000000
00000000
00000000
;

//---------------dance-double - ----------------
#NOTEDATA:;
#CHARTNAME:;
#STEPSTYPE:dance-double;
#DESCRIPTION:;
#CHARTSTYLE:;
#DIFFICULTY:Easy;
#METER:5;
#RADARVALUES:0.287308,0.410157,0.158515,0.317029,0.000000,203.000000,187.000000,16.000000,32.000000,0.000000,0.000000,0.000000,0.000000,0.000000,0.287308,0.410157,0.158515,0.317029,0.000000,203.000000,187.000000,16.000000,32.000000,0.000000,0.000000,0.000000,0.000000,0.000000;
#CREDIT:;
#NOTES:
00000000
00000000
00000000
00000000
,
00000000
00000000
00000000
00000000
,
10000000
10000000
00010000
00010000
,
10000000
01000000
00010000
00001000
,
00000010
00000010
00000100
00000100
,
00000010
00000001
00000100
00001000
,
00020000
00030000
00020000
00030000
,
00100000
10000000
00100000
00010000
,
00002000
00003000
00002000
00003000
,
00000010
00000001
00000010
00001000
,
00010000
00100000
10000000
00000000
,
10000000
00100000
00010000
00000000
,
00011000
00000000
00000000
00000000
,
00000000
00000000
00001000
00000100
,
00000002
00000000
00000010
00000000
,
00000100
00000000
00000013
00000100
,
00020000
00000000
00001000
00000000
,
00000100
00000000
00031000
00100000
,
00020000
00000000
01000000
00000000
,
10000000
00000000
00130000
01000000
,
20000000
00000000
00100000
00000000
,
00010000
00000000
31000000
00100000
,
00001000
00001000
00001000
00000000
,
00010000
00010000
00010000
00000010
,
00000100
00000001
00000100
00000000
,
00000010
00001000
00000010
00000100
,
00001000
00001000
00001000
00000000
,
00010000
00010000
00010000
00000000
,
00011000
00000000
00000000
00000000
,
00000000
00100000
01000000
00100000
,
10010000
00000000
01100000
00000000
,
10000000
00100000
01000000
00100000
,
10100000
00000000
01010000
00000000
,
00001000
00010000
00000100
00001000
,
00001100
00000000
00000011
00000000
,
00001000
00000001
00000100
00000010
,
00010000
00000000
00001000
00000000
,
00011000
00000000
00100000
01000000
,
10020000
00030000
20000000
30000000
,
00200000
00300000
01000000
01000000
,
02000000
03000000
00002000
00003000
,
00020000
00030000
00001000
00000000
,
00001000
00000010
00000001
00000000
,
00000001
00000100
00001000
00000000
,
00010000
00100000
00010000
00001000
,
00010000
00001000
00000010
00000100
,
00002001
00003000
00000002
00000003
,
00000020
00000030
00000100
00000100
,
00000200
00000300
00020000
00030000
,
00002000
00003000
00010000
00000000
,
00010000
00100000
10000000
00000000
,
10000000
01000000
00010000
00000000
,
00001000
00011000
00001000
00011000
,
00001000
00011000
00000000
00011000
,
00002000
00003000
00002000
00003000
,
00000010
00000001
00000010
00001000
,
00020000
00030000
00020000
00030000
,
00100000
10000000
00100000
00010000
,
00001000
00000100
00000001
00000000
,
00000001
00000010
00001000
00000000
,
00011000
00000000
00000000
00000000
,
00010000
01000000
10000000
01000000
,
00020000
00000000
00000000
00000000
,
00000000
00000000
00031000
00001000
,
00002000
00000000
00003200
00000000
,
00000302
00000000
00001003
00000000
,
00000001
00000010
00002000
00000000
,
00013000
00100000
20000000
00000000
,
30200000
00000000
02000000
00000000
,
03300000
00000000
00000000
00000000
;
