#TITLE:Big Up (Binghi Ghost Remix);
#SUBTITLE:;
#ARTIST:Drew Campbell;
#TITLETRANSLIT:;
#SUBTITLETRANSLIT:;
#ARTISTTRANSLIT:;
#GENRE:;
#CREDIT:;
#BANNER:Big Up (Binghi Ghost Remix).png;
#BACKGROUND:Big Up (Binghi Ghost Remix)-bg.png;
#LYRICSPATH:;
#CDTITLE:;
#MUSIC:Big Up (Binghi Ghost Remix).ogg;
#OFFSET:0.000000;
#SAMPLESTART:2.523000;
#SAMPLELENGTH:15.000000;
#SELECTABLE:YES;
#DISPLAYBPM:190.000000;
#BPMS:0.000000=189.850006
,4.000000=190.000000
;
#STOPS:
;
#BGCHANGES:;
#KEYSOUNDS:;
#ATTACKS:;

//---------------dance-single - ----------------
#NOTES:
     dance-single:
     :
     Beginner:
     2:
     0.139453,0.193616,0.009961,0.000000,0.000000,98.000000,97.000000,1.000000,0.000000,0.000000,0.000000,0.139453,0.193616,0.009961,0.000000,0.000000,98.000000,97.000000,1.000000,0.000000,0.000000,0.000000:
0000
0000
0000
0000
,
0000
0000
0000
0000
,
0001
0000
0000
0000
,
0001
0000
0000
0000
,
1000
0000
0000
0000
,
1000
0000
0000
0000
,
0001
0000
0000
0000
,
0001
0000
0000
0000
,
0010
0000
0000
0000
,
0100
0000
0000
0000
,
1000
0000
1000
0000
,
1000
0000
0000
0000
,
0001
0000
0001
0000
,
0001
0000
0000
0000
,
0100
0000
0100
0000
,
0100
0000
0000
0000
,
0010
0000
0000
0000
,
0100
0000
0000
0000
,
0001
0000
0000
0000
,
1000
0000
0000
0000
,
0001
0000
0000
0000
,
1000
0000
0000
0000
,
0100
0000
0000
0000
,
0100
0000
0000
0000
,
0010
0000
0000
0000
,
0010
0000
0000
0000
,
0001
0000
0001
0000
,
1000
0000
1000
0000
,
0010
0000
0010
0000
,
0100
0000
0100
0000
,
0001
0000
0000
0000
,
1000
0000
0000
0000
,
0100
0000
0000
0000
,
0010
0000
0000
0000
,
0001
0000
0000
0000
,
0100
0000
0000
0000
,
0010
0000
0000
0000
,
1000
0000
0000
0000
,
0001
0000
0001
0000
,
1000
0000
1000
0000
,
0010
0000
0000
0000
,
0100
0000
0000
0000
,
0001
0000
0001
0000
,
1000
0000
1000
0000
,
0100
0000
0000
0000
,
0010
0000
0000
0000
,
1001
0000
0000
0000
,
0000
0000
0000
0000
,
1000
0000
0000
0000
,
1000
0000
0000
0000
,
0001
0000
0000
0000
,
0001
0000
0000
0000
,
0010
0000
0000
0000
,
0010
0000
0000
0000
,
0100
0000
0000
0000
,
0100
0000
0000
0000
,
0000
0001
0000
0001
,
0000
1000
0000
0000
,
0000
0010
0000
0010
,
0000
0100
0000
0000
,
0000
0001
0000
0001
,
0000
0010
0000
0000
,
0000
0100
0000
0100
,
0000
0010
0000
0010
,
0000
0001
0000
0001
,
0000
0100
0000
0000
,
0000
0010
0000
0010
,
0000
1000
0000
0000
,
0000
0100
0000
0100
,
0000
0010
0000
0000
,
0000
0001
0000
1000
,
0000
0001
0000
0000
,
0000
0100
0000
0010
,
0000
0100
0000
0000
,
0001
0000
0000
0000
,
1000
0000
0000
0000
,
0001
0000
0000
0000
,
0010
0000
0000
0100
;

//---------------dance-single - ----------------
#NOTES:
     dance-single:
     :
     Easy:
     4:
     0.223410,0.271062,0.029883,0.119531,0.000000,157.000000,154.000000,3.000000,12.000000,0.000000,0.000000,0.223410,0.271062,0.029883,0.119531,0.000000,157.000000,154.000000,3.000000,12.000000,0.000000,0.000000:
0000
0000
0000
0000
,
0000
0000
0000
0000
,
1000
0000
0100
0000
,
1000
1000
1000
0000
,
0001
0000
0010
0000
,
0001
0001
0001
0000
,
0100
0000
0010
0000
,
0100
0100
0100
0000
,
0000
0002
0000
0003
,
0000
2000
0000
3000
,
0001
0000
0100
0000
,
0001
0001
0001
0000
,
1000
0000
0010
0000
,
1000
1000
1000
0000
,
0100
0000
0010
0000
,
0100
0100
0100
0000
,
0000
2000
0000
3000
,
0000
0002
0000
0003
,
0000
0100
0000
0100
,
0000
0100
0000
0100
,
0000
0010
0000
0010
,
0000
0010
0000
0010
,
0000
1000
0000
1000
,
0000
0001
0000
0001
,
0000
0010
0000
0010
,
0000
0100
0000
0110
,
0010
0000
0001
0000
,
0100
0000
1000
0000
,
0100
0000
0001
0000
,
0010
0000
0100
1000
,
0001
0000
0100
0000
,
0010
0010
0010
0000
,
1000
0000
0100
0000
,
0010
0010
0010
0000
,
0001
0000
1000
0000
,
0100
0100
0100
0000
,
0000
0020
0000
0030
,
0000
0002
0000
0003
,
1000
0000
0010
0000
,
0100
0100
0100
0000
,
0001
0000
0010
0000
,
0100
0100
0100
0000
,
1000
0000
0001
0000
,
1000
1000
1000
0000
,
0000
0020
0000
0030
,
0000
0200
0000
0300
,
0110
0000
0000
0000
,
0000
0000
0000
0000
,
0100
0000
0100
0000
,
0001
0000
0001
0000
,
0010
0000
0010
0000
,
0001
0000
1000
0000
,
0010
0000
0010
0000
,
0100
0000
0100
0000
,
0001
0000
0001
0000
,
0010
0000
0100
0000
,
0000
1000
0000
0001
,
0000
0010
0000
0100
,
0000
1000
0000
0001
,
0000
0100
0000
0010
,
0000
1000
0000
0001
,
0000
0100
0000
0010
,
1000
0000
0100
0000
,
0010
0010
0010
0000
,
0100
0000
1000
0000
,
0010
0010
0010
0000
,
0100
0000
0001
0000
,
0010
0010
0010
0000
,
0000
0002
0000
0003
,
0000
2000
0000
3000
,
0000
0010
0000
0010
,
0000
0200
0000
0300
,
0000
0001
0000
0001
,
0000
2000
0000
3000
,
0100
0000
0100
0000
,
0010
0000
0010
0000
,
0001
0000
0001
0000
,
1000
0000
0001
1001
;

//---------------dance-single - ----------------
#NOTES:
     dance-single:
     :
     Medium:
     7:
     0.462473,0.464678,0.428321,0.119531,0.000000,325.000000,282.000000,43.000000,12.000000,0.000000,0.000000,0.462473,0.464678,0.428321,0.119531,0.000000,325.000000,282.000000,43.000000,12.000000,0.000000,0.000000:
0000
0000
0000
0000
,
0000
0000
0000
0000
,
1000
0010
0100
0001
,
1000
1100
0101
0000
,
0001
0010
0100
1000
,
0001
0101
1100
0000
,
0010
0001
0010
0100
,
1000
1010
0101
0000
,
0000
0100
0001
0100
0002
0000
0003
0000
,
0000
1000
0100
1000
0200
0000
0300
0000
,
0001
0100
0010
1000
,
0001
0011
1010
0000
,
1000
0100
0010
0001
,
1000
1010
0011
0000
,
0100
1000
0100
0010
,
0001
0101
1010
0000
,
0000
0010
1000
0010
2000
0000
3000
0000
,
0000
0001
0010
0001
0020
0000
0030
0000
,
0100
1000
0100
1000
,
0001
0100
0010
1000
,
0100
1000
0100
1000
,
0001
0100
0010
1000
,
0100
1100
0001
0101
,
0010
1000
0010
1000
,
0001
0011
1000
1010
,
0100
0001
1000
1001
,
0001
0001
0010
0010
,
0100
1000
0001
0100
,
0010
0010
1000
1000
,
0001
0100
0010
1001
,
1000
0010
0100
0001
,
1000
1100
0101
0000
,
0001
0010
0100
1000
,
0001
0101
1100
0000
,
0010
0001
0010
0100
,
1000
1010
0101
0000
,
0000
0100
0001
0100
0002
0000
0003
0000
,
0000
1000
0100
1000
0200
0000
0300
0000
,
0001
0100
0010
1000
,
0001
0011
1010
0000
,
1000
0100
0010
0001
,
1000
1010
0011
0000
,
0100
1000
0100
0010
,
0001
0101
1010
0000
,
0000
0010
1000
0010
2000
0000
3000
0000
,
0000
0001
0010
0001
0020
0000
0030
0000
,
2200
0000
0000
0000
,
0000
0000
0000
3300
,
0010
0001
0100
1000
,
0100
0001
1000
0010
,
0001
0010
0100
0001
,
1000
1100
0001
0101
,
0100
1000
0010
0001
,
0010
1000
0001
0100
,
1000
0100
0010
1000
,
0001
0011
1000
1010
,
0100
0001
0010
1000
,
0001
0100
1000
0010
,
0100
0001
0010
0100
,
1000
0100
0010
0001
,
1000
0010
0100
0001
,
1000
0010
0100
0110
,
1000
0010
0100
0001
,
1000
1100
0101
0000
,
0001
0010
0100
1000
,
0001
0101
1100
0000
,
0010
0001
0010
0100
,
1000
1010
0101
0000
,
0000
0100
0001
0100
0002
0000
0003
0000
,
0000
1000
0100
1000
0200
0000
0300
0000
,
0010
0001
0100
1000
,
0100
0001
1000
0010
,
0001
0010
0100
0001
,
1000
1000
0001
0001
,
0100
0100
0010
0010
,
1000
0100
0010
0001
,
0010
1000
0001
0100
,
1000
0010
0100
0110
;

//---------------dance-single - ----------------
#NOTES:
     dance-single:
     :
     Hard:
     13:
     0.720035,0.658294,0.388477,0.209180,0.049805,506.000000,467.000000,39.000000,21.000000,0.000000,0.000000,0.720035,0.658294,0.388477,0.209180,0.049805,506.000000,467.000000,39.000000,21.000000,0.000000,0.000000:
0000
0000
0000
0000
,
0000
0000
0000
0000
,
0010
1000
0000
0001
0100
0010
0100
0001
,
1000
0100
1000
0100
0020
0000
0030
0000
,
0001
0010
0000
0100
1000
0100
0010
0001
,
0100
0100
0010
1000
0020
0000
1030
0000
,
0001
0100
0000
0010
0100
0001
0010
0001
,
1000
0100
1000
0001
0100
0001
1000
0010
,
0000
0000
0100
0001
0100
0000
0010
0000
2000
0000
0000
0000
0000
0000
0000
0000
,
3000
0000
0100
1000
0100
0000
0010
0000
0002
0000
0000
0000
0000
0000
0003
0000
,
0100
0001
0000
1000
0010
0100
0010
1000
,
0001
0010
0001
0010
0200
0000
0300
0000
,
1000
0100
0000
0010
0001
0010
0100
1000
,
0010
0010
0100
0001
0200
0000
0301
0000
,
1000
0010
0000
0100
0010
1000
0100
1000
,
0001
0010
0001
1000
0010
1000
0001
0100
,
0000
0000
0010
1000
0010
0000
0100
0000
0002
0000
0000
0000
0000
0000
0000
0000
,
0003
0000
0010
0001
0010
0000
0100
0000
2000
0000
0000
0000
0000
0000
0000
0000
,
3001
0001
0001
1000
0010
0010
0010
0100
,
0001
0001
1000
1000
0010
0010
0100
0100
,
0001
0001
0001
0010
0100
0100
0100
1000
,
0001
0001
0010
0010
0100
0100
1000
1000
,
0001
1000
0000
0010
0100
0001
0001
0000
,
0100
0010
0000
0100
0001
0010
0100
1000
,
0000
0010
0000
0100
0010
1000
0100
0000
,
0010
0100
1000
0001
1100
0000
0101
0000
,
0010
1000
0100
0010
1000
0010
0100
1000
,
0010
0100
1000
0100
0010
1000
0010
0000
,
0001
0010
0100
0001
0100
0010
0001
0100
,
0010
0001
0010
0100
0011
0000
1010
0000
,
0010
1000
0000
0001
0100
0010
0100
0001
,
1000
0100
1000
0100
0020
0000
0030
0000
,
0001
0010
0000
0100
1000
0100
0010
0001
,
0100
0100
0010
1000
0020
0000
1030
0000
,
0001
0100
0000
0010
0100
0001
0010
0001
,
1000
0100
1000
0001
0100
0001
1000
0010
,
0000
0000
0100
0001
0100
0000
0010
0000
2000
0000
0000
0000
0000
0000
0000
0000
,
3000
0000
0100
1000
0100
0000
0010
0000
0002
0000
0000
0000
0000
0000
0003
0000
,
0100
0001
0000
1000
0010
0100
0010
1000
,
0001
0010
0001
0010
0200
0000
0300
0000
,
1000
0100
0000
0010
0001
0010
0100
1000
,
0010
0010
0100
0001
0200
0000
0301
0000
,
1000
0010
0000
0100
0010
1000
0100
1000
,
0001
0010
0001
1000
0010
1000
0001
0100
,
0000
0000
0010
1000
0010
0000
0100
0000
0002
0000
0000
0000
0000
0000
0000
0000
,
0003
0000
0010
0001
0010
0000
0100
0000
2000
0000
0000
0000
3000
0000
0000
0000
,
2002
0000
0000
0000
,
0000
0000
0000
3003
,
0011
0110
0011
0110
,
0001
0010
0100
0010
0001
0010
0100
0000
,
0110
1100
0110
1100
,
0010
0100
1000
0100
0010
0100
1000
0000
,
0011
0101
0011
0101
,
0010
0001
0100
0001
0010
0001
0100
0000
,
1010
1100
1010
1100
,
0010
1000
0100
1000
0010
1000
0100
0000
,
0010
0001
0010
0100
1000
0010
1000
0001
,
0100
0001
0010
0100
1000
0100
0010
0000
,
0011
1100
0011
1100
,
1010
0101
1010
0101
,
0010
1000
0010
0100
0001
0010
0001
1000
,
0100
1000
0010
0100
0001
0100
0010
0000
,
1010
0101
1010
0101
,
0011
1100
0011
1100
,
1000
0100
0000
0010
0001
0010
0100
1000
,
0010
0010
0100
0001
0200
0000
0310
0000
,
1000
0001
0000
0100
0010
1000
0001
1000
,
0100
0010
0001
1000
0100
1000
0001
0100
,
0000
0000
0010
0100
0010
0000
1000
0000
0002
0000
0000
0000
0000
0000
0000
0000
,
0003
0000
0010
0100
0010
0000
0001
0000
2000
0000
0000
0000
0000
0000
0000
0000
,
3001
0001
0001
0000
1000
1000
1000
0000
,
0001
0001
1000
1000
0010
0010
0100
0000
,
0001
0001
0001
0000
0010
0010
0010
0000
,
0100
0100
1000
1000
0010
0010
0100
0000
,
0001
0001
0100
0010
1000
1000
0100
0000
,
0010
0010
0001
0100
0001
0001
1000
0000
,
0010
0010
1000
0001
0100
0100
0010
0000
,
1000
1000
0001
0010
1100
0000
0101
0000
;

//---------------dance-double - ----------------
#NOTES:
     dance-double:
     :
     Beginner:
     2:
     0.139453,0.193616,0.009961,0.000000,0.000000,98.000000,97.000000,1.000000,0.000000,0.000000,0.000000,0.139453,0.193616,0.009961,0.000000,0.000000,98.000000,97.000000,1.000000,0.000000,0.000000,0.000000:
// measure 0
00000000
00000000
00000000
00000000
,  // measure 1
00000000
00000000
00000000
00000000
,  // measure 2
10000000
00000000
00000000
00000000
,  // measure 3
10000000
00000000
00000000
00000000
,  // measure 4
00010000
00000000
00000000
00000000
,  // measure 5
00010000
00000000
00000000
00000000
,  // measure 6
01000000
00000000
00000000
00000000
,  // measure 7
01000000
00000000
00000000
00000000
,  // measure 8
00001000
00000000
00000000
00000000
,  // measure 9
00001000
00000000
00000000
00000000
,  // measure 10
00010000
00000000
00010000
00000000
,  // measure 11
00010000
00000000
00000000
00000000
,  // measure 12
00001000
00000000
00001000
00000000
,  // measure 13
00001000
00000000
00000000
00000000
,  // measure 14
00000100
00000000
00000100
00000000
,  // measure 15
00000100
00000000
00000000
00000000
,  // measure 16
00000010
00000000
00000000
00000000
,  // measure 17
00001000
00000000
00000000
00000000
,  // measure 18
00000001
00000000
00000000
00000000
,  // measure 19
00001000
00000000
00000000
00000000
,  // measure 20
00000100
00000000
00000000
00000000
,  // measure 21
00010000
00000000
00000000
00000000
,  // measure 22
00001000
00000000
00000000
00000000
,  // measure 23
00001000
00000000
00000000
00000000
,  // measure 24
00100000
00000000
00000000
00000000
,  // measure 25
00100000
00000000
00000000
00000000
,  // measure 26
00010000
00000000
00010000
00000000
,  // measure 27
10000000
00000000
10000000
00000000
,  // measure 28
00010000
00000000
00010000
00000000
,  // measure 29
10000000
00000000
10000000
00000000
,  // measure 30
01000000
00000000
00000000
00000000
,  // measure 31
00010000
00000000
00000000
00000000
,  // measure 32
00001000
00000000
00000000
00000000
,  // measure 33
00000100
00000000
00000000
00000000
,  // measure 34
00000001
00000000
00000000
00000000
,  // measure 35
00000010
00000000
00000000
00000000
,  // measure 36
00001000
00000000
00000000
00000000
,  // measure 37
00010000
00000000
00000000
00000000
,  // measure 38
00001000
00000000
00001000
00000000
,  // measure 39
00010000
00000000
00010000
00000000
,  // measure 40
00100000
00000000
00000000
00000000
,  // measure 41
10000000
00000000
00000000
00000000
,  // measure 42
00010000
00000000
00010000
00000000
,  // measure 43
10000000
00000000
10000000
00000000
,  // measure 44
01000000
00000000
00000000
00000000
,  // measure 45
00010000
00000000
00000000
00000000
,  // measure 46
00011000
00000000
00000000
00000000
,  // measure 47
00000000
00000000
00000000
00000000
,  // measure 48
00000100
00000000
00000000
00000000
,  // measure 49
00000100
00000000
00000000
00000000
,  // measure 50
00000010
00000000
00000000
00000000
,  // measure 51
00000010
00000000
00000000
00000000
,  // measure 52
00001000
00000000
00000000
00000000
,  // measure 53
00001000
00000000
00000000
00000000
,  // measure 54
00000100
00000000
00000000
00000000
,  // measure 55
00000100
00000000
00000000
00000000
,  // measure 56
00000000
00010000
00000000
00010000
,  // measure 57
00000000
00001000
00000000
00000000
,  // measure 58
00000000
00100000
00000000
00100000
,  // measure 59
00000000
00010000
00000000
00000000
,  // measure 60
00000000
10000000
00000000
10000000
,  // measure 61
00000000
00100000
00000000
00000000
,  // measure 62
00000000
01000000
00000000
01000000
,  // measure 63
00000000
00010000
00000000
00010000
,  // measure 64
00000000
00100000
00000000
00100000
,  // measure 65
00000000
01000000
00000000
00000000
,  // measure 66
00000000
00010000
00000000
00010000
,  // measure 67
00000000
00001000
00000000
00000000
,  // measure 68
00000000
00000100
00000000
00000100
,  // measure 69
00000000
00000001
00000000
00000000
,  // measure 70
00000000
00001000
00000000
00000100
,  // measure 71
00000000
00001000
00000000
00000000
,  // measure 72
00000000
00010000
00000000
00001000
,  // measure 73
00000000
00010000
00000000
00000000
,  // measure 74
00001000
00000000
00000000
00000000
,  // measure 75
00100000
00000000
00000000
00000000
,  // measure 76
00010000
00000000
00000000
00000000
,  // measure 77
10000000
00000000
00000000
01000000
;

//---------------dance-double - ----------------
#NOTES:
     dance-double:
     :
     Easy:
     4:
     0.223410,0.271062,0.029883,0.119531,0.000000,157.000000,154.000000,3.000000,12.000000,0.000000,0.000000,0.223410,0.271062,0.029883,0.119531,0.000000,157.000000,154.000000,3.000000,12.000000,0.000000,0.000000:
// measure 0
00000000
00000000
00000000
00000000
,  // measure 1
00000000
00000000
00000000
00000000
,  // measure 2
10000000
00000000
01000000
00000000
,  // measure 3
10000000
10000000
10000000
00000000
,  // measure 4
00010000
00000000
00100000
00000000
,  // measure 5
00010000
00010000
00010000
00000000
,  // measure 6
00001000
00000000
00010000
00000000
,  // measure 7
00001000
00001000
00001000
00000000
,  // measure 8
00000000
00000200
00000000
00000300
,  // measure 9
00000000
00000020
00000000
00000030
,  // measure 10
00001000
00000000
00000100
00000000
,  // measure 11
00001000
00001000
00001000
00000000
,  // measure 12
00000001
00000000
00000010
00000000
,  // measure 13
00000001
00000001
00000001
00000000
,  // measure 14
00000100
00000000
00001000
00000000
,  // measure 15
00010000
00010000
00010000
00000000
,  // measure 16
00000000
00002000
00000000
00003000
,  // measure 17
00000000
00020000
00000000
00030000
,  // measure 18
00000000
01000000
00000000
01000000
,  // measure 19
00000000
01000000
00000000
01000000
,  // measure 20
00000000
00100000
00000000
00100000
,  // measure 21
00000000
00100000
00000000
00100000
,  // measure 22
00000000
00001000
00000000
00001000
,  // measure 23
00000000
00010000
00000000
00010000
,  // measure 24
00000000
00000100
00000000
00000100
,  // measure 25
00000000
00001000
00000000
00001001
,  // measure 26
00000001
00000000
00000100
00000000
,  // measure 27
00000001
00000000
00000010
00000000
,  // measure 28
00001000
00000000
00010000
00000000
,  // measure 29
01000000
00000000
10000000
00010000
,  // measure 30
10000000
00000000
00100000
00000000
,  // measure 31
10000000
10000000
10000000
00000000
,  // measure 32
00010000
00000000
01000000
00000000
,  // measure 33
00010000
00010000
00010000
00000000
,  // measure 34
00001000
00000000
00010000
00000000
,  // measure 35
00001000
00001000
00001000
00000000
,  // measure 36
00000000
00000020
00000000
00000030
,  // measure 37
00000000
00000200
00000000
00000300
,  // measure 38
00001000
00000000
00000010
00000000
,  // measure 39
00001000
00001000
00001000
00000000
,  // measure 40
00000001
00000000
00000100
00000000
,  // measure 41
00000001
00000001
00000001
00000000
,  // measure 42
00000010
00000000
00001000
00000000
,  // measure 43
00010000
00010000
00010000
00000000
,  // measure 44
00000000
00002000
00000000
00003000
,  // measure 45
00000000
00020000
00000000
00030000
,  // measure 46
00011000
00000000
00000000
00000000
,  // measure 47
00000000
00000000
00000000
00000000
,  // measure 48
01000000
00000000
01000000
00000000
,  // measure 49
10000000
00000000
10000000
00000000
,  // measure 50
00100000
00000000
00100000
00000000
,  // measure 51
00010000
00000000
00001000
00000000
,  // measure 52
00010000
00000000
00010000
00000000
,  // measure 53
00001000
00000000
00001000
00000000
,  // measure 54
00000100
00000000
00000100
00000000
,  // measure 55
00000001
00000000
00001000
00000000
,  // measure 56
00000000
00000001
00000000
00000100
,  // measure 57
00000000
00001000
00000000
00010000
,  // measure 58
00000000
01000000
00000000
10000000
,  // measure 59
00000000
00100000
00000000
00010000
,  // measure 60
00000000
00001000
00000000
00000010
,  // measure 61
00000000
00000001
00000000
00000100
,  // measure 62
00000001
00000000
00000100
00000000
,  // measure 63
00000001
00000001
00000001
00000000
,  // measure 64
00001000
00000000
00000100
00000000
,  // measure 65
00001000
00001000
00001000
00000000
,  // measure 66
00010000
00000000
00001000
00000000
,  // measure 67
00010000
00010000
00010000
00000000
,  // measure 68
00000000
00200000
00000000
00300000
,  // measure 69
00000000
02000000
00000000
03000000
,  // measure 70
00000000
00010000
00000000
10000000
,  // measure 71
00000000
02000000
00000000
03000000
,  // measure 72
00000000
00010000
00000000
00001000
,  // measure 73
00000000
00000200
00000000
00000300
,  // measure 74
00000001
00000000
00000001
00000000
,  // measure 75
00001000
00000000
00001000
00000000
,  // measure 76
00000100
00000000
00000100
00000000
,  // measure 77
00010000
00000000
00001000
00011000
;

//---------------dance-double - ----------------
#NOTES:
     dance-double:
     :
     Medium:
     7:
     0.462473,0.464678,0.428321,0.119531,0.000000,325.000000,282.000000,43.000000,12.000000,0.000000,0.000000,0.462473,0.464678,0.428321,0.119531,0.000000,325.000000,282.000000,43.000000,12.000000,0.000000,0.000000:
// measure 0
00000000
00000000
00000000
00000000
,  // measure 1
00000000
00000000
00000000
00000000
,  // measure 2
00000001
00000100
00001000
00000100
,  // measure 3
00000001
00000101
00001100
00000000
,  // measure 4
00010000
01000000
10000000
01000000
,  // measure 5
00010000
01010000
11000000
00000000
,  // measure 6
10000000
00100000
00010000
00100000
,  // measure 7
10000000
10100000
00110000
00000000
,  // measure 8
00000000
00010000
00001000
00010000
00002000
00000000
00003000
00000000
,  // measure 9
00000000
00000100
00000001
00000100
00000002
00000000
00000003
00000000
,  // measure 10
00000001
00000010
00001000
00000010
,  // measure 11
00000001
00000011
00001010
00000000
,  // measure 12
00010000
00100000
10000000
00100000
,  // measure 13
00010000
00110000
10100000
00000000
,  // measure 14
10000000
01000000
00010000
01000000
,  // measure 15
10000000
11000000
01010000
00000000
,  // measure 16
00000000
00001000
00010000
00001000
00020000
00000000
00030000
00000000
,  // measure 17
00000000
00000100
00000010
00000100
00000020
00000000
00000030
00000000
,  // measure 18
00000001
00000100
00000001
00000100
,  // measure 19
00000010
00001000
00000100
00010000
,  // measure 20
00001000
00100000
00001000
00100000
,  // measure 21
00010000
10000000
01000000
00100000
,  // measure 22
00010000
00110000
01000000
11000000
,  // measure 23
00010000
01000000
00010000
01000000
,  // measure 24
00001000
00011000
00000100
00001100
,  // measure 25
00000010
00000001
00001000
00001001
,  // measure 26
00000001
00000001
00000100
00000100
,  // measure 27
00001000
00010000
00001000
00010000
,  // measure 28
00100000
00100000
10000000
10000000
,  // measure 29
01000000
00100000
01000000
01100000
,  // measure 30
10000000
01000000
00010000
01000000
,  // measure 31
10000000
11000000
01010000
00000000
,  // measure 32
00001000
00000100
00000001
00000100
,  // measure 33
00001000
00001100
00000101
00000000
,  // measure 34
00000001
00000010
00001000
00000010
,  // measure 35
00000001
00000011
00001010
00000000
,  // measure 36
00000000
00001000
00010000
00001000
00020000
00000000
00030000
00000000
,  // measure 37
00000000
01000000
00100000
01000000
00200000
00000000
00300000
00000000
,  // measure 38
10000000
00100000
00010000
00100000
,  // measure 39
10000000
10100000
00110000
00000000
,  // measure 40
00001000
00000010
00000001
00000010
,  // measure 41
00001000
00001010
00000011
00000000
,  // measure 42
00000001
00000100
00001000
00000100
,  // measure 43
00000001
00000101
00001100
00000000
,  // measure 44
00000000
00010000
00001000
00010000
00002000
00000000
00003000
00000000
,  // measure 45
00000000
01000000
00100000
01000000
00200000
00000000
00300000
00000000
,  // measure 46
20020000
00000000
00000000
00000000
,  // measure 47
00000000
00000000
00000000
30030000
,  // measure 48
00100000
00010000
01000000
00001000
,  // measure 49
00010000
00000100
00001000
00000010
,  // measure 50
00000100
00000001
00000100
00000010
,  // measure 51
00001000
00001100
00010000
00011000
,  // measure 52
00001000
00100000
00010000
01000000
,  // measure 53
00100000
10000000
01000000
00010000
,  // measure 54
01000000
00100000
00010000
01000000
,  // measure 55
00001000
00011000
00000100
00001100
,  // measure 56
00000010
00000001
00000100
00001000
,  // measure 57
00000100
00000001
00001000
00000100
,  // measure 58
00010000
00001000
00100000
00010000
,  // measure 59
10000000
01000000
00010000
01000000
,  // measure 60
10000000
00100000
00010000
00001000
,  // measure 61
00000100
00000001
00001000
00001001
,  // measure 62
00000010
00000001
00000100
00000001
,  // measure 63
00000010
00001010
00011000
00000000
,  // measure 64
00100000
10000000
01000000
10000000
,  // measure 65
00100000
00110000
00011000
00000000
,  // measure 66
00000100
00000001
00000010
00000001
,  // measure 67
00000100
00001100
00011000
00000000
,  // measure 68
00000000
01000000
00100000
01000000
00200000
00000000
00300000
00000000
,  // measure 69
00000000
10000000
00010000
10000000
00020000
00000000
00030000
00000000
,  // measure 70
00100000
01000000
10000000
00100000
,  // measure 71
00010000
00001000
00010000
00000100
,  // measure 72
00001000
00000001
00000010
00000100
,  // measure 73
00001000
00001000
00000100
00000100
,  // measure 74
00010000
00010000
00001000
00001000
,  // measure 75
01000000
00100000
00010000
00100000
,  // measure 76
10000000
01000000
00010000
00001000
,  // measure 77
00000100
00000001
00001000
00001001
;

//---------------dance-double - ----------------
#NOTES:
     dance-double:
     :
     Hard:
     12:
     0.680191,0.658294,0.398438,0.209180,0.000000,478.000000,438.000000,40.000000,21.000000,0.000000,0.000000,0.680191,0.658294,0.398438,0.209180,0.000000,478.000000,438.000000,40.000000,21.000000,0.000000,0.000000:
// measure 0
00000000
00000000
00000000
00000000
,  // measure 1
00000000
00000000
00000000
00000000
,  // measure 2
00000001
00000010
00000000
00000100
00001000
00000010
00001000
00000100
,  // measure 3
00010000
00001000
00010000
00001000
00000200
00000000
00000300
00000000
,  // measure 4
00001000
00010000
00000000
01000000
00100000
01000000
10000000
00010000
,  // measure 5
00100000
00100000
00010000
01000000
00200000
00000000
00310000
00000000
,  // measure 6
00100000
10000000
00000000
00010000
00100000
00001000
01000000
00001000
,  // measure 7
00010000
00000100
00010000
00001000
00000100
00000001
00001000
00000001
,  // measure 8
00000000
00000100
00001000
00010000
00200000
00000000
00000000
00000000
,  // measure 9
00300000
01000000
00010000
00100000
02000000
00000000
00000000
00000000
,  // measure 10
13000000
01000000
00000000
00100000
00010000
01000000
00010000
00100000
,  // measure 11
00001000
00010000
00001000
00010000
02000000
00000000
03000000
00000000
,  // measure 12
00010000
00001000
00000000
00000010
00000100
00000010
00000001
00001000
,  // measure 13
00000100
00000100
00001000
00000010
00000200
00000000
00001300
00000000
,  // measure 14
00000100
00000001
00000000
00001000
00000100
00010000
00000010
00010000
,  // measure 15
00001000
01000000
00001000
00010000
01000000
00000000
00010000
10000000
,  // measure 16
00000000
00100000
00010000
00001000
00000200
00000000
00000000
00000000
,  // measure 17
00000000
00000310
00001000
00000100
00000020
00000000
00000000
00000030
,  // measure 18
00000001
00000100
00001000
00000000
00000100
00001000
00010000
00000000
,  // measure 19
00000100
00010000
00000100
00000010
00001000
00010000
01000000
00000000
,  // measure 20
10000000
01000000
00010000
00000000
01000000
00010000
00001000
00000000
,  // measure 21
01000000
00001000
01000000
00100000
00010000
00001000
00000100
00000000
,  // measure 22
00000010
00000101
00001000
00000101
,  // measure 23
00000010
00000100
00000001
00001000
00000001
00000100
00001000
00000000
,  // measure 24
00010000
00010010
00001000
01001000
,  // measure 25
00010000
00000100
00010000
00001000
00101000
00000000
00010100
00000000
,  // measure 26
00000100
00001000
00000001
00000000
00000100
00000001
00001000
00000000
,  // measure 27
00000010
00000100
00000010
00001000
00000100
00010000
00001000
00000000
,  // measure 28
00100000
00010000
10000000
00000000
00100000
10000000
00010000
00000000
,  // measure 29
01000000
00100000
00010000
00001000
00000100
00000001
00001000
00000000
,  // measure 30
00000001
00000010
00000000
00000100
00001000
00000010
00001000
00000100
,  // measure 31
00010000
00001000
00010000
00001000
00000200
00000000
00000300
00000000
,  // measure 32
00001000
00010000
00000000
01000000
00100000
01000000
10000000
00010000
,  // measure 33
00100000
00100000
00010000
01000000
00200000
00000000
00310000
00000000
,  // measure 34
00100000
10000000
00000000
00010000
00100000
00001000
01000000
00001000
,  // measure 35
00010000
00000100
00010000
00001000
00000100
00000001
00001000
00000001
,  // measure 36
00000000
00000100
00001000
00010000
00200000
00000000
00000000
00000000
,  // measure 37
00300000
01000000
00010000
00100000
02000000
00000000
00000000
00000000
,  // measure 38
13000000
01000000
00000000
00100000
00010000
01000000
00010000
00100000
,  // measure 39
00001000
00010000
00001000
00010000
02000000
00000000
03000000
00000000
,  // measure 40
00010000
00001000
00000000
00000010
00000100
00000010
00000001
00001000
,  // measure 41
00000100
00000100
00001000
00000010
00000200
00000000
00001300
00000000
,  // measure 42
00000100
00000001
00000000
00001000
00000100
00010000
00000010
00010000
,  // measure 43
00001000
01000000
00001000
00010000
01000000
00000000
00010000
10000000
,  // measure 44
00000000
00100000
00010000
00001000
00000200
00000000
00000000
00000000
,  // measure 45
00000000
00000310
00001000
00000100
00000020
00000000
00000030
00000000
,  // measure 46
00000002
00002000
00000000
00000000
,  // measure 47
00000000
00000000
00000000
00003003
,  // measure 48
00000101
00001100
00000101
00001100
,  // measure 49
00001000
00000100
00000001
00000100
00001000
00010000
01000000
00000000
,  // measure 50
11000000
01010000
11000000
01010000
,  // measure 51
00010000
01000000
10000000
01000000
00010000
00001000
00000010
00000000
,  // measure 52
00000110
00001100
00010100
00101000
,  // measure 53
00001000
00010000
00001000
00100000
00010000
00100000
10000000
00000000
,  // measure 54
01100000
00110000
00101000
00010100
,  // measure 55
00010000
00001000
00010000
00000100
00001000
00000100
00000001
00000000
,  // measure 56
00000100
00000010
00000001
00000000
00001000
00000100
00000010
00000000
,  // measure 57
00001000
00000010
00000001
00000000
00001000
00000100
00000001
00000000
,  // measure 58
00000101
00001100
00001010
00010010
,  // measure 59
00011000
01001000
01010000
11000000
,  // measure 60
01000000
00100000
10000000
00000000
00010000
01000000
00100000
00000000
,  // measure 61
00010000
00100000
10000000
00000000
00010000
01000000
10000000
00000000
,  // measure 62
11000000
01010000
00110000
00101000
,  // measure 63
00011000
00010100
00001100
00000101
,  // measure 64
00000010
00000001
00000000
00001000
00000100
00001000
00000010
00000100
,  // measure 65
00000001
00000001
00000100
00001000
00020000
00000000
00031000
00000000
,  // measure 66
00010000
01000000
00000000
10000000
00100000
10000000
01000000
00100000
,  // measure 67
00010000
01000000
00010000
10000000
01000000
00010000
00001000
00010000
,  // measure 68
00000000
00001000
00000100
00000001
00002000
00000000
00000000
00000000
,  // measure 69
00003000
00000001
00000010
00001000
00000002
00000000
00000000
00000003
,  // measure 70
00000100
00000100
00000100
00000000
00001000
00001000
00001000
00000000
,  // measure 71
00000010
00000010
00000100
00000100
00000010
00000010
00000100
00000000
,  // measure 72
00001000
00001000
00001000
00000000
00010000
00010000
00010000
00000000
,  // measure 73
00100000
00100000
01000000
01000000
00100000
00100000
01000000
00000000
,  // measure 74
10000000
10000000
01000000
00100000
00010000
00010000
01000000
00000000
,  // measure 75
00100000
00100000
10000000
00010000
01000000
01000000
00001000
00000000
,  // measure 76
00100000
00100000
00001000
00010000
00000100
00000100
00001000
00000000
,  // measure 77
00000001
00000001
00001000
00000010
00000101
00000000
00001100
00000000
;

//---------------dance-single - Copied from----------------
#NOTES:
     dance-single:
     Copied from:
     Challenge:
     17:
     0.994672,0.971193,0.458204,0.368555,0.612599,699.000000,653.000000,46.000000,37.000000,0.000000,0.000000,0.994672,0.971193,0.458204,0.368555,0.612599,699.000000,653.000000,46.000000,37.000000,0.000000,0.000000:
0000
0000
0000
0000
,
0000
0000
0000
0000
,
1000
0010
2000
0000
0000
0000
3001
0000
0010
0100
0010
0000
0001
0000
1000
0000
,
0100
1000
0100
0000
0010
0000
0001
0000
0100
0001
0200
0000
0000
0000
0300
0000
,
0001
0000
0010
0001
0000
0000
1000
0000
0010
0000
0100
0010
0100
0000
0001
0000
,
1000
0000
0100
0010
0100
0000
1000
0001
0200
0000
0010
0000
0310
0000
1000
0000
,
0100
0010
0200
0000
0000
0000
0301
0000
0100
0010
0100
0000
1000
0000
0010
1000
,
0010
0000
0100
0000
0001
1000
0001
0000
0010
0000
0100
0010
0100
0000
1000
0000
,
0000
0000
0010
0001
0100
0000
0010
0000
1020
0000
0000
0000
0100
0000
0130
0000
,
0000
0000
0010
1000
0100
0000
0010
0000
2001
0000
0000
0000
0100
0000
3100
0000
,
0010
0001
0020
0000
0000
0000
0130
0000
1000
0010
1000
0000
0001
0000
0100
0000
,
0010
0100
0010
0000
0100
0000
1000
0000
0100
0001
0200
0000
0000
0000
0300
0000
,
0010
0000
1000
0001
0000
0000
0010
0000
0001
0000
1000
0100
1000
0000
0010
0000
,
0100
0000
0010
0001
0010
0000
0100
0001
2000
0000
0100
0000
3100
0000
0010
0000
,
0001
0100
0020
0000
0000
0000
1030
0000
0001
0100
0001
0000
1000
0000
0100
0010
,
0100
0000
0010
0000
0001
0100
0001
0000
1000
0000
0010
0100
0010
0000
0100
0000
,
0000
0000
0001
0010
0100
0000
1000
0000
1002
0000
0000
0000
0100
0000
0103
0000
,
0000
0000
0010
1000
0001
0100
0010
0000
2001
0000
0000
0000
0000
0000
0000
0000
,
3100
0100
0100
0100
0010
0010
0010
0010
,
0001
0001
0001
1000
1000
1000
0001
0001
,
0100
0100
0100
0100
0010
0010
0010
0010
,
1000
1000
1000
0001
0001
0001
0010
0010
,
0001
2000
0000
3010
0100
0001
0102
0000
,
0013
0200
0000
0301
0100
0010
2001
0010
,
0000
0100
0000
3010
1000
0100
1100
0000
,
0010
0001
1000
0000
0001
0000
0100
0000
0110
0000
0000
0000
1001
0000
0000
0000
,
1000
0000
0001
0000
0010
0001
0100
0000
0010
0000
0100
0001
0010
0000
0100
0000
,
0000
1001
0100
0010
1001
0100
1001
0000
,
0001
0000
0100
0000
0010
0100
1000
0000
0100
0000
0001
0010
0100
0000
0010
0000
,
0000
0001
1000
0001
0110
0000
1001
0000
,
0001
0010
0002
0000
0000
0000
0103
0000
0010
1000
0010
0000
0100
0000
1000
0000
,
0100
0010
0100
0000
0001
0000
1000
0000
0100
0010
0200
0000
0000
0000
0300
0000
,
0010
0000
0001
0100
0000
0000
0010
0000
0100
0000
0010
1000
0010
0000
0100
0000
,
0001
0000
0010
0001
0010
0000
0100
1000
0020
0000
1000
0000
1030
0000
0001
0000
,
0100
0010
0200
0000
0000
0000
0310
0000
0100
0010
1000
0000
0001
0000
1000
0001
,
0010
0000
0100
0000
0010
0001
1000
0000
0100
0000
1000
0010
0100
0000
0001
0000
,
0000
0000
0010
0001
0100
0000
0010
0000
0120
0000
0000
0000
0100
0000
0130
0000
,
0000
0000
0010
1000
0100
0000
0010
0000
1002
0000
0000
0000
0103
0001
0100
0000
,
0010
1000
0200
0000
0000
0000
0301
0000
0100
0010
0100
0000
1000
0000
0010
0000
,
0100
0001
0100
0000
0010
0000
1000
0000
0001
0010
0002
0000
0000
0000
0003
0000
,
0010
0000
0100
1000
0000
0000
0010
0000
0100
0000
0010
0001
0010
0000
1000
0000
,
0001
0000
0010
0001
0010
0000
0001
0100
0020
0000
0100
0000
0130
0000
0001
0000
,
1000
0100
0020
0000
0000
0000
0130
0000
1000
0010
1000
0000
0001
0000
0100
0010
,
1000
0000
0001
0000
0010
0001
1000
0000
0100
0000
1000
0001
0100
0000
0100
0000
,
0000
0000
0010
1000
0100
0000
0010
0000
0021
0000
0000
0000
0100
0000
0130
0000
,
0000
0000
1000
0100
0010
0001
1000
0000
1001
0000
0100
0010
0100
0010
0100
0000
,
2002
0000
0000
3003
,
1000
0100
1000
0100
1000
0100
1000
0100
0010
0001
0010
0001
0010
0000
0000
0000
,
0001
0000
0010
0000
0001
0100
0010
0000
1000
0100
0010
0000
0001
0000
0010
0001
,
0100
0000
0010
1000
0100
0000
0010
0000
0011
0000
0001
0000
0100
0000
0110
0000
,
1000
0000
1100
0001
1100
0001
1000
0011
,
1000
0000
0011
0000
0010
0100
1000
0000
1001
0000
0100
0000
0010
0000
1001
0000
,
0001
0000
1000
0000
0100
1000
0001
0000
0010
0001
1000
0000
0010
0000
0100
0010
,
1000
0000
0100
0010
0001
0000
1000
0000
1010
0000
0001
0000
0100
0000
0011
0000
,
1000
0000
0001
0100
0110
1000
0100
1001
,
0010
0000
1001
0000
0100
0000
0010
1000
0010
0000
0100
0000
1001
0000
0000
0000
,
0010
0000
0100
0000
0010
1000
0100
0000
0010
0001
0100
0000
1000
0000
0100
0001
,
1000
0000
0100
1000
0010
0000
0100
0000
0101
0000
0001
0000
1000
0000
1100
0000
,
0001
1000
0110
0001
0110
1000
0001
0110
,
1000
0000
0110
0000
0001
0000
1000
0100
0010
0000
0100
0000
1001
0000
0000
0000
,
0010
0000
1000
0000
0001
0100
1000
0000
1000
0100
0001
0000
0100
0000
0001
0010
,
1000
0000
1000
0010
0001
0000
0100
0000
0110
0000
0010
0000
1010
0000
0010
0000
,
1000
0100
0010
0000
0100
0000
0010
0000
0100
0001
0100
0000
0001
0000
0100
0000
,
0010
1000
0010
0000
0100
0000
0010
0000
0001
0100
0020
0000
0000
0000
0000
0000
,
1030
0000
0001
0100
0000
0000
0010
1000
0100
0000
0010
0001
0100
0000
0010
0000
,
0100
0000
0001
1000
0100
0000
0010
0001
0100
0010
0100
0010
1000
0001
1000
0000
,
0001
0010
0200
0000
0000
0000
0301
0000
0100
1000
0100
0000
0010
0000
0001
1000
,
0010
0000
0100
0000
1000
0100
0010
0000
0100
0000
0001
0010
0100
0000
1000
0000
,
0000
0000
0010
1000
0100
1000
0100
0000
0102
0000
0000
0000
0100
0100
0103
0000
,
0000
0000
0010
0001
0100
0001
0100
0000
1200
0000
0000
0000
0310
0100
0010
0000
,
2000
0100
3002
0100
,
1003
0100
0001
0100
1000
0100
0001
0100
,
1000
0020
0000
0031
0020
0000
1030
0000
,
0001
0010
1000
0001
0100
1000
0010
0100
,
0001
0000
0100
0001
0100
0000
0100
0000
0010
0000
1000
0000
1100
0000
0000
0000
,
0010
0000
0100
0010
0100
0000
0100
0000
0001
0000
0100
0000
0101
0000
0000
0000
,
0001
0000
0010
0001
0010
0000
0010
0000
1000
0000
0010
1000
0010
0000
0010
0000
,
0001
1000
0001
0000
0100
0000
1000
0000
0010
0000
0001
0000
0100
0000
1000
0000
,
0010
0000
0000
0000
;

//---------------dance-double - Copied from----------------
#NOTES:
     dance-double:
     :
     Challenge:
     17:
     0.950560,0.971193,0.288868,0.378516,0.547852,668.000000,639.000000,29.000000,38.000000,0.000000,0.000000,0.950560,0.971193,0.288868,0.378516,0.547852,668.000000,639.000000,29.000000,38.000000,0.000000,0.000000:
// measure 0
00000000
00000000
00000000
00000000
,  // measure 1
00000000
00000000
00000000
00000000
,  // measure 2
10000000
00100000
20000000
00000000
00000000
00000000
31000000
00000000
00100000
00010000
00100000
00000000
01000000
00000000
10000000
00000000
,  // measure 3
00100000
01000000
00100000
00000000
00010000
00000000
00001000
00000000
00010000
00000100
00020000
00000000
00000000
00000000
00030000
00000000
,  // measure 4
00001000
00000000
00000010
00000001
00000000
00000000
00001000
00000000
00000010
00000000
00000100
00000001
00000100
00000000
00000010
00000000
,  // measure 5
00010000
00000000
00000100
00001000
00000100
00000000
00000010
00000001
00000200
00000000
00000010
00000000
00000310
00000000
00000100
00000000
,  // measure 6
00001000
00010000
00002000
00000000
00000000
00000000
00103000
00000000
00010000
01000000
00010000
00000000
10000000
00000000
01000000
00100000
,  // measure 7
01000000
00000000
00010000
00000000
00001000
00100000
00001000
00000000
01000000
00000000
00010000
10000000
00010000
00000000
00100000
00000000
,  // measure 8
00000000
00000000
00001000
00010000
01000000
00000000
10000000
00000000
00200000
00000000
00000000
00000000
00010000
00000000
00310000
00000000
,  // measure 9
00000000
00000000
00010000
00001000
00000010
00000000
00000001
00000000
00000200
00000000
00000000
00000000
00000010
00000000
00000310
00000000
,  // measure 10
00001000
00000100
00002000
00000000
00000000
00000000
00003001
00000000
00000100
00000010
00000100
00000000
00000001
00000000
00000010
00000000
,  // measure 11
00000100
00010000
00000100
00000000
00001000
00000000
00000010
00000000
00010000
00001000
00020000
00000000
00000000
00000000
00030000
00000000
,  // measure 12
00100000
00000000
10000000
00010000
00000000
00000000
00100000
00000000
01000000
00000000
10000000
00100000
10000000
00000000
00010000
00000000
,  // measure 13
01000000
00000000
00100000
01000000
00100000
00000000
10000000
00010000
00200000
00000000
01000000
00000000
01300000
00000000
00010000
00000000
,  // measure 14
00001000
00010000
00002000
00000000
00000000
00000000
00003100
00000000
00000001
00000010
00000001
00000000
00001000
00000000
00000100
00000010
,  // measure 15
00000100
00000000
00010000
00000000
00000010
00000100
00000010
00000000
00001000
00000000
00000100
00000010
00000100
00000000
00010000
00000000
,  // measure 16
00000000
00000000
00010000
00001000
00000010
00000000
00000001
00000000
00000200
00000000
00000000
00000000
00001000
00000000
00001300
00000000
,  // measure 17
00000000
00000000
00001000
00010000
00100000
00000000
10000000
00000000
02000000
00000000
00000000
00000000
00000000
00000000
00000000
00000000
,  // measure 18
03010000
00010000
00010000
01000000
10000000
10000000
10000000
00100000
,  // measure 19
00010000
00001000
00000100
00001000
00010000
10000000
00010000
00001000
,  // measure 20
00000100
00000100
00000100
00000001
00000010
00000010
00000010
00001000
,  // measure 21
00010000
00100000
00010000
00001000
00000001
00001000
00010000
00100000
,  // measure 22
00010000
00002000
00000000
00103000
10000000
00100000
00020000
00000000
,  // measure 23
00031000
00000200
00000000
00000301
00000100
00001000
00000020
00000001
,  // measure 24
00000000
00000100
00000000
00001030
00010000
01000000
00200000
00000000
,  // measure 25
10300000
00010000
00100000
00000000
01000000
00000000
10000000
00000000
00010000
00000000
00000000
00000000
10010000
00000000
00000000
00000000
,  // measure 26
10000000
00000000
00010000
00000000
10000000
01000000
00100000
00000000
01000000
00000000
00100000
00010000
00001000
00000000
00000100
00000000
,  // measure 27
00000000
00010000
00000010
00000100
00000101
00001000
00001010
00000000
,  // measure 28
00000001
00000000
00000010
00000000
00000100
00000010
00000001
00000000
00000010
00000000
00000100
00000010
00001000
00000000
00010000
00000000
,  // measure 29
00000000
00100000
10000000
00010000
01100000
00000000
10010000
00000000
,  // measure 30
00010000
01000000
00020000
00000000
00000000
00000000
10030000
00000000
01000000
00100000
01000000
00000000
10000000
00000000
00100000
00000000
,  // measure 31
01000000
00010000
01000000
00000000
00001000
00000000
00010000
00000000
00100000
01000000
00200000
00000000
00000000
00000000
00300000
00000000
,  // measure 32
00010000
00000000
00001000
00000010
00000000
00000000
00000001
00000000
00001000
00000000
00000010
00000100
00000010
00000000
00000100
00000000
,  // measure 33
00000001
00000000
00001000
00000100
00001000
00000000
00000001
00001000
00000020
00000000
00000100
00000000
00000130
00000000
00001000
00000000
,  // measure 34
00010000
00000100
00020000
00000000
00000000
00000000
00031000
00000000
01000000
00100000
01000000
00000000
00010000
00000000
10000000
00100000
,  // measure 35
10000000
00000000
01000000
00000000
00100000
00001000
00100000
00000000
00010000
00000000
01000000
00100000
01000000
00000000
00001000
00000000
,  // measure 36
00000000
00000000
00010000
00001000
00000010
00000000
00000001
00000000
00000200
00000000
00000000
00000000
00001000
00000000
00001300
00000000
,  // measure 37
00000000
00000000
00001000
00010000
01000000
00000000
10000000
00000000
00200000
00000000
00000000
00000000
00010000
00000000
00310000
00000000
,  // measure 38
00001000
00010000
00000200
00000000
00000000
00000000
00000310
00000000
00000001
00001000
00000001
00000000
00000100
00000000
00000010
00000000
,  // measure 39
00010000
00000100
00010000
00000000
00000010
00000000
00000100
00000000
00000001
00000010
00000002
00000000
00000000
00000000
00000003
00000000
,  // measure 40
00000100
00000000
00001000
00010000
00000000
00000000
00100000
00000000
01000000
00000000
00100000
10000000
00100000
00000000
10000000
00000000
,  // measure 41
01000000
00000000
00100000
00001000
00100000
00000000
00010000
01000000
00200000
00000000
10000000
00000000
10300000
00000000
01000000
00000000
,  // measure 42
00010000
00001000
00020000
00000000
00000000
00000000
00030100
00000000
00001000
00000010
00001000
00000000
00000001
00000000
00000100
00000010
,  // measure 43
00000100
00000000
00001000
00000000
00010000
00000100
00010000
00000000
00001000
00000000
00100000
01000000
00100000
00000000
00001000
00000000
,  // measure 44
00000000
00000000
00001000
00010000
00100000
00000000
10000000
00000000
02000000
00000000
00000000
00000000
00010000
00000000
03010000
00000000
,  // measure 45
00000000
00000000
00001000
00010000
00001000
00010000
00001000
00000000
00000010
00000000
00000100
00000010
00000100
00000010
00000100
00000000
,  // measure 46
00002002
00000000
00000000
00003003
,  // measure 47
00000001
00000100
00000001
00000100
00000001
00000100
00000001
00000100
00000010
00001000
00000010
00001000
00000010
00000000
00000000
00000000
,  // measure 48
00001000
00000000
00000001
00000000
00000010
00000001
00000100
00000000
00000010
00001000
00000100
00000000
00010000
00000000
00001000
00010000
,  // measure 49
00000010
00000000
00010000
00001000
01000000
00000000
00010000
00000000
00110000
00000000
10000000
00000000
01000000
00000000
00110000
00000000
,  // measure 50
00001000
00000000
01100000
10000000
01100000
00010000
01000000
00110000
,  // measure 51
10000000
00110000
00001000
00010000
00011000
00000010
00000100
00000110
,  // measure 52
00000001
00000000
00001000
00000000
00000001
00000010
00000100
00000000
00001000
00000010
00000100
00000000
00001000
00000000
00010000
00001000
,  // measure 53
00100000
00000000
00001000
00010000
00000100
00000000
00001000
00000000
00010010
00000000
00001000
00000000
00000100
00000000
00010010
00000000
,  // measure 54
00001000
00000000
00000001
00000010
00000110
00000100
00001000
00001010
,  // measure 55
00010000
00000000
00001010
00000000
00000001
00000000
00000100
00000010
00000100
00000000
00001000
00000000
00011000
00000000
00000000
00000000
,  // measure 56
00100000
00000000
00010000
00000000
10000000
00100000
01000000
00000000
00010000
00100000
01000000
00000000
00010000
00000000
00001000
00010000
,  // measure 57
00000010
00000000
00010000
00001000
01000000
00000000
00010000
00000000
00110000
00000000
00001000
00000000
01000000
00000000
00110000
00000000
,  // measure 58
01000000
00000000
01100000
10000000
01100000
00010000
00001000
00010100
,  // measure 59
00001000
00000000
00010010
00000000
00001000
00000000
00000001
00000100
00000001
00000000
00000010
00000000
00000110
00000000
00000000
00000000
,  // measure 60
00000001
00000000
00001000
00000000
00000001
00000010
00000100
00000000
00010000
00001000
00010000
00000000
00100000
00000000
10000000
00100000
,  // measure 61
01000000
00000000
00001000
00010000
00001000
00000000
00010000
00000000
00010010
00000000
00000010
00000000
00000110
00000000
00000010
00000000
,  // measure 62
00000100
00000001
00000010
00000000
00000100
00000000
00000010
00000000
00000100
00001000
00000010
00000000
00000100
00000000
00000010
00000000
,  // measure 63
00010000
00001000
00010000
00000000
01000000
00000000
00100000
00000000
00010000
10000000
00200000
00000000
00000000
00000000
00000000
00000000
,  // measure 64
01300000
00000000
00001000
00010000
00000000
00000000
00001000
00000000
00000010
00000000
00000100
00001000
00000001
00000000
00000100
00000000
,  // measure 65
00000010
00000000
00000100
00001000
00010000
00000000
00001000
00100000
00010000
00000000
01000000
00100000
10000000
00000000
00010000
00000000
,  // measure 66
10000000
01000000
00200000
00000000
00000000
00000000
00301000
00000000
00100000
00010000
10000000
00000000
01000000
00000000
10000000
00010000
,  // measure 67
01000000
00000000
00100000
00000000
00010000
00001000
01000000
00000000
00001000
00000000
00010000
00000100
00000010
00000000
00000100
00000000
,  // measure 68
00000000
00000000
00010000
00001000
00000010
00000000
00000001
00000000
00000200
00000000
00000000
00000000
00001300
00010000
00001000
00000000
,  // measure 69
00000000
00000000
00001000
00010000
01000000
00000000
10000000
00000000
00200000
00000000
00000000
00000000
00310000
00001000
00010000
00000000
,  // measure 70
00000020
00000100
00020030
00000100
,  // measure 71
01030000
10000000
01000000
00010000
01000000
10000000
01000000
00010000
,  // measure 72
00001000
00000020
00000000
00001030
00200000
00000000
00310000
00000000
,  // measure 73
10000000
00100000
00010000
00001000
00000100
00000001
00000100
00001000
,  // measure 74
00010000
01000000
00010000
10000000
00010000
01000000
00010000
00000000
,  // measure 75
00001000
00000100
00001000
00000001
00001000
00000100
00001000
00000000
,  // measure 76
00010000
00100000
00010000
10000000
00010000
00100000
00010000
00001000
,  // measure 77
00000010
00001000
00000001
00001000
00000010
00001000
00010000
00010000
,  // measure 78
00010000
00000000
00000000
00000000
;
