#VERSION:0.83;
#TITLE:Arrabbiata;
#SUBTITLE:;
#ARTIST:Reven-G改;
#TITLETRANSLIT:;
#SUBTITLETRANSLIT:;
#ARTISTTRANSLIT:Reven-G alterative;
#GENRE:;
#ORIGIN:;
#CREDIT:;
#BANNER:Arrabbiata.png;
#BACKGROUND:Arrabbiata-bg.png;
#PREVIEWVID:;
#JACKET:Arrabbiata-jacket.png;
#CDIMAGE:;
#DISCIMAGE:;
#LYRICSPATH:;
#CDTITLE:;
#MUSIC:Arrabbiata.ogg;
#OFFSET:0.000000;
#SAMPLESTART:1.080000;
#SAMPLELENGTH:15.000000;
#SELECTABLE:YES;
#DISPLAYBPM:225.000000;
#BPMS:0.000=225.000;
#STOPS:;
#DELAYS:;
#WARPS:;
#TIMESIGNATURES:0.000=4=4;
#TICKCOUNTS:0.000=4;
#COMBOS:0.000=1;
#SPEEDS:0.000=1.000=0.000=0;
#SCROLLS:0.000=1.000;
#FAKES:;
#LABELS:0.000=Song Start;
#BGCHANGES:;
#KEYSOUNDS:;
#ATTACKS:
;

//---------------dance-single - ----------------
#NOTEDATA:;
#CHARTNAME:;
#STEPSTYPE:dance-single;
#DESCRIPTION:;
#CHARTSTYLE:;
#DIFFICULTY:Beginner;
#METER:5;
#RADARVALUES:0.237786,0.309494,0.009908,0.000000,0.000000,168.000000,167.000000,1.000000,0.000000,0.000000,0.000000,0.000000,0.000000,0.000000,0.237786,0.309494,0.009908,0.000000,0.000000,168.000000,167.000000,1.000000,0.000000,0.000000,0.000000,0.000000,0.000000,0.000000;
#CREDIT:;
#DISPLAYBPM:225.000000;
#NOTES:
0000
0000
0000
0000
,
0000
0000
0000
0000
,
0000
0000
0000
0000
,
0000
0000
0000
0000
,
0000
0000
0000
0000
,
0000
0000
0000
0000
,
0000
0000
0000
0000
,
0010
0000
1000
0000
,
0001
0001
0000
1000
,
1000
0000
0001
0001
,
0000
1000
1000
0000
,
0001
0001
0000
0100
,
0000
0010
0000
0010
,
0000
0000
1000
0000
,
1000
0000
0010
0000
,
0010
0000
1000
0000
,
0001
0000
1000
0000
,
0001
0000
1000
0000
,
0000
1000
0000
1000
,
0000
0100
0000
0100
,
0000
1000
0000
0001
,
0000
1000
0000
0001
,
0000
1000
0000
0001
,
0000
0100
0000
1000
,
0000
0001
0000
1000
,
0000
1000
0000
0100
,
0000
0001
0000
1000
,
0000
0001
0000
0000
,
0100
0000
1000
0000
,
0001
0000
1000
0000
,
0001
0000
0100
0000
,
0001
0000
1000
0000
,
0001
0000
0000
0100
,
0000
0000
0100
0000
,
1000
0000
0001
0000
,
1000
1000
0000
0100
,
0000
0100
0000
0001
,
0000
0100
0000
0001
,
0001
0000
1000
0000
,
0001
0001
0000
0100
,
0000
0100
0000
1000
,
0000
0100
0000
0100
,
0000
0010
0000
0010
,
0000
1000
0000
1000
,
0000
0001
0000
1000
,
0000
0001
0000
1000
,
0000
0001
0000
1000
,
0000
0001
0000
0001
,
0000
1000
0000
0001
,
0000
1000
0000
0001
,
0000
1000
0000
0001
,
0000
1000
0000
1000
,
0000
0001
0000
1000
,
0000
0001
0000
1000
,
0000
1000
0000
0100
,
0000
1001
0000
0001
,
0001
0001
0000
1000
,
1000
0000
1000
0000
,
0100
0000
0010
0000
,
1000
0000
0100
0000
,
0010
0000
1000
0000
,
0100
0000
0010
0000
,
1000
0000
0100
0000
,
0010
0000
1000
0000
,
0100
0000
0010
0000
,
1000
0000
0100
0000
,
1000
0000
0001
0000
,
1000
0000
0001
0000
,
0001
0000
0100
0000
,
0100
0000
0001
0000
,
1000
0000
0001
0000
,
1000
0000
0001
0000
,
0000
0001
0000
0001
,
0000
0010
0000
0010
,
0000
0001
0000
1000
,
0000
0001
0000
1000
,
0000
0001
0000
1000
,
0000
0010
0000
0001
,
0000
1000
0000
0001
,
0000
0001
0000
0010
,
0000
1000
0000
0001
,
0000
1000
0000
0000
,
0010
0000
0001
0000
,
1000
0000
0001
0000
,
1000
0000
0010
0000
,
1000
0000
0001
0000
,
1000
0000
0000
0010
,
0000
0000
0010
0000
,
0001
0000
1000
0000
,
0001
0001
0000
0000
;

//---------------dance-single - ----------------
#NOTEDATA:;
#CHARTNAME:;
#STEPSTYPE:dance-single;
#DESCRIPTION:;
#CHARTSTYLE:;
#DIFFICULTY:Easy;
#METER:11;
#RADARVALUES:0.468495,0.530560,0.208063,0.000000,0.000000,331.000000,310.000000,21.000000,0.000000,0.000000,0.000000,0.000000,0.000000,0.000000,0.468495,0.530560,0.208063,0.000000,0.000000,331.000000,310.000000,21.000000,0.000000,0.000000,0.000000,0.000000,0.000000,0.000000;
#CREDIT:;
#DISPLAYBPM:225.000000;
#NOTES:
0000
0000
0000
0000
,
0000
0000
0000
0000
,
0000
0000
0000
0000
,
0000
0000
0000
0000
,
0000
0000
0000
0000
,
0000
0000
0000
0000
,
0000
0000
0000
0000
,
0010
1000
1100
0010
,
0001
0101
0010
1000
,
1100
0010
0001
0101
,
0010
1000
1100
0010
,
0001
0101
0010
0100
,
0001
0010
1000
0010
,
0001
0000
1000
0100
,
1000
0100
0010
0001
,
0010
0100
1000
0000
,
0001
0100
1000
0100
,
0001
0100
1000
0001
,
0000
1000
0100
1000
,
0010
0100
0001
0100
,
0010
1000
0000
0001
,
0100
1000
0100
0001
,
0010
1000
0010
0001
,
0000
0100
1001
1000
,
0100
0001
0100
1000
,
0001
1000
0000
0100
,
1001
0001
0100
1000
,
0100
0001
1000
0000
,
0100
1001
1000
0010
,
0001
0010
1000
1001
,
0001
0000
0100
1001
,
0001
0010
1000
0010
,
0001
1000
0000
0100
,
0001
0000
0100
1001
,
1000
0100
0001
0100
,
1000
1000
0001
0100
,
1000
0100
0001
0001
,
1000
0100
0010
0001
,
0001
0100
1000
0100
,
0001
0001
1000
0100
,
0001
0100
1000
1000
,
0001
0100
1000
0100
,
0001
0010
1000
0010
,
0001
1000
0001
1000
,
0100
0001
0100
1000
,
0100
0001
0100
1000
,
0100
0001
0100
1000
,
0100
0001
0010
0001
,
0100
1000
0100
0001
,
0100
1000
0100
0001
,
0100
1000
0100
0001
,
0010
1000
0100
1000
,
0100
0001
0100
1000
,
0010
0001
0010
1000
,
0100
1100
0001
0100
,
0101
1001
0100
0001
,
0001
0001
1000
1000
,
1000
0100
1000
0010
,
0100
0001
0010
0100
,
1000
0010
0100
0001
,
0010
0100
1000
0010
,
0100
0001
0010
0100
,
1000
0010
0100
0001
,
0010
0100
1000
0010
,
0100
0001
0010
0100
,
1000
0010
0100
0001
,
1000
0100
0001
0100
,
1000
0000
0001
0010
,
0001
0010
0100
1000
,
0100
0010
0001
0000
,
1000
0010
0001
0010
,
1000
0010
0001
1000
,
0000
0001
0010
0001
,
0100
0010
1000
0010
,
0100
0001
0000
1000
,
0010
0001
0010
1000
,
0100
0001
0100
1000
,
0000
0010
1001
0001
,
0010
1000
0010
0001
,
1000
0001
0000
0010
,
1001
1000
0010
0001
,
0010
1000
0001
0000
,
0010
1001
0001
0100
,
1000
0100
0001
1001
,
1000
0000
0010
1001
,
1000
0100
0001
0100
,
1000
0001
0000
0010
,
1000
0000
0010
1001
,
0001
0010
1000
0010
,
0001
0001
0000
0000
;

//---------------dance-single - ----------------
#NOTEDATA:;
#CHARTNAME:;
#STEPSTYPE:dance-single;
#DESCRIPTION:;
#CHARTSTYLE:;
#DIFFICULTY:Medium;
#METER:13;
#RADARVALUES:0.673728,0.713359,0.990776,0.009908,0.000000,476.000000,376.000000,100.000000,1.000000,0.000000,0.000000,0.000000,0.000000,0.000000,0.673728,0.713359,0.990776,0.009908,0.000000,476.000000,376.000000,100.000000,1.000000,0.000000,0.000000,0.000000,0.000000,0.000000;
#CREDIT:;
#DISPLAYBPM:225.000000;
#NOTES:
0000
0000
0000
0000
,
0000
0000
0000
0000
,
0000
0000
0000
0000
,
0000
0000
0000
0000
,
0000
0000
0000
0000
,
0000
0000
0000
0000
,
0000
0000
0000
0000
,
0010
1000
0100
0000
0101
0000
0010
0001
,
0100
0000
1100
0000
0010
1000
0100
0000
,
0101
0000
0010
0001
0100
0000
1100
0000
,
0010
0001
0100
0000
1100
0000
0010
1000
,
0100
0101
0010
0010
,
0100
0010
0001
0000
1010
0000
0100
0000
,
0001
0000
0000
0100
0100
0000
1000
0000
,
0100
1010
0100
0011
,
0110
0000
1001
0000
1000
0000
0000
0100
,
0100
0000
0001
0000
1000
0100
0001
0000
,
0110
1000
0001
1000
,
0000
0010
0010
0000
0100
0000
0001
0000
,
1010
0100
0011
1000
,
0110
0000
0001
0000
0000
0010
0010
0000
,
0100
1000
0011
0100
,
1010
0001
0110
1000
,
0000
0010
0010
0000
0001
0000
0010
0000
,
0101
0010
1100
0110
,
1001
0000
0001
0000
0000
0010
0010
0000
,
1000
0000
0001
0010
1000
0000
0110
0000
,
0001
0000
1000
0000
0001
0000
0000
0100
,
0100
0010
1000
0101
,
0010
1100
0001
0110
,
1000
0000
0000
0100
0100
0000
0010
0000
,
0001
1100
0010
0101
,
1000
0000
0110
0000
0000
1000
1000
0000
,
0110
0000
0000
0001
0001
0000
0110
0000
,
1000
0100
0001
0000
1000
0000
1100
0000
,
0101
0000
1100
0000
0001
0100
1000
0000
,
0001
0101
1100
0101
,
1000
0100
0001
0000
0110
0000
1001
0000
,
1000
0010
0001
0000
1000
0000
1010
0000
,
0011
0000
1010
0000
0001
0010
1000
0000
,
0001
0011
1010
0011
,
1000
0010
0001
0000
1000
0000
1010
0000
,
0011
0000
1000
0100
0001
0000
0011
0000
,
1010
1100
0101
0010
,
1100
0000
0100
0001
0010
0000
0010
0000
,
0101
0000
0100
1000
0010
0000
0010
0000
,
1100
0000
0100
0001
0010
0000
1000
0100
,
0001
0000
0001
0100
1000
0000
0100
0000
,
1010
0000
0010
0001
0100
0000
0100
0000
,
0011
0000
0010
1000
0100
0000
0100
0000
,
1010
0000
0010
0001
0100
0000
1000
0010
,
0001
0000
0001
0010
1000
0000
0010
0000
,
1100
0000
0100
0001
0010
0000
0010
0000
,
0101
0000
0100
1000
0010
0000
0010
0001
,
0100
0000
0110
0000
0010
1000
0100
0000
,
0110
1001
0100
1000
,
1000
1000
0001
0001
,
0001
0000
1000
0100
0001
0000
0110
0000
,
0001
0100
1000
0000
0110
0000
1000
0100
,
0001
0000
0110
0000
0001
0100
1000
0000
,
0110
0000
1000
0100
0001
0000
0110
0000
,
0001
0100
1000
0000
0110
0000
1000
0010
,
0001
0000
0110
0000
0001
0100
1000
0000
,
0110
0000
1000
0010
0001
0000
0110
0000
,
0001
0100
1000
0000
0110
0000
1000
0010
,
0001
0000
0110
0000
0001
0100
1000
0000
,
0110
0000
1000
0100
0001
0000
0010
0000
,
0001
0000
0000
0010
0010
0000
1000
0000
,
0010
1100
0010
0101
,
0110
0000
1001
0000
1000
0000
0000
0010
,
0010
0000
0001
0000
1000
0010
0001
0000
,
0110
1000
0001
1000
,
0000
0100
0100
0000
0010
0000
0001
0000
,
1100
0010
0101
1000
,
0110
0000
0001
0000
0000
0100
0100
0000
,
0010
1000
0101
0010
,
1100
0001
0110
1000
,
0000
0100
0100
0000
0001
0000
0100
0000
,
0011
0100
1010
0110
,
1001
0000
0001
0000
0000
0100
0100
0000
,
1000
0000
0001
0100
1000
0000
0110
0000
,
0001
0000
1000
0000
0001
0000
0000
0010
,
0010
0100
1000
0011
,
0100
1010
0001
0110
,
1000
0000
0000
0010
0010
0000
0100
0000
,
0001
1010
0100
0011
,
1000
0000
0110
0000
0000
1000
1000
0000
,
0110
0000
0000
0001
0001
0000
0110
0000
,
1000
0010
0001
0000
1000
0000
1010
0000
,
0011
0200
0000
0000
,
0300
0000
0000
0000
;

//---------------dance-single - ----------------
#NOTEDATA:;
#CHARTNAME:;
#STEPSTYPE:dance-single;
#DESCRIPTION:;
#CHARTSTYLE:;
#DIFFICULTY:Hard;
#METER:15;
#RADARVALUES:0.764313,0.757944,0.871883,0.009908,0.000000,540.000000,452.000000,88.000000,1.000000,0.000000,0.000000,0.000000,0.000000,0.000000,0.764313,0.757944,0.871883,0.009908,0.000000,540.000000,452.000000,88.000000,1.000000,0.000000,0.000000,0.000000,0.000000,0.000000;
#CREDIT:;
#DISPLAYBPM:225.000000;
#NOTES:
0000
0000
0000
0000
,
0000
0000
0000
0000
,
0000
0000
0000
0000
,
0000
0000
0000
0000
,
0000
0000
0000
0000
,
0000
0000
0000
0000
,
0000
0000
0000
0000
,
0010
1000
0010
0001
1000
0000
0010
0001
,
0010
1000
0001
0000
0010
1000
0010
0001
,
1000
0000
0010
0001
0010
1000
0001
0000
,
0100
1000
0100
0001
1000
0000
0100
0001
,
0100
1000
0001
0000
0100
0000
0100
0000
,
0100
1000
0010
1000
0100
0001
0010
0100
,
0001
0000
0000
0100
0100
0000
0010
0000
,
0001
0101
0100
1100
,
1000
0000
1010
0000
0001
0000
0000
0100
,
0100
0000
1000
0000
0010
0001
0010
1000
,
0110
1010
0101
1000
,
0000
0100
0100
0000
0010
0000
1000
0000
,
1100
0100
0101
0001
,
0011
0000
1000
0000
0000
0100
0100
0000
,
0001
1010
1100
0101
,
0011
1010
0100
0010
,
0000
1000
1000
0000
0110
0000
0101
0000
,
1100
0101
1010
0011
,
1010
0000
0010
0000
0000
0001
0001
0000
,
0100
0000
0010
1000
0010
0001
0110
0000
,
1001
0000
0110
0000
1000
0000
0000
0001
,
0001
0110
1001
1010
,
1100
0011
0101
0110
,
0001
0000
0000
1000
1000
0000
0110
0000
,
1001
0011
0101
1010
,
1100
0000
0010
0000
0000
1000
1000
0000
,
0100
0000
0000
0001
0001
0000
0110
0000
,
1000
0100
0001
0100
1000
0001
0100
0010
,
0100
0001
0100
1000
0001
0100
1000
0100
,
0001
1000
0010
0100
0010
1000
0010
0001
,
1000
0100
0001
0100
1000
0000
1001
0000
,
0100
1000
0100
0001
0100
0010
1000
0100
,
0001
0010
1000
0001
0010
1000
0010
0001
,
0010
0100
1000
0010
0001
0100
1000
0001
,
0010
1000
0010
0001
0010
0100
1000
0010
,
0001
0100
1000
0001
0100
1000
0100
0001
,
0100
0010
1000
0100
0001
1000
0010
0000
,
1010
0000
0001
0010
1000
0010
0100
0000
,
0101
0000
1000
0100
1001
0100
0010
0000
,
1010
0000
1000
0010
0001
0010
1000
0100
,
0001
0100
1000
0010
0001
0010
0100
0000
,
1100
0000
0001
0100
1000
0100
0010
0000
,
0011
0000
1000
0010
1001
0010
0100
0000
,
1100
0000
1000
0100
0001
0100
1000
0010
,
0001
0010
1000
0100
0001
0100
0010
0000
,
1001
0000
1000
0100
0001
0010
0100
0000
,
1001
0000
0001
0100
1000
0010
0001
0100
,
1000
0100
0001
1000
0001
0010
1000
0010
,
0001
1000
0110
0001
,
0001
0001
1000
1000
,
1000
0000
0010
0001
0010
1000
0010
0000
,
0100
1000
0100
0001
0100
0000
0010
0001
,
0010
1000
0010
0000
0100
1000
0100
0001
,
0100
0000
1000
0100
0001
0100
1000
0000
,
0001
0100
1000
0100
0001
0000
1000
0100
,
0001
0100
1000
0000
0001
0100
1000
0100
,
0001
0000
1000
0010
0001
0010
1000
0000
,
0001
0010
1000
0010
0001
0000
1000
0010
,
0001
0010
1000
0000
1000
0010
0001
0010
,
1000
0000
0010
1000
0100
0001
0010
0100
,
0001
0000
0000
0100
0100
0000
0010
0000
,
0001
0101
0100
1100
,
1000
0000
1010
0000
0001
0000
0000
0100
,
0100
0000
1000
0000
0010
0001
0010
1000
,
0110
1010
0101
1000
,
0000
0100
0100
0000
0010
0000
1000
0000
,
1100
0100
0101
0001
,
0011
0000
1000
0000
0000
0100
0100
0000
,
0001
1010
1100
0101
,
0011
1010
0100
0010
,
0000
1000
1000
0000
0110
0000
0101
0000
,
1100
0101
1010
0011
,
1010
0000
0010
0000
0000
0001
0001
0000
,
0100
0000
0010
1000
0010
0001
0110
0000
,
1001
0000
0110
0000
1000
0000
0000
0001
,
0001
0110
1001
1010
,
1100
0011
0101
0110
,
0001
0000
0000
1000
1000
0000
0110
0000
,
1001
0011
0101
1010
,
1100
0000
0010
0000
0000
1000
1000
0000
,
0100
0000
0000
0001
0001
0000
0110
0000
,
1000
0100
0001
0100
1000
0001
0100
1000
,
0100
0001
0200
0000
0000
0000
0000
0000
,
0300
0000
0000
0000
;

//---------------dance-double - ----------------
#NOTEDATA:;
#CHARTNAME:;
#STEPSTYPE:dance-double;
#DESCRIPTION:;
#CHARTSTYLE:;
#DIFFICULTY:Easy;
#METER:12;
#RADARVALUES:0.503880,0.579604,0.455757,0.009908,0.000000,356.000000,310.000000,46.000000,1.000000,0.000000,0.000000,0.000000,0.000000,0.000000,0.503880,0.579604,0.455757,0.009908,0.000000,356.000000,310.000000,46.000000,1.000000,0.000000,0.000000,0.000000,0.000000,0.000000;
#CREDIT:;
#DISPLAYBPM:225.000000;
#NOTES:
00000000
00000000
00000000
00000000
,
00000000
00000000
00000000
00000000
,
00000000
00000000
00000000
00000000
,
00000000
00000000
00000000
00000000
,
00000000
00000000
00000000
00000000
,
00000000
00000000
00000000
00000000
,
00000000
00000000
00000000
00000000
,
00010000
01000000
01010000
00001000
,
00000100
00001100
00010000
01000000
,
00110000
00001000
00000100
00001010
,
00010000
01000000
00110000
00001000
,
00000100
00001010
00010000
00001000
,
00010000
01000000
10000000
00100000
,
00010000
00000000
00011000
00001000
,
00000100
00000001
00000100
00001000
,
00010000
00100000
10000000
00000000
,
01100000
01000000
00010000
00001000
,
00000100
00000001
00000100
00001000
,
00000000
00011000
00010000
01000000
,
10000000
01000000
00010000
00001000
,
00000010
00000001
00000000
00000110
,
00000100
00001000
00010000
01000000
,
10000000
01000000
00010000
00001000
,
00000000
00011000
00001000
00000100
,
00000001
00000010
00000001
00000100
,
00001000
00010000
00000000
00011000
,
00010000
01000000
10000000
00100000
,
10000000
01000000
00010000
00000000
,
00011000
00001000
00000010
00000001
,
00000100
00000001
00000010
00001000
,
00010000
00000000
00011000
00010000
,
00100000
10000000
01000000
10000000
,
00100000
00010000
00000000
00011000
,
00001000
00000000
00011000
00010000
,
00100000
10000000
00100000
00010000
,
00001000
00000110
00000010
00000001
,
00000010
00001000
00010000
01100000
,
00100000
00010000
00011000
00001000
,
00000100
00000001
00000100
00001000
,
00010000
01100000
01000000
10000000
,
01000000
00010000
00001000
00011000
,
00000100
00000001
00000100
00001000
,
00010000
01000000
10000000
01000000
,
00010000
00001000
00011000
00000100
,
00000001
00000100
00011000
01000000
,
10000000
01000000
00011000
00000100
,
00000001
00000100
00011000
01000000
,
00011000
00000100
00011000
00000010
,
00000001
00000010
00011000
00100000
,
10000000
00100000
00011000
00000010
,
00000001
00000010
00011000
00100000
,
00011000
00000010
00011000
01000000
,
10000000
00100000
00011000
00000010
,
00000001
00000100
00011000
01000000
,
00100000
00011000
00000100
00000010
,
00011000
00010000
00001000
00010000
,
00010000
00010000
00001000
00001000
,
00001000
00010000
01000000
10000000
,
10000000
01000000
00010000
00001000
,
00000100
00000001
00000001
00000100
,
00001000
00010000
01000000
10000000
,
10000000
01000000
00100000
00100000
,
00010000
00001000
00001000
00000100
,
00000010
00000010
00000001
00000010
,
00000010
00000100
00001000
00001000
,
00010000
00100000
00100000
01000000
,
10000000
00100000
10000000
01000000
,
00010000
00000000
00011000
00001000
,
00000010
00000001
00000010
00001000
,
00010000
01000000
10000000
00000000
,
01100000
00100000
00010000
00001000
,
00000010
00000001
00000010
00001000
,
00000000
00011000
00010000
00100000
,
10000000
00100000
00010000
00001000
,
00000100
00000001
00000000
00000110
,
00000010
00001000
00010000
00100000
,
10000000
00100000
00010000
00001000
,
00000000
00011000
00001000
00000010
,
00000001
00000100
00000001
00000010
,
00001000
00010000
00000000
00011000
,
00010000
00100000
10000000
01000000
,
10000000
00100000
00010000
00000000
,
00011000
00001000
00000100
00000001
,
00000010
00000001
00000100
00001000
,
00010000
00000000
00011000
00010000
,
01000000
10000000
00100000
10000000
,
01000000
00010000
00000000
00011000
,
00001000
00000000
00011000
00010000
,
01000000
10000000
01000000
00010000
,
00001000
00000200
00000000
00000000
,
00000300
00000000
00000000
00000000
;

//---------------dance-double - ----------------
#NOTEDATA:;
#CHARTNAME:;
#STEPSTYPE:dance-double;
#DESCRIPTION:;
#CHARTSTYLE:;
#DIFFICULTY:Medium;
#METER:14;
#RADARVALUES:0.646835,0.713359,0.812436,0.009908,0.000000,457.000000,375.000000,82.000000,1.000000,0.000000,0.000000,0.000000,0.000000,0.000000,0.646835,0.713359,0.812436,0.009908,0.000000,457.000000,375.000000,82.000000,1.000000,0.000000,0.000000,0.000000,0.000000,0.000000;
#CREDIT:;
#DISPLAYBPM:225.000000;
#NOTES:
00000000
00000000
00000000
00000000
,
00000000
00000000
00000000
00000000
,
00000000
00000000
00000000
00000000
,
00000000
00000000
00000000
00000000
,
00000000
00000000
00000000
00000000
,
00000000
00000000
00000000
00000000
,
00000000
00000000
00000000
00000000
,
00010000
01000000
00010000
00000000
00001010
00000000
00001000
00000100
,
00001000
00000000
00110000
00000000
00010000
00100000
00010000
00000000
,
00001100
00000000
00000000
00000010
00001000
00000000
01010000
00000000
,
00001000
00000010
00001000
00000000
00001100
00000000
00010000
00100000
,
00010000
01010000
00001000
00010000
,
00001000
00000010
00000001
00000000
00000100
00000000
00001000
00000000
,
00010000
00000000
00000000
00100000
00100000
00000000
10000000
00000000
,
00100000
00011000
00000100
00000101
,
00000010
00000000
00011000
00000000
00010000
00000000
00000000
01000000
,
01000000
00000000
10000000
00000000
00100000
00010000
00001000
00000000
,
00010000
01010000
00010000
00001000
,
00000000
00000010
00000010
00000000
00000001
00000000
00000010
00000000
,
00011000
01000000
11000000
00100000
,
00011000
00000000
00001000
00000000
00000000
00000100
00000100
00000000
,
00000001
00000100
00001100
00001000
,
00011000
00010000
01010000
00001000
,
00000000
00000100
00000100
00000000
00000001
00000000
00000100
00000000
,
00011000
00100000
10100000
01000000
,
00011000
00000000
00001000
00000000
00000000
00000010
00000010
00000000
,
00000001
00000000
00000100
00001000
00010000
00000000
00001000
00000000
,
00001010
00000000
00001000
00000000
00010000
00000000
00000000
01000000
,
01000000
10000000
01000000
00011000
,
00000010
00000011
00000100
00011000
,
00010000
00000000
00000000
00100000
00100000
00000000
10000000
00000000
,
00100000
00110000
00010000
00011000
,
00001000
00000000
00010000
00000000
00000000
00001000
01000000
00000000
,
00001000
00000000
00000000
00010000
00000100
00000000
00011000
00000000
,
00100000
10000000
01000000
00000000
01100000
00000000
01010000
00000000
,
00011000
00000000
00001000
00000000
00000010
00000001
00000100
00000000
,
00000110
00001100
00011000
00010000
,
00001000
00000100
00001000
00000000
00011000
00000000
00010000
00000000
,
01000000
10000000
00100000
00000000
01100000
00000000
00110000
00000000
,
00011000
00000000
00001000
00000000
00000100
00000001
00000010
00000000
,
00000110
00001010
00011000
00010000
,
01000000
10000000
00100000
00000000
01100000
00000000
00110000
00000000
,
00011000
00000000
00001000
00000000
00010000
00100000
00010000
00000000
,
00011000
00001000
00010000
00001000
,
00000100
00000000
00000001
00000010
00001000
00000000
00010000
00000000
,
01000000
00000000
10000000
00100000
00010000
00000000
00001000
00000000
,
00000100
00000000
00000001
00000010
00001000
00000000
00010000
01000000
,
10000000
00000000
01000000
00010000
00001000
00000000
00010000
00000000
,
01000000
00000000
10000000
00100000
00010000
00000000
00001000
00000000
,
00000100
00000000
00000001
00000010
00001000
00000000
00010000
00000000
,
01000000
00000000
10000000
00100000
00010000
00000000
00001000
00000100
,
00000001
00000000
00000100
00001000
00010000
00000000
00001000
00000000
,
00000100
00000000
00000001
00000010
00001000
00000000
00010000
00000000
,
00100000
00000000
10000000
01000000
00010000
00000000
00001000
00000100
,
00000110
00000000
00011000
00000000
00010000
01000000
01100000
00000000
,
00011000
00001000
00011000
00010000
,
00010000
00010000
00001000
00001000
,
00001000
00000000
00010000
01000000
00100000
00000000
00011000
00000000
,
00001000
00000100
00000010
00000000
00011000
00000000
00010000
01000000
,
00100000
00000000
00011000
00000000
00001000
00000100
00000010
00000000
,
00011000
00000000
00010000
00100000
01000000
00000000
00011000
00000000
,
00001000
00000010
00000100
00000000
00011000
00000000
00010000
00100000
,
01000000
00000000
00011000
00000000
00001000
00000010
00000100
00000000
,
00011000
00000000
00001000
00000010
00000100
00000000
00010100
00000000
,
00010000
00100000
01000000
00000000
01001000
00000000
00001000
00000010
,
00000100
00000000
00010100
00000000
00010000
00100000
01000000
00000000
,
00001000
00000010
00000001
00000000
00000100
00000000
00001000
00000000
,
00010000
00000000
00000000
00100000
00100000
00000000
10000000
00000000
,
00100000
00011000
00000100
00000101
,
00000010
00000000
00011000
00000000
00010000
00000000
00000000
01000000
,
01000000
00000000
10000000
00000000
00100000
00010000
00001000
00000000
,
00010000
01010000
00010000
00001000
,
00000000
00000010
00000010
00000000
00000001
00000000
00000010
00000000
,
00011000
01000000
11000000
00100000
,
00011000
00000000
00001000
00000000
00000000
00000100
00000100
00000000
,
00000001
00000100
00001100
00001000
,
00011000
00010000
01010000
00001000
,
00000000
00000100
00000100
00000000
00000001
00000000
00000100
00000000
,
00011000
00100000
10100000
01000000
,
00011000
00000000
00001000
00000000
00000000
00000010
00000010
00000000
,
00000001
00000000
00000100
00001000
00010000
00000000
00001000
00000000
,
00001010
00000000
00001000
00000000
00010000
00000000
00000000
01000000
,
01000000
10000000
01000000
00011000
,
00000010
00000011
00000100
00011000
,
00010000
00000000
00000000
00100000
00100000
00000000
10000000
00000000
,
00100000
00110000
00010000
00011000
,
00001000
00000000
00010000
00000000
00000000
00001000
01000000
00000000
,
00001000
00000000
00000000
00010000
00000100
00000000
00011000
00000000
,
00100000
10000000
01000000
00000000
01100000
00000000
01010000
00000000
,
00011000
00002000
00000000
00000000
,
00003000
00000000
00000000
00000000
;

//---------------dance-double - ----------------
#NOTEDATA:;
#CHARTNAME:;
#STEPSTYPE:dance-double;
#DESCRIPTION:;
#CHARTSTYLE:;
#DIFFICULTY:Hard;
#METER:16;
#RADARVALUES:0.707697,0.757944,0.525111,0.009908,0.000000,500.000000,447.000000,53.000000,1.000000,0.000000,0.000000,0.000000,0.000000,0.000000,0.707697,0.757944,0.525111,0.009908,0.000000,500.000000,447.000000,53.000000,1.000000,0.000000,0.000000,0.000000,0.000000,0.000000;
#CREDIT:;
#DISPLAYBPM:225.000000;
#NOTES:
00000000
00000000
00000000
00000000
,
00000000
00000000
00000000
00000000
,
00000000
00000000
00000000
00000000
,
00000000
00000000
00000000
00000000
,
00000000
00000000
00000000
00000000
,
00000000
00000000
00000000
00000000
,
00000000
00000000
00000000
00000000
,
00100000
10000000
01000000
00010000
00001000
00000000
00000010
00000001
,
00000100
00001000
00010000
00000000
00100000
10000000
01000000
00010000
,
00001000
00000000
00000010
00000001
00000100
00001000
00010000
00000000
,
00100000
10000000
01000000
00010000
00001000
00000000
00000010
00000001
,
00000100
00001000
00010000
00000000
00001000
00000000
00001000
00000000
,
00010000
00100000
10000000
00100000
00010000
00001000
00000010
00000001
,
00000010
00000000
00000000
00001000
00001000
00000000
00010000
00000000
,
00100000
10100000
10000000
11000000
,
01000000
00000000
01010000
00000000
00010000
00000000
00000000
00001000
,
00001000
00000000
00010000
00000000
00001000
00000010
00000001
00000010
,
00001000
00011000
01010000
00100000
,
00000000
00010000
00010000
00000000
00001000
00000000
00000010
00000000
,
00000011
00000001
00000101
00000100
,
00001100
00000000
00001000
00000000
00000000
00010000
00010000
00000000
,
00000000
00001000
00000100
00000101
,
00000001
00000011
00000010
00000100
,
00000000
00001000
00001000
00000000
00010000
00000000
01000000
00000000
,
11000000
10000000
10100000
00100000
,
00110000
00000000
00010000
00000000
00000000
00001000
00001000
00000000
,
00010000
00000000
00001000
00000100
00000001
00000100
00001000
00000000
,
00011000
00000000
00110000
00000000
01000000
00000000
00000000
00010000
,
00010000
00001000
00000100
00000101
,
00000001
00000011
00000010
00001010
,
00001000
00000000
00000000
00010000
00010000
00000000
00000000
00000000
,
00001000
00000010
00000011
00000001
,
00000101
00000000
00000100
00000000
00000000
00001000
00010000
00000000
,
01000000
00000000
00000000
00010000
00001000
00000000
00011000
00000000
,
00001000
00000010
00000001
00000010
00001000
00010000
00001000
00000100
,
00001000
00000100
00001000
00000000
00010000
00100000
10000000
00100000
,
00010000
00001000
00010000
01000000
00010000
01000000
00010000
00000000
,
00001000
00000010
00001000
00010000
01000000
00000000
00011000
00000000
,
00001000
00000100
00001000
00010000
00100000
10000000
01000000
00010000
,
00001000
00000100
00000001
00000010
00000001
00000100
00001000
00010000
,
01000000
10000000
00100000
00010000
00100000
10000000
01000000
00010000
,
00001000
00010000
01000000
10000000
00100000
00010000
00001000
00000100
,
00000001
00000010
00001000
00010000
00001000
00000100
00000001
00000010
,
00001000
00010000
01000000
10000000
00100000
00010000
00001000
00000000
,
00000110
00000000
00000010
00001000
00010000
00001000
00010000
00000000
,
01100000
00000000
00100000
00010000
00001000
00010000
00001000
00000000
,
00000110
00000000
00000010
00001000
00010000
01000000
00010000
00001000
,
00000010
00001000
00010000
01000000
00010000
00001000
00010000
00000000
,
01100000
00000000
01000000
00010000
00001000
00010000
00001000
00000000
,
00000110
00000000
00000100
00001000
00010000
00001000
00010000
00000000
,
01100000
00000000
01000000
00010000
00001000
00000010
00001000
00010000
,
01000000
00010000
00001000
00000010
00001000
00010000
00001000
00000000
,
00000110
00000000
00000100
00001000
00010000
00001000
00010000
00000000
,
01100000
00000000
01000000
00010000
00001000
00010000
00001000
00000100
,
00000001
00000100
00001000
00010000
00100000
10000000
00100000
00010000
,
00001000
00000010
00000101
00001000
,
00001000
00001000
00010000
00010000
,
00010000
00000000
00001000
00000010
00000001
00000010
00001000
00000000
,
00010000
00100000
10000000
00100000
00010000
00000000
00001000
00000100
,
00000001
00000100
00001000
00000000
00010000
01000000
10000000
01000000
,
00010000
00000000
00001000
00000010
00000001
00000010
00001000
00000000
,
00010000
01000000
10000000
01000000
00010000
00000000
00001000
00000010
,
00000001
00000100
00001000
00000000
00010000
00100000
10000000
01000000
,
00010000
00000000
00001000
00000010
00000001
00000100
00001000
00000000
,
00010000
00100000
10000000
01000000
00010000
00000000
00001000
00000100
,
00000001
00000010
00001000
00000000
00010000
01000000
10000000
00100000
,
00010000
00100000
10000000
00100000
00010000
00001000
00000010
00000001
,
00000010
00000000
00000000
00001000
00001000
00000000
00010000
00000000
,
00100000
10100000
10000000
11000000
,
01000000
00000000
01010000
00000000
00010000
00000000
00000000
00001000
,
00001000
00000000
00010000
00000000
00001000
00000010
00000001
00000010
,
00001000
00011000
01010000
00100000
,
00000000
00010000
00010000
00000000
00001000
00000000
00000010
00000000
,
00000011
00000001
00000101
00000100
,
00001100
00000000
00001000
00000000
00000000
00010000
00010000
00000000
,
00000000
00001000
00000100
00000101
,
00000001
00000011
00000010
00000100
,
00000000
00001000
00001000
00000000
00010000
00000000
01000000
00000000
,
11000000
10000000
10100000
00100000
,
00110000
00000000
00010000
00000000
00000000
00001000
00001000
00000000
,
00010000
00000000
00001000
00000100
00000001
00000100
00001000
00000000
,
00011000
00000000
00110000
00000000
01000000
00000000
00000000
00010000
,
00010000
00001000
00000100
00000101
,
00000001
00000011
00000010
00001010
,
00001000
00000000
00000000
00010000
00010000
00000000
00000000
00000000
,
00001000
00000010
00000011
00000001
,
00000101
00000000
00000100
00000000
00000000
00001000
00010000
00000000
,
01000000
00000000
00000000
00010000
00001000
00000000
00011000
00000000
,
00001000
00000010
00000001
00000010
00001000
00010000
01001000
10000000
,
01000000
00010000
00002000
00000000
00000000
00000000
00000000
00000000
,
00003000
00000000
00000000
00000000
;

//---------------dance-single - ----------------
#NOTEDATA:;
#CHARTNAME:;
#STEPSTYPE:dance-single;
#DESCRIPTION:;
#CHARTSTYLE:;
#DIFFICULTY:Challenge;
#METER:17;
#RADARVALUES:0.876129,1.114623,1.476256,0.039631,0.079262,619.000000,470.000000,149.000000,4.000000,0.000000,0.000000,0.000000,0.000000,0.000000,0.876129,1.114623,1.476256,0.039631,0.079262,619.000000,470.000000,149.000000,4.000000,0.000000,0.000000,0.000000,0.000000,0.000000;
#CREDIT:;
#DISPLAYBPM:225.000000;
#NOTES:
// measure 0
0000
0000
0000
0000
,  // measure 1
0000
0000
0000
0000
,  // measure 2
0000
0000
0000
0000
,  // measure 3
0000
0000
0000
0000
,  // measure 4
0000
0000
0000
0000
,  // measure 5
0000
0000
0000
0000
,  // measure 6
0000
0000
0000
0000
,  // measure 7
0000
1000
0010
0001
0010
0100
0000
0001
,  // measure 8
0010
1001
0010
0100
0000
0001
0010
1000
,  // measure 9
0010
0100
0000
1000
0010
1001
0010
0100
,  // measure 10
0000
0001
0100
1000
0100
0010
0000
1000
,  // measure 11
0100
1001
0100
0010
0000
0100
0000
0000
,  // measure 12
1000
0100
0101
0001
0010
0011
0010
1000
,  // measure 13
1010
0000
0000
0001
0001
0000
0000
0000
,  // measure 14
1100
0101
0011
1010
,  // measure 15
1100
0000
0101
0000
0011
0000
0000
0100
,  // measure 16
0100
0000
0000
0000
1000
0010
0001
0100
,  // measure 17
1100
0011
0101
1010
,  // measure 18
0000
0001
0001
0000
0000
0000
1100
0000
,  // measure 19
0110
0101
0011
0110
,  // measure 20
1010
0000
1001
0000
0000
0010
0010
0000
,  // measure 21
0000
1010
0110
1100
,  // measure 22
0011
0110
0101
1001
,  // measure 23
0010
1000
1000
0000
1100
0000
0011
0000
,  // measure 24
1100
0101
1010
0101
,  // measure 25
0001
0010
1001
0000
1100
0001
0001
0000
,  // measure 26
0101
0000
1010
0010
0001
0100
1100
0000
,  // measure 27
0011
0000
0001
0000
1010
0000
0001
0010
,  // measure 28
0010
1010
1100
0110
,  // measure 29
0101
1001
0011
0100
,  // measure 30
1010
0000
1000
0100
0100
0000
0101
0000
,  // measure 31
0011
0110
1010
1100
,  // measure 32
0010
0000
0101
0000
0000
1000
1000
0000
,  // measure 33
0110
0000
0000
0001
0001
0000
0110
0000
,  // measure 34
1000
0100
0001
1000
0010
1000
0001
0010
,  // measure 35
1000
0000
0100
0000
0001
0100
0001
0100
0001
0000
0100
0000
0010
0000
0100
0000
,  // measure 36
1000
0000
0010
0000
0001
0000
0100
0000
1000
0010
1000
0010
1000
0000
0001
0000
,  // measure 37
0010
0100
0001
0010
1000
0000
0000
0000
,  // measure 38
0001
0000
0100
0000
1000
0100
0010
0100
1000
0000
0010
0000
0001
0000
0100
0000
,  // measure 39
0010
0000
0001
0000
0100
0000
1000
0000
0010
0000
0100
0000
0001
1000
0100
1000
,  // measure 40
0001
0010
1000
0001
1000
0100
0001
1000
,  // measure 41
0010
0000
0001
0000
0100
0010
1000
0010
0100
0000
1000
0000
0010
0000
0001
0000
,  // measure 42
0100
0000
0010
0000
0100
0000
1000
0000
0001
1000
0010
1000
0001
0000
0100
0000
,  // measure 43
1000
0001
0010
0100
1000
0010
0001
0000
,  // measure 44
0011
0000
0011
1000
0001
0100
1100
0000
,  // measure 45
1100
0000
1100
0001
1000
0010
0011
0000
,  // measure 46
0011
0000
0011
1000
0001
0100
1100
0001
,  // measure 47
1000
0010
0011
1000
0001
0100
0110
0000
,  // measure 48
0110
0000
0110
1000
0010
0001
1001
0000
,  // measure 49
1001
0000
1001
0010
1000
0100
0110
0000
,  // measure 50
0110
0000
0110
1000
0010
0001
1001
0100
,  // measure 51
0010
1000
0110
0001
0100
1000
1010
0000
,  // measure 52
1010
0000
1010
0001
1000
0100
0101
0000
,  // measure 53
0101
0000
0101
1000
0001
0010
1010
1000
,  // measure 54
1100
1000
1010
0001
0011
0001
0101
0001
,  // measure 55
0022
0000
0000
0033
,  // measure 56
0000
0000
0000
0000
,  // measure 57
0000
0000
0100
1000
0010
0001
0100
0000
,  // measure 58
0100
0001
0010
1000
0100
0000
0100
1000
,  // measure 59
0010
0001
0100
0000
0100
0001
0010
1000
,  // measure 60
0100
0000
0010
0001
0100
1000
0010
0000
,  // measure 61
0010
1000
0100
0001
0010
0000
0010
0001
,  // measure 62
0100
1000
0010
0000
0010
1000
0100
0001
,  // measure 63
0010
0000
0010
1000
0100
0001
0010
0100
,  // measure 64
0010
0001
0100
1000
0010
0100
0010
1000
,  // measure 65
0100
0001
0010
0100
0010
0001
0100
1000
,  // measure 66
0010
0001
0100
1000
0010
0011
0001
0100
,  // measure 67
1100
0000
0000
0010
0010
0000
0000
0000
,  // measure 68
0101
0011
1010
1100
,  // measure 69
0110
0000
0101
0000
1001
0000
0000
0100
,  // measure 70
0100
0000
0000
0000
0001
0010
1000
0100
,  // measure 71
0101
0011
1010
1100
,  // measure 72
0000
0010
0010
0000
0000
0000
0101
0000
,  // measure 73
0110
0011
1010
0110
,  // measure 74
1100
0000
1001
0000
0000
0001
0001
0000
,  // measure 75
0000
1100
0110
0101
,  // measure 76
0011
0110
1010
1001
,  // measure 77
0010
0100
0100
0000
1000
0010
0011
0000
,  // measure 78
0101
1100
1010
0011
,  // measure 79
1100
0000
0011
0000
0001
0100
0100
0000
,  // measure 80
1001
0000
0001
0100
1000
0010
0011
0000
,  // measure 81
0101
0000
1100
0000
1010
0000
0100
1000
,  // measure 82
1000
0000
1010
0000
1000
0100
1001
0000
,  // measure 83
0011
0110
1010
1001
,  // measure 84
0110
0000
1000
0010
0010
0000
0100
0100
,  // measure 85
0011
0110
1010
1001
,  // measure 86
1100
0000
0101
0000
0100
0010
0010
0000
,  // measure 87
1001
0000
0110
0110
0110
1000
0001
1000
,  // measure 88
0001
0100
1000
0000
0100
0000
0001
0010
1000
0000
0010
0000
0001
0100
1000
0100
,  // measure 89
0001
0100
0220
0000
0000
0000
0000
0000
,  // measure 90
0330
0000
0000
0000
;

//---------------dance-double - ----------------
#NOTEDATA:;
#CHARTNAME:;
#STEPSTYPE:dance-double;
#DESCRIPTION:;
#CHARTSTYLE:;
#DIFFICULTY:Challenge;
#METER:18;
#RADARVALUES:0.812436,0.936283,1.169116,0.019816,0.059447,574.000000,456.000000,118.000000,2.000000,0.000000,0.000000,0.000000,0.000000,0.000000,0.812436,0.936283,1.169116,0.019816,0.059447,574.000000,456.000000,118.000000,2.000000,0.000000,0.000000,0.000000,0.000000,0.000000;
#CREDIT:;
#DISPLAYBPM:225.000000;
#NOTES:
00000000
00000000
00000000
00000000
,
00000000
00000000
00000000
00000000
,
00000000
00000000
00000000
00000000
,
00000000
00000000
00000000
00000000
,
00000000
00000000
00000000
00000000
,
00000000
00000000
00000000
00000000
,
00000000
00000000
00000000
00000000
,
00000000
00010000
00100000
10000000
01000000
00100000
00000000
00001000
,
00000010
00000001
00000100
00000010
00000000
00010000
01000000
10000000
,
00100000
01000000
00000000
00001000
00000100
00000001
00000010
00000100
,
00000000
00010000
00100000
10000000
01000000
00100000
00000000
00001000
,
00000100
00000001
00000010
00000100
00000000
00010000
00000000
00000000
,
00000010
00001000
00000100
00010000
00100000
10000000
01000000
00010000
,
00000100
00000000
00000000
00001000
00001000
00000000
00000000
00000000
,
00000011
00000101
00001100
00011000
,
00110000
00000000
01100000
00000000
11000000
00000000
00000000
00100000
,
00100000
00000000
00000000
00000000
00001000
00010000
00100000
10000000
,
11000000
00101000
00010100
00000011
,
00000000
00000100
00000100
00000000
00000000
00000000
00000101
00000000
,
00000110
00010100
00011000
00101000
,
01100000
00000000
10100000
00000000
00000000
00010000
00010000
00000000
,
00000000
11000000
01001000
00110000
,
00011000
00001100
00010010
00000011
,
00000100
00000010
00000010
00000000
00000101
00000000
00010010
00000000
,
01001000
00010100
00101000
10010000
,
00001000
00000000
10010000
00000000
01000000
00100000
00100000
00000000
,
01100000
00000000
00010000
00001000
00000010
00000001
00000101
00000000
,
00010100
00000000
00000010
00000000
00101000
00000000
00010000
01000000
,
01000000
10100000
00011000
11000000
,
00011000
00000011
00001100
00010000
,
00001010
00000000
00000001
00000100
00000100
00000000
00001100
00000000
,
00010010
01001000
00110000
11000000
,
00010000
00000000
00011000
00000000
00000000
00001000
00001000
00000000
,
00000110
00000000
00000000
00000001
00000001
00000000
00000110
00000000
,
00000001
00000100
00001000
00000100
00010000
01000000
10000000
01000000
,
00001000
00000000
00100000
00000000
00010000
10000000
00010000
10000000
00010000
00000000
00100000
00000000
10000000
00000000
00100000
00000000
,
00001000
00000000
00010000
00000000
00000100
00000000
00001000
00000000
00000001
00000010
00000001
00000010
00000001
00000000
00000100
00000000
,
00001000
00000100
00000010
00010000
01000000
00000000
00000000
00000000
,
10000000
00000000
00010000
00000000
01000000
00100000
01000000
00100000
01000000
00000000
00001000
00000000
00010000
00000000
01000000
00000000
,
00010000
00000000
00000010
00000000
00001000
00000000
00000100
00000000
00000001
00000000
00000100
00000000
00000010
00000001
00000010
00000001
,
00000010
00001000
00010000
01000000
00010000
00000010
00010000
00001000
,
01000000
00000000
00010000
00000000
10000000
00100000
10000000
00100000
10000000
00000000
01000000
00000000
00010000
00000000
00001000
00000000
,
00000010
00000000
00001000
00000000
01000000
00000000
00001000
00000000
00010000
00000010
00010000
00000010
00010000
00000000
00000100
00000000
,
00001000
00000001
00000010
00001000
01000000
00001000
00000100
00000000
,
00000101
00000000
00000101
00001000
00010000
01000000
10000000
00000000
,
10100000
00000000
10100000
00010000
00001000
00000010
00000001
00000000
,
00000101
00000000
00000101
00001000
00010000
00100000
00010000
00001000
,
00000100
00001000
00100000
00001000
00000010
00001000
01000000
00000000
,
10010000
00000000
10010000
01000000
00010000
00001000
00000010
00000000
,
00001001
00000000
00001001
00000100
00001000
00010000
00100000
00000000
,
10010000
00000000
10010000
01000000
00010000
00001000
00010000
00100000
,
00010000
00000100
00010000
01000000
00010000
00000010
00010000
00000000
,
00010100
00000000
00010100
00000010
00000001
00000100
00001000
00000000
,
00101000
00000000
00101000
01000000
10000000
00100000
00010000
00000010
,
00000001
00000010
00010000
00001000
00100000
10000000
00100000
00001000
,
00020000
00000000
00000000
00030000
,
00000000
00000000
00000000
00000000
,
00000000
00000000
00000001
00000100
00001000
00010000
00100000
00000000
,
10000000
01000000
00010000
00001000
00000010
00000000
00000001
00000100
,
00001000
00010000
00100000
00000000
10000000
01000000
00010000
00001000
,
00000010
00000000
00000010
00001000
01000000
00001000
00000100
00000000
,
00000010
00010000
01000000
00010000
00000100
00000000
00010000
01000000
,
00010000
00000010
00010000
00000000
00001000
00000100
00001000
00100000
,
00001000
00000000
01000000
00001000
00000010
00001000
00100000
00000000
,
01000000
00010000
00000010
00010000
00100000
00000000
00010000
00000010
,
00010000
01000000
00010000
00000000
00001000
00100000
00001000
00000100
,
00001000
00000000
01000000
00001000
00000010
00000001
00000100
00001000
,
00100000
00000000
00000000
00010000
00010000
00000000
00000000
00000000
,
11000000
01001000
00110000
00011000
,
00001100
00000000
00010010
00000000
00000011
00000000
00000000
00000100
,
00000100
00000000
00000000
00000000
00010000
00001000
00000100
00000001
,
00000011
00010010
01010000
00010100
,
00000000
00001000
00001000
00000000
00000000
00000000
10100000
00000000
,
01100000
00101000
00001100
00010010
,
00000110
00000000
00000011
00000000
00000000
00001000
00001000
00000000
,
00000000
00000101
00010100
00000110
,
00101000
01100000
10100000
00011000
,
00010000
10000000
10000000
00000000
00110000
00000000
01001000
00000000
,
11000000
00101000
00001010
00000101
,
00010100
00000000
00110000
00000000
00010000
00001000
00001000
00000000
,
00001010
00000000
00001000
00010000
01000000
10000000
10100000
00000000
,
11000000
00000000
01001000
00000000
00001100
00000000
00000010
00000001
,
00000001
00000100
00000101
00010100
,
00110000
10010000
01010000
00010010
,
00000011
00000000
00000100
00010000
00010000
00000000
00100000
00000000
,
10100000
00011000
01010000
00001010
,
00011000
00000000
00000011
00000000
00001000
00010000
00010000
00000000
,
10000000
00000000
00010000
00001000
00001000
00000000
00000001
00000000
,
00001000
00010000
00100000
10000000
00010000
00001000
00000010
00000001
,
00001000
00010000
02000000
00000000
00000000
00000000
00000000
00000000
,
03000000
00000000
00000000
00000000
;

//---------------dance-double - ----------------
#NOTEDATA:;
#CHARTNAME:;
#STEPSTYPE:dance-double;
#DESCRIPTION:;
#CHARTSTYLE:;
#DIFFICULTY:Edit;
#METER:17;
#RADARVALUES:0.876129,1.114623,1.476256,0.039631,0.079262,619.000000,470.000000,149.000000,4.000000,0.000000,0.000000,0.000000,0.000000,0.000000,0.876129,1.114623,1.476256,0.039631,0.079262,619.000000,470.000000,149.000000,4.000000,0.000000,0.000000,0.000000,0.000000,0.000000;
#CREDIT:;
#DISPLAYBPM:225.000000;
#NOTES:
00000000
00000000
00000000
00000000
,
00000000
00000000
00000000
00000000
,
00000000
00000000
00000000
00000000
,
00000000
00000000
00000000
00000000
,
00000000
00000000
00000000
00000000
,
00000000
00000000
00000000
00000000
,
00000000
00000000
00000000
00000000
,
00000000
10000000
00100000
00010000
00100000
01000000
00000000
00010000
,
00100000
10010000
00100000
01000000
00000000
00010000
00100000
10000000
,
00100000
01000000
00000000
10000000
00100000
10010000
00100000
01000000
,
00000000
00010000
01000000
10000000
01000000
00100000
00000000
10000000
,
01000000
10010000
01000000
00100000
00000000
01000000
00000000
00000000
,
10000000
01000000
01010000
00010000
00100000
00110000
00100000
10000000
,
10100000
00000000
00000000
00010000
00010000
00000000
00000000
00000000
,
11000000
01010000
00110000
10100000
,
11000000
00000000
01010000
00000000
00110000
00000000
00000000
01000000
,
01000000
00000000
00000000
00000000
10000000
00100000
00010000
01000000
,
11000000
00110000
01010000
10100000
,
00000000
00010000
00010000
00000000
00000000
00000000
11000000
00000000
,
01100000
01010000
00110000
01100000
,
10100000
00000000
10010000
00000000
00000000
00100000
00100000
00000000
,
00000000
10100000
01100000
11000000
,
00110000
01100000
01010000
10010000
,
00100000
10000000
10000000
00000000
11000000
00000000
00110000
00000000
,
11000000
01010000
10100000
01010000
,
00010000
00100000
10010000
00000000
11000000
00010000
00010000
00000000
,
01010000
00000000
10100000
00100000
00010000
01000000
11000000
00000000
,
00110000
00000000
00010000
00000000
10100000
00000000
00010000
00100000
,
00100000
10100000
11000000
01100000
,
01010000
10010000
00110000
01000000
,
10100000
00000000
10000000
01000000
01000000
00000000
01010000
00000000
,
00110000
01100000
10100000
11000000
,
00100000
00000000
01010000
00000000
00000000
10000000
10000000
00000000
,
01100000
00000000
00000000
00010000
00010000
00000000
01100000
00000000
,
10000000
01000000
00010000
10000000
00100000
10000000
00010000
00100000
,
10000000
00000000
01000000
00000000
00010000
01000000
00010000
01000000
00010000
00000000
01000000
00000000
00100000
00000000
01000000
00000000
,
10000000
00000000
00100000
00000000
00010000
00000000
01000000
00000000
10000000
00100000
10000000
00100000
10000000
00000000
00010000
00000000
,
00100000
01000000
00010000
00100000
10000000
00000000
00000000
00000000
,
00010000
00000000
01000000
00000000
10000000
01000000
00100000
01000000
10000000
00000000
00100000
00000000
00010000
00000000
01000000
00000000
,
00100000
00000000
00010000
00000000
01000000
00000000
10000000
00000000
00100000
00000000
01000000
00000000
00010000
10000000
01000000
10000000
,
00010000
00100000
10000000
00010000
10000000
01000000
00010000
10000000
,
00100000
00000000
00010000
00000000
01000000
00100000
10000000
00100000
01000000
00000000
10000000
00000000
00100000
00000000
00010000
00000000
,
01000000
00000000
00100000
00000000
01000000
00000000
10000000
00000000
00010000
10000000
00100000
10000000
00010000
00000000
01000000
00000000
,
10000000
00010000
00100000
01000000
10000000
00100000
00010000
00000000
,
00110000
00000000
00110000
10000000
00010000
01000000
11000000
00000000
,
11000000
00000000
11000000
00010000
10000000
00100000
00110000
00000000
,
00110000
00000000
00110000
10000000
00010000
01000000
11000000
00010000
,
10000000
00100000
00110000
10000000
00010000
01000000
01100000
00000000
,
01100000
00000000
01100000
10000000
00100000
00010000
10010000
00000000
,
10010000
00000000
10010000
00100000
10000000
01000000
01100000
00000000
,
01100000
00000000
01100000
10000000
00100000
00010000
10010000
01000000
,
00100000
10000000
01100000
00010000
01000000
10000000
10100000
00000000
,
10100000
00000000
10100000
00010000
10000000
01000000
01010000
00000000
,
01010000
00000000
01010000
10000000
00010000
00100000
10100000
10000000
,
11000000
10000000
10100000
00010000
00110000
00010000
01010000
00010000
,
00220000
00000000
00000000
00330000
,
00000000
00000000
00000000
00000000
,
00000000
00000000
01000000
10000000
00100000
00010000
01000000
00000000
,
01000000
00010000
00100000
10000000
01000000
00000000
01000000
10000000
,
00100000
00010000
01000000
00000000
01000000
00010000
00100000
10000000
,
01000000
00000000
00100000
00010000
01000000
10000000
00100000
00000000
,
00100000
10000000
01000000
00010000
00100000
00000000
00100000
00010000
,
01000000
10000000
00100000
00000000
00100000
10000000
01000000
00010000
,
00100000
00000000
00100000
10000000
01000000
00010000
00100000
01000000
,
00100000
00010000
01000000
10000000
00100000
01000000
00100000
10000000
,
01000000
00010000
00100000
01000000
00100000
00010000
01000000
10000000
,
00100000
00010000
01000000
10000000
00100000
00110000
00010000
01000000
,
11000000
00000000
00000000
00100000
00100000
00000000
00000000
00000000
,
01010000
00110000
10100000
11000000
,
01100000
00000000
01010000
00000000
10010000
00000000
00000000
01000000
,
01000000
00000000
00000000
00000000
00010000
00100000
10000000
01000000
,
01010000
00110000
10100000
11000000
,
00000000
00100000
00100000
00000000
00000000
00000000
01010000
00000000
,
01100000
00110000
10100000
01100000
,
11000000
00000000
10010000
00000000
00000000
00010000
00010000
00000000
,
00000000
11000000
01100000
01010000
,
00110000
01100000
10100000
10010000
,
00100000
01000000
01000000
00000000
10000000
00100000
00110000
00000000
,
01010000
11000000
10100000
00110000
,
11000000
00000000
00110000
00000000
00010000
01000000
01000000
00000000
,
10010000
00000000
00010000
01000000
10000000
00100000
00110000
00000000
,
01010000
00000000
11000000
00000000
10100000
00000000
01000000
10000000
,
10000000
00000000
10100000
00000000
10000000
01000000
10010000
00000000
,
00110000
01100000
10100000
10010000
,
01100000
00000000
10000000
00100000
00100000
00000000
01000000
01000000
,
00110000
01100000
10100000
10010000
,
11000000
00000000
01010000
00000000
01000000
00100000
00100000
00000000
,
10010000
00000000
01100000
01100000
01100000
10000000
00010000
10000000
,
00010000
01000000
10000000
00000000
01000000
00000000
00010000
00100000
10000000
00000000
00100000
00000000
00010000
01000000
10000000
01000000
,
00010000
01000000
02200000
00000000
00000000
00000000
00000000
00000000
,
03300000
00000000
00000000
00000000
;
