#TITLE:All Stars;
#SUBTITLE:;
#ARTIST:Martin Solveig ft. Alma;
#TITLETRANSLIT:;
#SUBTITLETRANSLIT:;
#ARTISTTRANSLIT:;
#GENRE:;
#CREDIT:;
#BANNER:All Stars.png;
#BACKGROUND:All Stars-bg.png;
#LYRICSPATH:;
#CDTITLE:;
#MUSIC:All Stars.ogg;
#OFFSET:-4.060000;
#SAMPLESTART:38.860001;
#SAMPLELENGTH:12.000000;
#SELECTABLE:YES;
#BPMS:0.000000=124.059990
;
#STOPS:
;
#BGCHANGES:;
#KEYSOUNDS:;
#ATTACKS:;

//---------------dance-single - ----------------
#NOTES:
     dance-single:
     :
     Hard:
     11:
     0.450353,0.493953,0.390208,0.143761,0.164298,307.000000,269.000000,38.000000,14.000000,0.000000,0.000000,0.450353,0.493953,0.390208,0.143761,0.164298,307.000000,269.000000,38.000000,14.000000,0.000000,0.000000:
// measure 0
0000
0000
0000
0000
,  // measure 1
0000
0000
0000
0000
,  // measure 2
1001
1000
1000
1000
,  // measure 3
1010
0000
1000
0000
1000
0000
1000
0001
,  // measure 4
1001
0001
0001
0001
,  // measure 5
0101
0000
0001
0000
0001
0000
0001
0010
,  // measure 6
0110
0100
0100
0100
,  // measure 7
1100
0000
0100
0000
0100
0000
0100
0010
,  // measure 8
0110
0010
0010
0010
,  // measure 9
0011
0000
0010
0000
0010
0000
0010
0100
,  // measure 10
2200
0000
0000
0000
0000
0000
0000
0000
3300
0000
1000
0000
0000
0001
0000
0000
,  // measure 11
0202
0000
0000
0000
0000
0000
0000
0000
0303
0000
0100
0000
0000
0001
0000
0000
,  // measure 12
0022
0000
0000
0000
0000
0000
0000
0000
0033
0000
1000
0000
0000
0010
0000
0000
,  // measure 13
2020
0000
0000
0000
0000
0000
0000
0000
3030
0000
0010
0000
0000
0010
0000
0000
,  // measure 14
1000
0001
0100
0001
1000
0000
0010
0000
,  // measure 15
1000
0100
0001
0000
1000
0010
0001
0000
,  // measure 16
1000
0010
0100
0001
1000
0100
1000
0000
,  // measure 17
0001
0010
0000
1000
0010
0000
0100
0010
,  // measure 18
1001
0000
0000
0000
1000
0000
0100
0000
0000
0000
0100
0000
1000
0000
0010
1000
,  // measure 19
0000
0000
0000
0000
0001
0000
0100
0000
0000
0000
0100
0000
0001
0000
0010
0001
,  // measure 20
0000
0000
1001
0010
0100
0010
1000
0001
,  // measure 21
1000
0000
0000
0000
0100
0000
0010
0000
0100
0000
1000
0000
0001
0000
1000
0001
,  // measure 22
0100
0000
0000
0001
0100
0000
0000
0001
0100
0000
0010
0000
1000
0000
0001
1000
,  // measure 23
0100
0000
0000
1000
0100
0000
0000
1000
0100
0000
0010
0000
0001
0000
1000
0001
,  // measure 24
0100
1000
0100
0001
0010
1000
0010
0100
,  // measure 25
2002
0000
0000
0000
0000
0000
3003
0000
0000
0000
0100
0010
0100
0001
0000
0001
,  // measure 26
1000
0000
0000
0000
1010
0000
0000
0000
1000
0000
0100
0000
0010
0000
0001
0200
,  // measure 27
0000
0000
0300
0000
1010
0000
0001
0000
0100
0000
0010
0000
1000
0000
0100
0020
,  // measure 28
0000
0000
0030
0000
0011
0000
0100
0000
1000
0000
0001
0000
1000
0000
0010
0100
,  // measure 29
0000
0000
0101
0000
0000
1000
0000
0000
1100
0000
1000
0000
1001
0000
0001
0000
,  // measure 30
0011
0000
0000
0000
0101
0000
0000
0000
0001
0000
1000
0000
0100
0000
0001
0200
,  // measure 31
0000
0000
0300
0000
0110
0000
0010
0000
1000
0000
0010
0000
0001
0000
1000
0200
,  // measure 32
0000
0000
0300
0000
0101
0000
0010
0000
1000
0000
0100
0000
0010
0000
0001
1000
,  // measure 33
0000
0000
1010
0000
0000
0010
0000
0000
0110
0000
0100
0000
0101
0000
0001
0000
,  // measure 34
1001
0000
0000
0000
1000
0000
0100
0000
1000
0000
0100
0000
0010
0000
0001
0010
,  // measure 35
0100
0000
0000
0000
1000
0000
0010
0000
1000
0000
0010
0000
0100
0000
0001
0100
,  // measure 36
0010
0000
1000
0000
0010
0000
1000
0000
0100
0000
0010
0000
0100
0000
0000
1000
,  // measure 37
0001
0100
0010
0100
0001
1000
0001
0010
,  // measure 38
0110
0000
0000
0000
1000
0000
0010
0000
0100
0000
0001
0000
1000
0000
0001
0010
,  // measure 39
0100
0000
0000
0000
1000
0000
0001
0000
0100
0000
0010
0000
0100
0000
1000
0100
,  // measure 40
0010
0000
1000
0000
0001
0000
0010
0000
1000
0000
0010
0000
0001
0000
0100
0001
,  // measure 41
1000
0010
0001
0010
1000
0100
0010
0001
,  // measure 42
1001
0001
0001
0001
,  // measure 43
0101
0000
0001
0000
0001
0000
0001
1000
,  // measure 44
1001
1000
1000
1000
,  // measure 45
1010
0000
0000
0000
1010
0000
0000
0011
0000
0000
0101
0000
0000
1100
0000
0000
;

//---------------dance-single - ----------------
#NOTES:
     dance-single:
     :
     Medium:
     9:
     0.363803,0.470431,0.390208,0.102686,0.030806,248.000000,210.000000,38.000000,10.000000,0.000000,0.000000,0.363803,0.470431,0.390208,0.102686,0.030806,248.000000,210.000000,38.000000,10.000000,0.000000,0.000000:
// measure 0
0000
0000
0000
0000
,  // measure 1
0000
0000
0000
0000
,  // measure 2
1000
1000
1000
1000
,  // measure 3
0001
0000
0001
0000
0001
0000
0001
0100
,  // measure 4
0010
0010
0010
0010
,  // measure 5
0100
0000
0100
0000
0100
0000
0100
0001
,  // measure 6
1000
1000
1000
1000
,  // measure 7
0100
0000
0100
0000
0100
0000
0100
0010
,  // measure 8
0001
0001
0001
0001
,  // measure 9
0010
0000
0010
0000
0010
0000
0010
0001
,  // measure 10
0200
0000
0000
0000
0000
0000
0000
0000
0300
0000
0001
0000
0000
1000
0000
0000
,  // measure 11
0002
0000
0000
0000
0000
0000
0000
0000
0003
0000
0010
0000
0000
0100
0000
0000
,  // measure 12
0020
0000
0000
0000
0000
0000
0000
0000
0030
0000
0100
0000
0000
1000
0000
0000
,  // measure 13
0200
0000
0000
0000
0000
0000
0000
0000
0300
0000
0010
0000
0000
0001
0000
0000
,  // measure 14
0010
0010
0100
0100
,  // measure 15
1000
0010
1000
0000
1000
0100
1000
0000
,  // measure 16
0001
0001
0100
0100
,  // measure 17
0001
1000
0000
0010
0100
0000
0001
0000
,  // measure 18
1001
0000
1001
0000
1001
0000
1001
1000
,  // measure 19
1100
0000
1100
0000
1100
0000
1100
0100
,  // measure 20
0110
0000
0110
0000
0110
0000
0110
0010
,  // measure 21
0011
0000
0011
0000
0011
0000
0011
0001
,  // measure 22
1002
0103
2001
3100
,  // measure 23
0120
0031
0210
1300
,  // measure 24
2010
3010
0102
0103
,  // measure 25
0010
0100
0000
0010
0100
0000
0010
0100
,  // measure 26
0001
0000
1001
0000
1000
0100
0010
0100
,  // measure 27
1000
0000
0101
0001
0100
0010
0100
0010
,  // measure 28
1000
0000
0110
0100
0001
0010
0001
0010
,  // measure 29
0100
0000
1100
0000
0001
0100
0001
0000
,  // measure 30
0011
0000
1001
0000
1000
0010
0100
0010
,  // measure 31
0100
0000
0101
0000
1000
0100
0010
0100
,  // measure 32
1000
0000
0011
0000
0001
1000
0010
1000
,  // measure 33
0001
0101
1000
1100
,  // measure 34
1001
0000
0001
0100
0000
0100
0001
0000
,  // measure 35
0010
0000
1000
0010
0000
0010
1000
0000
,  // measure 36
0100
1000
0100
0000
0010
0000
0010
0000
,  // measure 37
0100
0001
0100
0000
0010
0000
0010
0000
,  // measure 38
1001
0000
1000
0010
0000
0010
1000
0000
,  // measure 39
0100
0000
0001
1000
0000
1000
0001
0000
,  // measure 40
0010
0001
0010
0000
0100
1000
0100
0000
,  // measure 41
0010
0100
0000
0010
0100
0000
1000
0000
,  // measure 42
1001
0001
0001
0001
,  // measure 43
1001
1000
1000
1000
,  // measure 44
1001
0001
0001
0001
,  // measure 45
1001
0000
0000
0000
1000
0000
0000
0001
0000
0000
0100
0000
0000
1000
0000
0000
;

//---------------dance-single - ----------------
#NOTES:
     dance-single:
     :
     Easy:
     4:
     0.196571,0.323462,0.349133,0.041075,0.000000,134.000000,100.000000,34.000000,4.000000,0.000000,0.000000,0.196571,0.323462,0.349133,0.041075,0.000000,134.000000,100.000000,34.000000,4.000000,0.000000,0.000000:
// measure 0
0000
0000
0000
0000
,  // measure 1
0000
0000
0000
0000
,  // measure 2
1000
0000
0000
0000
,  // measure 3
0001
0000
0000
0000
,  // measure 4
0100
0000
0000
0000
,  // measure 5
0010
0000
0000
0000
,  // measure 6
0010
0000
0000
0000
,  // measure 7
0100
0000
0000
0000
,  // measure 8
0001
0000
0000
0000
,  // measure 9
1000
0000
0000
0000
,  // measure 10
0002
0000
0000
0103
,  // measure 11
2000
0000
0000
3100
,  // measure 12
0020
0000
0000
0130
,  // measure 13
0200
0000
0000
0310
,  // measure 14
0001
0100
0001
0001
,  // measure 15
0100
1000
0100
0000
,  // measure 16
1000
1000
0010
0000
,  // measure 17
1000
0010
0001
0000
,  // measure 18
1001
0000
0100
0100
,  // measure 19
0110
0000
1000
1000
,  // measure 20
1001
0000
0010
0010
,  // measure 21
0110
0000
1000
1000
,  // measure 22
1001
1001
1001
0000
,  // measure 23
0110
0110
0110
0000
,  // measure 24
1001
1001
1001
0000
,  // measure 25
0010
0000
0100
0000
,  // measure 26
1001
1001
1001
0000
,  // measure 27
0010
0000
0100
0000
,  // measure 28
1100
1100
1100
0000
,  // measure 29
0010
0000
0001
0000
,  // measure 30
0101
0101
0101
0000
,  // measure 31
1000
0000
0001
0000
,  // measure 32
0011
0011
0011
0000
,  // measure 33
0100
0000
0010
0000
,  // measure 34
1010
1010
1010
0000
,  // measure 35
0001
0001
0001
0000
,  // measure 36
0110
0110
0110
0000
,  // measure 37
1000
1000
1000
0000
,  // measure 38
0101
0101
0101
0000
,  // measure 39
0010
0010
0010
0000
,  // measure 40
1000
0000
0001
0000
,  // measure 41
1000
0100
0001
0010
,  // measure 42
1000
0000
0000
0000
,  // measure 43
0001
0000
0000
0000
,  // measure 44
0100
0000
0000
0000
,  // measure 45
0010
0000
0000
0000
;

//---------------dance-double - ----------------
#NOTES:
     dance-double:
     :
     Hard:
     11:
     0.377005,0.376345,0.061612,0.236178,0.092418,257.000000,251.000000,6.000000,23.000000,0.000000,0.000000,0.377005,0.376345,0.061612,0.236178,0.092418,257.000000,251.000000,6.000000,23.000000,0.000000,0.000000:
00000000
00000000
00000000
00000000
,
00000000
00000000
00000000
00000000
,
00000001
00000001
00000001
00000001
,
00000100
00000000
00000100
00000000
00000100
00000000
00000100
00001000
,
00010000
00010000
00010000
00010000
,
01000000
00000000
01000000
00000000
01000000
00000000
01000000
10000000
,
00100000
00100000
00100000
00100000
,
01000000
00000000
01000000
00000000
01000000
00000000
01000000
00001000
,
00010000
00010000
00010000
00010000
,
00000100
00000000
00000100
00000000
00000100
00000000
00000100
00000010
,
00000002
00000000
00000000
00000000
00000010
00000000
00000000
00000000
00000013
00000000
00000001
00000000
00000000
00000010
00000000
00000000
,
00002000
00000000
00000000
00000000
00010000
00000000
00000000
00000000
00013000
00000000
00001000
00000000
00000000
01000000
00000000
00000000
,
00200000
00000000
00000000
00000000
10000000
00000000
00000000
00000000
10300000
00000000
01000000
00000000
00000000
00100000
00000000
00000000
,
00020000
00000000
00000000
00000000
10000000
00000000
00000000
00000000
10030000
00000000
00100000
00000000
00000000
00010000
00000000
00000000
,
00001000
00000100
00000010
00000100
00000001
00000000
00001000
00000000
,
00000001
00000010
00001000
00000000
00010000
01000000
10000000
00000000
,
00010000
01000000
00100000
01000000
10000000
01000000
00010000
00000000
,
10000000
01000000
00000000
10000000
01000000
00010000
00001000
00010000
,
00011000
00000000
00001000
00000200
00000000
00000301
00000200
00000000
,
00001300
00000000
00010000
00200000
00000000
10300000
00200000
00000000
,
00310000
00000000
00001000
00000100
00000001
00000010
00001000
00000010
,
00000001
00000000
00000001
00000100
00001000
00000000
00010000
00000000
,
00100000
00000000
00000000
10000000
00200000
00000000
00000000
00000000
01300000
00000000
00000000
00010000
02000000
00000000
00000000
00000000
,
03100000
00000000
00000000
10000000
02000000
00000000
00000000
00000000
03010000
00000000
00000000
00001000
00020000
00000000
00000000
00000000
,
00030010
00001000
00000001
00001000
00000100
00000001
00000200
00000000
,
00001300
00000001
00000000
00000001
00000100
00001000
00010000
00100000
,
10000000
00000000
00000000
00000000
10010000
00000000
00000000
00000000
00010000
00000000
00100000
00000000
01000000
00000000
10000000
02000000
,
00000000
00000000
00000000
00000000
03010000
00000000
00001000
00000000
00000100
00000000
00000001
00000000
00000010
00000000
00000001
00000200
,
00000000
00000000
00000000
00000000
00000310
00000000
00000100
00000000
00000001
00000000
00000010
00000000
00001000
00000000
00010000
00200000
,
00000000
00000000
10000000
00000000
00000000
10000000
00000000
00000000
10300000
00000000
01000000
00000000
10000000
00000000
01000000
00000000
,
00010000
00000000
00000000
00000000
00011000
00000000
00000000
00000000
00001000
00000000
00000010
00000000
00000001
00000000
00001000
00000200
,
00000000
00000000
00000000
00000000
00000310
00000000
00001000
00000000
00010000
00000000
00100000
00000000
10000000
00000000
00010000
02000000
,
00000000
00000000
00000000
00000000
13000000
00000000
01000000
00000000
00100000
00000000
00010000
00000000
00001000
00000000
01000000
00002000
,
00000000
00000000
00000010
00000000
00000000
00000010
00000000
00000000
00003010
00000000
00000100
00000000
00000010
00000000
00000100
00000000
,
00001001
00000000
00000001
00000200
00000000
00000301
00000010
00001000
,
00010000
00000000
00001000
00200000
00000000
01300000
00100000
00010000
,
10000000
00100000
00010000
00000000
00001000
00000100
00000001
00000000
,
00000001
00000010
00001000
00000000
00010000
01000000
10000000
00000000
,
10010000
00000000
10000000
00020000
00000000
01030000
00001000
00010000
,
00001000
00000000
00000010
00000200
00000000
00000301
00000100
00001000
,
00000001
00000000
00000100
00000001
00000010
00001000
00010000
00000000
,
00100000
01000000
00000000
00100000
01000000
10000000
01000000
00010000
,
10010000
10000000
10000000
10000000
,
01000000
00000000
01000000
00000000
01000000
00000000
01000000
00010000
,
00001000
00001000
00001000
00001000
,
00000010
00000000
00000000
00000000
00000010
00000000
00000000
00000010
00000000
00000000
00000001
00000000
00000000
00000100
00000000
00000000
;

//---------------dance-single - ----------------
#NOTES:
     dance-single:
     :
     Beginner:
     1:
     0.098285,0.138626,0.051343,0.041075,0.000000,67.000000,62.000000,5.000000,4.000000,0.000000,0.000000,0.098285,0.138626,0.051343,0.041075,0.000000,67.000000,62.000000,5.000000,4.000000,0.000000,0.000000:
0000
0000
0000
0000
,
0000
0000
0000
0000
,
0010
0000
0000
0000
,
0001
0000
0000
0000
,
0100
0000
0000
0000
,
0010
0000
0000
0000
,
1000
0000
0000
0000
,
0100
0000
0000
0000
,
0010
0000
0000
0000
,
0001
0000
0000
0000
,
2000
0000
3000
0000
,
0002
0000
0003
0000
,
0200
0000
0300
0000
,
0020
0000
0030
0000
,
1000
0000
0001
0000
,
1000
0000
0000
0000
,
0100
0000
0010
0000
,
0100
0000
0000
0000
,
0110
0000
0000
0000
,
1001
0000
0000
0000
,
1001
0000
0000
0000
,
0110
0000
0000
0000
,
0010
0010
0010
0000
,
1000
0000
0001
0000
,
0100
0100
0100
0000
,
0001
0000
1000
0000
,
0100
0000
0100
0000
,
0010
0000
0010
0000
,
1000
0000
0000
0000
,
0001
0000
0000
0000
,
0010
0000
0010
0000
,
0100
0000
0100
0000
,
1000
0000
1000
0000
,
1000
0000
0001
0000
,
0010
0000
0000
0000
,
0100
0000
0000
0000
,
1000
0000
0000
0000
,
0100
0000
0000
0000
,
0010
0000
0100
0000
,
0010
0000
0001
0000
,
1000
0000
0010
0000
,
0100
0000
0010
0000
,
0110
0000
0000
0000
,
0001
0000
0000
0000
,
1000
0000
0000
0000
,
0100
0000
0000
0000
;

//---------------dance-double - Copied from----------------
#NOTES:
     dance-double:
     Copied from:
     Medium:
     9:
     0.313927,0.352824,0.102686,0.102686,0.030806,214.000000,204.000000,10.000000,10.000000,0.000000,0.000000,0.313927,0.352824,0.102686,0.102686,0.030806,214.000000,204.000000,10.000000,10.000000,0.000000,0.000000:
00000000
00000000
00000000
00000000
,
00000000
00000000
00000000
00000000
,
10000000
10000000
10000000
10000000
,
01000000
01000000
01000000
01000000
,
00010000
00010000
00010000
00010000
,
00001000
00001000
00001000
00001000
,
00000010
00000010
00000010
00000010
,
00000001
00000001
00000001
00000001
,
00000100
00000100
00000100
00000100
,
00001000
00001000
00001000
00001000
,
00020000
00000000
00000000
00000000
00000000
00000000
00000000
00000000
00000000
00000000
00130000
00000000
00000000
10000000
00000000
00000000
,
00020000
00000000
00000000
00000000
00000000
00000000
00000000
00000000
00030000
00000000
00100000
00000000
00000000
00001000
00000000
00000000
,
00020000
00000000
00000000
00000000
00000000
00000000
00000000
00000000
00000000
00000000
00030100
00000000
00000000
00001000
00000000
00000000
,
00000002
00000000
00000000
00000000
00000000
00000000
00000000
00000000
00000000
00000000
00000013
00000000
00000000
00000001
00000000
00000000
,
00001000
00000001
00000010
00000100
,
00010000
00000100
00010000
00000000
00001000
00010000
00001000
00000000
,
00100000
00010000
10000000
01000000
,
10000000
00010000
00000000
00010000
10000000
00000000
00100000
00000000
,
01000000
01100000
01100000
00010000
,
00001000
00011000
00011000
00001000
,
00000010
00000110
00000110
00000100
,
00001000
00001001
00001001
00000100
,
00002000
00013000
00020000
00031000
,
00002000
00103000
00200000
01300000
,
02000000
13000000
20000000
30010000
,
00010000
10000000
00000000
00010000
10000000
00000000
01000000
00100000
,
00010000
00000000
00011000
00000000
00001000
00000010
00000001
00000010
,
00000001
00000000
00000100
00000001
00001000
00000001
00000100
00001000
,
00010000
00000000
00100000
01000000
00010000
10000000
01000000
10000000
,
01000000
00000000
00100000
00000000
00010000
01000000
00010000
00000000
,
00010000
00000000
00011000
00000000
00001000
00000010
00000100
00000010
,
00000100
00000000
00000010
00000001
00001000
00000100
00010000
00001000
,
00010000
00000000
00100000
10000000
00010000
01000000
00010000
10000000
,
00010000
10000000
01000000
00100000
,
00010000
00000000
10000000
01000000
00000000
01000000
00010000
00000000
,
00001000
00000000
00001000
00000010
00000000
00000010
00000001
00000000
,
00001000
00000100
00001000
00000000
00000010
00000000
00000100
00000000
,
00000001
00000100
00000001
00000000
00000010
00000000
00000100
00000000
,
00001000
00000000
00000001
00000010
00000000
00000010
00001000
00000000
,
00010000
00000000
00010000
01000000
00000000
01000000
10000000
00000000
,
00010000
00100000
00010000
00000000
10000000
01000000
10000000
00000000
,
00010000
10000000
00000000
00010000
10000000
00000000
01000000
00000000
,
10000000
10000000
10000000
10000000
,
00100000
00100000
00100000
00100000
,
00010000
00010000
00010000
00010000
,
00001000
00000000
00000000
00000000
00001000
00000000
00000000
00000100
00000000
00000000
00000001
00000000
00000000
00001000
00000000
00000000
;

//---------------dance-double - Copied from----------------
#NOTES:
     dance-double:
     Copied from:
     Easy:
     3:
     0.196571,0.323462,0.349133,0.041075,0.000000,134.000000,100.000000,34.000000,4.000000,0.000000,0.000000,0.196571,0.323462,0.349133,0.041075,0.000000,134.000000,100.000000,34.000000,4.000000,0.000000,0.000000:
00000000
00000000
00000000
00000000
,
00000000
00000000
00000000
00000000
,
10000000
00000000
00000000
00000000
,
00100000
00000000
00000000
00000000
,
00010000
00000000
00000000
00000000
,
00001000
00000000
00000000
00000000
,
00000100
00000000
00000000
00000000
,
00000001
00000000
00000000
00000000
,
00000010
00000000
00000000
00000000
,
00001000
00000000
00000000
00000000
,
00020000
00000000
00000000
01030000
,
20000000
00000000
00000000
31000000
,
00020000
00000000
00000000
00031000
,
00000200
00000000
00000000
00000301
,
00001000
00000001
00000100
00000100
,
00001000
00010000
00100000
00000000
,
10000000
10000000
01000000
00000000
,
10000000
00100000
00010000
00000000
,
00011000
00000000
00000100
00000100
,
00001001
00000000
00000010
00000010
,
00011000
00000000
01000000
01000000
,
10010000
00000000
00100000
00100000
,
00011000
00011000
00011000
00000000
,
00000110
00000110
00000110
00000000
,
00011000
00011000
00011000
00000000
,
00100000
00000000
01000000
00000000
,
10010000
10010000
10010000
00000000
,
00100000
00000000
01000000
00000000
,
11000000
11000000
11000000
00000000
,
00100000
00000000
00010000
00000000
,
00011000
00011000
00011000
00000000
,
00001000
00000000
00000100
00000000
,
00000101
00000101
00000101
00000000
,
00000010
00000000
00000100
00000000
,
00011000
00011000
00011000
00000000
,
00100000
00100000
00100000
00000000
,
01010000
01010000
01010000
00000000
,
10000000
10000000
10000000
00000000
,
00011000
00011000
00011000
00000000
,
00000100
00000100
00000100
00000000
,
00001000
00000000
00000010
00000000
,
00001000
00000100
00000001
00000010
,
00001000
00000000
00000000
00000000
,
00010000
00000000
00000000
00000000
,
01000000
00000000
00000000
00000000
,
10000000
00000000
00000000
00000000
;
