#TITLE:A Cause Des Garçons;
#SUBTITLE:;
#ARTIST:YELLE;
#TITLETRANSLIT:;
#SUBTITLETRANSLIT:;
#ARTISTTRANSLIT:;
#GENRE:;
#CREDIT:;
#BANNER:A Cause Des Garçons.png;
#BACKGROUND:A Cause Des Garçons-bg.png;
#LYRICSPATH:;
#CDTITLE:;
#MUSIC:A Cause Des Garçons.ogg;
#OFFSET:-1.982000;
#SAMPLESTART:37.580002;
#SAMPLELENGTH:12.000000;
#SELECTABLE:YES;
#BPMS:0.000000=128.020004
;
#STOPS:
;
#BGCHANGES:;
#KEYSOUNDS:;
#ATTACKS:;

//---------------dance-single - ----------------
#NOTES:
     dance-single:
     :
     Hard:
     13:
     0.566104,0.562866,0.158883,0.289728,0.523379,424.000000,407.000000,17.000000,31.000000,0.000000,0.000000,0.566104,0.562866,0.158883,0.289728,0.523379,424.000000,407.000000,17.000000,31.000000,0.000000,0.000000:
0000
0000
0000
0000
,
1000
0100
1000
0000
0001
0100
0001
0000
,
1000
0100
1000
0000
0001
0100
0001
0000
,
0010
0100
1000
0000
0010
0100
0001
0000
,
0010
0100
1000
0000
0010
0100
0001
0000
,
1000
0010
0001
0000
0001
0010
0100
0000
,
1000
0100
0001
0000
0001
0100
0010
0000
,
1001
0000
0000
0000
0100
0000
0000
0010
0000
0000
0202
0000
0000
0000
0300
0000
,
2003
0000
0010
0000
3002
0000
0000
0100
0000
0100
0000
0103
0000
0000
1000
0000
,
0002
0000
0010
0000
2003
0000
0000
0100
0000
0100
0000
3100
0000
0000
0001
0000
,
2000
0000
0100
0000
3002
0000
0000
0010
0000
1000
0000
0013
0000
0000
0100
0000
,
1100
0000
0000
0000
0001
0000
0100
0010
0000
0000
2010
0000
0000
0000
3010
0000
,
0002
0000
0100
0000
0103
0000
0000
1000
0000
0010
0000
1000
0000
0000
0100
0000
,
2000
0000
0010
0000
3010
0000
0000
0001
0000
0100
0000
0001
0000
0000
1000
0000
,
0001
0000
0000
0000
0010
0000
0000
0100
0000
0010
0000
0100
0000
0000
0000
0000
,
0110
0000
0000
0000
1000
0100
0000
0010
0000
0000
0012
0000
0000
0000
0103
0000
,
0020
0000
0001
0000
0031
0000
0000
0020
0000
1000
0000
1030
0000
0000
0010
0000
,
0200
0000
1000
0000
1300
0000
0000
0200
0000
0001
0000
0301
0000
0000
0010
0000
,
0100
0000
0001
0000
0100
0010
0000
1000
0000
0010
0000
0001
0000
0000
1000
0000
,
1001
0000
0000
0000
0001
0010
0100
1000
0000
0000
0022
0000
0000
0000
0033
0000
,
1000
0000
0100
0000
0010
0001
0000
0001
0000
0100
0000
0010
0000
0000
1000
0000
,
0100
0000
1000
0000
0001
0010
0000
0010
0000
0100
0000
1000
0000
0000
0010
0000
,
0001
0000
0010
0000
1000
0001
0000
0001
0000
0010
0000
0100
0000
0000
1000
0000
,
1010
0000
0000
0000
1000
0001
0100
0001
0000
0000
0022
0000
0000
0000
0033
0000
,
0010
0000
1000
0000
0010
0001
0000
0100
0000
1000
0000
0100
0000
0000
0010
0100
,
0001
0000
1000
0000
0100
1000
0000
0010
0000
0001
0000
0010
0000
0000
0100
0000
,
1000
0000
0000
0100
0001
0000
0000
1000
0000
0100
0000
1000
0000
0000
0010
0100
,
0020
0000
0000
0000
0130
0001
0010
0001
0000
0000
2200
0000
0000
0000
3300
0000
,
1000
0000
0001
0000
0200
0000
0000
0010
0000
0010
0000
0310
0000
0000
0100
0000
,
0001
0000
0010
0000
0200
0000
0000
0010
0000
0010
0000
0310
0000
0000
0001
0000
,
1000
0000
0000
0000
0010
0000
1000
0000
0100
0000
0010
0000
1001
0000
0001
1000
,
0001
0000
0100
0000
0010
0000
1000
0000
0001
0010
0000
0010
0000
0000
0100
1000
,
0100
0000
0010
0000
0001
0000
1000
0000
0010
0100
0000
0100
0000
0000
1000
0000
,
0100
0000
0001
0000
0010
0000
1000
0000
0010
0100
0000
0100
0000
0000
0001
0000
,
0100
0000
1000
0000
0010
0000
0100
0000
0001
1000
0000
1000
0000
0000
0100
0010
,
0001
0000
1000
0000
0010
0000
1000
0000
0100
0010
0000
0010
0100
0000
1000
0001
,
0100
0000
1000
0000
0100
0000
0010
0000
0100
0001
0000
0001
1000
0000
0001
0000
,
0010
0000
0100
0000
0010
0000
1000
0000
0010
0100
0000
0100
1000
0000
0001
0000
,
0100
0000
1000
0000
0100
0000
0001
0000
0010
0100
0000
0100
0000
0000
1000
1000
,
0001
0100
0001
0000
1000
0100
1000
0000
,
0001
0100
1000
0001
1000
0100
0001
0010
,
0100
0000
0100
0000
1000
0000
0001
1000
0001
0000
0100
0000
0010
0000
0010
0000
,
0100
0000
0100
0000
0001
0000
0010
0100
1000
0000
0001
0000
0001
0000
0100
0000
,
0010
0000
0010
0000
1000
0000
1000
0100
0010
0000
0001
0000
1000
0000
0010
0000
,
0010
0000
0100
0000
0100
0000
0001
0000
0001
0010
0100
1000
0000
0000
0001
0000
,
0010
0001
0010
0001
0100
0010
0100
0010
2000
0000
0000
0000
3001
0000
1000
0100
,
0010
0000
0001
0000
0100
0000
0100
0000
0001
0010
0000
0100
1000
0000
0000
0000
,
1001
0000
0000
0000
1000
0100
0010
0001
0000
0000
2200
0000
0000
0000
3300
0000
,
0001
0000
0100
0000
0010
1000
0010
0000
0100
0000
1000
0000
0100
0000
0001
0000
,
0010
0000
0100
0000
0010
1000
0010
0000
0001
0000
0100
0000
0010
0000
1000
0000
,
0100
0000
0001
0000
0100
0010
0100
0000
1000
0000
0001
0000
0100
0000
0010
0000
,
1001
0000
0000
0000
0001
0100
0010
1000
0000
0000
0202
0000
0000
0000
0303
0000
,
1000
0000
0100
0000
0010
1000
0010
0000
0001
0000
0100
0000
1000
0000
0100
0000
,
0010
0000
0001
0000
0010
0100
0010
0000
1000
0000
0100
0000
0010
0000
0001
0000
,
1002
0000
0103
0001
0010
0100
1000
0000
;

//---------------dance-single - ----------------
#NOTES:
     dance-single:
     :
     Medium:
     10:
     0.463297,0.460527,0.476649,0.224305,0.037384,347.000000,296.000000,51.000000,24.000000,0.000000,0.000000,0.463297,0.460527,0.476649,0.224305,0.037384,347.000000,296.000000,51.000000,24.000000,0.000000,0.000000:
0000
0000
0000
0000
,
1000
2000
0000
3000
0001
0002
0000
0003
,
1000
2000
0000
3000
0001
0002
0000
0003
,
0100
0200
0000
0300
0010
0020
0000
0030
,
0100
0200
0000
0300
0010
0020
0000
0030
,
1000
2000
0000
3000
0100
0200
0000
0300
,
0001
0002
0000
0003
0010
0020
0000
0030
,
1001
0000
0000
0000
0001
0000
0000
0001
0000
0000
0002
0000
0000
0000
0000
0000
,
1003
0000
1100
0000
0100
0000
0011
0001
,
1000
0000
1010
0000
0001
0000
0101
0100
,
0010
1010
1000
1100
,
0110
0000
0000
0000
0100
0000
0000
0100
0000
0000
0200
0000
0000
0000
0000
0000
,
1300
0000
1001
0000
0010
0000
0110
0100
,
0001
0000
0101
0000
1000
0000
1100
0100
,
0010
0011
1000
1010
,
0110
0000
0000
0000
0010
0000
0000
0010
0000
0000
0020
0000
0000
0000
0000
0000
,
0130
0000
0101
0000
0001
0000
0011
0010
,
0100
1100
1000
1010
,
0220
0000
0000
0330
,
1001
0000
0000
0000
0001
0000
0000
0010
0000
0000
0200
0000
0000
0000
0000
0000
,
0301
0100
1000
0100
0010
0000
1001
0000
,
0001
0010
1000
0010
0100
0000
0110
0000
,
1000
0001
0100
1000
0100
0000
0110
0000
,
1001
0000
0000
0000
1000
0000
0000
0100
0000
0000
0020
0000
0000
0000
0000
0000
,
1030
0010
0001
1000
0001
0000
0101
0000
,
1000
0100
0001
0010
0001
0000
0011
0000
,
0100
1000
0001
0100
0001
0000
1010
0000
,
0110
0000
0000
0000
0010
0000
0000
1000
0000
0000
0200
0000
0000
0000
0000
0000
,
0310
0001
0100
1000
0100
0000
1001
0000
,
0100
1000
0010
0001
0010
0000
0110
0000
,
1000
0100
0010
1000
0010
0001
0100
0001
,
1000
0000
1100
0000
0001
0100
1000
0000
,
0110
0000
1010
0000
1000
0001
0010
0001
,
0101
0000
1100
0000
0001
1000
0010
1000
,
0100
0000
0011
0000
1000
0001
0100
0010
,
0110
0000
0001
0000
1010
1000
0001
0000
,
0101
0001
0010
0100
1001
0010
0010
0000
,
0100
1000
0100
0010
0001
0001
0001
0000
,
0100
0010
0001
0010
1000
0000
1001
0010
,
0001
0100
0001
0000
1000
0010
1000
0000
,
0001
0010
0001
0010
0100
0001
0100
1000
,
1000
0010
1000
1000
0001
0100
0001
0001
,
0010
0100
0010
0100
1000
0001
0100
1000
,
0100
0001
0100
0001
0010
1000
0010
0001
,
0100
0001
1000
0001
0010
0100
1001
0000
,
0200
0010
0310
1000
0002
0010
0013
0100
,
0010
0001
0100
1000
0001
0010
1000
0000
,
1001
0000
0000
0000
1000
0000
0000
0010
0000
0000
0200
0000
0000
0000
0000
0000
,
1300
0100
0001
0100
0010
0000
0110
0000
,
1000
0010
0001
0010
0100
0000
1001
0000
,
0010
1000
0100
0001
0100
0000
1100
0000
,
1001
0000
0000
0000
0001
0000
0000
0100
0000
0000
2000
0000
0000
0000
0000
0000
,
3100
0001
0010
1000
0010
0000
0110
0000
,
0100
0010
0001
0100
1000
0000
0110
0000
,
1000
0100
0001
0100
1000
0100
1001
0000
;

//---------------dance-single - ----------------
#NOTES:
     dance-single:
     :
     Easy:
     5:
     0.269700,0.383772,0.299074,0.177575,0.000000,202.000000,170.000000,32.000000,19.000000,0.000000,0.000000,0.269700,0.383772,0.299074,0.177575,0.000000,202.000000,170.000000,32.000000,19.000000,0.000000,0.000000:
0000
0000
0000
0000
,
1000
1000
0001
0001
,
1000
1000
0001
0001
,
0010
0010
0100
0100
,
0010
0010
0100
0100
,
1000
1000
0010
0010
,
0001
0001
0100
0100
,
1001
0000
2002
0000
,
3003
1000
0000
1000
,
0100
0001
0000
0001
,
0100
0010
0000
0010
,
1001
0000
0220
0000
,
0330
0100
0000
0100
,
0001
0010
0000
0010
,
1000
0001
0000
0001
,
1001
0000
2002
0000
,
3003
0001
0000
0001
,
0010
1000
0000
1000
,
0200
0000
0000
0300
,
1001
0001
0002
0000
,
1003
1000
1000
0100
,
0110
0000
1001
0000
,
0001
0001
0001
0100
,
0110
0100
0200
0000
,
0301
0001
0001
0010
,
0110
0000
1001
0000
,
1000
1000
1000
0010
,
1010
1000
2000
0000
,
3100
0100
0100
0010
,
0011
0000
1100
0000
,
0001
0001
0001
0100
,
0010
0010
0020
0000
,
1030
1000
2000
0000
,
3001
0001
0002
0000
,
0013
0010
0020
0000
,
0130
0100
0100
1000
,
0010
0001
0100
0100
,
0010
1000
0100
0001
,
0010
0010
0110
0000
,
1001
0100
0110
0110
,
0010
1000
0100
0001
,
0011
1100
0011
1000
,
1010
0101
1010
0001
,
1000
0100
0001
0010
,
0001
0100
1000
0001
,
2002
0000
0000
3003
,
0200
0000
0000
0300
,
0110
0010
0020
0000
,
1030
1000
1000
0100
,
0101
0000
1010
0000
,
0001
0001
0001
0100
,
0101
0100
0200
0000
,
0310
0010
0010
1000
,
1100
0000
0011
0000
,
1000
1000
1000
0010
;

//---------------dance-double - Copied from----------------
#NOTES:
     dance-double:
     Copied from:
     Hard:
     13:
     0.543406,0.614036,0.000000,0.084115,0.509360,407.000000,407.000000,0.000000,9.000000,0.000000,0.000000,0.543406,0.614036,0.000000,0.084115,0.509360,407.000000,407.000000,0.000000,9.000000,0.000000,0.000000:
// measure 0
00000000
00000000
00000000
00000000
,  // measure 1
00010000
01000000
10000000
00000000
10000000
01000000
00010000
00000000
,  // measure 2
00010000
01000000
10000000
00000000
10000000
01000000
00010000
00000000
,  // measure 3
00001000
00000010
00000001
00000000
00000001
00000010
00001000
00000000
,  // measure 4
00001000
00000010
00000001
00000000
00000001
00000010
00001000
00000000
,  // measure 5
00010000
00100000
01000000
00000000
01000000
00100000
00010000
00000000
,  // measure 6
00010000
00100000
01000000
00000000
01000000
00100000
00010000
00000000
,  // measure 7
00010000
00000000
00000000
00000000
00001000
00000000
00010000
00001000
00000000
00000000
00002000
00000000
00000000
00000000
00000000
00000000
,  // measure 8
00103000
00000000
00010000
00000000
10000000
00000000
00000000
10000000
00000000
01000000
00000000
00010000
00000000
00000000
00010000
00000000
,  // measure 9
00001000
00000000
00000100
00000000
00000001
00000000
00000000
00000001
00000000
00000010
00000000
00000100
00000000
00000000
00000100
00000000
,  // measure 10
00010000
00000000
00001000
00000000
00100000
00000000
00000000
00100000
00000000
01000000
00000000
10000000
00000000
00000000
10000000
00000000
,  // measure 11
01000000
00000000
00000000
00000000
00010000
00000000
00001000
00010000
00000000
00000000
00020000
00000000
00000000
00000000
00000000
00000000
,  // measure 12
00030010
00000000
00001000
00000000
00000001
00000000
00000000
00000001
00000000
00000100
00000000
00001000
00000000
00000000
00001000
00000000
,  // measure 13
00010000
00000000
00100000
00000000
01000000
00000000
00000000
01000000
00000000
00010000
00000000
10000000
00000000
00000000
10000000
00000000
,  // measure 14
01000000
00000000
00010000
00000000
00001000
00000000
00000000
00001000
00000000
00010000
00000000
00000010
00000000
00000000
00000010
00000000
,  // measure 15
00000100
00000000
00000000
00000000
00001000
00000000
00010000
00001000
00000000
00000000
00002000
00000000
00000000
00000000
00000000
00000000
,  // measure 16
00013000
00000000
01000000
00000000
10000000
00000000
00000000
10000000
00000000
00100000
00000000
01000000
00000000
00000000
01000000
00000000
,  // measure 17
00001000
00000000
00000010
00000000
00000001
00000000
00000000
00000001
00000000
00000100
00000000
00000010
00000000
00000000
00000010
00000000
,  // measure 18
00000001
00000010
00001000
00010000
01000000
10000000
02000000
00000000
,  // measure 19
03001000
00000000
00000000
00000000
00100000
00010000
00100000
00010000
00000000
00000000
02000000
00000000
00000000
00000000
03100000
00000000
,  // measure 20
00010000
00000000
00001000
00000000
00000100
00000001
00000000
00000010
00000000
00000010
00000000
00000010
00000000
00000000
00000100
00000000
,  // measure 21
00000010
00000000
00000001
00000000
00000010
00001000
00000000
00010000
00000000
00010000
00000000
00010000
00000000
00000000
01000000
00000000
,  // measure 22
10000000
00000000
00010000
00000000
10000000
00100000
00000000
01000000
00000000
01000000
00000000
01000000
00000000
00000000
00100000
00000000
,  // measure 23
00010000
00000000
00000000
00000000
00000010
00001000
00000010
00001000
00000000
00000000
00000200
00000000
00000000
00000000
00000310
00000000
,  // measure 24
00000001
00000000
00000010
00000000
00001000
00000000
00000000
00000010
00000000
00000001
00000000
00000100
00000000
00000000
00001000
00000000
,  // measure 25
00010000
00000000
00100000
00000000
10000000
00000000
00000000
01000000
00000000
00100000
00000000
00001000
00000000
00000000
01000000
00000000
,  // measure 26
00010000
00000000
00000000
10000000
00100000
00000000
00000000
00010000
00000000
00010000
00000000
00010000
00000000
00000000
00001000
00010000
,  // measure 27
00001000
00000000
00000000
00000000
00000100
00000010
00000100
00000010
00000000
00000000
00002000
00000000
00000000
00000000
00003001
00000000
,  // measure 28
00000010
00000000
00000100
00000000
00000010
00000001
00000000
00000100
00000000
00000100
00000000
00000100
00000000
00000000
00001000
00000000
,  // measure 29
00010000
00000000
00000000
00000000
00100000
10000000
00000000
00010000
00000000
00010000
00000000
00010000
00000000
00000000
00100000
00000000
,  // measure 30
01000000
00000000
00000000
00000000
10000000
00000000
01000000
00000000
00100000
00000000
00001000
00000000
01000000
00000000
00001000
00010000
,  // measure 31
00001000
00000000
00010000
00000000
00000010
00000000
00001000
00000000
00000001
00000100
00000000
00000100
00000000
00000000
00000001
00000010
,  // measure 32
00000001
00000000
00001000
00000000
00000100
00000000
00000010
00000000
00000001
00000010
00000000
00000010
00000000
00000000
00001000
00000000
,  // measure 33
00010000
00000000
01000000
00000000
10000000
00000000
00010000
00000000
10000000
00100000
00000000
00100000
00000000
00000000
01000000
00000000
,  // measure 34
00001000
00000000
00100000
00000000
00010000
00000000
10000000
00000000
01000000
00010000
00000000
00010000
00000000
00000000
00001000
00000100
,  // measure 35
00001000
00000000
00000100
00000000
00000001
00000000
00000010
00000000
00000100
00001000
00000000
00001000
00000100
00000000
00000010
00000001
,  // measure 36
00001000
00000000
00000010
00000000
00010000
00000000
00000100
00000000
00000010
00000001
00000000
00000001
00000010
00000000
00001000
00000000
,  // measure 37
00010000
00000000
00100000
00000000
10000000
00000000
00010000
00000000
01000000
00001000
00000000
00001000
01000000
00000000
00010000
00000000
,  // measure 38
00100000
00000000
10000000
00000000
00100000
00000000
01000000
00000000
00010000
00001000
00000000
00001000
00000000
00000000
00000100
00000100
,  // measure 39
00000001
00000100
00000001
00000000
00001000
00000100
00001000
00000000
,  // measure 40
00000001
00000100
00001000
00000001
00001000
00000100
00001000
00010000
,  // measure 41
00010000
00000000
00100000
00000000
01000000
00000000
00010000
10000000
00010000
00100000
00000000
01000000
00000000
00000000
10000000
00000000
,  // measure 42
00100000
00000000
00010000
00000000
00001000
00000000
01000000
00010000
10000000
00010000
00000000
00100000
00000000
00000000
00001000
00000000
,  // measure 43
00000100
00000000
00000001
00000000
00000010
00000000
00000100
00001000
00000010
00001000
00000000
00001000
00000000
00000000
00000010
00000000
,  // measure 44
00010000
00000000
00010000
00000000
00001000
00000000
00001000
00000000
00000100
00001000
00010000
00001000
00000000
00000000
01000000
00000000
,  // measure 45
00100000
10000000
00100000
10000000
01000000
00010000
01000000
00010000
00001000
00100000
00000000
00100000
00001000
00000000
00010000
00001000
,  // measure 46
00010000
00000000
00000100
00000000
00000010
00000000
00000001
00000000
00001000
00000010
00000000
00000010
00001000
00000000
00000000
00000000
,  // measure 47
00000100
00000000
00010000
00000000
00000010
00001000
00000010
00001000
00000000
00000000
00000200
00000000
00000000
00000000
00000000
00000000
,  // measure 48
00000301
00000100
00001000
00000010
00000001
00000010
00001000
00010000
,  // measure 49
01000000
10000000
01000000
00010000
00100000
10000000
00100000
00010000
,  // measure 50
00001000
00000100
00000001
00000100
00000010
00000001
00000010
00000000
,  // measure 51
00001000
00000000
01000000
00000000
00100000
10000000
00100000
10000000
00000000
00000000
02000000
00000000
00000000
00000000
00000000
00000000
,  // measure 52
03100000
10000000
00100000
01000000
10000000
01000000
00010000
00001000
,  // measure 53
00000100
00000001
00000100
00000010
00000001
00000010
00001000
00010000
,  // measure 54
01000000
10000000
01000000
00100000
10000000
00100000
00010000
00000000
;

//---------------dance-single - ----------------
#NOTES:
     dance-single:
     :
     Beginner:
     2:
     0.117493,0.151406,0.056076,0.074768,0.000000,88.000000,82.000000,6.000000,8.000000,0.000000,0.000000,0.117493,0.151406,0.056076,0.074768,0.000000,88.000000,82.000000,6.000000,8.000000,0.000000,0.000000:
0000
0000
0000
0000
,
0000
1000
0000
1000
,
0000
1000
0000
1000
,
0000
0001
0000
0001
,
0000
0001
0000
0001
,
0000
1000
0000
1000
,
0000
1000
0000
1000
,
2000
0000
0000
0000
,
3000
0000
0000
0000
,
0100
0000
0000
0000
,
0100
0000
0000
0000
,
0002
0000
0000
0000
,
0003
0000
0000
0000
,
0010
0000
0000
0000
,
0010
0000
0000
0000
,
2000
0000
0000
0000
,
3000
0000
0000
0000
,
0100
0000
0000
0000
,
1001
0000
0000
0000
,
1001
0000
0001
0000
,
0001
0000
0001
0000
,
0100
0000
0000
0000
,
0010
0000
0000
0000
,
1001
0000
1000
0000
,
1000
0000
1000
0000
,
0100
0000
0000
0000
,
0010
0000
0000
0000
,
0110
0000
0010
0000
,
0010
0000
0010
0000
,
0001
0000
0000
0000
,
1000
0000
0000
0000
,
0001
0001
0001
0000
,
0002
0000
0003
0000
,
1000
1000
1000
0000
,
2000
0000
3000
0000
,
0100
0100
0100
0000
,
0200
0000
0300
0000
,
0010
0010
0010
0000
,
0020
0000
0030
0000
,
0001
0000
0001
0000
,
0001
0001
0001
0000
,
0100
0000
0100
0000
,
0010
0000
0010
0000
,
1000
1000
1000
0000
,
0100
0000
0100
0000
,
0020
0000
0000
0000
,
0030
0000
0000
0000
,
1001
0000
0001
0000
,
0001
0000
0001
0000
,
0100
0000
0000
0000
,
0010
0000
0000
0000
,
1001
0000
1000
0000
,
1000
0000
1000
0000
,
0100
0000
0000
0000
,
0010
0000
0000
0000
;

//---------------dance-double - Copied from----------------
#NOTES:
     dance-double:
     Copied from:
     Medium:
     10:
     0.413897,0.409357,0.158883,0.233651,0.037384,310.000000,293.000000,17.000000,25.000000,0.000000,0.000000,0.413897,0.409357,0.158883,0.233651,0.037384,310.000000,293.000000,17.000000,25.000000,0.000000,0.000000:
// measure 0
00000000
00000000
00000000
00000000
,  // measure 1
00000001
00000002
00000000
00000003
00000100
00000200
00000000
00000300
,  // measure 2
00000010
00000020
00000000
00000030
00000100
00002000
00000000
00003000
,  // measure 3
00010000
00020000
00000000
00030000
00100000
00200000
00000000
00300000
,  // measure 4
10000000
20000000
00000000
30000000
00100000
00020000
00000000
00030000
,  // measure 5
00001000
00002000
00000000
00003000
00000010
00000020
00000000
00000030
,  // measure 6
00000001
00000002
00000000
00000003
00000100
00000020
00000000
00000030
,  // measure 7
00011000
00000000
00000000
00000000
00010000
00000000
00000000
00100000
00000000
00000000
20000000
00000000
00000000
00000000
00000000
00000000
,  // measure 8
31000000
10000000
01000000
00000000
01000000
00010000
01000000
00000000
,  // measure 9
00010000
00001000
00010000
00000000
00010000
00000100
00010000
00000000
,  // measure 10
00000010
00001000
00000010
00000000
00000010
00000001
00000010
00000000
,  // measure 11
00000110
00000000
00000000
00000000
00001000
00000000
00000000
00000100
00000000
00000000
00000002
00000000
00000000
00000000
00000000
00000000
,  // measure 12
00000103
00000001
00000100
00000000
00000100
00000010
00000100
00000000
,  // measure 13
00001000
00100000
00001000
00000000
00001000
00010000
00001000
00000000
,  // measure 14
01000000
10000000
01000000
00000000
01000000
00010000
01000000
00000000
,  // measure 15
10010000
00000000
00000000
00000000
00100000
00000000
00000000
10000000
00000000
00000000
02000000
00000000
00000000
00000000
00000000
00000000
,  // measure 16
03100000
10000000
00100000
00000000
00100000
00010000
00100000
00000000
,  // measure 17
00001000
01000000
00001000
00000000
00001000
00010000
00001000
00000000
,  // measure 18
00022000
00000000
00033000
00000000
,  // measure 19
00001001
00000000
00000000
00000000
00000001
00000000
00000000
00000100
00000000
00000000
00000020
00000000
00000000
00000000
00000000
00000000
,  // measure 20
00000130
00000001
00000010
00000000
00000010
00000100
00010000
00000000
,  // measure 21
00001000
00000100
00000010
00000000
00000010
00010000
00001000
00000000
,  // measure 22
00010000
01000000
10000000
00000000
10000000
00100000
00010000
00000000
,  // measure 23
01100000
00000000
00000000
00000000
10000000
00000000
00000000
01000000
00000000
00000000
00020000
00000000
00000000
00000000
00000000
00000000
,  // measure 24
00130000
00010000
10000000
00000000
10000000
01000000
00100000
00000000
,  // measure 25
00001000
01000000
00010000
00000000
00010000
00100000
00001000
00000000
,  // measure 26
00010000
00000010
00000100
00000000
00000100
00000001
00001000
00000000
,  // measure 27
00001001
00000000
00000000
00000000
00000001
00000000
00000000
00000010
00000000
00000000
00000200
00000000
00000000
00000000
00000000
00000000
,  // measure 28
00000301
00000100
00001000
00000000
00001000
00000010
00000100
00000000
,  // measure 29
00001000
00010000
00000010
00000000
00000010
00010000
00001000
00000000
,  // measure 30
00010000
01000000
10000000
00000000
10000000
00100000
00010000
00100000
,  // measure 31
10000000
00000000
11000000
00000000
00010000
10000000
00100000
00000000
,  // measure 32
00010000
00001000
00000010
00000100
00001000
00000000
00001001
00000000
,  // measure 33
00000001
00000000
00000011
00000000
00000010
00000001
00000100
00000000
,  // measure 34
00001000
00010000
00100000
01000000
00010000
00000000
10010000
00000000
,  // measure 35
00010000
00000000
00110000
00000000
10000000
01000000
00010000
00000000
,  // measure 36
00001000
00000000
00001010
00000000
00000100
00000010
00000001
00000000
,  // measure 37
00001000
00000000
00000101
00000000
00000010
00000100
00001000
00000000
,  // measure 38
00010000
00100000
10000000
00100000
01000000
00000000
10010000
00000000
,  // measure 39
00100000
00100000
00100000
00000000
01000000
01000000
01000000
00000000
,  // measure 40
00010000
00001000
00000100
00000010
00001000
00000001
00001000
00000000
,  // measure 41
00000100
00000100
00000100
00000000
00000010
00000010
00000010
00000000
,  // measure 42
00001000
00010000
00100000
01000000
00010000
10000000
01000000
00000000
,  // measure 43
00100000
00010000
10000000
00010000
10000000
00100000
00010000
00001000
,  // measure 44
00000100
00000010
00000100
00000010
00001000
00000001
00000010
00000000
,  // measure 45
00000002
00000100
00000103
00000010
00000200
00000000
00002300
00000000
,  // measure 46
00013000
00100000
10000000
01000000
00100000
00010000
10000000
00000000
,  // measure 47
10010000
00000000
00000000
00000000
10000000
00000000
00000000
00010000
00000000
00000000
02000000
00000000
00000000
00000000
00000000
00000000
,  // measure 48
13000000
01000000
00010000
00000000
00010000
00100000
01000000
00000000
,  // measure 49
00010000
00001000
00100000
00000000
00100000
00001000
00010000
00000000
,  // measure 50
00001000
00000100
00000001
00000000
00000001
00000010
00001000
00000000
,  // measure 51
00000110
00000000
00000000
00000000
00000001
00000000
00000000
00000100
00000000
00000000
00002000
00000000
00000000
00000000
00000000
00000000
,  // measure 52
00003100
00001000
00000001
00000000
00000001
00000010
00000100
00000000
,  // measure 53
00010000
00000010
00001000
00000000
00001000
00000100
00010000
00000000
,  // measure 54
00001000
00000000
00010000
01000000
10000000
01000000
00010000
00000000
;

//---------------dance-double - Copied from----------------
#NOTES:
     dance-double:
     Copied from:
     Easy:
     5:
     0.263025,0.332603,0.205613,0.242997,0.000000,197.000000,175.000000,22.000000,26.000000,0.000000,0.000000,0.263025,0.332603,0.205613,0.242997,0.000000,197.000000,175.000000,22.000000,26.000000,0.000000,0.000000:
// measure 0
00000000
00000000
00000000
00000000
,  // measure 1
10000000
10000000
00010000
00010000
,  // measure 2
00100000
00100000
00001000
00001000
,  // measure 3
00010000
00010000
00000100
00000100
,  // measure 4
00001000
00001000
00000001
00000001
,  // measure 5
00000010
00000010
00001000
00001000
,  // measure 6
00010000
00010000
01000000
01000000
,  // measure 7
10010000
00000000
20020000
00000000
,  // measure 8
30030000
10000000
00000000
10000000
,  // measure 9
01000000
00010000
00000000
00001000
,  // measure 10
00000100
00000001
00000000
00000010
,  // measure 11
00001001
00000000
00000220
00000000
,  // measure 12
00000330
00000010
00000000
00000010
,  // measure 13
00000001
00000100
00000000
00001000
,  // measure 14
00010000
00100000
00000000
01000000
,  // measure 15
01100000
00000000
20020000
00000000
,  // measure 16
30030000
10000000
00000000
10000000
,  // measure 17
00100000
00010000
00000000
00001000
,  // measure 18
00000200
00000000
00000000
00000300
,  // measure 19
00001001
00000001
00000100
00002000
,  // measure 20
00000000
00013000
00100000
01000000
,  // measure 21
01000000
00001000
00010000
00001000
,  // measure 22
00000000
00100000
00100000
00010000
,  // measure 23
01100000
10000000
00100000
00020000
,  // measure 24
00000000
00031000
00000100
00000010
,  // measure 25
00000010
00000100
00000001
00001000
,  // measure 26
00000000
00000010
00000010
00000100
,  // measure 27
00011000
00010000
00100000
20000000
,  // measure 28
00000000
31000000
00100000
01000000
,  // measure 29
01000000
10000000
00100000
00010000
,  // measure 30
00001000
00000100
00000001
00001001
,  // measure 31
00000001
00000010
00000020
00000000
,  // measure 32
00000130
00000100
00002000
00010000
,  // measure 33
00013000
00100000
00200000
00000000
,  // measure 34
01300000
01000000
20000000
00100000
,  // measure 35
30100000
00010000
00020000
00000000
,  // measure 36
00030100
00001000
00002000
00000001
,  // measure 37
00003001
00000100
00000200
00000000
,  // measure 38
00001300
00010000
00010000
00100000
,  // measure 39
10100000
01010000
20200000
30300000
,  // measure 40
10000000
00100000
00010000
00001000
,  // measure 41
00000101
00001010
00000202
00000303
,  // measure 42
00001100
00000011
00000100
00010000
,  // measure 43
00001000
00010000
00100000
10000000
,  // measure 44
01000000
10000000
00100000
00010000
,  // measure 45
00022000
00000000
00000000
00033000
,  // measure 46
02000000
00000000
00000000
03000000
,  // measure 47
10010000
10000000
00100000
00020000
,  // measure 48
00000000
00031000
00000100
00000010
,  // measure 49
00000010
00010000
00001000
00010000
,  // measure 50
00000000
00000100
00000100
00001000
,  // measure 51
00000110
00000001
00000100
00002000
,  // measure 52
00000000
00013000
00100000
01000000
,  // measure 53
01000000
00100000
10000000
00010000
,  // measure 54
00000000
01000000
01000000
00011000
;
