#TITLE:in the Sky;
#SUBTITLE:;
#ARTIST:Ryu☆;
#TITLETRANSLIT:;
#SUBTITLETRANSLIT:;
#ARTISTTRANSLIT:;
#GENRE:;
#CREDIT:;
#BANNER:;
#BACKGROUND:;
#LYRICSPATH:;
#CDTITLE:;
#MUSIC:in the Sky.ogg;
#OFFSET:-0.447000;
#SAMPLESTART:47.113667;
#SAMPLELENGTH:15.000000;
#SELECTABLE:YES;
#BPMS:0.000000=180.000000
;
#STOPS:236.000000=1.333000
;
#BGCHANGES:;
#KEYSOUNDS:;
#ATTACKS:;

//---------------dance-single - ----------------
#NOTES:
     dance-single:
     :
     Easy:
     7:
     0.234242,0.348435,0.098382,0.295145,0.000000,200.000000,188.000000,12.000000,36.000000,0.000000,0.000000,0.234242,0.348435,0.098382,0.295145,0.000000,200.000000,188.000000,12.000000,36.000000,0.000000,0.000000:
// measure 0
0000
0000
0000
0000
,  // measure 1
0000
0000
0000
0000
,  // measure 2
0000
0000
0000
0000
,  // measure 3
0000
0000
0000
0000
,  // measure 4
0000
0000
0000
0000
,  // measure 5
0000
0000
0000
0000
,  // measure 6
0000
0000
0000
0000
,  // measure 7
0000
0000
0000
0000
,  // measure 8
0000
0000
0000
0000
,  // measure 9
0000
0000
0000
0000
,  // measure 10
0010
0000
0010
0100
,  // measure 11
0010
0000
0001
1000
,  // measure 12
0100
0000
0100
0010
,  // measure 13
0100
0000
1000
0001
,  // measure 14
0001
0000
0001
1000
,  // measure 15
0001
0000
0100
0010
,  // measure 16
1000
0000
1000
0001
,  // measure 17
1000
0000
0010
0100
,  // measure 18
0020
0000
0000
0030
,  // measure 19
0002
0000
0000
0000
2003
0000
0000
3000
,  // measure 20
0200
0000
0000
0000
0000
0000
0000
0300
,  // measure 21
0020
0000
0000
0000
0000
0000
0000
0030
,  // measure 22
0200
0000
0000
0300
,  // measure 23
2000
0000
0000
0000
3002
0000
0000
0003
,  // measure 24
0020
0000
0000
0000
0000
0000
0000
0030
,  // measure 25
0200
0000
0000
0000
0000
0000
0000
0300
,  // measure 26
0002
0000
0000
0003
,  // measure 27
0200
0000
0000
0000
0320
0000
0000
0030
,  // measure 28
2000
0000
0000
0000
0000
0000
0000
3000
,  // measure 29
0002
0000
0000
0000
0000
0000
0000
0003
,  // measure 30
2000
0000
0000
3000
,  // measure 31
0020
0000
0000
0000
0230
0000
0000
0300
,  // measure 32
0002
0000
0000
0000
0000
0000
0000
0003
,  // measure 33
2000
0000
0000
0000
0000
0000
0000
3000
,  // measure 34
0000
1001
0010
0010
,  // measure 35
2000
0000
0001
3001
,  // measure 36
0200
0000
0010
1300
,  // measure 37
0002
0000
1000
1003
,  // measure 38
0020
0000
0100
0031
,  // measure 39
0020
0000
0100
0130
,  // measure 40
2000
0000
0001
3010
,  // measure 41
0200
0000
0010
0310
,  // measure 42
0002
0000
1000
0103
,  // measure 43
2000
0000
0001
3001
,  // measure 44
0200
0000
0010
1300
,  // measure 45
0002
0000
1000
1003
,  // measure 46
0020
0000
0100
0031
,  // measure 47
0020
0000
0100
0130
,  // measure 48
2000
0000
0001
3010
,  // measure 49
0200
0000
0010
0310
,  // measure 50
0002
0000
1000
0103
,  // measure 51
1000
0001
1000
0010
,  // measure 52
0100
0010
0100
0001
,  // measure 53
0001
1000
0001
0100
,  // measure 54
0010
0100
0010
1000
,  // measure 55
0010
0100
0010
0001
,  // measure 56
1000
0001
1000
0100
,  // measure 57
0100
0010
0100
1000
,  // measure 58
0001
1000
0001
0010
,  // measure 59
1001
0000
0000
0000
,  // measure 60
0010
0000
0000
0000
,  // measure 61
0010
0000
0000
0000
,  // measure 62
0010
0000
0000
0000
,  // measure 63
0010
0000
0000
0000
,  // measure 64
0100
0000
0000
0000
,  // measure 65
0100
0000
0000
0000
,  // measure 66
0100
0000
0000
0000
,  // measure 67
0100
0000
0000
0000
,  // measure 68
0000
1001
0010
0010
,  // measure 69
1010
0000
0010
0100
,  // measure 70
0001
0000
0001
0100
,  // measure 71
0101
0000
0100
0010
,  // measure 72
1000
0000
1000
0010
,  // measure 73
0011
0000
0001
1000
,  // measure 74
0100
0000
0100
1000
,  // measure 75
1100
0000
1000
0001
,  // measure 76
0010
0000
0010
0001
,  // measure 77
1010
0000
0010
0100
,  // measure 78
0001
0000
0001
0100
,  // measure 79
0101
0000
0100
0010
,  // measure 80
1000
0000
1000
0010
,  // measure 81
0011
0000
0001
1000
,  // measure 82
0100
0000
0100
1000
,  // measure 83
1100
0000
1000
0001
,  // measure 84
0010
0000
0010
0001
,  // measure 85
1001
0000
0000
0000
;

//---------------dance-single - ----------------
#NOTES:
     dance-single:
     :
     Beginner:
     6:
     0.199106,0.313591,0.032794,0.295145,0.000000,170.000000,166.000000,4.000000,36.000000,0.000000,0.000000,0.199106,0.313591,0.032794,0.295145,0.000000,170.000000,166.000000,4.000000,36.000000,0.000000,0.000000:
// measure 0
0000
0000
0000
0000
,  // measure 1
0000
0000
0000
0000
,  // measure 2
0000
0000
0000
0000
,  // measure 3
0000
0000
0000
0000
,  // measure 4
0000
0000
0000
0000
,  // measure 5
0000
0000
0000
0000
,  // measure 6
0000
0000
0000
0000
,  // measure 7
0000
0000
0000
0000
,  // measure 8
0000
0000
0000
0000
,  // measure 9
0000
0000
0000
0000
,  // measure 10
0010
0000
0010
0100
,  // measure 11
0010
0000
0001
1000
,  // measure 12
0100
0000
0100
0010
,  // measure 13
0100
0000
1000
0001
,  // measure 14
0001
0000
0001
1000
,  // measure 15
0001
0000
0100
0010
,  // measure 16
1000
0000
1000
0001
,  // measure 17
1000
0000
0010
0100
,  // measure 18
0020
0000
0000
0030
,  // measure 19
0002
0000
0000
0000
2003
0000
0000
3000
,  // measure 20
0200
0000
0000
0000
0000
0000
0000
0300
,  // measure 21
0020
0000
0000
0000
0000
0000
0000
0030
,  // measure 22
0200
0000
0000
0300
,  // measure 23
2000
0000
0000
0000
3002
0000
0000
0003
,  // measure 24
0020
0000
0000
0000
0000
0000
0000
0030
,  // measure 25
0200
0000
0000
0000
0000
0000
0000
0300
,  // measure 26
0002
0000
0000
0003
,  // measure 27
0200
0000
0000
0000
0320
0000
0000
0030
,  // measure 28
2000
0000
0000
0000
0000
0000
0000
3000
,  // measure 29
0002
0000
0000
0000
0000
0000
0000
0003
,  // measure 30
2000
0000
0000
3000
,  // measure 31
0020
0000
0000
0000
0230
0000
0000
0300
,  // measure 32
0002
0000
0000
0000
0000
0000
0000
0003
,  // measure 33
2000
0000
0000
0000
0000
0000
0000
3000
,  // measure 34
0000
1001
0000
0010
,  // measure 35
2000
0000
0000
3001
,  // measure 36
0200
0000
0000
1300
,  // measure 37
0002
0000
0000
1003
,  // measure 38
0020
0000
0000
0031
,  // measure 39
0020
0000
0000
0130
,  // measure 40
2000
0000
0000
3010
,  // measure 41
0200
0000
0000
0310
,  // measure 42
0002
0000
0000
0103
,  // measure 43
2000
0000
0000
3001
,  // measure 44
0200
0000
0000
1300
,  // measure 45
0002
0000
0000
1003
,  // measure 46
0020
0000
0000
0031
,  // measure 47
0020
0000
0000
0130
,  // measure 48
2000
0000
0000
3010
,  // measure 49
0200
0000
0000
0310
,  // measure 50
0002
0000
0000
0103
,  // measure 51
1000
0001
1000
0000
,  // measure 52
0100
0010
0100
0001
,  // measure 53
0001
1000
0001
0000
,  // measure 54
0010
0100
0010
1000
,  // measure 55
0010
0100
0010
0000
,  // measure 56
1000
0001
1000
0100
,  // measure 57
0100
0010
0100
0000
,  // measure 58
0001
1000
0001
0010
,  // measure 59
1001
0000
0000
0000
,  // measure 60
0010
0000
0000
0000
,  // measure 61
0010
0000
0000
0000
,  // measure 62
0010
0000
0000
0000
,  // measure 63
0010
0000
0000
0000
,  // measure 64
0100
0000
0000
0000
,  // measure 65
0100
0000
0000
0000
,  // measure 66
0100
0000
0000
0000
,  // measure 67
0100
0000
0000
0000
,  // measure 68
0000
1001
0000
0010
,  // measure 69
1000
0000
0010
0100
,  // measure 70
0001
0000
0001
0100
,  // measure 71
0001
0000
0100
0010
,  // measure 72
1000
0000
1000
0010
,  // measure 73
0010
0000
0001
1000
,  // measure 74
0100
0000
0100
1000
,  // measure 75
0100
0000
1000
0001
,  // measure 76
0010
0000
0010
0001
,  // measure 77
1000
0000
0010
0100
,  // measure 78
0001
0000
0001
0100
,  // measure 79
0001
0000
0100
0010
,  // measure 80
1000
0000
1000
0010
,  // measure 81
0010
0000
0001
1000
,  // measure 82
0100
0000
0100
1000
,  // measure 83
0100
0000
1000
0001
,  // measure 84
0010
0000
0010
0001
,  // measure 85
1001
0000
0000
0000
;

//---------------dance-single - ----------------
#NOTES:
     dance-single:
     :
     Medium:
     8:
     0.262351,0.348435,0.131176,0.311542,0.000000,224.000000,208.000000,16.000000,38.000000,0.000000,0.000000,0.262351,0.348435,0.131176,0.311542,0.000000,224.000000,208.000000,16.000000,38.000000,0.000000,0.000000:
// measure 0
0000
0000
0000
0000
,  // measure 1
0000
0000
0000
0000
,  // measure 2
0000
0000
0000
0000
,  // measure 3
0000
0000
0000
0000
,  // measure 4
0000
0000
0000
0000
,  // measure 5
0000
0000
0000
0000
,  // measure 6
0000
0000
0000
0000
,  // measure 7
0000
0000
0000
0000
,  // measure 8
0000
0000
0000
0000
,  // measure 9
0000
0000
0000
0000
,  // measure 10
0010
0000
0010
0100
,  // measure 11
0010
0010
0001
1000
,  // measure 12
0100
0000
0100
0010
,  // measure 13
0100
0100
1000
0001
,  // measure 14
0001
0000
0001
1000
,  // measure 15
0001
0001
0100
0010
,  // measure 16
1000
0000
1000
0001
,  // measure 17
1000
1000
0010
0100
,  // measure 18
0120
0000
0000
0030
,  // measure 19
0002
0000
0000
0000
2003
0000
0000
3000
,  // measure 20
0200
0000
0000
0000
0000
0000
0000
0300
,  // measure 21
0020
0000
0000
0000
0000
0000
0000
0030
,  // measure 22
0200
0000
0000
0300
,  // measure 23
2000
0000
0000
0000
3002
0000
0000
0003
,  // measure 24
0020
0000
0000
0000
0000
0000
0000
0030
,  // measure 25
0200
0000
0000
0000
0000
0000
0000
0300
,  // measure 26
1002
0000
0000
0003
,  // measure 27
0200
0000
0000
0000
0320
0000
0000
0030
,  // measure 28
2000
0000
0000
0000
0000
0000
0000
3000
,  // measure 29
0002
0000
0000
0000
0000
0000
0000
0003
,  // measure 30
2000
0000
0000
3000
,  // measure 31
0020
0000
0000
0000
0230
0000
0000
0300
,  // measure 32
0002
0000
0000
0000
0000
0000
0000
0003
,  // measure 33
2000
0000
0000
0000
0000
0000
0000
3000
,  // measure 34
0000
1001
0010
0010
,  // measure 35
2000
0000
0001
3001
,  // measure 36
0200
1000
0010
1300
,  // measure 37
0002
0000
1000
1003
,  // measure 38
0020
0001
0100
0031
,  // measure 39
0020
0000
0100
0130
,  // measure 40
2000
0010
0001
3010
,  // measure 41
0200
0000
0010
0310
,  // measure 42
0002
0100
1000
0103
,  // measure 43
2000
0000
0001
3001
,  // measure 44
0200
1000
0010
1300
,  // measure 45
0002
0000
1000
1003
,  // measure 46
0020
0001
0100
0031
,  // measure 47
0020
0000
0100
0130
,  // measure 48
2000
0010
0001
3010
,  // measure 49
0200
0000
0010
0310
,  // measure 50
0002
0100
1000
0103
,  // measure 51
1001
0001
1000
0010
,  // measure 52
0100
0010
0100
0001
,  // measure 53
0001
1000
0001
0100
,  // measure 54
0010
0100
0010
1000
,  // measure 55
0110
0100
0010
0001
,  // measure 56
1000
0001
1000
0100
,  // measure 57
0100
0010
0100
1000
,  // measure 58
0001
1000
0001
0010
,  // measure 59
1001
0000
0000
0000
,  // measure 60
0010
0000
0000
0000
,  // measure 61
0010
0000
0000
0000
,  // measure 62
0010
0000
0000
0000
,  // measure 63
0020
0000
0000
0030
,  // measure 64
0100
0000
0000
0000
,  // measure 65
0100
0000
0000
0000
,  // measure 66
0100
0000
0000
0000
,  // measure 67
0200
0000
0000
0300
,  // measure 68
0000
1001
0010
0010
,  // measure 69
1010
0000
0010
0100
,  // measure 70
0001
0100
0001
0100
,  // measure 71
0101
0000
0100
0010
,  // measure 72
1000
0010
1000
0010
,  // measure 73
0011
0000
0001
1000
,  // measure 74
0100
1000
0100
1000
,  // measure 75
1100
0000
1000
0001
,  // measure 76
0010
0001
0010
0001
,  // measure 77
1010
0000
0010
0100
,  // measure 78
0001
0100
0001
0100
,  // measure 79
0101
0000
0100
0010
,  // measure 80
1000
0010
1000
0010
,  // measure 81
0011
0000
0001
1000
,  // measure 82
0100
1000
0100
1000
,  // measure 83
1100
0000
1000
0001
,  // measure 84
0010
0001
0010
0001
,  // measure 85
1001
0000
0000
0000
;

//---------------dance-single - ----------------
#NOTES:
     dance-single:
     :
     Hard:
     8:
     0.285775,0.383278,0.196763,0.311542,0.000000,244.000000,220.000000,24.000000,38.000000,0.000000,0.000000,0.285775,0.383278,0.196763,0.311542,0.000000,244.000000,220.000000,24.000000,38.000000,0.000000,0.000000:
// measure 0
0000
0000
0000
0000
,  // measure 1
0000
0000
0000
0000
,  // measure 2
0000
0000
0000
0000
,  // measure 3
0000
0000
0000
0000
,  // measure 4
0000
0000
0000
0000
,  // measure 5
0000
0000
0000
0000
,  // measure 6
0000
0000
0000
0000
,  // measure 7
0000
0000
0000
0000
,  // measure 8
0000
0000
0000
0000
,  // measure 9
0000
0000
0000
0000
,  // measure 10
0010
1000
0010
0100
,  // measure 11
0010
0010
0001
1000
,  // measure 12
0100
0001
0100
0010
,  // measure 13
0100
0100
1000
0001
,  // measure 14
0001
0010
0001
1000
,  // measure 15
0001
0001
0100
0010
,  // measure 16
1000
0100
1000
0001
,  // measure 17
1000
1000
0010
0100
,  // measure 18
0120
0000
0000
0030
,  // measure 19
0002
0000
0000
0000
2003
0000
0000
3000
,  // measure 20
0200
0000
0000
0000
0000
0000
0000
0300
,  // measure 21
0020
0000
0000
0000
0000
0000
0000
0030
,  // measure 22
0210
0000
0000
0300
,  // measure 23
2000
0000
0000
0000
3002
0000
0000
0003
,  // measure 24
0020
0000
0000
0000
0000
0000
0000
0030
,  // measure 25
0200
0000
0000
0000
0000
0000
0000
0300
,  // measure 26
1002
0000
0000
0003
,  // measure 27
0200
0000
0000
0000
0320
0000
0000
0030
,  // measure 28
2000
0000
0000
0000
0000
0000
0000
3000
,  // measure 29
0002
0000
0000
0000
0000
0000
0000
0003
,  // measure 30
2001
0000
0000
3000
,  // measure 31
0020
0000
0000
0000
0230
0000
0000
0300
,  // measure 32
0002
0000
0000
0000
0000
0000
0000
0003
,  // measure 33
2000
0000
0000
0000
0000
0000
0000
3000
,  // measure 34
0000
1001
0010
0010
,  // measure 35
2001
0000
0001
3001
,  // measure 36
0200
1000
0010
1300
,  // measure 37
0002
0000
1000
1003
,  // measure 38
0020
0001
0100
0031
,  // measure 39
0120
0000
0100
0130
,  // measure 40
2000
0010
0001
3010
,  // measure 41
0200
0000
0010
0310
,  // measure 42
0002
0100
1000
0103
,  // measure 43
2001
0000
0001
3001
,  // measure 44
0200
1000
0010
1300
,  // measure 45
0002
0000
1000
1003
,  // measure 46
0020
0001
0100
0031
,  // measure 47
0120
0000
0100
0130
,  // measure 48
2000
0010
0001
3010
,  // measure 49
0200
0000
0010
0310
,  // measure 50
0002
0100
1000
0103
,  // measure 51
1001
0001
1000
0010
,  // measure 52
0100
0010
0100
0001
,  // measure 53
1001
1000
0001
0100
,  // measure 54
0010
0100
0010
1000
,  // measure 55
0110
0100
0010
0001
,  // measure 56
1000
0001
1000
0100
,  // measure 57
0110
0010
0100
1000
,  // measure 58
0001
1000
0001
0010
,  // measure 59
1001
0000
0000
0000
,  // measure 60
0010
0000
0000
0000
,  // measure 61
0010
0000
0000
0000
,  // measure 62
0010
0000
0000
0000
,  // measure 63
0020
0000
0000
0030
,  // measure 64
0100
0000
0000
0000
,  // measure 65
0100
0000
0000
0000
,  // measure 66
0100
0000
0000
0000
,  // measure 67
0200
0000
0000
0300
,  // measure 68
0000
1001
0010
0010
,  // measure 69
1010
0010
0010
0100
,  // measure 70
0001
0100
0001
0100
,  // measure 71
0101
0100
0100
0010
,  // measure 72
1000
0010
1000
0010
,  // measure 73
0011
0001
0001
1000
,  // measure 74
0100
1000
0100
1000
,  // measure 75
1100
1000
1000
0001
,  // measure 76
0010
0001
0010
0001
,  // measure 77
1010
0010
0010
0100
,  // measure 78
0001
0100
0001
0100
,  // measure 79
0101
0100
0100
0010
,  // measure 80
1000
0010
1000
0010
,  // measure 81
0011
0001
0001
1000
,  // measure 82
0100
1000
0100
1000
,  // measure 83
1100
1000
1000
0001
,  // measure 84
0010
0001
0010
0001
,  // measure 85
1001
0000
0000
0000
;

//---------------dance-single - ----------------
#NOTES:
     dance-single:
     :
     Challenge:
     8:
     0.299830,0.418122,0.229557,0.311542,0.000000,256.000000,228.000000,28.000000,38.000000,0.000000,0.000000,0.299830,0.418122,0.229557,0.311542,0.000000,256.000000,228.000000,28.000000,38.000000,0.000000,0.000000:
// measure 0
0000
0000
0000
0000
,  // measure 1
0000
0000
0000
0000
,  // measure 2
0000
0000
0000
0000
,  // measure 3
0000
0000
0000
0000
,  // measure 4
0000
0000
0000
0000
,  // measure 5
0000
0000
0000
0000
,  // measure 6
0000
0000
0000
0000
,  // measure 7
0000
0000
0000
0000
,  // measure 8
0000
0000
0000
0000
,  // measure 9
0000
0000
0000
0000
,  // measure 10
0011
1000
0010
0100
,  // measure 11
0010
0010
0001
1000
,  // measure 12
1100
0001
0100
0010
,  // measure 13
0100
0100
1000
0001
,  // measure 14
0101
0010
0001
1000
,  // measure 15
0001
0001
0100
0010
,  // measure 16
1010
0100
1000
0001
,  // measure 17
1000
1000
0010
0100
,  // measure 18
0120
0000
0000
0030
,  // measure 19
0002
0000
0000
0000
2003
0000
0000
3000
,  // measure 20
0200
0000
0000
0000
0000
0000
0000
0300
,  // measure 21
0020
0000
0000
0000
0000
0000
0000
0030
,  // measure 22
0210
0000
0000
0300
,  // measure 23
2000
0000
0000
0000
3002
0000
0000
0003
,  // measure 24
0020
0000
0000
0000
0000
0000
0000
0030
,  // measure 25
0200
0000
0000
0000
0000
0000
0000
0300
,  // measure 26
1002
0000
0000
0003
,  // measure 27
0200
0000
0000
0000
0320
0000
0000
0030
,  // measure 28
2000
0000
0000
0000
0000
0000
0000
3000
,  // measure 29
0002
0000
0000
0000
0000
0000
0000
0003
,  // measure 30
2001
0000
0000
3000
,  // measure 31
0020
0000
0000
0000
0230
0000
0000
0300
,  // measure 32
0002
0000
0000
0000
0000
0000
0000
0003
,  // measure 33
2000
0000
0000
0000
0000
0000
0000
3000
,  // measure 34
0000
1001
0010
0010
,  // measure 35
2001
0000
0001
3001
,  // measure 36
0200
1000
0010
1300
,  // measure 37
0002
0000
1000
1003
,  // measure 38
0020
0001
0100
0031
,  // measure 39
0120
0000
0100
0130
,  // measure 40
2000
0010
0001
3010
,  // measure 41
0200
0000
0010
0310
,  // measure 42
0002
0100
1000
0103
,  // measure 43
2001
0000
0001
3001
,  // measure 44
0200
1000
0010
1300
,  // measure 45
0002
0000
1000
1003
,  // measure 46
0020
0001
0100
0031
,  // measure 47
0120
0000
0100
0130
,  // measure 48
2000
0010
0001
3010
,  // measure 49
0200
0000
0010
0310
,  // measure 50
0002
0100
1000
0103
,  // measure 51
1001
0001
1000
0010
,  // measure 52
0100
0010
0100
0001
,  // measure 53
1001
1000
0001
0100
,  // measure 54
0010
0100
0010
1000
,  // measure 55
0110
0100
0010
0001
,  // measure 56
1000
0001
1000
0100
,  // measure 57
0110
0010
0100
1000
,  // measure 58
0001
1000
0001
0010
,  // measure 59
1001
0000
0000
0000
,  // measure 60
0010
0000
0000
0000
,  // measure 61
0010
0000
0000
0000
,  // measure 62
0010
0000
0000
0000
,  // measure 63
0020
0000
0000
0030
,  // measure 64
0100
0000
0000
0000
,  // measure 65
0100
0000
0000
0000
,  // measure 66
0100
0000
0000
0000
,  // measure 67
0200
0000
0000
0300
,  // measure 68
0000
1001
0010
0010
,  // measure 69
1010
0000
0010
0000
0010
0000
0100
0010
,  // measure 70
0001
0100
0001
0100
,  // measure 71
0101
0000
0100
0000
0100
0000
0010
0100
,  // measure 72
1000
0010
1000
0010
,  // measure 73
0011
0000
0001
0000
0001
0000
1000
0001
,  // measure 74
0100
1000
0100
1000
,  // measure 75
1100
0000
1000
0000
1000
0000
0001
1000
,  // measure 76
0010
0001
0010
0001
,  // measure 77
1010
0000
0010
0000
0010
0000
0100
0010
,  // measure 78
0001
0100
0001
0100
,  // measure 79
0101
0000
0100
0000
0100
0000
0010
0100
,  // measure 80
1000
0010
1000
0010
,  // measure 81
0011
0000
0001
0000
0001
0000
1000
0001
,  // measure 82
0100
1000
0100
1000
,  // measure 83
1100
0000
1000
0000
1000
0000
0001
1000
,  // measure 84
0010
0001
0010
0001
,  // measure 85
1001
0000
0000
0000
;

//---------------dance-single - Deluxe----------------
#NOTES:
     dance-single:
     :
     Edit:
     9:
     0.326768,0.452965,0.262351,0.311542,0.000000,279.000000,247.000000,32.000000,38.000000,0.000000,0.000000,0.326768,0.452965,0.262351,0.311542,0.000000,279.000000,247.000000,32.000000,38.000000,0.000000,0.000000:
// measure 0
0000
0000
0000
0000
,  // measure 1
0000
0000
0000
0000
,  // measure 2
0000
0000
0000
0000
,  // measure 3
0000
0000
0000
0000
,  // measure 4
0000
0000
0000
0000
,  // measure 5
0000
0000
0000
0000
,  // measure 6
0000
0000
0000
0000
,  // measure 7
0000
0000
0000
0000
,  // measure 8
0000
0000
0000
0000
,  // measure 9
0000
0000
0000
0000
,  // measure 10
0011
1000
0010
0100
,  // measure 11
0010
0010
0001
1000
,  // measure 12
1100
0001
0100
0010
,  // measure 13
0100
0100
1000
0001
,  // measure 14
0101
0010
0001
1000
,  // measure 15
0001
0001
0100
0010
,  // measure 16
1010
0100
1000
0001
,  // measure 17
1000
1000
0010
0100
,  // measure 18
0120
0000
0100
0030
,  // measure 19
0002
0000
0000
0000
2003
0000
0000
3000
,  // measure 20
0200
0000
0000
0000
0010
0000
0000
0300
,  // measure 21
0020
0000
0000
0000
0000
0000
0000
0030
,  // measure 22
0210
0000
0010
0300
,  // measure 23
2000
0000
0000
0000
3002
0000
0000
0003
,  // measure 24
0020
0000
0000
0000
0100
0000
0000
0030
,  // measure 25
0200
0000
0000
0000
0000
0000
0000
0300
,  // measure 26
1002
0000
1000
0003
,  // measure 27
0200
0000
0000
0000
0320
0000
0000
0030
,  // measure 28
2000
0000
0000
0000
0001
0000
0000
3000
,  // measure 29
0002
0000
0000
0000
0000
0000
0000
0003
,  // measure 30
2001
0000
0000
3000
,  // measure 31
0020
0000
0000
0000
0230
0000
0000
0300
,  // measure 32
0002
0000
0000
0000
1000
0000
0000
0003
,  // measure 33
2000
0000
0000
0000
0000
0000
0000
3000
,  // measure 34
0000
1001
0010
0010
,  // measure 35
2001
0000
0001
3001
,  // measure 36
0200
1000
0010
1300
,  // measure 37
1002
0000
1000
1003
,  // measure 38
0020
0001
0100
0031
,  // measure 39
0120
0000
0100
0130
,  // measure 40
2000
0010
0001
3010
,  // measure 41
0210
0000
0010
0310
,  // measure 42
0002
0100
1000
0103
,  // measure 43
2001
0000
0001
3001
,  // measure 44
0200
1000
0010
1300
,  // measure 45
1002
0000
1000
1003
,  // measure 46
0020
0001
0100
0031
,  // measure 47
0120
0000
0100
0130
,  // measure 48
2000
0010
0001
3010
,  // measure 49
0210
0000
0010
0310
,  // measure 50
0002
0100
1000
0103
,  // measure 51
1001
0000
0001
0000
1000
0000
0010
1000
,  // measure 52
0100
0010
0100
0001
,  // measure 53
1001
0000
1000
0000
0001
0000
0100
0001
,  // measure 54
0010
0100
0010
1000
,  // measure 55
0110
0000
0100
0000
0010
0000
0001
0010
,  // measure 56
1000
0001
1000
0100
,  // measure 57
0110
0000
0010
0000
0100
0000
1000
0100
,  // measure 58
0001
1000
0001
0010
,  // measure 59
1001
0000
0000
0000
,  // measure 60
0010
0000
0000
0000
,  // measure 61
0010
0000
0000
0000
,  // measure 62
0010
0000
0000
0000
,  // measure 63
0020
0000
0000
0030
,  // measure 64
0100
0000
0000
0000
,  // measure 65
0100
0000
0000
0000
,  // measure 66
0100
0000
0000
0000
,  // measure 67
0200
0000
0000
0300
,  // measure 68
0000
1001
0010
0010
,  // measure 69
1010
0000
0010
0000
0010
0000
0100
0010
,  // measure 70
0001
0000
0100
0000
0001
0100
0001
0000
,  // measure 71
0101
0000
0100
0000
0100
0000
0010
0100
,  // measure 72
1000
0000
0010
0000
1000
0010
1000
0000
,  // measure 73
0011
0000
0001
0000
0001
0000
1000
0001
,  // measure 74
0100
0000
1000
0000
0100
1000
0100
0000
,  // measure 75
1100
0000
1000
0000
1000
0000
0001
1000
,  // measure 76
0010
0000
0001
0000
0010
0001
0010
0000
,  // measure 77
1010
0000
0010
0000
0010
0000
0100
0010
,  // measure 78
0001
0000
0100
0000
0001
0100
0001
0000
,  // measure 79
0101
0000
0100
0000
0100
0000
0010
0100
,  // measure 80
1000
0000
0010
0000
1000
0010
1000
0000
,  // measure 81
0011
0000
0001
0000
0001
0000
1000
0001
,  // measure 82
0100
0000
1000
0000
0100
1000
0100
0000
,  // measure 83
1100
0000
1000
0000
1000
0000
0001
1000
,  // measure 84
0010
0000
0001
0000
0010
0001
0010
0000
,  // measure 85
1001
0000
0000
0000
;

//---------------dance-single - Enjoy----------------
#NOTES:
     dance-single:
     :
     Edit:
     1:
     0.029280,0.104530,0.065588,0.008198,0.000000,25.000000,17.000000,8.000000,1.000000,0.000000,0.000000,0.029280,0.104530,0.065588,0.008198,0.000000,25.000000,17.000000,8.000000,1.000000,0.000000,0.000000:
// measure 0
0000
0000
0000
0000
,  // measure 1
0000
0000
0000
0000
,  // measure 2
0000
0000
0000
0000
,  // measure 3
0000
0000
0000
0000
,  // measure 4
0000
0000
0000
0000
,  // measure 5
0000
0000
0000
0000
,  // measure 6
0000
0000
0000
0000
,  // measure 7
0000
0000
0000
0000
,  // measure 8
0000
0000
0000
0000
,  // measure 9
0000
0000
0000
0000
,  // measure 10
0101
0000
0000
0000
,  // measure 11
0000
0000
0000
0000
,  // measure 12
0000
0000
0000
0000
,  // measure 13
0000
0000
0000
0000
,  // measure 14
1010
0000
0000
0000
,  // measure 15
0000
0000
0000
0000
,  // measure 16
0000
0000
0000
0000
,  // measure 17
0000
0000
0000
0000
,  // measure 18
0110
0000
0000
0000
,  // measure 19
0000
0000
0000
0000
,  // measure 20
0000
0000
0000
0000
,  // measure 21
0000
0000
0000
0000
,  // measure 22
0000
0000
0000
0000
,  // measure 23
0000
0000
0000
0000
,  // measure 24
0000
0000
0000
0000
,  // measure 25
0000
0000
0000
0000
,  // measure 26
1001
0000
0000
0000
,  // measure 27
0000
0000
0000
0000
,  // measure 28
0000
0000
0000
0000
,  // measure 29
0000
0000
0000
0000
,  // measure 30
0000
0000
0000
0000
,  // measure 31
0000
0000
0000
0000
,  // measure 32
0000
0000
0000
0000
,  // measure 33
0000
0000
0000
0000
,  // measure 34
0000
0000
0000
0000
,  // measure 35
1000
0000
0000
0000
,  // measure 36
0000
0000
0000
0000
,  // measure 37
0000
0000
0000
0000
,  // measure 38
0000
0000
0000
0000
,  // measure 39
0001
0000
0000
0000
,  // measure 40
0000
0000
0000
0000
,  // measure 41
0000
0000
0000
0000
,  // measure 42
0000
0000
0000
0000
,  // measure 43
1000
0000
0000
0000
,  // measure 44
0000
0000
0000
0000
,  // measure 45
0000
0000
0000
0000
,  // measure 46
0000
0000
0000
0000
,  // measure 47
0001
0000
0000
0000
,  // measure 48
0000
0000
0000
0000
,  // measure 49
0000
0000
0000
0000
,  // measure 50
0000
0000
0000
0000
,  // measure 51
1010
0000
0000
0000
,  // measure 52
0000
0000
0000
0000
,  // measure 53
0000
0000
0000
0000
,  // measure 54
0000
0000
0000
0000
,  // measure 55
0101
0000
0000
0000
,  // measure 56
0000
0000
0000
0000
,  // measure 57
0000
0000
0000
0000
,  // measure 58
0000
0000
0000
0000
,  // measure 59
1001
0000
0000
0000
,  // measure 60
0020
0000
0000
0000
,  // measure 61
0000
0000
0000
0000
,  // measure 62
0000
0000
0000
0000
,  // measure 63
0000
0000
0000
0000
,  // measure 64
0000
0000
0000
0000
,  // measure 65
0000
0000
0000
0000
,  // measure 66
0000
0000
0000
0000
,  // measure 67
0000
0000
0000
0000
,  // measure 68
0030
0000
0000
0000
,  // measure 69
0100
0000
0000
0000
,  // measure 70
0000
0000
0000
0000
,  // measure 71
0000
0000
0000
0000
,  // measure 72
0000
0000
0000
0000
,  // measure 73
0100
0000
0000
0000
,  // measure 74
0000
0000
0000
0000
,  // measure 75
0000
0000
0000
0000
,  // measure 76
0000
0000
0000
0000
,  // measure 77
0010
0000
0000
0000
,  // measure 78
0000
0000
0000
0000
,  // measure 79
0000
0000
0000
0000
,  // measure 80
0000
0000
0000
0000
,  // measure 81
0010
0000
0000
0000
,  // measure 82
0000
0000
0000
0000
,  // measure 83
0000
0000
0000
0000
,  // measure 84
0000
0000
0000
0000
,  // measure 85
1001
0000
0000
0000
;
