#VERSION:0.83;
#TITLE:XENOViA;
#SUBTITLE:;
#ARTIST:BlackY;
#TITLETRANSLIT:;
#SUBTITLETRANSLIT:;
#ARTISTTRANSLIT:;
#GENRE:;
#ORIGIN:;
#CREDIT:;
#BANNER:;
#BACKGROUND:;
#PREVIEWVID:;
#JACKET:;
#CDIMAGE:;
#DISCIMAGE:;
#LYRICSPATH:;
#CDTITLE:;
#MUSIC:XENOViA.ogg;
#OFFSET:-0.288000;
#SAMPLESTART:90.287994;
#SAMPLELENGTH:15.000000;
#SELECTABLE:YES;
#BPMS:0.000=208.000,
32.000=104.000,
48.000=416.000,
240.000=208.000,
256.000=416.000,
320.000=208.000,
336.000=416.000,
368.000=832.000,
384.000=104.000,
416.000=832.000,
448.000=416.000,
576.000=104.000,
584.000=416.000;
#STOPS:;
#DELAYS:;
#WARPS:;
#TIMESIGNATURES:0.000=4=4;
#TICKCOUNTS:0.000=4;
#COMBOS:0.000=1;
#SPEEDS:0.000=1.000=0.000=0;
#SCROLLS:0.000=1.000;
#FAKES:;
#LABELS:0.000=Song Start;
#BGCHANGES:;
#KEYSOUNDS:;
#ATTACKS:
;

//---------------dance-single - ----------------
#NOTEDATA:;
#CHARTNAME:;
#STEPSTYPE:dance-single;
#DESCRIPTION:;
#CHARTSTYLE:;
#DIFFICULTY:Easy;
#METER:23;
#RADARVALUES:1.304022,3.148128,0.567381,0.634131,1.101386,1094.000000,1026.000000,68.000000,76.000000,0.000000,0.000000,0.000000,0.000000,0.000000,1.304022,3.148128,0.567381,0.634131,1.101386,1094.000000,1026.000000,68.000000,76.000000,0.000000,0.000000,0.000000,0.000000,0.000000;
#CREDIT:;
#DISPLAYBPM:*;
#NOTES:
// measure 0
0000
0000
0000
0000
,  // measure 1
0000
0000
0000
0000
,  // measure 2
0000
0000
0000
0000
,  // measure 3
0000
0000
0000
0000
,  // measure 4
0100
0000
0000
1000
0000
0000
0001
0000
0000
1000
0000
0000
0010
0000
0000
0000
0000
0000
0000
0000
0000
0000
0000
0000
0000
0000
0000
0000
1100
0000
0000
0000
0000
0000
0000
0000
0000
0000
0000
0000
0000
0000
0000
0000
0011
0000
0000
0000
,  // measure 5
0000
0000
2002
0000
0000
0000
0000
3003
,  // measure 6
0001
0010
1000
0010
0001
0010
0100
0010
1000
0100
0001
0100
1000
0100
0010
0100
,  // measure 7
0001
0000
0000
0010
0000
0000
1000
0000
0000
0010
0000
0000
0001
0000
0000
0010
0000
0000
0100
0000
0000
0010
0000
0000
1000
0000
0000
0001
0000
0000
1000
0000
0000
0001
0000
0000
1000
0000
0001
0000
1000
0000
0001
0000
1000
0000
0001
0000
,  // measure 8
2000
0000
0000
0000
0000
0000
0010
0000
0000
0010
0000
0000
0000
0000
0000
0001
0000
0000
0010
0000
0000
0000
0000
0000
3010
0000
0000
0000
0000
0000
0000
0000
0000
0000
1010
0000
0000
0000
0000
0000
0011
0000
0000
0000
0000
0000
0110
0000
,  // measure 9
1000
0010
1000
0010
1000
0010
1000
0010
1000
0010
1000
0010
1000
0010
1000
0010
0001
0100
1000
0100
0001
0010
0100
1000
0001
0100
1000
0100
0001
0010
0100
1000
,  // measure 10
0002
0000
0000
0000
0000
0000
0100
0000
0000
0100
0000
0000
0000
0000
0000
1000
0000
0000
0100
0000
0000
0000
0000
0000
0103
0000
0000
0000
0000
0000
0000
0000
0000
0000
0101
0000
0000
0000
0000
0000
1100
0000
0000
0000
0000
0000
0110
0000
,  // measure 11
0001
1000
0001
1000
0001
1000
0001
1000
0001
1000
0001
1000
0001
1000
0001
1000
0020
0000
0000
0000
0000
0000
0000
0000
0200
0000
0000
0000
0000
0000
0000
0330
,  // measure 12
1000
0100
0001
0000
0010
0100
0010
0000
,  // measure 13
1000
0001
1000
0000
0001
0100
0001
0000
,  // measure 14
0001
0010
1000
0000
0100
0010
0100
0000
,  // measure 15
0001
1000
0001
0100
1000
0010
1000
0001
,  // measure 16
0100
0001
0010
0000
1000
0001
1000
0000
,  // measure 17
0100
0010
0100
0000
0010
0001
0010
0000
,  // measure 18
1010
0000
0000
0000
0000
0000
0000
0000
0000
0010
0000
0100
0000
0010
0000
0100
0000
0010
0000
0100
0000
0000
0000
0000
,  // measure 19
1000
0100
0010
0001
1000
0100
0002
0000
,  // measure 20
1003
0100
0001
0000
0010
0100
0010
0000
,  // measure 21
1000
0001
1000
0000
0001
0100
0001
0000
,  // measure 22
0001
0010
1000
0000
0100
0010
0100
0000
,  // measure 23
0001
1000
0001
0000
1000
0010
1000
0000
,  // measure 24
1010
0000
0010
0000
0000
0011
0000
0010
,  // measure 25
0000
1010
0010
0000
,  // measure 26
1000
0000
0001
0000
1000
0000
0001
0000
0000
0010
0000
0000
0100
0000
0000
0001
0000
0000
0010
0000
0000
0100
0000
0000
,  // measure 27
0001
0000
1000
0000
0001
0000
1000
0000
0000
0100
0000
0000
0010
0000
0000
1000
0000
0000
0100
0000
0000
0010
0000
0000
,  // measure 28
1000
0000
0100
0000
1000
0000
0100
0000
0000
0010
0000
0000
0100
0000
0000
1000
0000
0000
0001
0000
0000
1000
0000
0000
,  // measure 29
0001
0010
0100
0001
0010
1000
0100
0001
,  // measure 30
0200
1000
0000
1300
0020
0001
0000
0031
,  // measure 31
2000
0010
0000
3010
0002
0100
0000
0103
,  // measure 32
0001
0000
0010
0000
0001
0000
0010
0000
0000
0100
0000
0000
0010
0000
0000
0001
0000
0000
1000
0000
0000
0001
0000
0000
,  // measure 33
1000
0100
0010
1000
0100
0001
0010
1000
,  // measure 34
0020
0001
0000
0031
0200
1000
0000
1300
,  // measure 35
0002
0100
0000
0103
2000
0010
0000
3010
,  // measure 36
2002
0000
0000
0000
0000
0000
0000
3003
,  // measure 37
0010
1000
0001
0010
1000
0100
0001
0010
,  // measure 38
0002
0100
0000
0103
2000
0010
0000
3010
,  // measure 39
0200
1000
0000
1300
0020
0001
0000
0031
,  // measure 40
1000
0001
1000
0010
1000
0100
1000
0100
,  // measure 41
0001
1000
0001
0100
0001
0010
0001
0010
,  // measure 42
0100
0010
0100
1000
0100
0001
0100
0001
,  // measure 43
0010
0100
0010
0001
0010
1000
0010
1000
,  // measure 44
0202
0000
0000
0000
0000
0000
0000
0003
,  // measure 45
0010
0000
0000
1000
0000
0000
0010
0300
,  // measure 46
0200
1000
0000
1300
0020
0001
0000
0031
,  // measure 47
2000
0010
0000
3010
0002
0100
0000
0103
,  // measure 48
0001
0000
0010
0000
0001
0000
0010
0000
0000
0100
0000
0000
0010
0000
0000
0001
0000
0000
1000
0000
0000
0001
0000
0000
,  // measure 49
1000
0100
0010
1000
0100
0001
0010
1000
,  // measure 50
0020
0001
0000
0031
0200
1000
0000
1300
,  // measure 51
0002
0100
0000
0103
2000
0010
0000
3010
,  // measure 52
0100
0000
0001
0000
0100
0000
0001
0000
0000
1000
0000
0000
0001
0000
0000
0100
0000
0000
0010
0000
0000
0100
0000
0000
,  // measure 53
0010
1000
0001
0010
1000
0100
0001
0010
,  // measure 54
0002
0100
0000
0103
2000
0010
0000
3010
,  // measure 55
0200
1000
0000
1300
0020
0001
0000
0031
,  // measure 56
0010
0000
1000
0000
0010
0000
1000
0000
0000
0001
0000
0000
1000
0000
0000
0010
0000
0000
0100
0000
0000
0010
0000
0000
,  // measure 57
0100
0001
1000
0100
0001
0010
1000
0100
,  // measure 58
2000
0010
0000
3010
0002
0100
0000
0103
,  // measure 59
0020
0001
0000
0031
0200
1000
0000
1300
,  // measure 60
0022
0000
0000
0000
0000
0000
0000
0003
,  // measure 61
2000
0000
0000
0000
0000
0000
0000
0030
,  // measure 62
0002
0000
0000
0000
0000
0000
0000
3003
,  // measure 63
1001
0000
0000
0000
0000
0000
0000
0000
0000
0010
0000
0000
0000
0000
0000
0000
0000
0000
0010
0000
0000
0000
0000
0000
1000
0000
0001
0000
1000
0000
0001
0000
1000
0000
0001
0000
0020
0000
0000
0000
0000
0000
0000
0000
0000
0030
0000
0000
,  // measure 64
1000
0000
0100
0000
1000
0000
0100
0000
0000
0010
0000
0000
0100
0000
0000
1000
0000
0000
0001
0000
0000
1000
0000
0000
,  // measure 65
0001
0010
0100
0001
0010
1000
0100
0001
,  // measure 66
0200
1000
0000
1300
0020
0001
0000
0031
,  // measure 67
2000
0010
0000
3010
0002
0100
0000
0103
,  // measure 68
0001
0000
0010
0000
0001
0000
0010
0000
0000
0100
0000
0000
0010
0000
0000
0001
0000
0000
1000
0000
0000
0001
0000
0000
,  // measure 69
1000
0100
0010
1000
0100
0001
0010
1000
,  // measure 70
0020
0001
0000
0031
0200
1000
0000
1300
,  // measure 71
0002
0100
0000
0103
2000
0010
0000
3010
,  // measure 72
2002
0000
0000
0000
0000
0000
0000
3003
,  // measure 73
0010
1000
0001
0010
1000
0100
0001
0010
,  // measure 74
0002
0100
0000
0103
2000
0010
0000
3010
,  // measure 75
0200
1000
0000
1300
0020
0001
0000
0031
,  // measure 76
1000
0001
1000
0010
1000
0100
1000
0100
,  // measure 77
0001
1000
0001
0100
0001
0010
0001
0010
,  // measure 78
0100
0010
0100
1000
0100
0001
0100
0001
,  // measure 79
0010
0100
0010
0001
0010
1000
0010
1000
,  // measure 80
0200
0000
0000
0000
0000
0000
0000
0000
0301
1000
0001
1000
0001
1000
0001
1000
,  // measure 81
0020
0000
0000
0000
0000
0000
0000
0000
1030
0001
1000
0001
1000
0001
1000
0001
,  // measure 82
2000
0000
0000
0000
0000
0000
0000
0000
3100
0010
0001
0010
0100
1000
0100
0010
,  // measure 83
0002
0000
0000
0000
0000
0000
0000
0000
1003
0100
0010
0000
1000
0100
0010
0000
,  // measure 84
2002
0000
0000
3003
0000
0000
0000
0000
,  // measure 85
0001
0000
0100
0000
1000
0000
0100
0000
0010
0000
1000
0000
,  // measure 86
0010
0000
0001
0000
0100
0000
0010
0000
0001
0000
0100
0000
,  // measure 87
1000
0000
0010
0000
0001
0000
0010
0000
0100
0000
0001
0000
,  // measure 88
0100
0000
1000
0000
0010
0000
0100
0000
1000
0000
0010
0000
,  // measure 89
1000
0010
1000
0001
0010
0100
1000
0100
,  // measure 90
1000
0010
0100
0001
0010
0100
0010
1000
,  // measure 91
0001
0000
0000
0000
1000
0000
0000
0000
0001
0000
0000
0000
1000
0000
0000
0000
0001
0000
0000
0000
1000
0000
0000
0000
0001
0000
0000
0000
1000
0000
0000
0000
0001
0000
0000
0000
1000
0000
0000
0001
0000
0000
1000
0000
0000
0001
0000
0000
,  // measure 92
0020
0000
0000
0000
,  // measure 93
0000
0000
0000
0000
,  // measure 94
0000
0000
0000
0000
,  // measure 95
0000
0000
0000
0000
0000
0000
0000
0030
,  // measure 96
0010
0100
0000
0000
0010
0000
0010
0000
0000
0000
0000
0010
0001
0000
0000
0000
1000
0000
1000
0000
0000
0000
0001
1000
0001
1000
0001
0000
0010
0100
0000
0000
,  // measure 97
0000
0000
0000
0000
0000
0000
1000
0100
0000
0000
0000
0000
0001
1000
0000
0000
0010
0100
0000
0000
0000
0000
0000
0000
0010
1000
0000
0000
0000
0000
0000
0000
,  // measure 98
1010
0000
0000
1001
0000
0000
0201
0000
0000
0000
0000
0000
0000
0000
0300
0000
,  // measure 99
1000
0000
0000
0000
0000
0000
0100
0000
0000
0000
0000
0000
1000
0000
0000
0000
0000
0000
0100
0000
0000
0000
0000
0000
1000
0000
0000
0000
0000
0000
0001
0000
0000
0000
0000
0000
1000
0000
0000
0000
0000
0000
0001
0000
0000
0000
0000
0000
0010
0000
0000
0000
0000
0000
0100
0000
0000
0000
0000
0000
0010
0000
0000
0000
0000
0000
0100
0000
0000
0000
0000
0000
0010
0000
0000
0000
0000
0000
0001
0000
0000
0000
0000
0000
0010
0000
0000
0000
0000
0000
0001
0000
0000
0000
0000
0000
0100
0000
0000
0000
0000
0000
1000
0000
0000
0000
0000
0000
0100
0000
0000
0000
0000
0000
1000
0000
0000
0000
0000
0000
0100
0000
0000
0000
0000
0000
0010
0000
0000
0000
0000
0000
0100
0000
0000
0000
0000
0000
0010
0000
0000
0000
0000
0000
0001
0000
0000
0000
0000
0000
1000
0000
0000
0000
0000
0000
0001
0000
0000
0000
0000
0000
1000
0000
0000
0000
0000
0000
0001
0000
0000
0000
0000
0000
1000
0000
0000
0000
0000
0000
0001
0000
0000
0000
1000
0000
0000
0000
0001
0000
0000
0000
,  // measure 100
0100
0010
0000
0000
0100
0000
0100
0000
0000
0000
0000
0100
1000
0000
0000
0000
0001
0000
0001
0000
0000
0000
1000
0001
1000
0001
1000
0000
0100
0010
0000
0000
,  // measure 101
0010
0100
0000
0000
0010
0000
0010
0000
0000
0000
0000
0010
0001
0000
0000
0000
0010
0001
0010
0001
0010
1000
0010
0001
0010
1000
0100
0010
0100
1000
0010
1000
,  // measure 102
0011
0000
1010
0000
0110
0000
0202
0000
0000
0000
0000
0303
1100
0000
0101
0000
0110
0000
2020
0000
0000
0000
0000
3030
,  // measure 103
1010
0000
0000
0000
0000
0000
0000
0000
0000
0000
0000
0000
0000
0000
0000
0000
1100
0000
0000
0000
0000
0000
0000
0000
0000
0000
0000
0000
0000
0000
0000
0000
1001
0000
0000
0000
0000
0000
0000
0000
0000
0000
0000
0000
0000
0000
0000
0000
0101
0000
0000
0000
0000
0000
0000
0000
0000
0000
0000
0000
0000
0000
0000
0000
0011
0000
0000
0000
0000
0000
0000
0000
0000
0000
0000
0000
0000
0000
0000
0000
1001
0000
0000
0000
0000
0000
0000
0000
0000
0000
0000
0000
0000
0000
0000
0000
0010
0000
0000
0000
0000
0000
0000
0000
0000
0000
0000
0000
0010
0000
0000
0000
0000
0000
0000
0000
0000
0000
0000
0000
0010
0000
0000
0000
0000
0000
0000
0000
0000
0000
0000
0000
0010
0000
0000
0000
0000
0000
0000
0000
0000
0000
0000
0000
0010
0000
0000
0000
0000
0000
0100
0000
0000
0000
0000
0000
0010
0000
0000
0000
0000
0000
0100
0000
0000
0000
0000
0000
0010
0000
0000
0000
0000
0000
0100
0000
0000
0000
0000
0000
0010
0000
0000
0000
0000
0000
0100
0000
0000
0000
0000
0000
,  // measure 104
0020
0000
0000
0000
,  // measure 105
0000
0000
0000
0000
,  // measure 106
0000
0000
0000
0000
,  // measure 107
0000
0000
0000
0000
,  // measure 108
0000
0000
0000
0000
,  // measure 109
0000
0000
0000
0000
,  // measure 110
0000
0000
0000
0000
,  // measure 111
0000
0000
0000
0000
0000
0000
0000
0030
,  // measure 112
1000
0001
0100
0001
0010
1000
0010
0001
,  // measure 113
1010
0000
0000
0000
0110
0000
0000
0000
0101
0000
0000
0000
,  // measure 114
0010
1000
0010
0100
0010
1000
0001
0010
,  // measure 115
1000
0100
1000
0001
1000
0100
1000
0010
,  // measure 116
0001
1000
0010
1000
0100
0001
0100
1000
,  // measure 117
0101
0000
0000
0000
0110
0000
0000
0000
1010
0000
0000
0000
,  // measure 118
1001
0000
0000
0000
1010
0000
0000
0000
0101
0000
0000
0000
,  // measure 119
0011
0000
0000
0000
1001
0000
0000
0000
1100
0000
0000
0000
,  // measure 120
1000
0001
0100
0001
0010
1000
0010
0001
,  // measure 121
1010
0000
0000
0000
0110
0000
0000
0000
0101
0000
0000
0000
,  // measure 122
0010
1000
0010
0100
0010
1000
0001
0010
,  // measure 123
1000
0100
1000
0001
1000
0100
1000
0010
,  // measure 124
0001
1000
0010
1000
0100
0001
0100
1000
,  // measure 125
0010
1000
0010
0001
0100
0010
1000
0001
,  // measure 126
0020
1000
0000
0001
0000
1000
0000
0031
,  // measure 127
0200
0001
0000
1000
0000
0001
0000
1300
,  // measure 128
0001
1000
0010
1000
0100
0001
0100
1000
,  // measure 129
0101
0000
0000
0000
0110
0000
0000
0000
1010
0000
0000
0000
,  // measure 130
0100
0001
0100
0010
0100
0001
1000
0100
,  // measure 131
0001
0010
0001
1000
0001
0010
0001
0100
,  // measure 132
1000
0001
0100
0001
0010
1000
0010
0001
,  // measure 133
1010
0000
0000
0000
0110
0000
0000
0000
0101
0000
0000
0000
,  // measure 134
1001
0000
0000
0000
0101
0000
0000
0000
1010
0000
0000
0000
,  // measure 135
1100
0000
0000
0000
1001
0000
0000
0000
0011
0000
0000
0000
,  // measure 136
1000
0000
0001
0000
1000
0000
0010
0000
0000
1000
0000
0000
0100
0000
0000
0001
0000
0000
0010
0000
0000
0100
0000
0000
,  // measure 137
0001
0000
0010
0000
0001
0000
0010
0000
0000
0100
0000
0000
1000
0000
0000
0100
0000
0000
0001
0000
0000
1000
0000
0000
,  // measure 138
0001
0000
1000
0000
0001
0000
0100
0000
0000
0001
0000
0000
0010
0000
0000
1000
0000
0000
0100
0000
0000
0010
0000
0000
,  // measure 139
1000
0000
0100
0000
1000
0000
0100
0000
0000
0010
0000
0000
0001
0000
0000
0010
0000
0000
1000
0000
0000
0001
0000
0000
,  // measure 140
0110
1000
0100
1001
0100
1000
0110
0001
,  // measure 141
0100
0000
0000
1001
0000
0000
0100
0000
0000
0001
0000
0000
0110
0000
0000
0000
0001
0000
1000
0000
0001
0000
1000
0000
,  // measure 142
0200
0001
0000
1000
0000
0001
0000
1300
,  // measure 143
0020
1000
0000
0001
0000
1000
0000
0031
,  // measure 144
0200
0000
0000
0000
,  // measure 145
0000
0000
0000
0000
0000
0000
0000
0300
,  // measure 146
0001
0000
1000
0000
0001
0000
1000
0000
0001
0000
1000
0000
,  // measure 147
0010
0000
1000
0000
0010
0000
1000
0000
0010
0000
1000
0000
,  // measure 148
0100
0000
0001
0000
0100
0000
0001
0000
0100
0000
0001
0000
,  // measure 149
1000
0000
0100
0000
1000
0000
0100
0000
1000
0000
0100
0000
,  // measure 150
0010
1000
0010
1000
0010
1000
0010
1000
,  // measure 151
0001
0010
0001
0010
0001
0010
0001
0010
,  // measure 152
0001
1000
0001
1000
0001
1000
0001
1000
,  // measure 153
0001
0000
0000
0000
0000
0000
1000
0000
0000
0000
0000
0000
0001
0000
0000
0000
1000
0000
0000
0000
0001
0000
0000
0000
1000
0000
0000
0000
0001
0000
0000
0000
1000
0000
0000
0000
0001
0000
0000
1000
0000
0000
0001
0000
0000
1000
0000
0000
,  // measure 154
0001
0000
0000
0000
;

//---------------dance-single - ----------------
#NOTEDATA:;
#CHARTNAME:;
#STEPSTYPE:dance-single;
#DESCRIPTION:;
#CHARTSTYLE:;
#DIFFICULTY:Beginner;
#METER:21;
#RADARVALUES:1.220584,3.083881,0.550693,0.634131,0.967885,1024.000000,958.000000,66.000000,76.000000,0.000000,0.000000,0.000000,0.000000,0.000000,1.220584,3.083881,0.550693,0.634131,0.967885,1024.000000,958.000000,66.000000,76.000000,0.000000,0.000000,0.000000,0.000000,0.000000;
#CREDIT:;
#NOTES:
// measure 0
0000
0000
0000
0000
,  // measure 1
0000
0000
0000
0000
,  // measure 2
0000
0000
0000
0000
,  // measure 3
0000
0000
0000
0000
,  // measure 4
0100
0000
0000
1000
0000
0000
0001
0000
0000
1000
0000
0000
0010
0000
0000
0000
0000
0000
0000
0000
0000
0000
0000
0000
0000
0000
0000
0000
1100
0000
0000
0000
0000
0000
0000
0000
0000
0000
0000
0000
0000
0000
0000
0000
0011
0000
0000
0000
,  // measure 5
0000
0000
2002
0000
0000
0000
0000
3003
,  // measure 6
0001
0010
1000
0000
0001
0010
0100
0010
1000
0100
0001
0000
1000
0100
0010
0100
,  // measure 7
0001
0000
0000
0010
0000
0000
1000
0000
0000
0000
0000
0000
0001
0000
0000
0010
0000
0000
0100
0000
0000
0010
0000
0000
1000
0000
0000
0001
0000
0000
1000
0000
0000
0001
0000
0000
1000
0000
0001
0000
1000
0000
0001
0000
1000
0000
0001
0000
,  // measure 8
2000
0000
0000
0000
0000
0000
0010
0000
0000
0010
0000
0000
0000
0000
0000
0001
0000
0000
0010
0000
0000
0000
0000
0000
3010
0000
0000
0000
0000
0000
0000
0000
0000
0000
1010
0000
0000
0000
0000
0000
0011
0000
0000
0000
0000
0000
0110
0000
,  // measure 9
1000
0010
1000
0010
1000
0010
1000
0010
1000
0010
1000
0010
1000
0010
1000
0010
0001
0100
1000
0100
0001
0010
0100
1000
0001
0100
1000
0100
0001
0010
0100
1000
,  // measure 10
0002
0000
0000
0000
0000
0000
0100
0000
0000
0100
0000
0000
0000
0000
0000
1000
0000
0000
0100
0000
0000
0000
0000
0000
0103
0000
0000
0000
0000
0000
0000
0000
0000
0000
0101
0000
0000
0000
0000
0000
1100
0000
0000
0000
0000
0000
0110
0000
,  // measure 11
0001
1000
0001
1000
0001
1000
0001
1000
0001
1000
0001
1000
0001
1000
0001
1000
0020
0000
0000
0000
0000
0000
0000
0000
0200
0000
0000
0000
0000
0000
0000
0330
,  // measure 12
1000
0100
0001
0000
0010
0100
0010
0000
,  // measure 13
1000
0001
1000
0000
0001
0100
0001
0000
,  // measure 14
0001
0010
1000
0000
0100
0010
0100
0000
,  // measure 15
0001
1000
0001
0100
1000
0010
1000
0001
,  // measure 16
0100
0001
0010
0000
1000
0001
1000
0000
,  // measure 17
0100
0010
0100
0000
0010
0001
0010
0000
,  // measure 18
1010
0000
0000
0010
0100
0010
0100
0000
,  // measure 19
1000
0100
0010
0001
1000
0100
0002
0000
,  // measure 20
1003
0100
0001
0000
0010
0100
0010
0000
,  // measure 21
1000
0001
1000
0000
0001
0100
0001
0000
,  // measure 22
0001
0010
1000
0000
0100
0010
0100
0000
,  // measure 23
0001
1000
0001
0000
1000
0010
1000
0000
,  // measure 24
1010
0000
0000
0000
0000
0011
0000
0000
,  // measure 25
0000
1010
0000
0000
,  // measure 26
0001
1000
0001
0010
0100
0001
0010
0100
,  // measure 27
1000
0001
1000
0100
0010
1000
0100
0010
,  // measure 28
0100
1000
0100
0010
0100
1000
0001
1000
,  // measure 29
0001
0010
0100
0001
0010
1000
0100
0001
,  // measure 30
0200
1000
0000
0300
0020
0001
0000
0030
,  // measure 31
2000
0010
0000
3000
0002
0100
0000
0103
,  // measure 32
0010
0001
0010
0100
0010
0001
1000
0001
,  // measure 33
1000
0100
0010
1000
0100
0001
0010
1000
,  // measure 34
0020
0001
0000
0030
0200
1000
0000
0300
,  // measure 35
0002
0100
0000
0003
2000
0010
0000
3000
,  // measure 36
2002
0000
0000
0000
0000
0000
0000
3003
,  // measure 37
0010
1000
0001
0010
1000
0100
0001
0010
,  // measure 38
0002
0100
0000
0003
2000
0010
0000
3000
,  // measure 39
0200
1000
0000
0300
0020
0001
0000
0030
,  // measure 40
1000
0001
1000
0010
1000
0100
1000
0100
,  // measure 41
0001
1000
0001
0100
0001
0010
0001
0010
,  // measure 42
0100
0010
0100
1000
0100
0001
0100
0001
,  // measure 43
0010
0100
0010
0001
0010
1000
0010
1000
,  // measure 44
0202
0000
0000
0000
0000
0000
0000
0003
,  // measure 45
0010
0000
0000
1000
0000
0000
0010
0300
,  // measure 46
0200
1000
0000
0300
0020
0001
0000
0030
,  // measure 47
2000
0010
0000
3000
0002
0100
0000
0003
,  // measure 48
0010
0001
0010
0100
0010
0001
1000
0001
,  // measure 49
1000
0100
0010
1000
0100
0001
0010
1000
,  // measure 50
0020
0001
0000
0030
0200
1000
0000
0300
,  // measure 51
0002
0100
0000
0003
2000
0010
0000
3000
,  // measure 52
0001
0100
0001
1000
0001
0100
0010
0100
,  // measure 53
0010
1000
0001
0010
1000
0100
0001
0010
,  // measure 54
0002
0100
0000
0003
2000
0010
0000
3000
,  // measure 55
0200
1000
0000
0300
0020
0001
0000
0030
,  // measure 56
1000
0010
1000
0001
1000
0010
0100
0010
,  // measure 57
0100
0001
1000
0100
0001
0010
1000
0100
,  // measure 58
2000
0010
0000
3000
0002
0100
0000
0003
,  // measure 59
0020
0001
0000
0030
0200
1000
0000
0300
,  // measure 60
0022
0000
0000
0000
0000
0000
0000
0003
,  // measure 61
2000
0000
0000
0000
0000
0000
0000
0030
,  // measure 62
0002
0000
0000
0000
0000
0000
0000
3003
,  // measure 63
1001
0000
0000
0010
0000
0000
0010
0000
1000
0001
1000
0001
0020
0000
0000
0030
,  // measure 64
0100
1000
0100
0010
0100
1000
0001
1000
,  // measure 65
0001
0010
0100
0001
0010
1000
0100
0001
,  // measure 66
0200
1000
0000
0300
0020
0001
0000
0030
,  // measure 67
2000
0010
0000
3000
0002
0100
0000
0003
,  // measure 68
0010
0001
0010
0100
0010
0001
1000
0001
,  // measure 69
1000
0100
0010
1000
0100
0001
0010
1000
,  // measure 70
0020
0001
0000
0030
0200
1000
0000
0300
,  // measure 71
0002
0100
0000
0003
2000
0010
0000
3000
,  // measure 72
2002
0000
0000
0000
0000
0000
0000
3003
,  // measure 73
0010
1000
0001
0010
1000
0100
0001
0010
,  // measure 74
0002
0100
0000
0003
2000
0010
0000
3000
,  // measure 75
0200
1000
0000
0300
0020
0001
0000
0030
,  // measure 76
1000
0001
1000
0010
1000
0100
1000
0100
,  // measure 77
0001
1000
0001
0100
0001
0010
0001
0010
,  // measure 78
0100
0010
0100
1000
0100
0001
0100
0001
,  // measure 79
0010
0100
0010
0001
0010
1000
0010
1000
,  // measure 80
0200
0000
0000
0000
0000
0000
0000
0000
0301
1000
0001
1000
0001
1000
0001
1000
,  // measure 81
0020
0000
0000
0000
0000
0000
0000
0000
1030
0001
1000
0001
1000
0001
1000
0001
,  // measure 82
2000
0000
0000
0000
0000
0000
0000
0000
3100
0010
0001
0010
0100
1000
0100
0010
,  // measure 83
0002
0000
0000
0000
0000
0000
0000
0000
1003
0100
0010
0000
1000
0100
0010
0000
,  // measure 84
2002
0000
0000
3003
0000
0000
0000
0000
,  // measure 85
0001
0000
0100
0000
1000
0000
0100
0000
0010
0000
1000
0000
,  // measure 86
0010
0000
0001
0000
0100
0000
0010
0000
0001
0000
0100
0000
,  // measure 87
1000
0000
0010
0000
0001
0000
0010
0000
0100
0000
0001
0000
,  // measure 88
0100
0000
1000
0000
0010
0000
0100
0000
1000
0000
0010
0000
,  // measure 89
1000
0010
1000
0001
0010
0100
1000
0100
,  // measure 90
1000
0010
0100
0001
0010
0100
0010
1000
,  // measure 91
0001
1000
0001
1000
0001
1000
0001
1000
0001
1000
0001
1000
,  // measure 92
0020
0000
0000
0000
,  // measure 93
0000
0000
0000
0000
,  // measure 94
0000
0000
0000
0000
,  // measure 95
0000
0000
0000
0000
0000
0000
0000
0030
,  // measure 96
0010
0100
0000
0000
0010
0000
0010
0000
0000
0000
0000
0010
0001
0000
0000
0000
1000
0000
1000
0000
0000
0000
0001
1000
0001
1000
0001
0000
0010
0100
0000
0000
,  // measure 97
0000
0000
0000
0000
0000
0000
1000
0100
0000
0000
0000
0000
0001
1000
0000
0000
0010
0100
0000
0000
0000
0000
0000
0000
0010
1000
0000
0000
0000
0000
0000
0000
,  // measure 98
1010
0000
0000
1001
0000
0000
0201
0000
0000
0000
0000
0000
0000
0000
0300
0000
,  // measure 99
1000
0100
1000
0100
1000
0001
1000
0001
0010
0100
0010
0100
0010
0001
0010
0001
0100
1000
0100
1000
0100
0010
0100
0010
0001
1000
0001
1000
0001
1000
0001
1000
,  // measure 100
0100
0010
0000
0000
0100
0000
0100
0000
0000
0000
0000
0100
1000
0000
0000
0000
0001
0000
0001
0000
0000
0000
1000
0001
1000
0001
1000
0000
0100
0010
0000
0000
,  // measure 101
0010
0100
0000
0000
0010
0000
0010
0000
0000
0000
0000
0010
0001
0000
0000
0000
0010
0001
0010
0001
0010
1000
0010
0001
0010
1000
0100
0010
0100
1000
0010
1000
,  // measure 102
0011
0000
1010
0000
0110
0000
0202
0000
0000
0000
0000
0303
1100
0000
0101
0000
0110
0000
2020
0000
0000
0000
0000
3030
,  // measure 103
1010
0000
0000
0000
0000
0000
0000
0000
0000
0000
0000
0000
0000
0000
0000
0000
1100
0000
0000
0000
0000
0000
0000
0000
0000
0000
0000
0000
0000
0000
0000
0000
1001
0000
0000
0000
0000
0000
0000
0000
0000
0000
0000
0000
0000
0000
0000
0000
0101
0000
0000
0000
0000
0000
0000
0000
0000
0000
0000
0000
0000
0000
0000
0000
0011
0000
0000
0000
0000
0000
0000
0000
0000
0000
0000
0000
0000
0000
0000
0000
1001
0000
0000
0000
0000
0000
0000
0000
0000
0000
0000
0000
0000
0000
0000
0000
0010
0000
0000
0000
0000
0000
0000
0000
0000
0000
0000
0000
0010
0000
0000
0000
0000
0000
0000
0000
0000
0000
0000
0000
0010
0000
0000
0000
0000
0000
0000
0000
0000
0000
0000
0000
0010
0000
0000
0000
0000
0000
0000
0000
0000
0000
0000
0000
0010
0000
0000
0000
0000
0000
0100
0000
0000
0000
0000
0000
0010
0000
0000
0000
0000
0000
0100
0000
0000
0000
0000
0000
0010
0000
0000
0000
0000
0000
0100
0000
0000
0000
0000
0000
0010
0000
0000
0000
0000
0000
0100
0000
0000
0000
0000
0000
,  // measure 104
0020
0000
0000
0000
,  // measure 105
0000
0000
0000
0000
,  // measure 106
0000
0000
0000
0000
,  // measure 107
0000
0000
0000
0000
,  // measure 108
0000
0000
0000
0000
,  // measure 109
0000
0000
0000
0000
,  // measure 110
0000
0000
0000
0000
,  // measure 111
0000
0000
0000
0000
0000
0000
0000
0030
,  // measure 112
1000
0001
0100
0001
0010
1000
0010
0000
,  // measure 113
1010
0000
0000
0000
0110
0000
0000
0000
0101
0000
0000
0000
,  // measure 114
0010
1000
0010
0100
0010
1000
0001
0010
,  // measure 115
1000
0100
1000
0001
1000
0100
1000
0010
,  // measure 116
0001
1000
0010
1000
0100
0001
0100
0000
,  // measure 117
0101
0000
0000
0000
0110
0000
0000
0000
1010
0000
0000
0000
,  // measure 118
1001
0000
0000
0000
1010
0000
0000
0000
0101
0000
0000
0000
,  // measure 119
0011
0000
0000
0000
1001
0000
0000
0000
1100
0000
0000
0000
,  // measure 120
1000
0001
0100
0001
0010
1000
0010
0000
,  // measure 121
1010
0000
0000
0000
0110
0000
0000
0000
0101
0000
0000
0000
,  // measure 122
0010
1000
0010
0100
0010
1000
0001
0010
,  // measure 123
1000
0100
1000
0001
1000
0100
1000
0010
,  // measure 124
0001
1000
0010
1000
0100
0001
0100
1000
,  // measure 125
0010
1000
0010
0001
0100
0010
1000
0001
,  // measure 126
0020
1000
0000
0001
0000
1000
0000
0031
,  // measure 127
0200
0001
0000
1000
0000
0001
0000
1300
,  // measure 128
0001
1000
0010
1000
0100
0001
0100
0000
,  // measure 129
0101
0000
0000
0000
0110
0000
0000
0000
1010
0000
0000
0000
,  // measure 130
0100
0001
0100
0010
0100
0001
1000
0100
,  // measure 131
0001
0010
0001
1000
0001
0010
0001
0100
,  // measure 132
1000
0001
0100
0001
0010
1000
0010
0000
,  // measure 133
1010
0000
0000
0000
0110
0000
0000
0000
0101
0000
0000
0000
,  // measure 134
1001
0000
0000
0000
0101
0000
0000
0000
1010
0000
0000
0000
,  // measure 135
1100
0000
0000
0000
1001
0000
0000
0000
0011
0000
0000
0000
,  // measure 136
1000
0000
0001
0000
1000
0000
0010
0000
0000
1000
0000
0000
0100
0000
0000
0001
0000
0000
0010
0000
0000
0100
0000
0000
,  // measure 137
0010
0001
0010
0100
1000
0100
0001
1000
,  // measure 138
0001
0000
1000
0000
0001
0000
0100
0000
0000
0001
0000
0000
0010
0000
0000
1000
0000
0000
0100
0000
0000
0010
0000
0000
,  // measure 139
0100
1000
0100
0010
0001
0010
1000
0001
,  // measure 140
0110
1000
0100
1000
0100
1000
0110
0001
,  // measure 141
0100
0000
0000
0001
0000
0000
0100
0000
0000
0001
0000
0000
0110
0000
0000
0000
0001
0000
1000
0000
0001
0000
1000
0000
,  // measure 142
0200
0001
0000
0001
0000
0001
0000
0301
,  // measure 143
0020
1000
0000
1000
0000
1000
0000
1030
,  // measure 144
0200
0000
0000
0000
,  // measure 145
0000
0000
0000
0000
0000
0000
0000
0300
,  // measure 146
0001
0000
1000
0000
0001
0000
1000
0000
0001
0000
1000
0000
,  // measure 147
0010
0000
1000
0000
0010
0000
1000
0000
0010
0000
1000
0000
,  // measure 148
0100
0000
0001
0000
0100
0000
0001
0000
0100
0000
0001
0000
,  // measure 149
1000
0000
0100
0000
1000
0000
0100
0000
1000
0000
0100
0000
,  // measure 150
0010
1000
0010
1000
0010
1000
0010
1000
,  // measure 151
0001
0010
0001
0010
0001
0010
0001
0010
,  // measure 152
0001
1000
0001
1000
0001
1000
0001
1000
,  // measure 153
0001
0000
0000
1000
0000
0000
0001
0000
1000
0000
0001
0000
1000
0000
0001
0000
1000
0000
0001
0000
1000
0000
0001
0000
,  // measure 154
1000
0000
0000
0000
;
