#TITLE:VANDALIZED A.I.;
#SUBTITLE:;
#ARTIST:Kobaryo;
#TITLETRANSLIT:;
#SUBTITLETRANSLIT:;
#ARTISTTRANSLIT:;
#GENRE:;
#CREDIT:;
#BANNER:;
#BACKGROUND:;
#LYRICSPATH:;
#CDTITLE:;
#MUSIC:Vandalized AI.ogg;
#OFFSET:-0.372000;
#SAMPLESTART:52.708450;
#SAMPLELENGTH:15.000000;
#SELECTABLE:YES;
#DISPLAYBPM:*;
#BPMS:0.000000=160.500000
,76.000000=321.000000
,204.000000=642.000000
,332.000000=321.000000
,348.000000=642.000000
,380.000000=321.000000
,396.000000=642.000000
,428.000000=160.500000
,492.000000=321.000000
,620.000000=80.250000
,624.000000=160.500000
,688.000000=321.000000
,720.000000=642.000000
,976.000000=160.500000
,1032.000000=321.000000
,1048.000000=642.000000
,1304.000000=160.500000
;
#STOPS:
;
#BGCHANGES:;
#KEYSOUNDS:;
#ATTACKS:;

//---------------dance-single - ----------------
#NOTES:
     dance-single:
     :
     Easy:
     20:
     1.195262,3.027836,0.793045,0.709125,0.902141,1994.000000,1805.000000,189.000000,169.000000,0.000000,0.000000,1.195262,3.027836,0.793045,0.709125,0.902141,1994.000000,1805.000000,189.000000,169.000000,0.000000,0.000000:
// measure 0
0000
0000
0000
0000
,  // measure 1
0000
0000
0000
0000
,  // measure 2
0000
0000
0000
0000
,  // measure 3
2020
0030
0002
3003
,  // measure 4
0202
0300
2000
3003
,  // measure 5
0022
0003
0200
0330
,  // measure 6
2200
3000
0020
0330
,  // measure 7
2020
0030
0002
3003
,  // measure 8
0202
0300
2000
3003
,  // measure 9
0022
0003
0200
0330
,  // measure 10
2200
3000
0020
0330
,  // measure 11
1000
0001
1000
0000
0001
0001
0000
0000
0010
0001
0010
0000
1000
1000
0000
0000
,  // measure 12
0001
1000
0001
0000
1000
1000
0000
0000
0100
1000
0100
0000
0001
0001
0000
0000
,  // measure 13
0010
0100
0010
0000
0100
0100
0000
0000
0001
0100
0001
0000
0010
0010
0000
0000
,  // measure 14
0100
0010
0100
0000
0010
0010
0000
0000
1000
0010
1000
0000
0100
0100
0000
0000
,  // measure 15
1000
0001
1000
0000
0001
0001
0000
0000
0010
0001
0010
0000
1000
1000
0000
0000
,  // measure 16
0001
1000
0001
0000
1000
1000
0000
0000
0100
1000
0100
0000
0001
0001
0000
0000
,  // measure 17
0010
0100
0010
0000
0100
0100
0000
0000
0001
0100
0001
0000
0010
0010
0000
0000
,  // measure 18
0100
0010
0100
0000
0010
0010
0000
0000
1000
0010
1000
0000
0100
0100
0000
0000
,  // measure 19
1000
0000
0000
0001
0000
0000
1000
0000
0000
0001
0000
0000
1000
0000
0001
0000
1000
0000
0001
0000
1000
0000
0001
0000
,  // measure 20
1100
0100
0100
0000
0101
0001
0001
0000
,  // measure 21
0110
0100
0100
0000
0101
0001
0001
0000
,  // measure 22
0001
0000
0000
0000
1000
0000
0000
0000
0001
0000
0000
0000
1000
0000
0000
0000
0001
0000
0000
0000
1000
0000
0000
0000
0001
0000
0000
0000
1000
0000
0000
0000
0001
0000
0000
0000
1000
0000
0000
0001
0000
0000
0010
0000
0000
1000
0000
0000
,  // measure 23
0001
0000
0000
1000
0000
0000
0001
0000
0000
1000
0000
0000
0001
0000
1000
0000
0001
0000
1000
0000
0001
0000
1000
0000
,  // measure 24
0011
0010
0010
0000
1010
1000
1000
0000
,  // measure 25
0110
0010
0010
0000
1010
1000
1000
0000
,  // measure 26
1000
0000
0000
0000
0001
0000
0000
0000
1000
0000
0000
0000
0001
0000
0000
0000
1000
0000
0000
0000
0001
0000
0000
0000
1000
0000
0000
0000
0001
0000
0000
0000
1000
0000
0000
0000
0001
0000
0000
1000
0000
0000
0100
0000
0000
0001
0000
0000
,  // measure 27
0010
0000
0000
0100
0000
0000
0010
0000
0000
0100
0000
0000
0010
0000
0100
0000
0010
0000
0100
0000
0010
0000
0100
0000
,  // measure 28
1010
1000
1000
0000
1100
0100
0100
0000
,  // measure 29
1001
1000
1000
0000
1100
0100
0100
0000
,  // measure 30
0100
0000
0000
0000
0010
0000
0000
0000
0100
0000
0000
0000
0010
0000
0000
0000
0100
0000
0000
0000
0010
0000
0000
0000
0100
0000
0000
0000
0010
0000
0000
0000
0100
0000
0000
0000
0010
0000
0000
0100
0000
0000
0001
0000
0000
0010
0000
0000
,  // measure 31
0100
0000
0000
0010
0000
0000
0100
0000
0000
0010
0000
0000
0100
0000
0010
0000
0100
0000
0010
0000
0100
0000
0010
0000
,  // measure 32
0101
0001
0001
0000
0011
0010
0010
0000
,  // measure 33
1001
0001
0001
0000
0011
0010
0010
0000
,  // measure 34
0010
0000
0000
0000
0100
0000
0000
0000
0010
0000
0000
0000
0100
0000
0000
0000
0010
0000
0000
0000
0100
0000
0000
0000
0010
0000
0000
0000
0100
0000
0000
0000
0010
0000
0000
0000
0100
0000
0000
0010
0000
0000
1000
0000
0000
0100
0000
0000
,  // measure 35
1000
0000
0000
0010
0000
0000
1000
0000
0000
0010
0000
0000
1000
0000
0100
0000
0001
0000
0100
0000
1000
0000
0100
0000
,  // measure 36
0010
0010
0010
0000
0100
0100
0100
0000
,  // measure 37
0001
0000
0000
0100
0000
0000
0001
0000
0000
0100
0000
0000
0001
0000
0010
0000
1000
0000
0010
0000
0001
0000
0010
0000
,  // measure 38
0100
0100
0100
0000
0010
0010
0010
0000
,  // measure 39
0010
0000
0000
0001
0000
0000
0010
0000
0000
0001
0000
0000
0010
0000
1000
0000
0100
0000
1000
0000
0010
0000
1000
0000
,  // measure 40
0001
0001
0001
0000
1000
1000
1000
0000
,  // measure 41
0100
0000
0000
1000
0000
0000
0100
0000
0000
1000
0000
0000
0100
0000
0001
0000
0010
0000
0001
0000
0100
0000
0001
0000
,  // measure 42
1000
1000
1000
0000
0001
0001
0001
0000
,  // measure 43
1000
0100
1000
0100
1000
0100
1010
0000
0000
0000
0000
0000
,  // measure 44
0001
0010
0001
0010
0001
0010
0101
0000
0000
0000
0000
0000
,  // measure 45
0010
1000
0010
1000
0010
1000
0011
0000
0000
0000
0000
0000
,  // measure 46
0100
0001
0100
0001
0100
0001
1100
0000
0000
0000
0000
0000
,  // measure 47
1000
0001
1000
0001
1000
0001
1000
0001
,  // measure 48
1000
0000
0000
0000
0001
0000
0000
0000
1000
0000
0000
0000
0001
0000
0000
0000
1000
0000
0000
0000
0001
0000
0000
0000
1000
0000
0000
0001
0000
0000
1000
0000
0000
0001
0000
0000
1000
0000
0000
0001
0000
0000
1000
0000
0000
0001
0000
0000
,  // measure 49
0200
0000
0000
0000
,  // measure 50
0310
0000
0000
0000
0000
0000
0100
0000
0000
0000
0000
0000
0010
0000
0000
0000
0100
0000
0000
0000
0010
0000
0000
0000
0100
0000
0000
0010
0000
0000
0100
0000
0000
0010
0000
0000
0100
0000
0000
0010
0000
0000
0100
0000
0000
0010
0000
0000
,  // measure 51
1000
0001
1000
0000
0001
1000
0001
0000
,  // measure 52
1000
0000
0100
0000
0010
0000
0100
0000
0010
0000
0001
0000
,  // measure 53
0100
0000
0010
0000
1000
0000
0100
0000
0001
0000
0010
0000
,  // measure 54
0001
0100
0001
0000
1000
0010
1000
0000
,  // measure 55
0001
0000
1000
0000
0001
0000
1000
0000
0001
0000
1000
0000
,  // measure 56
0010
0000
0000
0000
0100
0000
0000
0000
0010
0000
0000
0000
0100
0000
0000
0001
0000
0000
0100
0000
0000
0001
0000
0000
,  // measure 57
1010
0010
0100
1000
,  // measure 58
0011
0010
1001
0100
,  // measure 59
0001
1000
0001
0000
1000
0001
1000
0000
,  // measure 60
0001
0000
0010
0000
0100
0000
0010
0000
0100
0000
1000
0000
,  // measure 61
0010
0000
0100
0000
0001
0000
0010
0000
1000
0000
0100
0000
,  // measure 62
1000
0010
1000
0000
0001
0100
0001
0000
,  // measure 63
1000
0000
0001
0000
1000
0000
0001
0000
1000
0000
0001
0000
,  // measure 64
0100
0000
0000
0000
0010
0000
0000
0000
0100
0000
0000
0000
0010
0000
0000
1000
0000
0000
0010
0000
0000
1000
0000
0000
,  // measure 65
0101
0100
0010
0001
,  // measure 66
1100
0100
1001
0010
,  // measure 67
0010
0100
0010
0000
0100
0010
0100
0000
,  // measure 68
0010
0000
1000
0000
0001
0000
1000
0000
0001
0000
0100
0000
,  // measure 69
1000
0000
0001
0000
0010
0000
1000
0000
0100
0000
0001
0000
,  // measure 70
0100
1000
0100
0000
0010
0001
0010
0000
,  // measure 71
0100
0000
0010
0000
0100
0000
0010
0000
0100
0000
0010
0000
,  // measure 72
0001
0000
0000
0000
1000
0000
0000
0000
0001
0000
0000
0000
1000
0000
0000
0100
0000
0000
1000
0000
0000
0100
0000
0000
,  // measure 73
0011
0001
1000
0010
,  // measure 74
0101
0001
0110
1000
,  // measure 75
0100
0010
0100
0000
0010
0100
0010
0000
,  // measure 76
0100
0000
0001
0000
1000
0000
0001
0000
1000
0000
0010
0000
,  // measure 77
0001
0000
1000
0000
0100
0000
0001
0000
0010
0000
1000
0000
,  // measure 78
0010
0001
0010
0000
0100
1000
0100
0000
,  // measure 79
0010
0000
0100
0000
0010
0000
0100
0000
0010
0000
0100
0000
,  // measure 80
1000
0000
0000
0000
0001
0000
0000
0000
1000
0000
0000
0000
0001
0000
0000
0010
0000
0000
0001
0000
0000
0010
0000
0000
,  // measure 81
1100
1000
0001
0100
,  // measure 82
1010
1000
0110
0001
,  // measure 83
1000
0100
1000
0010
1000
0100
1000
0010
,  // measure 84
0001
0010
0001
0100
0001
0010
0001
0100
,  // measure 85
0010
0001
0010
1000
0010
0001
0010
1000
,  // measure 86
0100
1000
0100
0001
0100
1000
0100
0001
,  // measure 87
1000
0001
1000
0000
0001
1000
0001
0000
,  // measure 88
1000
0000
0100
0000
0010
0000
0100
0000
0010
0000
0001
0000
,  // measure 89
0100
0000
0010
0000
1000
0000
0100
0000
0001
0000
0010
0000
,  // measure 90
0001
0100
0001
0000
1000
0010
1000
0000
,  // measure 91
0001
0000
1000
0000
0001
0000
1000
0000
0001
0000
1000
0000
,  // measure 92
0010
0000
0000
0000
0100
0000
0000
0000
0010
0000
0000
0000
0100
0000
0000
0001
0000
0000
0100
0000
0000
0001
0000
0000
,  // measure 93
1010
0010
0100
1000
,  // measure 94
0011
0010
1001
0100
,  // measure 95
0001
0010
0001
0100
0001
0010
0001
0100
,  // measure 96
1000
0100
1000
0010
1000
0100
1000
0010
,  // measure 97
0100
1000
0100
0001
0100
1000
0100
0001
,  // measure 98
0010
0001
0010
1000
0010
0001
0010
1000
,  // measure 99
0001
1000
0001
0000
1000
0001
1000
0000
,  // measure 100
0001
0000
0010
0000
0100
0000
0010
0000
0100
0000
1000
0000
,  // measure 101
0010
0000
0100
0000
0001
0000
0010
0000
1000
0000
0100
0000
,  // measure 102
1000
0010
1000
0000
0001
0100
0001
0000
,  // measure 103
1000
0000
0001
0000
1000
0000
0001
0000
1000
0000
0001
0000
,  // measure 104
0100
0000
0000
0000
0010
0000
0000
0000
0100
0000
0000
0000
0010
0000
0000
1000
0000
0000
0010
0000
0000
1000
0000
0000
,  // measure 105
0101
0100
0010
0001
,  // measure 106
1100
0100
1001
0010
,  // measure 107
2002
0000
0000
0000
,  // measure 108
0000
0000
0000
0000
,  // measure 109
0000
0000
0000
0000
,  // measure 110
0000
0000
0000
0000
,  // measure 111
0000
0000
0000
0000
,  // measure 112
0000
0000
0000
0000
,  // measure 113
0000
0000
0000
3003
,  // measure 114
1001
0000
0110
0000
1000
0100
0010
0001
1001
0000
0110
0000
0001
0010
0100
1000
,  // measure 115
0220
0000
0000
0000
,  // measure 116
0000
0000
0000
0000
,  // measure 117
0000
0000
0000
0000
,  // measure 118
0000
0000
0000
0000
,  // measure 119
0000
0000
0000
0000
,  // measure 120
0000
0000
0000
0000
,  // measure 121
0000
0000
0000
0330
,  // measure 122
1000
0000
0001
1000
0001
1000
0001
1000
0001
0000
1000
0001
1000
0001
1000
0001
,  // measure 123
0100
0010
0100
0010
1000
0010
1000
0010
,  // measure 124
0101
0100
0000
1010
0010
0000
0000
0000
,  // measure 125
0101
0100
0000
1010
0010
0000
0000
0000
,  // measure 126
0101
0100
0000
1010
0020
0100
1030
0000
,  // measure 127
0100
0010
0100
0010
1000
0010
1000
0010
,  // measure 128
0101
0100
0000
1010
0010
0000
0000
0000
,  // measure 129
1010
0101
0110
0101
,  // measure 130
1000
0000
0001
0000
1000
0000
0001
0000
1000
0000
0001
0000
1000
0001
1000
0001
,  // measure 131
0010
0100
0010
0100
0001
0100
0001
0100
,  // measure 132
1010
0010
0000
0101
0100
0000
0000
0000
,  // measure 133
1010
0010
0000
0101
0100
0000
0000
0000
,  // measure 134
1010
0010
0000
0101
0200
0010
0301
0000
,  // measure 135
0010
0100
0010
0100
0001
0100
0001
0100
,  // measure 136
1010
0010
0000
0101
0100
0000
0000
0000
,  // measure 137
0101
1010
0110
1010
,  // measure 138
0001
0000
1000
0000
0001
0000
1000
0000
0001
0000
1000
0000
0001
1000
0001
1000
,  // measure 139
1000
0001
1000
0001
0010
0001
0010
0001
,  // measure 140
1100
1000
0000
0011
0001
0000
0000
0000
,  // measure 141
1100
1000
0000
0011
0001
0000
0000
0000
,  // measure 142
1100
1000
0000
0011
0002
1000
0013
0000
,  // measure 143
1000
0001
1000
0001
0010
0001
0010
0001
,  // measure 144
1100
1000
0000
0011
0001
0000
0000
0000
,  // measure 145
0011
1100
1001
1100
,  // measure 146
0010
0000
0100
0000
0010
0000
0100
0000
0010
0000
0100
0000
0010
0100
0010
0100
,  // measure 147
0001
1000
0001
1000
0100
1000
0100
1000
,  // measure 148
0011
0001
0000
1100
1000
0000
0000
0000
,  // measure 149
0011
0001
0000
1100
1000
0000
0000
0000
,  // measure 150
0011
0001
0000
1100
2000
0001
3100
0000
,  // measure 151
0001
1000
0001
1000
0100
1000
0100
1000
,  // measure 152
0011
0001
0000
1100
1000
0000
0000
0000
,  // measure 153
1100
0011
1001
0011
,  // measure 154
0100
0000
0010
0000
0100
0000
0010
0000
0100
0000
0010
0000
0100
0010
0100
0010
,  // measure 155
2002
0000
0000
0000
0000
0000
0000
0000
0000
0000
0000
0000
0000
0000
0000
3003
,  // measure 156
0020
0000
0000
0230
0000
0000
2300
0000
0000
3002
0000
0000
0013
0100
1000
0010
,  // measure 157
0200
0000
0000
0320
0000
0000
0032
0000
0000
2003
0000
0000
3100
0010
0001
0100
,  // measure 158
0002
0000
0000
2003
0000
0000
3020
0000
0000
0230
0000
0000
0301
1000
0010
0001
,  // measure 159
2000
0000
0000
3002
0000
0000
0203
0000
0000
0320
0000
0000
1030
0001
0100
1000
,  // measure 160
0020
0000
0000
0230
0000
0000
2300
0000
0000
3002
0000
0000
0013
0100
1000
0010
,  // measure 161
0200
0000
0000
0320
0000
0000
0032
0000
0000
2003
0000
0000
3100
0010
0001
0100
,  // measure 162
0002
0000
0000
2003
0000
0000
3020
0000
0000
0230
0000
0000
0301
1000
0010
0001
,  // measure 163
2000
0000
0000
3002
0000
0000
0203
0000
0000
0320
0000
0000
1030
0001
0100
1000
,  // measure 164
0011
1010
0011
1010
,  // measure 165
1100
0101
1100
0101
,  // measure 166
0101
0011
0101
0011
,  // measure 167
1010
1100
1010
1100
,  // measure 168
1000
0100
0010
0001
1000
0100
0010
0001
,  // measure 169
0010
0100
0010
0001
0010
0100
0010
1000
,  // measure 170
1000
0100
0010
0001
0100
0010
1000
0001
0100
0010
0001
1000
0001
0010
0100
1000
,  // measure 171
0001
0000
0000
0000
0000
0000
0000
0000
1000
0000
0000
0000
0000
0000
0000
0000
0001
0000
0000
0000
0000
0000
0000
0000
1000
0000
0000
0000
0000
0000
0000
0000
0001
0000
0000
0000
0000
0000
0000
0000
1000
0000
0000
0000
0000
0000
0000
0000
0001
0000
0000
0000
0000
0000
0000
0000
1000
0000
0000
0000
0000
0000
0000
0000
0001
0000
0000
0000
0000
0000
0000
0000
1000
0000
0000
0000
0000
0000
0000
0000
0001
0000
0000
0000
0000
0000
0000
0000
1000
0000
0000
0000
0000
0000
0000
0000
0001
0000
0000
0000
0000
0000
0000
0000
1000
0000
0000
0000
0000
0000
0000
0000
0001
0000
0000
0000
0000
0000
0000
0000
1000
0000
0000
0000
0000
0000
0000
0000
0001
0000
0000
0000
0000
0000
0000
0000
1000
0000
0000
0000
0000
0000
0000
0000
0001
0000
0000
0000
0000
0000
1000
0000
0000
0000
0000
0000
0001
0000
0000
0000
0000
0000
1000
0000
0000
0000
0000
0000
0001
0000
0000
0000
0000
0000
1000
0000
0000
0000
0000
0000
0001
0000
0000
0000
0000
0000
1000
0000
0000
0000
0000
0000
,  // measure 172
2002
0000
0000
0000
,  // measure 173
0000
0000
0000
0000
,  // measure 174
0000
0000
0000
0000
,  // measure 175
0000
0000
0000
3003
,  // measure 176
1000
0001
1000
0001
1000
0001
1000
0001
,  // measure 177
1000
0000
0000
0000
0001
0000
0000
0000
1000
0000
0000
0000
0001
0000
0000
0000
1000
0000
0000
0000
0001
0000
0000
0000
1000
0000
0000
0001
0000
0000
1000
0000
0000
0001
0000
0000
1000
0000
0000
0001
0000
0000
1000
0000
0000
0001
0000
0000
,  // measure 178
0200
0000
0000
0000
,  // measure 179
0310
0000
0000
0000
0000
0000
0100
0000
0000
0000
0000
0000
0010
0000
0000
0000
0100
0000
0000
0000
0010
0000
0000
0000
0100
0000
0000
0010
0000
0000
0100
0000
0000
0010
0000
0000
0100
0000
0000
0010
0000
0000
0100
0000
0000
0010
0000
0000
,  // measure 180
1000
0001
1000
0001
0010
0000
0100
0000
,  // measure 181
1000
0100
0010
0001
,  // measure 182
0100
1000
0100
0010
,  // measure 183
2010
0000
0010
3000
0021
0000
0001
0030
,  // measure 184
0001
1000
0001
1000
0100
0000
0010
0000
,  // measure 185
0001
0010
0100
1000
,  // measure 186
0010
0001
0010
0100
,  // measure 187
0102
0000
0100
0003
1200
0000
1000
0300
,  // measure 188
0010
0100
0010
0100
0001
0000
1000
0000
,  // measure 189
0010
1000
0001
0100
,  // measure 190
1000
0010
1000
0001
,  // measure 191
0021
0000
0001
0030
0102
0000
0100
0003
,  // measure 192
0100
0010
0100
0010
1000
0000
0001
0000
,  // measure 193
0100
0001
1000
0010
,  // measure 194
0001
0100
0001
1000
,  // measure 195
1200
0000
1000
0300
2010
0000
0010
3000
,  // measure 196
1000
0001
1000
0001
0010
0000
0100
0000
,  // measure 197
1000
0100
0010
0001
,  // measure 198
0100
1000
0100
0010
,  // measure 199
2010
0000
0010
3000
0021
0000
0001
0030
,  // measure 200
0001
1000
0001
1000
0100
0000
0010
0000
,  // measure 201
0001
0010
0100
1000
,  // measure 202
0010
0001
0010
0100
,  // measure 203
0102
0000
0100
0003
1200
0000
1000
0300
,  // measure 204
0010
0100
0010
0100
0001
0000
1000
0000
,  // measure 205
0010
1000
0001
0100
,  // measure 206
1000
0010
1000
0001
,  // measure 207
0021
0000
0001
0030
0102
0000
0100
0003
,  // measure 208
0100
0010
0100
0010
1000
0000
0001
0000
,  // measure 209
0100
0001
1000
0010
,  // measure 210
0001
0100
0001
1000
,  // measure 211
1200
0000
1000
0300
2010
0000
0010
3000
,  // measure 212
1000
0001
1000
0001
0010
0000
0100
0000
,  // measure 213
1000
0100
0010
0001
,  // measure 214
0100
1000
0100
0010
,  // measure 215
2010
0000
0010
3000
0021
0000
0001
0030
,  // measure 216
0001
1000
0001
1000
0100
0000
0010
0000
,  // measure 217
0001
0010
0100
1000
,  // measure 218
0010
0001
0010
0100
,  // measure 219
0102
0000
0100
0003
1200
0000
1000
0300
,  // measure 220
0010
0100
0010
0100
0001
0000
1000
0000
,  // measure 221
0010
1000
0001
0100
,  // measure 222
1000
0010
1000
0001
,  // measure 223
0021
0000
0001
0030
0102
0000
0100
0003
,  // measure 224
0100
0010
0100
0010
1000
0000
0001
0000
,  // measure 225
0100
0001
1000
0010
,  // measure 226
0001
0100
0001
1000
,  // measure 227
1200
0000
1000
0300
2010
0000
0010
3000
,  // measure 228
1000
0001
1000
0001
0010
0000
0100
0000
,  // measure 229
1000
0100
0010
0001
,  // measure 230
0100
1000
0100
0010
,  // measure 231
2010
0000
0010
3000
0021
0000
0001
0030
,  // measure 232
0001
1000
0001
1000
0100
0000
0010
0000
,  // measure 233
0001
0010
0100
1000
,  // measure 234
0010
0001
0010
0100
,  // measure 235
0102
0000
0100
0003
1200
0000
1000
0300
,  // measure 236
0010
0100
0010
0100
0001
0000
1000
0000
,  // measure 237
0010
1000
0001
0100
,  // measure 238
1000
0010
1000
0001
,  // measure 239
0021
0000
0001
0030
0102
0000
0100
0003
,  // measure 240
0100
0010
0100
0010
1000
0000
0001
0000
,  // measure 241
0100
0001
1000
0010
,  // measure 242
0001
0100
0001
1000
,  // measure 243
1200
0000
1000
0300
2010
0000
0010
3000
,  // measure 244
2020
0030
0002
3003
,  // measure 245
0202
0300
2000
3003
,  // measure 246
0022
0003
0200
0330
,  // measure 247
2200
3000
0020
0330
,  // measure 248
2020
0030
0002
3003
,  // measure 249
0202
0300
2000
3003
,  // measure 250
0022
0003
0200
0330
,  // measure 251
2200
3000
0020
0330
,  // measure 252
0020
0000
0000
0230
0000
0000
2300
0000
0000
3002
0000
0000
0013
0100
1000
0010
,  // measure 253
0200
0000
0000
0320
0000
0000
0032
0000
0000
2003
0000
0000
3100
0010
0001
0100
,  // measure 254
0002
0000
0000
2003
0000
0000
3020
0000
0000
0230
0000
0000
0301
1000
0010
0001
,  // measure 255
2000
0000
0000
3002
0000
0000
0203
0000
0000
0320
0000
0000
1030
0001
0100
1000
,  // measure 256
1000
0100
0010
0001
1000
0100
0010
0001
,  // measure 257
0010
0100
0010
0001
0010
0100
0010
1000
,  // measure 258
1000
0001
1000
0001
1000
0001
1000
0001
,  // measure 259
1000
0000
0000
0000
0001
0000
0000
0000
1000
0000
0000
0000
0001
0000
0000
0000
1000
0000
0000
0000
0001
0000
0000
0000
1000
0000
0000
0001
0000
0000
1000
0000
0000
0001
0000
0000
1000
0000
0000
0001
0000
0000
1000
0000
0000
0001
0000
0000
,  // measure 260
0200
0000
0000
0000
,  // measure 261
0310
0000
0000
0000
0000
0000
0100
0000
0000
0000
0000
0000
0010
0000
0000
0000
0100
0000
0000
0000
0010
0000
0000
0000
0100
0000
0000
0010
0000
0000
0100
0000
0000
0010
0000
0000
0100
0000
0000
0010
0000
0000
0100
0000
0000
0010
0000
0000
,  // measure 262
1000
0000
0000
0100
0000
0000
0010
0000
0000
0001
0000
0000
0100
0000
0000
0000
0001
0000
0000
0000
0100
0000
0000
0000
,  // measure 263
0001
0000
0100
0000
0001
0000
0100
0000
0000
1002
0000
0000
,  // measure 264
0000
0000
0003
2010
0000
0000
0000
3000
,  // measure 265
0201
0000
0310
0000
,  // measure 266
0001
0000
0000
0010
0000
0000
0100
0000
0000
1000
0000
0000
0010
0000
0000
0000
1000
0000
0000
0000
0010
0000
0000
0000
,  // measure 267
1000
0000
0010
0000
1000
0000
0010
0000
0000
2001
0000
0000
,  // measure 268
0000
0000
3000
0102
0000
0000
0000
0003
,  // measure 269
1020
0000
0130
0000
,  // measure 270
0010
0000
0000
1000
0000
0000
0001
0000
0000
0100
0000
0000
1000
0000
0000
0000
0100
0000
0000
0000
1000
0000
0000
0000
,  // measure 271
0100
0000
1000
0000
0100
0000
1000
0000
0000
0210
0000
0000
,  // measure 272
0000
0000
0300
0021
0000
0000
0000
0030
,  // measure 273
2100
0000
3001
0000
,  // measure 274
0100
0000
0000
0001
0000
0000
1000
0000
0000
0010
0000
0000
0001
0000
0000
0000
0010
0000
0000
0000
0001
0000
0000
0000
,  // measure 275
0010
0000
0001
0000
0010
0000
0001
0000
0000
0120
0000
0000
,  // measure 276
0000
0000
0030
1200
0000
0000
0000
0300
,  // measure 277
0012
0000
1003
0000
,  // measure 278
1000
0000
0000
0100
0000
0000
0010
0000
0000
0001
0000
0000
0100
0000
0000
0000
0001
0000
0000
0000
0100
0000
0000
0000
,  // measure 279
0001
0000
0100
0000
0001
0000
0100
0000
0000
1002
0000
0000
,  // measure 280
0000
0000
0003
2010
0000
0000
0000
3000
,  // measure 281
0201
0000
0310
0000
,  // measure 282
0001
0000
0000
0010
0000
0000
0100
0000
0000
1000
0000
0000
0010
0000
0000
0000
1000
0000
0000
0000
0010
0000
0000
0000
,  // measure 283
1000
0000
0010
0000
1000
0000
0010
0000
0000
2001
0000
0000
,  // measure 284
0000
0000
3000
0102
0000
0000
0000
0003
,  // measure 285
1020
0000
0130
0000
,  // measure 286
0010
0000
0000
1000
0000
0000
0001
0000
0000
0100
0000
0000
1000
0000
0000
0000
0100
0000
0000
0000
1000
0000
0000
0000
,  // measure 287
0100
0000
1000
0000
0100
0000
1000
0000
0000
0210
0000
0000
,  // measure 288
0000
0000
0300
0021
0000
0000
0000
0030
,  // measure 289
2100
0000
3001
0000
,  // measure 290
0100
0000
0000
0001
0000
0000
1000
0000
0000
0010
0000
0000
0001
0000
0000
0000
0010
0000
0000
0000
0001
0000
0000
0000
,  // measure 291
0010
0000
0001
0000
0010
0000
0001
0000
0000
0120
0000
0000
,  // measure 292
0000
0000
0030
1200
0000
0000
0000
0300
,  // measure 293
0012
0000
1003
0000
,  // measure 294
1000
0001
1000
0000
0001
1000
0001
0000
,  // measure 295
1000
0000
0100
0000
0010
0000
0100
0000
0010
0000
0001
0000
,  // measure 296
0100
0000
0010
0000
1000
0000
0100
0000
0001
0000
0010
0000
,  // measure 297
0001
0100
0001
0000
1000
0010
1000
0000
,  // measure 298
0001
0000
1000
0000
0001
0000
1000
0000
0001
0000
1000
0000
,  // measure 299
0010
0000
0000
0000
0100
0000
0000
0000
0010
0000
0000
0000
0100
0000
0000
0001
0000
0000
0100
0000
0000
0001
0000
0000
,  // measure 300
1010
0010
0100
1000
,  // measure 301
0011
0010
1001
0100
,  // measure 302
0001
1000
0001
0000
1000
0001
1000
0000
,  // measure 303
0001
0000
0010
0000
0100
0000
0010
0000
0100
0000
1000
0000
,  // measure 304
0010
0000
0100
0000
0001
0000
0010
0000
1000
0000
0100
0000
,  // measure 305
1000
0010
1000
0000
0001
0100
0001
0000
,  // measure 306
1000
0000
0001
0000
1000
0000
0001
0000
1000
0000
0001
0000
,  // measure 307
0100
0000
0000
0000
0010
0000
0000
0000
0100
0000
0000
0000
0010
0000
0000
1000
0000
0000
0010
0000
0000
1000
0000
0000
,  // measure 308
0101
0100
0010
0001
,  // measure 309
1100
0100
1001
0010
,  // measure 310
1000
0000
0001
0000
1000
0000
0001
0000
1000
0000
0001
0000
,  // measure 311
1000
0000
0010
0000
1000
0000
0010
0000
1000
0000
0010
0000
,  // measure 312
0100
0001
0100
0001
1000
0100
0010
0001
,  // measure 313
0100
0000
0000
0000
0001
0000
0100
0000
0000
0000
0001
0000
1000
0000
0000
0010
0000
0000
1000
0000
0000
0010
0000
0000
,  // measure 314
0001
0000
1000
0000
0001
0000
1000
0000
0001
0000
1000
0000
,  // measure 315
0001
0000
0100
0000
0001
0000
0100
0000
0001
0000
0100
0000
,  // measure 316
0010
1000
0010
1000
0001
0010
0100
1000
,  // measure 317
0010
0000
0000
0000
1000
0000
0010
0000
0000
0000
1000
0000
0001
0000
0000
0100
0000
0000
0001
0000
0000
0100
0000
0000
,  // measure 318
0010
0000
0100
0000
0010
0000
0100
0000
0010
0000
0100
0000
,  // measure 319
0010
0000
0001
0000
0010
0000
0001
0000
0010
0000
0001
0000
,  // measure 320
1000
0100
1000
0100
0010
1000
0001
0100
,  // measure 321
1000
0000
0000
0000
0100
0000
1000
0000
0000
0000
0100
0000
0010
0000
0000
0001
0000
0000
0010
0000
0000
0001
0000
0000
,  // measure 322
0100
0000
0010
0000
0100
0000
0010
0000
0100
0000
0010
0000
,  // measure 323
0100
0000
1000
0000
0100
0000
1000
0000
0100
0000
1000
0000
,  // measure 324
0001
0010
0001
0010
0100
0001
1000
0010
,  // measure 325
0001
0000
0000
0000
0010
0000
0001
0000
0000
0000
0010
0000
0100
0000
0000
1000
0000
0000
0100
0000
0000
1000
0000
0000
,  // measure 326
2002
0000
0000
0000
,  // measure 327
0000
0000
0000
0000
,  // measure 328
3003
0000
0000
0000
;

//---------------dance-single - ----------------
#NOTES:
     dance-single:
     :
     Beginner:
     19:
     1.131123,2.614949,0.776261,0.709125,0.960885,1887.000000,1702.000000,185.000000,169.000000,0.000000,0.000000,1.131123,2.614949,0.776261,0.709125,0.960885,1887.000000,1702.000000,185.000000,169.000000,0.000000,0.000000:
// measure 0
0000
0000
0000
0000
,  // measure 1
0000
0000
0000
0000
,  // measure 2
0000
0000
0000
0000
,  // measure 3
2020
0030
0002
3003
,  // measure 4
0202
0300
2000
3003
,  // measure 5
0022
0003
0200
0330
,  // measure 6
2200
3000
0020
0330
,  // measure 7
2020
0030
0002
3003
,  // measure 8
0202
0300
2000
3003
,  // measure 9
0022
0003
0200
0330
,  // measure 10
2200
3000
0020
0330
,  // measure 11
1000
0001
1000
0000
0001
0001
0000
0000
0010
0001
0010
0000
1000
1000
0000
0000
,  // measure 12
0001
1000
0001
0000
1000
1000
0000
0000
0100
1000
0100
0000
0001
0001
0000
0000
,  // measure 13
0010
0100
0010
0000
0100
0100
0000
0000
0001
0100
0001
0000
0010
0010
0000
0000
,  // measure 14
0100
0010
0100
0000
0010
0010
0000
0000
1000
0010
1000
0000
0100
0100
0000
0000
,  // measure 15
1000
0001
1000
0000
0001
0001
0000
0000
0010
0001
0010
0000
1000
1000
0000
0000
,  // measure 16
0001
1000
0001
0000
1000
1000
0000
0000
0100
1000
0100
0000
0001
0001
0000
0000
,  // measure 17
0010
0100
0010
0000
0100
0100
0000
0000
0001
0100
0001
0000
0010
0010
0000
0000
,  // measure 18
0100
0010
0100
0000
0010
0010
0000
0000
1000
0010
1000
0000
0100
0100
0000
0000
,  // measure 19
1000
0000
0000
0001
0000
0000
1000
0000
0000
0001
0000
0000
1000
0000
0001
0000
1000
0000
0001
0000
1000
0000
0001
0000
,  // measure 20
1100
0100
0100
0000
0101
0001
0001
0000
,  // measure 21
0110
0100
0100
0000
0101
0001
0001
0000
,  // measure 22
0001
0000
0000
0000
1000
0000
0000
0000
0001
0000
0000
0000
1000
0000
0000
0000
0001
0000
0000
0000
1000
0000
0000
0000
0001
0000
0000
0000
1000
0000
0000
0000
0001
0000
0000
0000
1000
0000
0000
0001
0000
0000
0010
0000
0000
1000
0000
0000
,  // measure 23
0001
0000
0000
1000
0000
0000
0001
0000
0000
1000
0000
0000
0001
0000
1000
0000
0001
0000
1000
0000
0001
0000
1000
0000
,  // measure 24
0011
0010
0010
0000
1010
1000
1000
0000
,  // measure 25
0110
0010
0010
0000
1010
1000
1000
0000
,  // measure 26
1000
0000
0000
0000
0001
0000
0000
0000
1000
0000
0000
0000
0001
0000
0000
0000
1000
0000
0000
0000
0001
0000
0000
0000
1000
0000
0000
0000
0001
0000
0000
0000
1000
0000
0000
0000
0001
0000
0000
1000
0000
0000
0100
0000
0000
0001
0000
0000
,  // measure 27
0010
0000
0000
0100
0000
0000
0010
0000
0000
0100
0000
0000
0010
0000
0100
0000
0010
0000
0100
0000
0010
0000
0100
0000
,  // measure 28
1010
1000
1000
0000
1100
0100
0100
0000
,  // measure 29
1001
1000
1000
0000
1100
0100
0100
0000
,  // measure 30
0100
0000
0000
0000
0010
0000
0000
0000
0100
0000
0000
0000
0010
0000
0000
0000
0100
0000
0000
0000
0010
0000
0000
0000
0100
0000
0000
0000
0010
0000
0000
0000
0100
0000
0000
0000
0010
0000
0000
0100
0000
0000
0001
0000
0000
0010
0000
0000
,  // measure 31
0100
0000
0000
0010
0000
0000
0100
0000
0000
0010
0000
0000
0100
0000
0010
0000
0100
0000
0010
0000
0100
0000
0010
0000
,  // measure 32
0101
0001
0001
0000
0011
0010
0010
0000
,  // measure 33
1001
0001
0001
0000
0011
0010
0010
0000
,  // measure 34
0010
0000
0000
0000
0100
0000
0000
0000
0010
0000
0000
0000
0100
0000
0000
0000
0010
0000
0000
0000
0100
0000
0000
0000
0010
0000
0000
0000
0100
0000
0000
0000
0010
0000
0000
0000
0100
0000
0000
0010
0000
0000
1000
0000
0000
0100
0000
0000
,  // measure 35
1000
0000
0000
0010
0000
0000
1000
0000
0000
0010
0000
0000
1000
0000
0100
0000
0001
0000
0100
0000
1000
0000
0100
0000
,  // measure 36
0010
0010
0000
0000
0100
0100
0000
0000
,  // measure 37
0001
0000
0000
0100
0000
0000
0001
0000
0000
0100
0000
0000
0001
0000
0010
0000
1000
0000
0010
0000
0001
0000
0010
0000
,  // measure 38
0100
0100
0000
0000
0010
0010
0000
0000
,  // measure 39
0010
0000
0000
0001
0000
0000
0010
0000
0000
0001
0000
0000
0010
0000
1000
0000
0100
0000
1000
0000
0010
0000
1000
0000
,  // measure 40
0001
0001
0000
0000
1000
1000
0000
0000
,  // measure 41
0100
0000
0000
1000
0000
0000
0100
0000
0000
1000
0000
0000
0100
0000
0001
0000
0010
0000
0001
0000
0100
0000
0001
0000
,  // measure 42
1000
1000
0000
0000
0001
0001
0000
0000
,  // measure 43
1000
0100
1000
0100
1000
0100
1000
0000
0000
0000
0000
0000
,  // measure 44
0001
0010
0001
0010
0001
0010
0001
0000
0000
0000
0000
0000
,  // measure 45
0010
1000
0010
1000
0010
1000
0010
0000
0000
0000
0000
0000
,  // measure 46
0100
0001
0100
0001
0100
0001
0100
0000
0000
0000
0000
0000
,  // measure 47
1000
0001
1000
0001
1000
0001
1000
0001
,  // measure 48
1000
0001
1000
0001
1000
0001
1000
0001
1000
0001
1000
0001
,  // measure 49
0200
0000
0000
0000
,  // measure 50
0310
0000
0000
0100
0000
0000
0010
0000
0000
0100
0000
0000
0010
0000
0100
0000
0010
0000
0100
0000
0010
0000
0100
0000
,  // measure 51
1000
0001
1000
0000
0001
1000
0001
0000
,  // measure 52
1000
0000
0100
0000
0010
0000
0100
0000
0010
0000
0001
0000
,  // measure 53
0100
0000
0010
0000
1000
0000
0100
0000
0001
0000
0010
0000
,  // measure 54
0001
0100
0001
0000
1000
0010
1000
0000
,  // measure 55
0001
0000
1000
0000
0001
0000
1000
0000
0001
0000
1000
0000
,  // measure 56
0010
0000
0100
0000
0010
0000
0100
0000
0001
0000
0100
0000
,  // measure 57
1010
0010
0100
1000
,  // measure 58
0011
0010
1001
0100
,  // measure 59
0001
1000
0001
0000
1000
0001
1000
0000
,  // measure 60
0001
0000
0010
0000
0100
0000
0010
0000
0100
0000
1000
0000
,  // measure 61
0010
0000
0100
0000
0001
0000
0010
0000
1000
0000
0100
0000
,  // measure 62
1000
0010
1000
0000
0001
0100
0001
0000
,  // measure 63
1000
0000
0001
0000
1000
0000
0001
0000
1000
0000
0001
0000
,  // measure 64
0100
0000
0010
0000
0100
0000
0010
0000
1000
0000
0010
0000
,  // measure 65
0101
0100
0010
0001
,  // measure 66
1100
0100
1001
0010
,  // measure 67
0010
0100
0010
0000
0100
0010
0100
0000
,  // measure 68
0010
0000
1000
0000
0001
0000
1000
0000
0001
0000
0100
0000
,  // measure 69
1000
0000
0001
0000
0010
0000
1000
0000
0100
0000
0001
0000
,  // measure 70
0100
1000
0100
0000
0010
0001
0010
0000
,  // measure 71
0100
0000
0010
0000
0100
0000
0010
0000
0100
0000
0010
0000
,  // measure 72
0001
0000
1000
0000
0001
0000
1000
0000
0100
0000
1000
0000
,  // measure 73
0011
0001
1000
0010
,  // measure 74
0101
0001
0110
1000
,  // measure 75
0100
0010
0100
0000
0010
0100
0010
0000
,  // measure 76
0100
0000
0001
0000
1000
0000
0001
0000
1000
0000
0010
0000
,  // measure 77
0001
0000
1000
0000
0100
0000
0001
0000
0010
0000
1000
0000
,  // measure 78
0010
0001
0010
0000
0100
1000
0100
0000
,  // measure 79
0010
0000
0100
0000
0010
0000
0100
0000
0010
0000
0100
0000
,  // measure 80
1000
0000
0001
0000
1000
0000
0001
0000
0010
0000
0001
0000
,  // measure 81
1100
1000
0001
0100
,  // measure 82
1010
1000
0110
0001
,  // measure 83
1000
0100
1000
0010
1000
0100
1000
0000
,  // measure 84
0001
0010
0001
0100
0001
0010
0001
0000
,  // measure 85
0010
0001
0010
1000
0010
0001
0010
0000
,  // measure 86
0100
1000
0100
0001
0100
1000
0100
0000
,  // measure 87
1000
0001
1000
0000
0001
1000
0001
0000
,  // measure 88
1000
0000
0100
0000
0010
0000
0100
0000
0010
0000
0001
0000
,  // measure 89
0100
0000
0010
0000
1000
0000
0100
0000
0001
0000
0010
0000
,  // measure 90
0001
0100
0001
0000
1000
0010
1000
0000
,  // measure 91
0001
0000
1000
0000
0001
0000
1000
0000
0001
0000
1000
0000
,  // measure 92
0010
0000
0100
0000
0010
0000
0100
0000
0001
0000
0100
0000
,  // measure 93
1010
0010
0100
1000
,  // measure 94
0011
0010
1001
0100
,  // measure 95
0001
0010
0001
0100
0001
0010
0001
0000
,  // measure 96
1000
0100
1000
0010
1000
0100
1000
0000
,  // measure 97
0100
1000
0100
0001
0100
1000
0100
0000
,  // measure 98
0010
0001
0010
1000
0010
0001
0010
0000
,  // measure 99
0001
1000
0001
0000
1000
0001
1000
0000
,  // measure 100
0001
0000
0010
0000
0100
0000
0010
0000
0100
0000
1000
0000
,  // measure 101
0010
0000
0100
0000
0001
0000
0010
0000
1000
0000
0100
0000
,  // measure 102
1000
0010
1000
0000
0001
0100
0001
0000
,  // measure 103
1000
0000
0001
0000
1000
0000
0001
0000
1000
0000
0001
0000
,  // measure 104
0100
0000
0010
0000
0100
0000
0010
0000
1000
0000
0010
0000
,  // measure 105
0101
0100
0010
0001
,  // measure 106
1100
0100
1001
0010
,  // measure 107
2002
0000
0000
0000
,  // measure 108
0000
0000
0000
0000
,  // measure 109
0000
0000
0000
0000
,  // measure 110
0000
0000
0000
0000
,  // measure 111
0000
0000
0000
0000
,  // measure 112
0000
0000
0000
0000
,  // measure 113
0000
0000
0000
3003
,  // measure 114
1001
0000
0110
0000
1000
0100
0010
0000
1001
0000
0110
0000
0001
0010
0100
0000
,  // measure 115
0220
0000
0000
0000
,  // measure 116
0000
0000
0000
0000
,  // measure 117
0000
0000
0000
0000
,  // measure 118
0000
0000
0000
0000
,  // measure 119
0000
0000
0000
0000
,  // measure 120
0000
0000
0000
0000
,  // measure 121
0000
0000
0000
0330
,  // measure 122
1000
0000
0001
1000
0001
1000
0001
0000
0001
0000
1000
0001
1000
0001
1000
0000
,  // measure 123
0100
0010
0100
0010
1000
0010
1000
0010
,  // measure 124
0101
0100
0000
1010
0010
0000
0000
0000
,  // measure 125
0101
0100
0000
1010
0010
0000
0000
0000
,  // measure 126
0101
0100
0000
1010
0020
0100
1030
0000
,  // measure 127
0100
0010
0100
0010
1000
0010
1000
0010
,  // measure 128
0101
0100
0000
1010
0010
0000
0000
0000
,  // measure 129
1010
0101
0110
0101
,  // measure 130
1000
0000
0000
0001
0000
0000
1000
0000
0000
0001
0000
0000
1000
0000
0000
0001
0000
0000
1000
0000
0001
0000
1000
0000
,  // measure 131
0010
0100
0010
0100
0001
0100
0001
0100
,  // measure 132
1010
0010
0000
0101
0100
0000
0000
0000
,  // measure 133
1010
0010
0000
0101
0100
0000
0000
0000
,  // measure 134
1010
0010
0000
0101
0200
0010
0301
0000
,  // measure 135
0010
0100
0010
0100
0001
0100
0001
0100
,  // measure 136
1010
0010
0000
0101
0100
0000
0000
0000
,  // measure 137
0101
1010
0110
1010
,  // measure 138
0001
0000
0000
1000
0000
0000
0001
0000
0000
1000
0000
0000
0001
0000
0000
1000
0000
0000
0001
0000
1000
0000
0001
0000
,  // measure 139
1000
0001
1000
0001
0010
0001
0010
0001
,  // measure 140
1100
1000
0000
0011
0001
0000
0000
0000
,  // measure 141
1100
1000
0000
0011
0001
0000
0000
0000
,  // measure 142
1100
1000
0000
0011
0002
1000
0013
0000
,  // measure 143
1000
0001
1000
0001
0010
0001
0010
0001
,  // measure 144
1100
1000
0000
0011
0001
0000
0000
0000
,  // measure 145
0011
1100
1001
1100
,  // measure 146
0010
0000
0000
0100
0000
0000
0010
0000
0000
0100
0000
0000
0010
0000
0000
0100
0000
0000
0010
0000
0100
0000
0010
0000
,  // measure 147
0001
1000
0001
1000
0100
1000
0100
1000
,  // measure 148
0011
0001
0000
1100
1000
0000
0000
0000
,  // measure 149
0011
0001
0000
1100
1000
0000
0000
0000
,  // measure 150
0011
0001
0000
1100
2000
0001
3100
0000
,  // measure 151
0001
1000
0001
1000
0100
1000
0100
1000
,  // measure 152
0011
0001
0000
1100
1000
0000
0000
0000
,  // measure 153
1100
0011
1001
0011
,  // measure 154
0100
0000
0000
0010
0000
0000
0100
0000
0000
0010
0000
0000
0100
0000
0000
0010
0000
0000
0100
0000
0010
0000
0100
0000
,  // measure 155
2002
0000
0000
0000
0000
0000
0000
0000
0000
0000
0000
0000
0000
0000
0000
3003
,  // measure 156
0020
0000
0000
0230
0000
0000
2300
0000
0000
3002
0000
0000
0013
0100
1000
0000
,  // measure 157
0200
0000
0000
0320
0000
0000
0032
0000
0000
2003
0000
0000
3100
0010
0001
0000
,  // measure 158
0002
0000
0000
2003
0000
0000
3020
0000
0000
0230
0000
0000
0301
1000
0010
0000
,  // measure 159
2000
0000
0000
3002
0000
0000
0203
0000
0000
0320
0000
0000
1030
0001
0100
0000
,  // measure 160
0020
0000
0000
0230
0000
0000
2300
0000
0000
3002
0000
0000
0013
0100
1000
0000
,  // measure 161
0200
0000
0000
0320
0000
0000
0032
0000
0000
2003
0000
0000
3100
0010
0001
0000
,  // measure 162
0002
0000
0000
2003
0000
0000
3020
0000
0000
0230
0000
0000
0301
1000
0010
0000
,  // measure 163
2000
0000
0000
3002
0000
0000
0203
0000
0000
0320
0000
0000
1030
0001
0100
0000
,  // measure 164
0011
1010
0011
1010
,  // measure 165
1100
0101
1100
0101
,  // measure 166
0101
0011
0101
0011
,  // measure 167
1010
1100
1010
1100
,  // measure 168
1000
0100
0010
0001
1000
0100
0010
0001
,  // measure 169
0010
0100
0010
0001
0010
0100
0010
1000
,  // measure 170
1000
0100
0010
0001
0100
0010
1000
0001
0100
0010
0001
1000
0001
0010
0100
1000
,  // measure 171
0001
0000
0000
1000
0000
0000
0001
0000
0000
1000
0000
0000
0001
0000
0000
1000
0000
0000
0001
0000
0000
1000
0000
0000
0001
0000
1000
0000
0001
0000
1000
0000
0001
0000
1000
0000
0001
0000
1000
0000
0001
0000
1000
0000
0001
0000
1000
0000
,  // measure 172
2002
0000
0000
0000
,  // measure 173
0000
0000
0000
0000
,  // measure 174
0000
0000
0000
0000
,  // measure 175
0000
0000
0000
3003
,  // measure 176
1000
0001
1000
0001
1000
0001
1000
0001
,  // measure 177
1000
0000
0000
0000
0001
0000
0000
0000
1000
0000
0000
0000
0001
0000
0000
0000
1000
0000
0000
0000
0001
0000
0000
0000
1000
0000
0000
0001
0000
0000
1000
0000
0000
0001
0000
0000
1000
0000
0000
0001
0000
0000
1000
0000
0000
0001
0000
0000
,  // measure 178
0200
0000
0000
0000
,  // measure 179
0310
0000
0000
0100
0000
0000
0010
0000
0000
0100
0000
0000
0010
0000
0100
0000
0010
0000
0100
0000
0010
0000
0100
0000
,  // measure 180
1000
0001
1000
0000
0010
0000
0100
0000
,  // measure 181
1000
0100
0010
0001
,  // measure 182
0100
1000
0100
0010
,  // measure 183
2010
0000
0010
3000
0021
0000
0001
0030
,  // measure 184
0001
1000
0001
0000
0100
0000
0010
0000
,  // measure 185
0001
0010
0100
1000
,  // measure 186
0010
0001
0010
0100
,  // measure 187
0102
0000
0100
0003
1200
0000
1000
0300
,  // measure 188
0010
0100
0010
0000
0001
0000
1000
0000
,  // measure 189
0010
1000
0001
0100
,  // measure 190
1000
0010
1000
0001
,  // measure 191
0021
0000
0001
0030
0102
0000
0100
0003
,  // measure 192
0100
0010
0100
0000
1000
0000
0001
0000
,  // measure 193
0100
0001
1000
0010
,  // measure 194
0001
0100
0001
1000
,  // measure 195
1200
0000
1000
0300
2010
0000
0010
3000
,  // measure 196
1000
0001
1000
0000
0010
0000
0100
0000
,  // measure 197
1000
0100
0010
0001
,  // measure 198
0100
1000
0100
0010
,  // measure 199
2010
0000
0010
3000
0021
0000
0001
0030
,  // measure 200
0001
1000
0001
0000
0100
0000
0010
0000
,  // measure 201
0001
0010
0100
1000
,  // measure 202
0010
0001
0010
0100
,  // measure 203
0102
0000
0100
0003
1200
0000
1000
0300
,  // measure 204
0010
0100
0010
0000
0001
0000
1000
0000
,  // measure 205
0010
1000
0001
0100
,  // measure 206
1000
0010
1000
0001
,  // measure 207
0021
0000
0001
0030
0102
0000
0100
0003
,  // measure 208
0100
0010
0100
0000
1000
0000
0001
0000
,  // measure 209
0100
0001
1000
0010
,  // measure 210
0001
0100
0001
1000
,  // measure 211
1200
0000
1000
0300
2010
0000
0010
3000
,  // measure 212
1000
0001
1000
0000
0010
0000
0100
0000
,  // measure 213
1000
0100
0010
0001
,  // measure 214
0100
1000
0100
0010
,  // measure 215
2010
0000
0010
3000
0021
0000
0001
0030
,  // measure 216
0001
1000
0001
0000
0100
0000
0010
0000
,  // measure 217
0001
0010
0100
1000
,  // measure 218
0010
0001
0010
0100
,  // measure 219
0102
0000
0100
0003
1200
0000
1000
0300
,  // measure 220
0010
0100
0010
0000
0001
0000
1000
0000
,  // measure 221
0010
1000
0001
0100
,  // measure 222
1000
0010
1000
0001
,  // measure 223
0021
0000
0001
0030
0102
0000
0100
0003
,  // measure 224
0100
0010
0100
0000
1000
0000
0001
0000
,  // measure 225
0100
0001
1000
0010
,  // measure 226
0001
0100
0001
1000
,  // measure 227
1200
0000
1000
0300
2010
0000
0010
3000
,  // measure 228
1000
0001
1000
0000
0010
0000
0100
0000
,  // measure 229
1000
0100
0010
0001
,  // measure 230
0100
1000
0100
0010
,  // measure 231
2010
0000
0010
3000
0021
0000
0001
0030
,  // measure 232
0001
1000
0001
0000
0100
0000
0010
0000
,  // measure 233
0001
0010
0100
1000
,  // measure 234
0010
0001
0010
0100
,  // measure 235
0102
0000
0100
0003
1200
0000
1000
0300
,  // measure 236
0010
0100
0010
0000
0001
0000
1000
0000
,  // measure 237
0010
1000
0001
0100
,  // measure 238
1000
0010
1000
0001
,  // measure 239
0021
0000
0001
0030
0102
0000
0100
0003
,  // measure 240
0100
0010
0100
0000
1000
0000
0001
0000
,  // measure 241
0100
0001
1000
0010
,  // measure 242
0001
0100
0001
1000
,  // measure 243
1200
0000
1000
0300
2010
0000
0010
3000
,  // measure 244
2020
0030
0002
3003
,  // measure 245
0202
0300
2000
3003
,  // measure 246
0022
0003
0200
0330
,  // measure 247
2200
3000
0020
0330
,  // measure 248
2020
0030
0002
3003
,  // measure 249
0202
0300
2000
3003
,  // measure 250
0022
0003
0200
0330
,  // measure 251
2200
3000
0020
0330
,  // measure 252
0020
0000
0000
0230
0000
0000
2300
0000
0000
3002
0000
0000
0013
0100
1000
0000
,  // measure 253
0200
0000
0000
0320
0000
0000
0032
0000
0000
2003
0000
0000
3100
0010
0001
0000
,  // measure 254
0002
0000
0000
2003
0000
0000
3020
0000
0000
0230
0000
0000
0301
1000
0010
0000
,  // measure 255
2000
0000
0000
3002
0000
0000
0203
0000
0000
0320
0000
0000
1030
0001
0100
0000
,  // measure 256
1000
0100
0010
0001
1000
0100
0010
0001
,  // measure 257
0010
0100
0010
0001
0010
0100
0010
1000
,  // measure 258
1000
0001
1000
0001
1000
0001
1000
0001
,  // measure 259
1000
0001
1000
0001
1000
0001
1000
0001
1000
0001
1000
0001
,  // measure 260
0200
0000
0000
0000
,  // measure 261
0310
0000
0000
0100
0000
0000
0010
0000
0000
0100
0000
0000
0010
0000
0100
0000
0010
0000
0100
0000
0010
0000
0100
0000
,  // measure 262
1000
0000
0100
0000
0001
0000
0100
0000
0001
0000
0100
0000
,  // measure 263
0001
0000
0100
0000
0001
0000
0100
0000
0000
1002
0000
0000
,  // measure 264
0000
0000
0003
2010
0000
0000
0000
3000
,  // measure 265
0201
0000
0310
0000
,  // measure 266
0001
0000
0010
0000
1000
0000
0010
0000
1000
0000
0010
0000
,  // measure 267
1000
0000
0010
0000
1000
0000
0010
0000
0000
2001
0000
0000
,  // measure 268
0000
0000
3000
0102
0000
0000
0000
0003
,  // measure 269
1020
0000
0130
0000
,  // measure 270
0010
0000
1000
0000
0100
0000
1000
0000
0100
0000
1000
0000
,  // measure 271
0100
0000
1000
0000
0100
0000
1000
0000
0000
0210
0000
0000
,  // measure 272
0000
0000
0300
0021
0000
0000
0000
0030
,  // measure 273
2100
0000
3001
0000
,  // measure 274
0100
0000
0001
0000
0010
0000
0001
0000
0010
0000
0001
0000
,  // measure 275
0010
0000
0001
0000
0010
0000
0001
0000
0000
0120
0000
0000
,  // measure 276
0000
0000
0030
1200
0000
0000
0000
0300
,  // measure 277
0012
0000
1003
0000
,  // measure 278
1000
0000
0100
0000
0001
0000
0100
0000
0001
0000
0100
0000
,  // measure 279
0001
0000
0100
0000
0001
0000
0100
0000
0000
1002
0000
0000
,  // measure 280
0000
0000
0003
2010
0000
0000
0000
3000
,  // measure 281
0201
0000
0310
0000
,  // measure 282
0001
0000
0010
0000
1000
0000
0010
0000
1000
0000
0010
0000
,  // measure 283
1000
0000
0010
0000
1000
0000
0010
0000
0000
2001
0000
0000
,  // measure 284
0000
0000
3000
0102
0000
0000
0000
0003
,  // measure 285
1020
0000
0130
0000
,  // measure 286
0010
0000
1000
0000
0100
0000
1000
0000
0100
0000
1000
0000
,  // measure 287
0100
0000
1000
0000
0100
0000
1000
0000
0000
0210
0000
0000
,  // measure 288
0000
0000
0300
0021
0000
0000
0000
0030
,  // measure 289
2100
0000
3001
0000
,  // measure 290
0100
0000
0001
0000
0010
0000
0001
0000
0010
0000
0001
0000
,  // measure 291
0010
0000
0001
0000
0010
0000
0001
0000
0000
0120
0000
0000
,  // measure 292
0000
0000
0030
1200
0000
0000
0000
0300
,  // measure 293
0012
0000
1003
0000
,  // measure 294
1000
0001
1000
0000
0001
1000
0001
0000
,  // measure 295
1000
0000
0100
0000
0010
0000
0100
0000
0010
0000
0001
0000
,  // measure 296
0100
0000
0010
0000
1000
0000
0100
0000
0001
0000
0010
0000
,  // measure 297
0001
0100
0001
0000
1000
0010
1000
0000
,  // measure 298
0001
0000
1000
0000
0001
0000
1000
0000
0001
0000
1000
0000
,  // measure 299
0010
0000
0100
0000
0010
0000
0100
0000
0001
0000
0100
0000
,  // measure 300
1010
0010
0100
1000
,  // measure 301
0011
0010
1001
0100
,  // measure 302
0001
1000
0001
0000
1000
0001
1000
0000
,  // measure 303
0001
0000
0010
0000
0100
0000
0010
0000
0100
0000
1000
0000
,  // measure 304
0010
0000
0100
0000
0001
0000
0010
0000
1000
0000
0100
0000
,  // measure 305
1000
0010
1000
0000
0001
0100
0001
0000
,  // measure 306
1000
0000
0001
0000
1000
0000
0001
0000
1000
0000
0001
0000
,  // measure 307
0100
0000
0010
0000
0100
0000
0010
0000
1000
0000
0010
0000
,  // measure 308
0101
0100
0010
0001
,  // measure 309
1100
0100
1001
0010
,  // measure 310
1000
0000
0001
0000
1000
0000
0001
0000
1000
0000
0001
0000
,  // measure 311
1000
0000
0010
0000
1000
0000
0010
0000
1000
0000
0010
0000
,  // measure 312
0100
0000
0001
0000
0100
0000
1000
0000
0010
0000
0001
0000
,  // measure 313
0100
0000
0001
0000
0100
0000
1000
0000
0010
0000
1000
0000
,  // measure 314
0001
0000
1000
0000
0001
0000
1000
0000
0001
0000
1000
0000
,  // measure 315
0001
0000
0100
0000
0001
0000
0100
0000
0001
0000
0100
0000
,  // measure 316
0010
0000
1000
0000
0010
0000
0001
0000
0100
0000
1000
0000
,  // measure 317
0010
0000
1000
0000
0010
0000
0001
0000
0100
0000
0001
0000
,  // measure 318
0010
0000
0100
0000
0010
0000
0100
0000
0010
0000
0100
0000
,  // measure 319
0010
0000
0001
0000
0010
0000
0001
0000
0010
0000
0001
0000
,  // measure 320
1000
0000
0100
0000
1000
0000
0010
0000
0001
0000
0100
0000
,  // measure 321
1000
0000
0100
0000
1000
0000
0010
0000
0001
0000
0010
0000
,  // measure 322
0100
0000
0010
0000
0100
0000
0010
0000
0100
0000
0010
0000
,  // measure 323
0100
0000
1000
0000
0100
0000
1000
0000
0100
0000
1000
0000
,  // measure 324
0001
0000
0010
0000
0001
0000
0100
0000
1000
0000
0010
0000
,  // measure 325
0001
0000
0010
0000
0001
0000
0100
0000
1000
0000
0100
0000
,  // measure 326
2002
0000
0000
0000
,  // measure 327
0000
0000
0000
0000
,  // measure 328
3003
0000
0000
0000
;

//---------------dance-single - ----------------
#NOTES:
     dance-single:
     :
     Medium:
     23:
     1.335528,3.027836,0.843397,0.692341,1.007041,2228.000000,2027.000000,201.000000,165.000000,0.000000,0.000000,1.335528,3.027836,0.843397,0.692341,1.007041,2228.000000,2027.000000,201.000000,165.000000,0.000000,0.000000:
// measure 0
0000
0000
0000
0000
,  // measure 1
0000
0000
0000
0000
,  // measure 2
0000
0000
0000
0000
,  // measure 3
2020
0000
0030
0000
0100
0001
0010
3100
,  // measure 4
0202
0000
0300
0000
0010
1000
0100
0013
,  // measure 5
0022
0000
0003
0000
1000
0100
0001
1030
,  // measure 6
2200
0000
3000
0000
0001
0010
1000
0301
,  // measure 7
2020
0000
0030
0000
0100
0001
0010
3100
,  // measure 8
0202
0000
0300
0000
0010
1000
0100
0013
,  // measure 9
0022
0000
0003
0000
1000
0100
0001
1030
,  // measure 10
2200
0000
3000
0000
0001
0010
1000
0301
,  // measure 11
1000
0001
1000
0000
0001
0001
1000
0000
0010
0001
0010
0000
1000
1000
0000
0000
,  // measure 12
0001
1000
0001
0000
1000
1000
0001
0000
0100
1000
0100
0000
0001
0001
0000
0000
,  // measure 13
0010
0100
0010
0000
0100
0100
0010
0000
0001
0100
0001
0000
0010
0010
0000
0000
,  // measure 14
0100
0010
0100
0000
0010
0010
0100
0000
1000
0010
1000
0000
0100
0100
0000
0000
,  // measure 15
1000
0001
1000
0000
0001
0001
1000
0000
0010
0001
0010
0000
1000
1000
0000
0000
,  // measure 16
0001
1000
0001
0000
1000
1000
0001
0000
0100
1000
0100
0000
0001
0001
0000
0000
,  // measure 17
0010
0100
0010
0000
0100
0100
0010
0000
0001
0100
0001
0000
0010
0010
0000
0000
,  // measure 18
0100
0010
0100
0000
0010
0010
0100
0000
1000
0010
1000
0000
0100
0100
0000
0000
,  // measure 19
1000
0000
0000
0001
0000
0000
1000
0000
0000
0001
0000
0000
1000
0000
0001
0000
1000
0000
0001
0000
1000
0000
0001
0000
,  // measure 20
1100
0100
0100
0000
0101
0001
0001
0000
,  // measure 21
0110
0100
0100
0000
0101
0001
0001
0000
,  // measure 22
0001
0000
0000
0000
1000
0000
0000
0000
0001
0000
0000
0000
1000
0000
0000
0000
0001
0000
0000
0000
1000
0000
0000
0000
0001
0000
0000
0000
1000
0000
0000
0000
0001
0000
0000
0000
1000
0000
0000
0001
0000
0000
0010
0000
0000
1000
0000
0000
,  // measure 23
0001
0000
0000
1000
0000
0000
0001
0000
0000
1000
0000
0000
0001
0000
1000
0000
0001
0000
1000
0000
0001
0000
1000
0000
,  // measure 24
0011
0010
0010
0000
1010
1000
1000
0000
,  // measure 25
0110
0010
0010
0000
1010
1000
1000
0000
,  // measure 26
1000
0000
0000
0000
0001
0000
0000
0000
1000
0000
0000
0000
0001
0000
0000
0000
1000
0000
0000
0000
0001
0000
0000
0000
1000
0000
0000
0000
0001
0000
0000
0000
1000
0000
0000
0000
0001
0000
0000
1000
0000
0000
0100
0000
0000
0001
0000
0000
,  // measure 27
0010
0000
0000
0100
0000
0000
0010
0000
0000
0100
0000
0000
0010
0000
0100
0000
0010
0000
0100
0000
0010
0000
0100
0000
,  // measure 28
1010
1000
1000
0000
1100
0100
0100
0000
,  // measure 29
1001
1000
1000
0000
1100
0100
0100
0000
,  // measure 30
0100
0000
0000
0000
0010
0000
0000
0000
0100
0000
0000
0000
0010
0000
0000
0000
0100
0000
0000
0000
0010
0000
0000
0000
0100
0000
0000
0000
0010
0000
0000
0000
0100
0000
0000
0000
0010
0000
0000
0100
0000
0000
0001
0000
0000
0010
0000
0000
,  // measure 31
0100
0000
0000
0010
0000
0000
0100
0000
0000
0010
0000
0000
0100
0000
0010
0000
0100
0000
0010
0000
0100
0000
0010
0000
,  // measure 32
0101
0001
0001
0000
0011
0010
0010
0000
,  // measure 33
1001
0001
0001
0000
0011
0010
0010
0000
,  // measure 34
0010
0000
0000
0000
0100
0000
0000
0000
0010
0000
0000
0000
0100
0000
0000
0000
0010
0000
0000
0000
0100
0000
0000
0000
0010
0000
0000
0000
0100
0000
0000
0000
0010
0000
0000
0000
0100
0000
0000
0010
0000
0000
1000
0000
0000
0100
0000
0000
,  // measure 35
1000
0000
0000
0010
0000
0000
1000
0000
0000
0010
0000
0000
1000
0000
0100
0000
0001
0000
0100
0000
1000
0000
0100
0000
,  // measure 36
0010
0010
0010
0000
0100
0100
0100
0000
,  // measure 37
0001
0000
0000
0100
0000
0000
0001
0000
0000
0100
0000
0000
0001
0000
0010
0000
1000
0000
0010
0000
0001
0000
0010
0000
,  // measure 38
0100
0100
0100
0000
0010
0010
0010
0000
,  // measure 39
0010
0000
0000
0001
0000
0000
0010
0000
0000
0001
0000
0000
0010
0000
1000
0000
0100
0000
1000
0000
0010
0000
1000
0000
,  // measure 40
0001
0001
0001
0000
1000
1000
1000
0000
,  // measure 41
0100
0000
0000
1000
0000
0000
0100
0000
0000
1000
0000
0000
0100
0000
0001
0000
0010
0000
0001
0000
0100
0000
0001
0000
,  // measure 42
1000
1000
1000
0000
0001
0001
0001
0000
,  // measure 43
1010
0100
1000
0100
1000
0100
1010
0000
0000
0000
0000
0000
,  // measure 44
0101
0010
0001
0010
0001
0010
0101
0000
0000
0000
0000
0000
,  // measure 45
0011
1000
0010
1000
0010
1000
0011
0000
0000
0000
0000
0000
,  // measure 46
1100
0001
0100
0001
0100
0001
1100
0000
0000
0000
0000
0000
,  // measure 47
1000
0001
1000
0001
1000
0001
1000
0001
,  // measure 48
1000
0000
0000
0000
0001
0000
0000
0000
1000
0000
0000
0000
0001
0000
0000
0000
1000
0000
0000
0000
0001
0000
0000
0000
1000
0000
0000
0001
0000
0000
1000
0000
0000
0001
0000
0000
1000
0000
0000
0001
0000
0000
1000
0000
0000
0001
0000
0000
,  // measure 49
0200
0000
0000
0000
,  // measure 50
0310
0000
0000
0000
0000
0000
0100
0000
0000
0000
0000
0000
0010
0000
0000
0000
0100
0000
0000
0000
0010
0000
0000
0000
0100
0000
0000
0010
0000
0000
0100
0000
0000
0010
0000
0000
0100
0000
0000
0010
0000
0000
0100
0000
0000
0010
0000
0000
,  // measure 51
1000
0001
1000
0000
0001
1000
0001
0000
,  // measure 52
1000
0000
0100
0000
0010
0000
0100
0000
0010
0000
0001
0000
,  // measure 53
0100
0000
0010
0000
1000
0000
0100
0000
0001
0000
0010
0000
,  // measure 54
0001
0100
0001
0000
1000
0010
1000
0000
,  // measure 55
0001
0000
1000
0000
0001
0000
1000
0000
0001
0000
1000
0000
,  // measure 56
0010
0000
0000
0000
0100
0000
0000
0000
0010
0000
0000
0000
0100
0000
0000
0001
0000
0000
0100
0000
0000
0001
0000
0000
,  // measure 57
1010
0000
0010
0000
0100
0010
1000
0000
,  // measure 58
0011
0000
0010
0000
1001
0010
0100
0000
,  // measure 59
0001
1000
0001
0000
1000
0001
1000
0000
,  // measure 60
0001
0000
0010
0000
0100
0000
0010
0000
0100
0000
1000
0000
,  // measure 61
0010
0000
0100
0000
0001
0000
0010
0000
1000
0000
0100
0000
,  // measure 62
1000
0010
1000
0000
0001
0100
0001
0000
,  // measure 63
1000
0000
0001
0000
1000
0000
0001
0000
1000
0000
0001
0000
,  // measure 64
0100
0000
0000
0000
0010
0000
0000
0000
0100
0000
0000
0000
0010
0000
0000
1000
0000
0000
0010
0000
0000
1000
0000
0000
,  // measure 65
0101
0000
0100
0000
0010
0100
0001
0000
,  // measure 66
1100
0000
0100
0000
1001
0100
0010
0000
,  // measure 67
0010
0100
0010
0000
0100
0010
0100
0000
,  // measure 68
0010
0000
1000
0000
0001
0000
1000
0000
0001
0000
0100
0000
,  // measure 69
1000
0000
0001
0000
0010
0000
1000
0000
0100
0000
0001
0000
,  // measure 70
0100
1000
0100
0000
0010
0001
0010
0000
,  // measure 71
0100
0000
0010
0000
0100
0000
0010
0000
0100
0000
0010
0000
,  // measure 72
0001
0000
0000
0000
1000
0000
0000
0000
0001
0000
0000
0000
1000
0000
0000
0100
0000
0000
1000
0000
0000
0100
0000
0000
,  // measure 73
0011
0000
0001
0000
1000
0001
0010
0000
,  // measure 74
0101
0000
0001
0000
0110
0001
1000
0000
,  // measure 75
0100
0010
0100
0000
0010
0100
0010
0000
,  // measure 76
0100
0000
0001
0000
1000
0000
0001
0000
1000
0000
0010
0000
,  // measure 77
0001
0000
1000
0000
0100
0000
0001
0000
0010
0000
1000
0000
,  // measure 78
0010
0001
0010
0000
0100
1000
0100
0000
,  // measure 79
0010
0000
0100
0000
0010
0000
0100
0000
0010
0000
0100
0000
,  // measure 80
1000
0000
0000
0000
0001
0000
0000
0000
1000
0000
0000
0000
0001
0000
0000
0010
0000
0000
0001
0000
0000
0010
0000
0000
,  // measure 81
1100
0000
1000
0000
0001
1000
0100
0000
,  // measure 82
1010
0000
1000
0000
0110
1000
0001
0000
,  // measure 83
1001
0100
1000
0010
1000
0100
1000
0010
,  // measure 84
1001
0010
0001
0100
0001
0010
0001
0100
,  // measure 85
0110
0001
0010
1000
0010
0001
0010
1000
,  // measure 86
0110
1000
0100
0001
0100
1000
0100
0001
,  // measure 87
1000
0001
1000
0000
0001
1000
0001
0000
,  // measure 88
1000
0000
0100
0000
0010
0000
0100
0000
0010
0000
0001
0000
,  // measure 89
0100
0000
0010
0000
1000
0000
0100
0000
0001
0000
0010
0000
,  // measure 90
0001
0100
0001
0000
1000
0010
1000
0000
,  // measure 91
0001
0000
1000
0000
0001
0000
1000
0000
0001
0000
1000
0000
,  // measure 92
0010
0000
0000
0000
0100
0000
0000
0000
0010
0000
0000
0000
0100
0000
0000
0001
0000
0000
0100
0000
0000
0001
0000
0000
,  // measure 93
1010
0010
0100
1000
,  // measure 94
0011
0010
1001
0100
,  // measure 95
1001
0010
0001
0100
0001
0010
0001
0100
,  // measure 96
1001
0100
1000
0010
1000
0100
1000
0010
,  // measure 97
0110
1000
0100
0001
0100
1000
0100
0001
,  // measure 98
0110
0001
0010
1000
0010
0001
0010
1000
,  // measure 99
0001
1000
0001
0000
1000
0001
1000
0000
,  // measure 100
0001
0000
0010
0000
0100
0000
0010
0000
0100
0000
1000
0000
,  // measure 101
0010
0000
0100
0000
0001
0000
0010
0000
1000
0000
0100
0000
,  // measure 102
1000
0010
1000
0000
0001
0100
0001
0000
,  // measure 103
1000
0000
0001
0000
1000
0000
0001
0000
1000
0000
0001
0000
,  // measure 104
0100
0000
0000
0000
0010
0000
0000
0000
0100
0000
0000
0000
0010
0000
0000
1000
0000
0000
0010
0000
0000
1000
0000
0000
,  // measure 105
0101
0100
0010
0001
,  // measure 106
1100
0100
1001
0010
,  // measure 107
2002
0000
0000
0000
,  // measure 108
0000
0000
0000
0000
,  // measure 109
0000
0000
0000
0000
,  // measure 110
0000
0000
0000
0000
,  // measure 111
0000
0000
0000
0000
,  // measure 112
0000
0000
0000
3003
,  // measure 113
1000
0100
0010
0001
1000
0100
0010
0001
1000
0100
0010
0001
1000
0100
0010
0001
,  // measure 114
1001
0000
0110
0000
1000
0100
0010
0001
1001
0000
0110
0000
0001
0010
0100
1000
,  // measure 115
0220
0000
0000
0000
,  // measure 116
0000
0000
0000
0000
,  // measure 117
0000
0000
0000
0000
,  // measure 118
0000
0000
0000
0330
,  // measure 119
1000
0100
0000
0000
0100
0010
0000
0000
0001
0010
0000
0000
0100
0010
0000
0000
,  // measure 120
0001
0010
0000
0000
0010
0100
0000
0000
1000
0100
0000
0000
0010
0100
0000
0000
,  // measure 121
1000
0000
0000
0000
0000
0000
0001
0000
0000
0000
0000
0000
1000
0000
0000
0000
0000
0000
0001
0000
0000
0000
0000
0000
1000
0000
0000
0001
0000
0000
1000
0000
0000
0001
0000
0000
1000
0000
0001
0000
1000
0000
0001
0000
1000
0000
0001
0000
,  // measure 122
1000
0000
0001
1000
0001
1000
0001
1000
0001
0000
1000
0001
1000
0001
1000
0001
,  // measure 123
0100
0010
0100
0010
1000
0010
1000
0010
,  // measure 124
0101
0100
0000
1010
0020
0100
0000
0030
,  // measure 125
0101
0100
0000
1010
0020
0100
0000
0030
,  // measure 126
0101
0100
0000
1010
0020
0100
1000
0030
,  // measure 127
0100
0010
0100
0010
1000
0010
1000
0010
,  // measure 128
0101
0100
0000
1010
0020
0100
0000
0030
,  // measure 129
1010
1000
0101
0000
0110
0000
0101
0000
,  // measure 130
1000
0000
0001
0000
1000
0000
0001
0000
1000
0000
0001
0000
1000
0001
1000
0001
,  // measure 131
0010
0100
0010
0100
0001
0100
0001
0100
,  // measure 132
1010
0010
0000
0101
0200
0010
0000
0300
,  // measure 133
1010
0010
0000
0101
0200
0010
0000
0300
,  // measure 134
1010
0010
0000
0101
0200
0010
0001
0300
,  // measure 135
0010
0100
0010
0100
0001
0100
0001
0100
,  // measure 136
1010
0010
0000
0101
0200
0010
0000
0300
,  // measure 137
0101
0001
1010
0000
0110
0000
1010
0000
,  // measure 138
0001
0000
1000
0000
0001
0000
1000
0000
0001
0000
1000
0000
0001
1000
0001
1000
,  // measure 139
1000
0001
1000
0001
0010
0001
0010
0001
,  // measure 140
1100
1000
0000
0011
0002
1000
0000
0003
,  // measure 141
1100
1000
0000
0011
0002
1000
0000
0003
,  // measure 142
1100
1000
0000
0011
0002
1000
0010
0003
,  // measure 143
1000
0001
1000
0001
0010
0001
0010
0001
,  // measure 144
1100
1000
0000
0011
0002
1000
0000
0003
,  // measure 145
0011
0010
1100
0000
1001
0000
1100
0000
,  // measure 146
0010
0000
0100
0000
0010
0000
0100
0000
0010
0000
0100
0000
0010
0100
0010
0100
,  // measure 147
0001
1000
0001
1000
0100
1000
0100
1000
,  // measure 148
0011
0001
0000
1100
2000
0001
0000
3000
,  // measure 149
0011
0001
0000
1100
2000
0001
0000
3000
,  // measure 150
0011
0001
0000
1100
2000
0001
0100
3000
,  // measure 151
0001
1000
0001
1000
0100
1000
0100
1000
,  // measure 152
0011
0001
0000
1100
2000
0001
0000
3000
,  // measure 153
1100
0100
0011
0000
1001
0000
0011
0000
,  // measure 154
0100
0000
0010
0000
0100
0000
0010
0000
0100
0000
0010
0000
0100
0010
0100
0010
,  // measure 155
2002
0000
0000
0000
0000
0000
0000
0000
0000
0000
0000
0000
0000
0000
0000
3003
,  // measure 156
0020
0001
0000
0230
0000
0000
2300
0000
0000
3002
0000
0000
0013
0100
1000
0010
,  // measure 157
0200
1000
0000
0320
0000
0000
0032
0000
0000
2003
0000
0000
3100
0010
0001
0100
,  // measure 158
0002
0100
0000
2003
0000
0000
3020
0000
0000
0230
0000
0000
0301
1000
0010
0001
,  // measure 159
2000
0010
0000
3002
0000
0000
0203
0000
0000
0320
0000
0000
1030
0001
0100
1000
,  // measure 160
0020
0001
0000
0230
0000
0000
2300
0000
0000
3002
0000
0000
0013
0100
1000
0010
,  // measure 161
0200
1000
0000
0320
0000
0000
0032
0000
0000
2003
0000
0000
3100
0010
0001
0100
,  // measure 162
0002
0100
0000
2003
0000
0000
3020
0000
0000
0230
0000
0000
0301
1000
0010
0001
,  // measure 163
2000
0010
0000
3002
0000
0000
0203
0000
0000
0320
0000
0000
1030
0001
0100
1000
,  // measure 164
0011
0010
1010
0000
0011
0010
1010
0000
,  // measure 165
1100
0100
0101
0000
1100
0100
0101
0000
,  // measure 166
0101
0001
0011
0000
0101
0001
0011
0000
,  // measure 167
1010
1000
1100
0000
1010
1000
1100
0000
,  // measure 168
1000
0000
0100
0000
0010
0000
0001
0000
1000
0000
0100
0000
0010
0001
1000
0100
,  // measure 169
0010
0000
0100
0000
0010
0000
0001
0000
0010
0000
0100
0000
0010
0100
1000
0001
,  // measure 170
1000
0100
0010
0001
0100
0010
1000
0001
0100
0010
0001
1000
0001
0010
0100
1000
,  // measure 171
0001
0000
0000
0000
0000
0000
0000
0000
1000
0000
0000
0000
0000
0000
0000
0000
0001
0000
0000
0000
0000
0000
0000
0000
1000
0000
0000
0000
0000
0000
0000
0000
0001
0000
0000
0000
0000
0000
0000
0000
1000
0000
0000
0000
0000
0000
0000
0000
0001
0000
0000
0000
0000
0000
0000
0000
1000
0000
0000
0000
0000
0000
0000
0000
0001
0000
0000
0000
0000
0000
0000
0000
1000
0000
0000
0000
0000
0000
0000
0000
0001
0000
0000
0000
0000
0000
0000
0000
1000
0000
0000
0000
0000
0000
0000
0000
0001
0000
0000
0000
0000
0000
0000
0000
1000
0000
0000
0000
0000
0000
0000
0000
0001
0000
0000
0000
0000
0000
0000
0000
1000
0000
0000
0000
0000
0000
0000
0000
0001
0000
0000
0000
0000
0000
0000
0000
1000
0000
0000
0000
0000
0000
0000
0000
0001
0000
0000
0000
0000
0000
1000
0000
0000
0000
0000
0000
0001
0000
0000
0000
0000
0000
1000
0000
0000
0000
0000
0000
0001
0000
0000
0000
0000
0000
1000
0000
0000
0000
0000
0000
0001
0000
0000
0000
0000
0000
1000
0000
0000
0000
0000
0000
,  // measure 172
2002
0000
0000
0000
,  // measure 173
0000
0000
0000
0000
,  // measure 174
0000
0000
0000
0000
,  // measure 175
0000
0000
0000
3003
,  // measure 176
1000
0001
1000
0001
1000
0001
1000
0001
,  // measure 177
1000
0000
0000
0000
0001
0000
0000
0000
1000
0000
0000
0000
0001
0000
0000
0000
1000
0000
0000
0000
0001
0000
0000
0000
1000
0000
0000
0001
0000
0000
1000
0000
0000
0001
0000
0000
1000
0000
0000
0001
0000
0000
1000
0000
0000
0001
0000
0000
,  // measure 178
0200
0000
0000
0000
,  // measure 179
0310
0000
0000
0000
0000
0000
0100
0000
0000
0000
0000
0000
0010
0000
0000
0000
0100
0000
0000
0000
0010
0000
0000
0000
0100
0000
0000
0010
0000
0000
0100
0000
0000
0010
0000
0000
0100
0000
0000
0010
0000
0000
0100
0000
0000
0010
0000
0000
,  // measure 180
1000
0001
1000
0001
0010
0000
0100
0000
,  // measure 181
1000
0001
0100
0001
0010
0000
0001
0000
,  // measure 182
0100
1000
0100
0010
,  // measure 183
2010
0000
0010
3000
0021
0000
0001
0030
,  // measure 184
0001
1000
0001
1000
0100
0000
0010
0000
,  // measure 185
0001
1000
0010
1000
0100
0000
1000
0000
,  // measure 186
0010
0001
0010
0100
,  // measure 187
0102
0000
0100
0003
1200
0000
1000
0300
,  // measure 188
0010
0100
0010
0100
0001
0000
1000
0000
,  // measure 189
0010
0100
1000
0100
0001
0000
0100
0000
,  // measure 190
1000
0010
1000
0001
,  // measure 191
0021
0000
0001
0030
0102
0000
0100
0003
,  // measure 192
0100
0010
0100
0010
1000
0000
0001
0000
,  // measure 193
0100
0010
0001
0010
1000
0000
0010
0000
,  // measure 194
0001
0100
0001
1000
,  // measure 195
1200
0000
1000
0300
2010
0000
0010
3000
,  // measure 196
1000
0001
1000
0001
0010
0000
0100
0000
,  // measure 197
1000
0001
0100
0001
0010
0000
0001
0000
,  // measure 198
0100
1000
0100
0010
,  // measure 199
2010
0000
0010
3000
0021
0000
0001
0030
,  // measure 200
0001
1000
0001
1000
0100
0000
0010
0000
,  // measure 201
0001
1000
0010
1000
0100
0000
1000
0000
,  // measure 202
0010
0001
0010
0100
,  // measure 203
0102
0000
0100
0003
1200
0000
1000
0300
,  // measure 204
0010
0100
0010
0100
0001
0000
1000
0000
,  // measure 205
0010
0100
1000
0100
0001
0000
0100
0000
,  // measure 206
1000
0010
1000
0001
,  // measure 207
0021
0000
0001
0030
0102
0000
0100
0003
,  // measure 208
0100
0010
0100
0010
1000
0000
0001
0000
,  // measure 209
0100
0010
0001
0010
1000
0000
0010
0000
,  // measure 210
0001
0100
0001
1000
,  // measure 211
1200
0000
1000
0300
2010
0000
0010
3000
,  // measure 212
1000
0001
1000
0001
0010
0000
0100
0000
,  // measure 213
1000
0001
0100
0001
0010
0000
0001
0000
,  // measure 214
0100
1000
0100
0010
,  // measure 215
2010
0000
0010
3000
0021
0000
0001
0030
,  // measure 216
0001
1000
0001
1000
0100
0000
0010
0000
,  // measure 217
0001
1000
0010
1000
0100
0000
1000
0000
,  // measure 218
0010
0001
0010
0100
,  // measure 219
0102
0000
0100
0003
1200
0000
1000
0300
,  // measure 220
0010
0100
0010
0100
0001
0000
1000
0000
,  // measure 221
0010
0100
1000
0100
0001
0000
0100
0000
,  // measure 222
1000
0010
1000
0001
,  // measure 223
0021
0000
0001
0030
0102
0000
0100
0003
,  // measure 224
0100
0010
0100
0010
1000
0000
0001
0000
,  // measure 225
0100
0010
0001
0010
1000
0000
0010
0000
,  // measure 226
0001
0100
0001
1000
,  // measure 227
1200
0000
1000
0300
2010
0000
0010
3000
,  // measure 228
1000
0001
1000
0001
0010
0000
0100
0000
,  // measure 229
1000
0001
0100
0001
0010
0000
0001
0000
,  // measure 230
0100
1000
0100
0010
,  // measure 231
2010
0000
0010
3000
0021
0000
0001
0030
,  // measure 232
0001
1000
0001
1000
0100
0000
0010
0000
,  // measure 233
0001
1000
0010
1000
0100
0000
1000
0000
,  // measure 234
0010
0001
0010
0100
,  // measure 235
0102
0000
0100
0003
1200
0000
1000
0300
,  // measure 236
0010
0100
0010
0100
0001
0000
1000
0000
,  // measure 237
0010
0100
1000
0100
0001
0000
0100
0000
,  // measure 238
1000
0010
1000
0001
,  // measure 239
0021
0000
0001
0030
0102
0000
0100
0003
,  // measure 240
0100
0010
0100
0010
1000
0000
0001
0000
,  // measure 241
0100
0010
0001
0010
1000
0000
0010
0000
,  // measure 242
0001
0100
0001
1000
,  // measure 243
1200
0000
1000
0300
2010
0000
0010
3000
,  // measure 244
2020
0000
0030
0000
0100
0001
0010
3100
,  // measure 245
0202
0000
0300
0000
0010
1000
0100
0013
,  // measure 246
0022
0000
0003
0000
1000
0100
0001
1030
,  // measure 247
2200
0000
3000
0000
0001
0010
1000
0301
,  // measure 248
2020
0000
0030
0000
0100
0001
0010
3100
,  // measure 249
0202
0000
0300
0000
0010
1000
0100
0013
,  // measure 250
0022
0000
0003
0000
1000
0100
0001
1030
,  // measure 251
2200
0000
3000
0000
0001
0010
1000
0301
,  // measure 252
0020
0001
0000
0230
0000
0000
2300
0000
0000
3002
0000
0000
0013
0100
1000
0010
,  // measure 253
0200
1000
0000
0320
0000
0000
0032
0000
0000
2003
0000
0000
3100
0010
0001
0100
,  // measure 254
0002
0100
0000
2003
0000
0000
3020
0000
0000
0230
0000
0000
0301
1000
0010
0001
,  // measure 255
2000
0010
0000
3002
0000
0000
0203
0000
0000
0320
0000
0000
1030
0001
0100
1000
,  // measure 256
1000
0000
0100
0000
0010
0000
0001
0000
1000
0000
0100
0000
0010
0001
1000
0100
,  // measure 257
0010
0000
0100
0000
0010
0000
0001
0000
0010
0000
0100
0000
0010
0100
1000
0001
,  // measure 258
1000
0001
1000
0001
1000
0001
1000
0001
,  // measure 259
1000
0000
0000
0000
0001
0000
0000
0000
1000
0000
0000
0000
0001
0000
0000
0000
1000
0000
0000
0000
0001
0000
0000
0000
1000
0000
0000
0001
0000
0000
1000
0000
0000
0001
0000
0000
1000
0000
0000
0001
0000
0000
1000
0000
0000
0001
0000
0000
,  // measure 260
0200
0000
0000
0000
,  // measure 261
0310
0000
0000
0000
0000
0000
0100
0000
0000
0000
0000
0000
0010
0000
0000
0000
0100
0000
0000
0000
0010
0000
0000
0000
0100
0000
0000
0010
0000
0000
0100
0000
0000
0010
0000
0000
0100
0000
0000
0010
0000
0000
0100
0000
0000
0010
0000
0000
,  // measure 262
1000
0000
0000
0100
0000
0000
0010
0000
0000
0001
0000
0000
0100
0000
0000
0000
0001
0000
0000
0000
0100
0000
0000
0000
,  // measure 263
0001
0000
0100
0000
0001
0000
0100
0000
0000
1002
0000
0000
,  // measure 264
0000
0000
1000
0000
0000
0000
0003
0000
0000
2010
0000
0000
0000
0000
0000
0000
0000
0000
0000
0000
0000
3000
0000
0000
,  // measure 265
0201
0000
0000
0000
0000
0000
0310
0000
0100
0000
0010
0000
,  // measure 266
0001
0000
0000
0010
0000
0000
0100
0000
0000
1000
0000
0000
0010
0000
0000
0000
1000
0000
0000
0000
0010
0000
0000
0000
,  // measure 267
1000
0000
0010
0000
1000
0000
0010
0000
0000
2001
0000
0000
,  // measure 268
0000
0000
0001
0000
0000
0000
3000
0000
0000
0102
0000
0000
0000
0000
0000
0000
0000
0000
0000
0000
0000
0003
0000
0000
,  // measure 269
1020
0000
0000
0000
0000
0000
0130
0000
0010
0000
0100
0000
,  // measure 270
0010
0000
0000
1000
0000
0000
0001
0000
0000
0100
0000
0000
1000
0000
0000
0000
0100
0000
0000
0000
1000
0000
0000
0000
,  // measure 271
0100
0000
1000
0000
0100
0000
1000
0000
0000
0210
0000
0000
,  // measure 272
0000
0000
0010
0000
0000
0000
0300
0000
0000
0021
0000
0000
0000
0000
0000
0000
0000
0000
0000
0000
0000
0030
0000
0000
,  // measure 273
2100
0000
0000
0000
0000
0000
3001
0000
1000
0000
0001
0000
,  // measure 274
0100
0000
0000
0001
0000
0000
1000
0000
0000
0010
0000
0000
0001
0000
0000
0000
0010
0000
0000
0000
0001
0000
0000
0000
,  // measure 275
0010
0000
0001
0000
0010
0000
0001
0000
0000
0120
0000
0000
,  // measure 276
0000
0000
0100
0000
0000
0000
0030
0000
0000
1200
0000
0000
0000
0000
0000
0000
0000
0000
0000
0000
0000
0300
0000
0000
,  // measure 277
0012
0000
0000
0000
0000
0000
1003
0000
0001
0000
1000
0000
,  // measure 278
1000
0000
0000
0100
0000
0000
0010
0000
0000
0001
0000
0000
0100
0000
0000
0000
0001
0000
0000
0000
0100
0000
0000
0000
,  // measure 279
0001
0000
0100
0000
0001
0000
0100
0000
0000
1002
0000
0000
,  // measure 280
0000
0000
1000
0000
0000
0000
0003
0000
0000
2010
0000
0000
0000
0000
0000
0000
0000
0000
0000
0000
0000
3000
0000
0000
,  // measure 281
0201
0000
0000
0000
0000
0000
0310
0000
0100
0000
0010
0000
,  // measure 282
0001
0000
0000
0010
0000
0000
0100
0000
0000
1000
0000
0000
0010
0000
0000
0000
1000
0000
0000
0000
0010
0000
0000
0000
,  // measure 283
1000
0000
0010
0000
1000
0000
0010
0000
0000
2001
0000
0000
,  // measure 284
0000
0000
0001
0000
0000
0000
3000
0000
0000
0102
0000
0000
0000
0000
0000
0000
0000
0000
0000
0000
0000
0003
0000
0000
,  // measure 285
1020
0000
0000
0000
0000
0000
0130
0000
0010
0000
0100
0000
,  // measure 286
0010
0000
0000
1000
0000
0000
0001
0000
0000
0100
0000
0000
1000
0000
0000
0000
0100
0000
0000
0000
1000
0000
0000
0000
,  // measure 287
0100
0000
1000
0000
0100
0000
1000
0000
0000
0210
0000
0000
,  // measure 288
0000
0000
0010
0000
0000
0000
0300
0000
0000
0021
0000
0000
0000
0000
0000
0000
0000
0000
0000
0000
0000
0030
0000
0000
,  // measure 289
2100
0000
0000
0000
0000
0000
3001
0000
1000
0000
0001
0000
,  // measure 290
0100
0000
0000
0001
0000
0000
1000
0000
0000
0010
0000
0000
0001
0000
0000
0000
0010
0000
0000
0000
0001
0000
0000
0000
,  // measure 291
0010
0000
0001
0000
0010
0000
0001
0000
0000
0120
0000
0000
,  // measure 292
0000
0000
0100
0000
0000
0000
0030
0000
0000
1200
0000
0000
0000
0000
0000
0000
0000
0000
0000
0000
0000
0300
0000
0000
,  // measure 293
0012
0000
0000
0000
0000
0000
1003
0000
0001
0000
1000
0000
,  // measure 294
1000
0001
1000
0000
0001
1000
0001
0000
,  // measure 295
1000
0000
0100
0000
0010
0000
0100
0000
0010
0000
0001
0000
,  // measure 296
0100
0000
0010
0000
1000
0000
0100
0000
0001
0000
0010
0000
,  // measure 297
0001
0100
0001
0000
1000
0010
1000
0000
,  // measure 298
0001
0000
1000
0000
0001
0000
1000
0000
0001
0000
1000
0000
,  // measure 299
0010
0000
0000
0000
0100
0000
0000
0000
0010
0000
0000
0000
0100
0000
0000
0001
0000
0000
0100
0000
0000
0001
0000
0000
,  // measure 300
1010
0000
0010
0000
0100
0010
1000
0000
,  // measure 301
0011
0000
0010
0000
1001
0010
0100
0000
,  // measure 302
0001
1000
0001
0000
1000
0001
1000
0000
,  // measure 303
0001
0000
0010
0000
0100
0000
0010
0000
0100
0000
1000
0000
,  // measure 304
0010
0000
0100
0000
0001
0000
0010
0000
1000
0000
0100
0000
,  // measure 305
1000
0010
1000
0000
0001
0100
0001
0000
,  // measure 306
1000
0000
0001
0000
1000
0000
0001
0000
1000
0000
0001
0000
,  // measure 307
0100
0000
0000
0000
0010
0000
0000
0000
0100
0000
0000
0000
0010
0000
0000
1000
0000
0000
0010
0000
0000
1000
0000
0000
,  // measure 308
0101
0000
0100
0000
0010
0100
0001
0000
,  // measure 309
1100
0000
0100
0000
1001
0100
0010
0000
,  // measure 310
1000
0001
1000
0001
1000
0001
1000
0001
,  // measure 311
1000
0000
0010
0000
1000
0000
0010
0000
1000
0000
0010
0000
,  // measure 312
0100
0001
0100
0001
1000
0100
0010
0001
,  // measure 313
0100
0000
0000
0000
0001
0000
0100
0000
0000
0000
0001
0000
1000
0000
0000
0010
0000
0000
1000
0000
0000
0010
0000
0000
,  // measure 314
0001
1000
0001
1000
0001
1000
0001
1000
,  // measure 315
0001
0000
0100
0000
0001
0000
0100
0000
0001
0000
0100
0000
,  // measure 316
0010
1000
0010
1000
0001
0010
0100
1000
,  // measure 317
0010
0000
0000
0000
1000
0000
0010
0000
0000
0000
1000
0000
0001
0000
0000
0100
0000
0000
0001
0000
0000
0100
0000
0000
,  // measure 318
0010
0100
0010
0100
0010
0100
0010
0100
,  // measure 319
0010
0000
0001
0000
0010
0000
0001
0000
0010
0000
0001
0000
,  // measure 320
1000
0100
1000
0100
0010
1000
0001
0100
,  // measure 321
1000
0000
0000
0000
0100
0000
1000
0000
0000
0000
0100
0000
0010
0000
0000
0001
0000
0000
0010
0000
0000
0001
0000
0000
,  // measure 322
0100
0010
0100
0010
0100
0010
0100
0010
,  // measure 323
0100
0000
1000
0000
0100
0000
1000
0000
0100
0000
1000
0000
,  // measure 324
0001
0010
0001
0010
0100
0001
1000
0010
,  // measure 325
0001
0000
0000
0000
0010
0000
0001
0000
0000
0000
0010
0000
0100
0000
0000
1000
0000
0000
0100
0000
0000
1000
0000
0000
,  // measure 326
2002
0000
0000
0000
,  // measure 327
0000
0000
0000
0000
,  // measure 328
3003
0000
0000
0000
;

//---------------dance-single - ----------------
#NOTES:
     dance-single:
     :
     Hard:
     24:
     1.426042,3.027836,0.969277,0.767869,1.093059,2379.000000,2148.000000,231.000000,183.000000,0.000000,0.000000,1.426042,3.027836,0.969277,0.767869,1.093059,2379.000000,2148.000000,231.000000,183.000000,0.000000,0.000000:
// measure 0
0000
0000
0000
0000
,  // measure 1
0000
0000
0000
0000
,  // measure 2
0000
0000
0000
0000
,  // measure 3
2020
0000
0030
0010
0100
0001
0010
3100
,  // measure 4
0202
0000
0300
0100
0010
1000
0100
0013
,  // measure 5
0022
0000
0003
0001
1000
0100
0001
1030
,  // measure 6
2200
0000
3000
1000
0001
0010
1000
0301
,  // measure 7
2020
0000
0030
0010
0100
0001
0010
3100
,  // measure 8
0202
0000
0300
0100
0010
1000
0100
0013
,  // measure 9
0022
0000
0003
0001
1000
0100
0001
1030
,  // measure 10
2200
0000
3000
1000
0001
0010
1000
0301
,  // measure 11
1000
0001
1000
0000
0001
0001
1000
0000
0010
0001
0010
0000
1000
1000
0010
0000
,  // measure 12
0001
1000
0001
0000
1000
1000
0001
0000
0100
1000
0100
0000
0001
0001
0100
0000
,  // measure 13
0010
0100
0010
0000
0100
0100
0010
0000
0001
0100
0001
0000
0010
0010
1000
0000
,  // measure 14
0100
0010
0100
0000
0010
0010
0100
0000
1000
0010
1000
0000
0100
0100
0001
0000
,  // measure 15
1000
0001
1000
0000
0001
0001
1000
0000
0010
0001
0010
0000
1000
1000
0100
0000
,  // measure 16
0001
1000
0001
0000
1000
1000
0001
0000
0100
1000
0100
0000
0001
0001
0010
0000
,  // measure 17
0010
0100
0010
0000
0100
0100
0010
0000
0001
0100
0001
0000
0010
0010
1000
0000
,  // measure 18
0100
0010
0100
0000
0010
0010
0100
0000
1000
0010
1000
0000
0100
0100
0001
0000
,  // measure 19
1000
0001
1000
0001
1000
0001
1000
0001
1000
0001
1000
0001
,  // measure 20
1100
0100
0100
0000
0101
0001
0001
0000
,  // measure 21
0110
0100
0100
0000
0101
0001
0001
0000
,  // measure 22
0001
0000
0000
0000
1000
0000
0000
0000
0001
0000
0000
0000
1000
0000
0000
0000
0001
0000
0000
0000
1000
0000
0000
0000
0001
0000
0000
0000
1000
0000
0000
0000
0001
0000
0000
0000
1000
0000
0000
0001
0000
0000
0010
0000
0000
1000
0000
0000
,  // measure 23
0001
1000
0001
1000
0001
1000
0001
1000
0001
1000
0001
1000
,  // measure 24
0011
0010
0010
0000
1010
1000
1000
0000
,  // measure 25
0110
0010
0010
0000
1010
1000
1000
0000
,  // measure 26
1000
0000
0000
0000
0001
0000
0000
0000
1000
0000
0000
0000
0001
0000
0000
0000
1000
0000
0000
0000
0001
0000
0000
0000
1000
0000
0000
0000
0001
0000
0000
0000
1000
0000
0000
0000
0001
0000
0000
1000
0000
0000
0100
0000
0000
0001
0000
0000
,  // measure 27
0010
0100
0010
0100
0010
0100
0010
0100
0010
0100
0010
0100
,  // measure 28
1010
1000
1000
0000
1100
0100
0100
0000
,  // measure 29
1001
1000
1000
0000
1100
0100
0100
0000
,  // measure 30
0100
0000
0000
0000
0010
0000
0000
0000
0100
0000
0000
0000
0010
0000
0000
0000
0100
0000
0000
0000
0010
0000
0000
0000
0100
0000
0000
0000
0010
0000
0000
0000
0100
0000
0000
0000
0010
0000
0000
0100
0000
0000
0001
0000
0000
0010
0000
0000
,  // measure 31
0100
0010
0100
0010
0100
0010
0100
0010
0100
0010
0100
0010
,  // measure 32
0101
0001
0001
0000
0011
0010
0010
0000
,  // measure 33
1001
0001
0001
0000
0011
0010
0010
0000
,  // measure 34
0010
0000
0000
0000
0100
0000
0000
0000
0010
0000
0000
0000
0100
0000
0000
0000
0010
0000
0000
0000
0100
0000
0000
0000
0010
0000
0000
0000
0100
0000
0000
0000
0010
0000
0000
0000
0100
0000
0000
0010
0000
0000
1000
0000
0000
0100
0000
0000
,  // measure 35
1000
0000
0000
0010
0000
0000
1000
0000
0000
0010
0000
0000
1000
0000
0100
0000
0001
0000
0100
0000
1000
0000
0100
0000
,  // measure 36
0010
0010
0110
0000
0100
0100
0110
0000
,  // measure 37
0001
0000
0000
0100
0000
0000
0001
0000
0000
0100
0000
0000
0001
0000
0010
0000
1000
0000
0010
0000
0001
0000
0010
0000
,  // measure 38
0100
0100
0110
0000
0010
0010
0110
0000
,  // measure 39
0010
0000
0000
0001
0000
0000
0010
0000
0000
0001
0000
0000
0010
0000
1000
0000
0100
0000
1000
0000
0010
0000
1000
0000
,  // measure 40
0001
0001
1001
0000
1000
1000
1001
0000
,  // measure 41
0100
0000
0000
1000
0000
0000
0100
0000
0000
1000
0000
0000
0100
0000
0001
0000
0010
0000
0001
0000
0100
0000
0001
0000
,  // measure 42
1000
1000
1001
0000
0001
0001
1001
0000
,  // measure 43
1010
0000
0100
0000
1000
0000
0100
0000
1000
0000
0100
0000
2020
0000
0000
0000
0000
0000
0000
0000
0000
3030
0000
0000
,  // measure 44
0101
0000
0010
0000
0001
0000
0010
0000
0001
0000
0010
0000
0202
0000
0000
0000
0000
0000
0000
0000
0000
0303
0000
0000
,  // measure 45
0011
0000
1000
0000
0010
0000
1000
0000
0010
0000
1000
0000
0022
0000
0000
0000
0000
0000
0000
0000
0000
0033
0000
0000
,  // measure 46
1100
0000
0001
0000
0100
0000
0001
0000
0100
0000
0001
0000
2200
0000
0000
0000
0000
0000
0000
0000
0000
3300
0000
0000
,  // measure 47
1000
0001
1000
0001
1000
0001
1000
0001
,  // measure 48
1000
0000
0000
0000
0001
0000
0000
0000
1000
0000
0000
0000
0001
0000
0000
0000
1000
0000
0000
0000
0001
0000
0000
0000
1000
0000
0000
0001
0000
0000
1000
0000
0000
0001
0000
0000
1000
0000
0000
0001
0000
0000
1000
0000
0000
0001
0000
0000
,  // measure 49
0210
0000
0000
0000
,  // measure 50
0310
0000
0000
0000
0000
0000
0100
0000
0000
0000
0000
0000
0010
0000
0000
0000
0100
0000
0000
0000
0010
0000
0000
0000
0100
0000
0000
0010
0000
0000
0100
0000
0000
0010
0000
0000
0100
0000
0000
0010
0000
0000
0100
0000
0000
0010
0000
0000
,  // measure 51
1000
0001
1000
0100
0001
1000
0001
0000
,  // measure 52
1000
0000
0100
0000
0010
0000
0100
0000
0010
0000
0001
0000
,  // measure 53
0100
0000
0010
0000
1000
0000
0100
0000
0001
0000
0010
0000
,  // measure 54
0001
0100
0001
0100
1000
0010
1000
0000
,  // measure 55
0001
0000
1000
0000
0001
0000
1000
0000
0001
0000
1000
0000
,  // measure 56
0010
0000
0000
0000
0100
0000
0000
0000
0010
0000
0000
0000
0100
0000
0000
0001
0000
0000
0100
0000
0000
0001
0000
0000
,  // measure 57
1010
0000
0010
0000
0100
0010
1000
0000
,  // measure 58
0011
0000
0010
0000
1001
0010
0100
0000
,  // measure 59
0001
1000
0001
0010
1000
0001
1000
0000
,  // measure 60
0001
0000
0010
0000
0100
0000
0010
0000
0100
0000
1000
0000
,  // measure 61
0010
0000
0100
0000
0001
0000
0010
0000
1000
0000
0100
0000
,  // measure 62
1000
0010
1000
0010
0001
0100
0001
0000
,  // measure 63
1000
0000
0001
0000
1000
0000
0001
0000
1000
0000
0001
0000
,  // measure 64
0100
0000
0000
0000
0010
0000
0000
0000
0100
0000
0000
0000
0010
0000
0000
1000
0000
0000
0010
0000
0000
1000
0000
0000
,  // measure 65
0101
0000
0100
0000
0010
0100
0001
0000
,  // measure 66
1100
0000
0100
0000
1001
0100
0010
0000
,  // measure 67
0010
0100
0010
1000
0100
0010
0100
0000
,  // measure 68
0010
0000
1000
0000
0001
0000
1000
0000
0001
0000
0100
0000
,  // measure 69
1000
0000
0001
0000
0010
0000
1000
0000
0100
0000
0001
0000
,  // measure 70
0100
1000
0100
1000
0010
0001
0010
0000
,  // measure 71
0100
0000
0010
0000
0100
0000
0010
0000
0100
0000
0010
0000
,  // measure 72
0001
0000
0000
0000
1000
0000
0000
0000
0001
0000
0000
0000
1000
0000
0000
0100
0000
0000
1000
0000
0000
0100
0000
0000
,  // measure 73
0011
0000
0001
0000
1000
0001
0010
0000
,  // measure 74
0101
0000
0001
0000
0110
0001
1000
0000
,  // measure 75
0100
0010
0100
0001
0010
0100
0010
0000
,  // measure 76
0100
0000
0001
0000
1000
0000
0001
0000
1000
0000
0010
0000
,  // measure 77
0001
0000
1000
0000
0100
0000
0001
0000
0010
0000
1000
0000
,  // measure 78
0010
0001
0010
0001
0100
1000
0100
0000
,  // measure 79
0010
0000
0100
0000
0010
0000
0100
0000
0010
0000
0100
0000
,  // measure 80
1000
0000
0000
0000
0001
0000
0000
0000
1000
0000
0000
0000
0001
0000
0000
0010
0000
0000
0001
0000
0000
0010
0000
0000
,  // measure 81
1100
0000
1000
0000
0001
1000
0100
0000
,  // measure 82
1010
0000
1000
0000
0110
1000
0001
0000
,  // measure 83
1001
0000
0100
0000
1000
0000
0010
0000
1000
0000
0100
0000
1000
0010
1000
0000
,  // measure 84
1001
0000
0010
0000
0001
0000
0100
0000
0001
0000
0010
0000
0001
0100
0001
0000
,  // measure 85
0110
0000
0001
0000
0010
0000
1000
0000
0010
0000
0001
0000
0010
1000
0010
0000
,  // measure 86
0110
0000
1000
0000
0100
0000
0001
0000
0100
0000
1000
0000
0100
0001
0100
0000
,  // measure 87
1000
0001
1000
0100
0001
1000
0001
0000
,  // measure 88
1000
0000
0100
0000
0010
0000
0100
0000
0010
0000
0001
0000
,  // measure 89
0100
0000
0010
0000
1000
0000
0100
0000
0001
0000
0010
0000
,  // measure 90
0001
0100
0001
0100
1000
0010
1000
0000
,  // measure 91
0001
0000
1000
0000
0001
0000
1000
0000
0001
0000
1000
0000
,  // measure 92
0010
0000
0000
0000
0100
0000
0000
0000
0010
0000
0000
0000
0100
0000
0000
0001
0000
0000
0100
0000
0000
0001
0000
0000
,  // measure 93
1010
0000
0010
0000
0100
0010
1000
0000
,  // measure 94
0011
0000
0010
0000
1001
0010
0100
0000
,  // measure 95
1001
0000
0010
0000
0001
0000
0100
0000
0001
0000
0010
0000
0001
0100
0001
0000
,  // measure 96
1001
0100
1000
0010
1000
0100
1000
0010
,  // measure 97
0110
1000
0100
0001
0100
1000
0100
0001
,  // measure 98
0110
0001
0010
1000
0010
0001
0010
1000
,  // measure 99
0001
1000
0001
0010
1000
0001
1000
0000
,  // measure 100
0001
0000
0010
0000
0100
0000
0010
0000
0100
0000
1000
0000
,  // measure 101
0010
0000
0100
0000
0001
0000
0010
0000
1000
0000
0100
0000
,  // measure 102
1000
0010
1000
0010
0001
0100
0001
0000
,  // measure 103
1000
0000
0001
0000
1000
0000
0001
0000
1000
0000
0001
0000
,  // measure 104
0100
0000
0000
0000
0010
0000
0000
0000
0100
0000
0000
0000
0010
0000
0000
1000
0000
0000
0010
0000
0000
1000
0000
0000
,  // measure 105
0101
0000
0100
0000
0010
0001
0010
0000
,  // measure 106
1100
0000
0100
0000
1001
0100
0010
0000
,  // measure 107
2002
0000
0000
0000
,  // measure 108
0000
0000
0000
3003
,  // measure 109
0220
0000
0000
0000
,  // measure 110
0000
0000
0000
0330
,  // measure 111
2002
0000
0000
0000
,  // measure 112
0000
0000
0000
3003
,  // measure 113
1000
0100
0010
0001
1000
0100
0010
0001
1000
0100
0010
0001
1000
0100
0010
0001
,  // measure 114
1001
0000
0110
0000
1000
0100
0010
0001
1001
0000
0110
0000
0001
0010
0100
1000
,  // measure 115
0220
0000
0000
0330
,  // measure 116
2002
0000
0000
3003
,  // measure 117
0220
0000
0000
0330
,  // measure 118
2002
0000
0000
3003
,  // measure 119
1001
0100
0000
0000
0100
0010
0000
0000
0001
0010
0000
0000
0100
0010
0000
0000
,  // measure 120
1001
0010
0000
0000
0010
0100
0000
0000
1000
0100
0000
0000
0010
0100
0000
0000
,  // measure 121
1000
0000
0000
0000
0000
0000
0001
0000
0000
0000
0000
0000
1000
0000
0000
0000
0000
0000
0001
0000
0000
0000
0000
0000
1000
0000
0000
0001
0000
0000
1000
0000
0000
0001
0000
0000
1000
0000
0001
0000
1000
0000
0001
0000
1000
0000
0001
0000
,  // measure 122
1000
0000
0001
1000
0001
1000
0001
1000
0001
0000
1000
0001
1000
0001
1000
0001
,  // measure 123
0100
0010
0100
0010
1000
0010
1000
0010
,  // measure 124
0101
0100
0100
1010
0020
0100
0000
0030
,  // measure 125
0101
0100
0100
1010
0020
0100
0000
0030
,  // measure 126
0101
0100
0100
1010
0020
0100
1000
0030
,  // measure 127
0100
0010
0100
0010
1000
0010
1000
0010
,  // measure 128
0101
0100
0100
1010
0020
0100
0000
0030
,  // measure 129
1010
1000
0101
0000
0110
0000
0101
0000
,  // measure 130
1000
0000
0001
0000
1000
0000
0001
0000
1000
0000
0001
0000
1000
0001
1000
0001
,  // measure 131
0010
0100
0010
0100
0001
0100
0001
0100
,  // measure 132
1010
0010
0010
0101
0200
0010
0000
0300
,  // measure 133
1010
0010
0010
0101
0200
0010
0000
0300
,  // measure 134
1010
0010
0010
0101
0200
0010
0001
0300
,  // measure 135
0010
0100
0010
0100
0001
0100
0001
0100
,  // measure 136
1010
0010
0010
0101
0200
0010
0000
0300
,  // measure 137
0101
0001
1010
0000
0110
0000
1010
0000
,  // measure 138
0001
0000
1000
0000
0001
0000
1000
0000
0001
0000
1000
0000
0001
1000
0001
1000
,  // measure 139
1000
0001
1000
0001
0010
0001
0010
0001
,  // measure 140
1100
1000
1000
0011
0002
1000
0000
0003
,  // measure 141
1100
1000
1000
0011
0002
1000
0000
0003
,  // measure 142
1100
1000
1000
0011
0002
1000
0010
0003
,  // measure 143
1000
0001
1000
0001
0010
0001
0010
0001
,  // measure 144
1100
1000
1000
0011
0002
1000
0000
0003
,  // measure 145
0011
0010
1100
0000
1001
0000
1100
0000
,  // measure 146
0010
0000
0100
0000
0010
0000
0100
0000
0010
0000
0100
0000
0010
0100
0010
0100
,  // measure 147
0001
1000
0001
1000
0100
1000
0100
1000
,  // measure 148
0011
0001
0001
1100
2000
0001
0000
3000
,  // measure 149
0011
0001
0001
1100
2000
0001
0000
3000
,  // measure 150
0011
0001
0001
1100
2000
0001
0100
3000
,  // measure 151
0001
1000
0001
1000
0100
1000
0100
1000
,  // measure 152
0011
0001
0000
1100
2000
0001
0000
3000
,  // measure 153
1100
0100
0011
0000
1001
0000
0011
0000
,  // measure 154
0100
0000
0010
0000
0100
0000
0010
0000
0100
0000
0010
0000
0100
0010
0100
0010
,  // measure 155
2002
0000
0000
0000
0000
0000
0000
0000
0000
0000
0000
0000
0000
0000
0000
3003
,  // measure 156
0120
0001
0000
0230
0000
0000
2300
0000
0000
3002
0000
0000
0013
0100
1000
0010
,  // measure 157
0210
1000
0000
0320
0000
0000
0032
0000
0000
2003
0000
0000
3100
0010
0001
0100
,  // measure 158
1002
0100
0000
2003
0000
0000
3020
0000
0000
0230
0000
0000
0301
1000
0010
0001
,  // measure 159
2001
0010
0000
3002
0000
0000
0203
0000
0000
0320
0000
0000
1030
0001
0100
1000
,  // measure 160
0120
0001
0000
0230
0000
0000
2300
0000
0000
3002
0000
0000
0013
0100
1000
0010
,  // measure 161
0210
1000
0000
0320
0000
0000
0032
0000
0000
2003
0000
0000
3100
0010
0001
0100
,  // measure 162
1002
0100
0000
2003
0000
0000
3020
0000
0000
0230
0000
0000
0301
1000
0010
0001
,  // measure 163
2001
0010
0000
3002
0000
0000
0203
0000
0000
0320
0000
0000
1030
0001
0100
1000
,  // measure 164
0011
0010
1010
0010
0011
0010
1010
0010
,  // measure 165
1100
0100
0101
0100
1100
0100
0101
0100
,  // measure 166
0101
0001
0011
0001
0101
0001
0011
0001
,  // measure 167
1010
1000
1100
1000
1010
1000
1100
1000
,  // measure 168
1000
0000
0100
0000
0010
0000
0001
0000
1000
0000
0100
0000
0010
0001
1000
0100
,  // measure 169
0010
0000
0100
0000
0010
0000
0001
0000
0010
0000
0100
0000
0010
0100
1000
0001
,  // measure 170
1000
0100
0010
0001
0100
0010
1000
0001
0100
0010
0001
1000
0001
0010
0100
1000
,  // measure 171
0001
0000
0000
0000
0000
0000
0000
0000
1000
0000
0000
0000
0000
0000
0000
0000
0001
0000
0000
0000
0000
0000
0000
0000
1000
0000
0000
0000
0000
0000
0000
0000
0001
0000
0000
0000
0000
0000
0000
0000
1000
0000
0000
0000
0000
0000
0000
0000
0001
0000
0000
0000
0000
0000
0000
0000
1000
0000
0000
0000
0000
0000
0000
0000
0001
0000
0000
0000
0000
0000
0000
0000
1000
0000
0000
0000
0000
0000
0000
0000
0001
0000
0000
0000
0000
0000
0000
0000
1000
0000
0000
0000
0000
0000
0000
0000
0001
0000
0000
0000
0000
0000
0000
0000
1000
0000
0000
0000
0000
0000
0000
0000
0001
0000
0000
0000
0000
0000
0000
0000
1000
0000
0000
0000
0000
0000
0000
0000
0001
0000
0000
0000
0000
0000
0000
0000
1000
0000
0000
0000
0000
0000
0000
0000
0001
0000
0000
0000
0000
0000
1000
0000
0000
0000
0000
0000
0001
0000
0000
0000
0000
0000
1000
0000
0000
0000
0000
0000
0001
0000
0000
0000
0000
0000
1000
0000
0000
0000
0000
0000
0001
0000
0000
0000
0000
0000
1000
0000
0000
0000
0000
0000
,  // measure 172
2002
0000
0000
0000
,  // measure 173
0000
0000
0000
0000
,  // measure 174
0000
0000
0000
0000
,  // measure 175
0000
0000
0000
3003
,  // measure 176
1000
0001
1000
0001
1000
0001
1000
0001
,  // measure 177
1000
0000
0000
0000
0001
0000
0000
0000
1000
0000
0000
0000
0001
0000
0000
0000
1000
0000
0000
0000
0001
0000
0000
0000
1000
0000
0000
0001
0000
0000
1000
0000
0000
0001
0000
0000
1000
0000
0000
0001
0000
0000
1000
0000
0000
0001
0000
0000
,  // measure 178
0210
0000
0000
0000
,  // measure 179
0310
0000
0000
0000
0000
0000
0100
0000
0000
0000
0000
0000
0010
0000
0000
0000
0100
0000
0000
0000
0010
0000
0000
0000
0100
0000
0000
0010
0000
0000
0100
0000
0000
0010
0000
0000
0100
0000
0000
0010
0000
0000
0100
0000
0000
0010
0000
0000
,  // measure 180
1000
0001
1000
0001
0010
0001
0100
0000
,  // measure 181
1000
0001
0100
0001
0010
0000
0001
0000
,  // measure 182
0100
1000
0100
0010
,  // measure 183
2010
0000
0010
3000
0021
0000
0001
0030
,  // measure 184
0001
1000
0001
1000
0100
1000
0010
0000
,  // measure 185
0001
1000
0010
1000
0100
0000
1000
0000
,  // measure 186
0010
0001
0010
0100
,  // measure 187
0102
0000
0100
0003
1200
0000
1000
0300
,  // measure 188
0010
0100
0010
0100
0001
0100
1000
0000
,  // measure 189
0010
0100
1000
0100
0001
0000
0100
0000
,  // measure 190
1000
0010
1000
0001
,  // measure 191
0021
0000
0001
0030
0102
0000
0100
0003
,  // measure 192
0100
0010
0100
0010
1000
0010
0001
0000
,  // measure 193
0100
0010
0001
0010
1000
0000
0010
0000
,  // measure 194
0001
0100
0001
1000
,  // measure 195
1200
0000
1000
0300
2010
0000
0010
3000
,  // measure 196
1000
0001
1000
0001
0010
0001
0100
0000
,  // measure 197
1000
0001
0100
0001
0010
0000
0001
0000
,  // measure 198
0100
1000
0100
0010
,  // measure 199
2010
0000
0010
3000
0021
0000
0001
0030
,  // measure 200
0001
1000
0001
1000
0100
1000
0010
0000
,  // measure 201
0001
1000
0010
1000
0100
0000
1000
0000
,  // measure 202
0010
0001
0010
0100
,  // measure 203
0102
0000
0100
0003
1200
0000
1000
0300
,  // measure 204
0010
0100
0010
0100
0001
0100
1000
0000
,  // measure 205
0010
0100
1000
0100
0001
0000
0100
0000
,  // measure 206
1000
0010
1000
0001
,  // measure 207
0021
0000
0001
0030
0102
0000
0100
0003
,  // measure 208
0100
0010
0100
0010
1000
0010
0001
0000
,  // measure 209
0100
0010
0001
0010
1000
0000
0010
0000
,  // measure 210
0001
0100
0001
1000
,  // measure 211
1200
0000
1000
0300
2010
0000
0010
3000
,  // measure 212
1000
0001
1000
0001
0010
0001
0100
0000
,  // measure 213
1000
0001
0100
0001
0010
0000
0001
0000
,  // measure 214
0100
1000
0100
0010
,  // measure 215
2010
0000
0010
3000
0021
0000
0001
0030
,  // measure 216
0001
1000
0001
1000
0100
1000
0010
0000
,  // measure 217
0001
1000
0010
1000
0100
0000
1000
0000
,  // measure 218
0010
0001
0010
0100
,  // measure 219
0102
0000
0100
0003
1200
0000
1000
0300
,  // measure 220
0010
0100
0010
0100
0001
0100
1000
0000
,  // measure 221
0010
0100
1000
0100
0001
0000
0100
0000
,  // measure 222
1000
0010
1000
0001
,  // measure 223
0021
0000
0001
0030
0102
0000
0100
0003
,  // measure 224
0100
0010
0100
0010
1000
0010
0001
0000
,  // measure 225
0100
0010
0001
0010
1000
0000
0010
0000
,  // measure 226
0001
0100
0001
1000
,  // measure 227
1200
0000
1000
0300
2010
0000
0010
3000
,  // measure 228
1000
0001
1000
0001
0010
0001
0100
0000
,  // measure 229
1000
0001
0100
0001
0010
0000
0001
0000
,  // measure 230
0100
1000
0100
0010
,  // measure 231
2010
0000
0010
3000
0021
0000
0001
0030
,  // measure 232
0001
1000
0001
1000
0100
1000
0010
0000
,  // measure 233
0001
1000
0010
1000
0100
0000
1000
0000
,  // measure 234
0010
0001
0010
0100
,  // measure 235
0102
0000
0100
0003
1200
0000
1000
0300
,  // measure 236
0010
0100
0010
0100
0001
0100
1000
0000
,  // measure 237
0010
0100
1000
0100
0001
0000
0100
0000
,  // measure 238
1000
0010
1000
0001
,  // measure 239
0021
0000
0001
0030
0102
0000
0100
0003
,  // measure 240
0100
0010
0100
0010
1000
0010
0001
0000
,  // measure 241
0100
0010
0001
0010
1000
0000
0010
0000
,  // measure 242
0001
0100
0001
1000
,  // measure 243
1200
0000
1000
0300
2010
0000
0010
3000
,  // measure 244
2020
0000
0030
0010
0100
0001
0010
3100
,  // measure 245
0202
0000
0300
0100
0010
1000
0100
0013
,  // measure 246
0022
0000
0003
0001
1000
0100
0001
1030
,  // measure 247
2200
0000
3000
1000
0001
0010
1000
0301
,  // measure 248
2020
0000
0030
0010
0100
0001
0010
3100
,  // measure 249
0202
0000
0300
0100
0010
1000
0100
0013
,  // measure 250
0022
0000
0003
0001
1000
0100
0001
1030
,  // measure 251
2200
0000
3000
1000
0001
0010
1000
0301
,  // measure 252
0120
0001
0000
0230
0000
0000
2300
0000
0000
3002
0000
0000
0013
0100
1000
0010
,  // measure 253
0210
1000
0000
0320
0000
0000
0032
0000
0000
2003
0000
0000
3100
0010
0001
0100
,  // measure 254
1002
0100
0000
2003
0000
0000
3020
0000
0000
0230
0000
0000
0301
1000
0010
0001
,  // measure 255
2001
0010
0000
3002
0000
0000
0203
0000
0000
0320
0000
0000
1030
0001
0100
1000
,  // measure 256
1000
0000
0100
0000
0010
0000
0001
0000
1000
0000
0100
0000
0010
0001
1000
0100
,  // measure 257
0010
0000
0100
0000
0010
0000
0001
0000
0010
0000
0100
0000
0010
0100
1000
0001
,  // measure 258
1000
0001
1000
0001
1000
0001
1000
0001
,  // measure 259
1000
0000
0000
0000
0001
0000
0000
0000
1000
0000
0000
0000
0001
0000
0000
0000
1000
0000
0000
0000
0001
0000
0000
0000
1000
0000
0000
0001
0000
0000
1000
0000
0000
0001
0000
0000
1000
0000
0000
0001
0000
0000
1000
0000
0000
0001
0000
0000
,  // measure 260
0210
0000
0000
0000
,  // measure 261
0310
0000
0000
0000
0000
0000
0100
0000
0000
0000
0000
0000
0010
0000
0000
0000
0100
0000
0000
0000
0010
0000
0000
0000
0100
0000
0000
0010
0000
0000
0100
0000
0000
0010
0000
0000
0100
0000
0000
0010
0000
0000
0100
0000
0000
0010
0000
0000
,  // measure 262
1000
0000
0000
0100
0000
0000
0010
0000
0000
0001
0000
0000
0100
0000
0000
0000
0001
0000
0000
0000
0100
0000
0000
0000
,  // measure 263
0001
0000
0100
0000
0001
0000
0100
0000
0000
1002
0000
0000
,  // measure 264
0000
0000
1000
0000
0000
0000
0003
0000
0000
2010
0000
0000
0000
0000
0000
0000
0000
0010
0000
0000
0000
3000
0000
0000
,  // measure 265
0201
0000
0000
0000
0001
0000
0310
0000
0100
0000
0010
0000
,  // measure 266
0001
0000
0000
0010
0000
0000
0100
0000
0000
1000
0000
0000
0010
0000
0000
0000
1000
0000
0000
0000
0010
0000
0000
0000
,  // measure 267
1000
0000
0010
0000
1000
0000
0010
0000
0000
2001
0000
0000
,  // measure 268
0000
0000
0001
0000
0000
0000
3000
0000
0000
0102
0000
0000
0000
0000
0000
0000
0000
0100
0000
0000
0000
0003
0000
0000
,  // measure 269
1020
0000
0000
0000
1000
0000
0130
0000
0010
0000
0100
0000
,  // measure 270
0010
0000
0000
1000
0000
0000
0001
0000
0000
0100
0000
0000
1000
0000
0000
0000
0100
0000
0000
0000
1000
0000
0000
0000
,  // measure 271
0100
0000
1000
0000
0100
0000
1000
0000
0000
0210
0000
0000
,  // measure 272
0000
0000
0010
0000
0000
0000
0300
0000
0000
0021
0000
0000
0000
0000
0000
0000
0000
0001
0000
0000
0000
0030
0000
0000
,  // measure 273
2100
0000
0000
0000
0100
0000
3001
0000
1000
0000
0001
0000
,  // measure 274
0100
0000
0000
0001
0000
0000
1000
0000
0000
0010
0000
0000
0001
0000
0000
0000
0010
0000
0000
0000
0001
0000
0000
0000
,  // measure 275
0010
0000
0001
0000
0010
0000
0001
0000
0000
0120
0000
0000
,  // measure 276
0000
0000
0100
0000
0000
0000
0030
0000
0000
1200
0000
0000
0000
0000
0000
0000
0000
1000
0000
0000
0000
0300
0000
0000
,  // measure 277
0012
0000
0000
0000
0010
0000
1003
0000
0001
0000
1000
0000
,  // measure 278
1000
0000
0000
0100
0000
0000
0010
0000
0000
0001
0000
0000
0100
0000
0000
0000
0001
0000
0000
0000
0100
0000
0000
0000
,  // measure 279
0001
0000
0100
0000
0001
0000
0100
0000
0000
1002
0000
0000
,  // measure 280
0000
0000
1000
0000
0000
0000
0003
0000
0000
2010
0000
0000
0000
0000
0000
0000
0000
0010
0000
0000
0000
3000
0000
0000
,  // measure 281
0201
0000
0000
0000
0001
0000
0310
0000
0100
0000
0010
0000
,  // measure 282
0001
0000
0000
0010
0000
0000
0100
0000
0000
1000
0000
0000
0010
0000
0000
0000
1000
0000
0000
0000
0010
0000
0000
0000
,  // measure 283
1000
0000
0010
0000
1000
0000
0010
0000
0000
2001
0000
0000
,  // measure 284
0000
0000
0001
0000
0000
0000
3000
0000
0000
0102
0000
0000
0000
0000
0000
0000
0000
0100
0000
0000
0000
0003
0000
0000
,  // measure 285
1020
0000
0000
0000
1000
0000
0130
0000
0010
0000
0100
0000
,  // measure 286
0010
0000
0000
1000
0000
0000
0001
0000
0000
0100
0000
0000
1000
0000
0000
0000
0100
0000
0000
0000
1000
0000
0000
0000
,  // measure 287
0100
0000
1000
0000
0100
0000
1000
0000
0000
0210
0000
0000
,  // measure 288
0000
0000
0010
0000
0000
0000
0300
0000
0000
0021
0000
0000
0000
0000
0000
0000
0000
0001
0000
0000
0000
0030
0000
0000
,  // measure 289
2100
0000
0000
0000
0100
0000
3001
0000
1000
0000
0001
0000
,  // measure 290
0100
0000
0000
0001
0000
0000
1000
0000
0000
0010
0000
0000
0001
0000
0000
0000
0010
0000
0000
0000
0001
0000
0000
0000
,  // measure 291
0010
0000
0001
0000
0010
0000
0001
0000
0000
0120
0000
0000
,  // measure 292
0000
0000
0100
0000
0000
0000
0030
0000
0000
1200
0000
0000
0000
0000
0000
0000
0000
1000
0000
0000
0000
0300
0000
0000
,  // measure 293
0012
0000
0000
0000
0010
0000
1003
0000
0001
0000
1000
0000
,  // measure 294
1000
0001
1000
0100
0001
1000
0001
0000
,  // measure 295
1000
0000
0100
0000
0010
0000
0100
0000
0010
0000
0001
0000
,  // measure 296
0100
0000
0010
0000
1000
0000
0100
0000
0001
0000
0010
0000
,  // measure 297
0001
0100
0001
0100
1000
0010
1000
0000
,  // measure 298
0001
0000
1000
0000
0001
0000
1000
0000
0001
0000
1000
0000
,  // measure 299
0010
0000
0000
0000
0100
0000
0000
0000
0010
0000
0000
0000
0100
0000
0000
0001
0000
0000
0100
0000
0000
0001
0000
0000
,  // measure 300
1010
0000
0010
0000
0100
0010
1000
0000
,  // measure 301
0011
0000
0010
0000
1001
0010
0100
0000
,  // measure 302
0001
1000
0001
0010
1000
0001
1000
0000
,  // measure 303
0001
0000
0010
0000
0100
0000
0010
0000
0100
0000
1000
0000
,  // measure 304
0010
0000
0100
0000
0001
0000
0010
0000
1000
0000
0100
0000
,  // measure 305
1000
0010
1000
0010
0001
0100
0001
0000
,  // measure 306
1000
0000
0001
0000
1000
0000
0001
0000
1000
0000
0001
0000
,  // measure 307
0100
0000
0000
0000
0010
0000
0000
0000
0100
0000
0000
0000
0010
0000
0000
1000
0000
0000
0010
0000
0000
1000
0000
0000
,  // measure 308
0101
0000
0100
0000
0010
0100
0001
0000
,  // measure 309
1100
0000
0100
0000
1001
0100
0010
0000
,  // measure 310
1000
0001
1000
0001
1000
0001
1000
0001
,  // measure 311
1000
0000
0010
0000
1000
0000
0010
0000
1000
0000
0010
0000
,  // measure 312
0100
0001
0100
0001
1000
0100
0010
0001
,  // measure 313
0100
0000
0001
0000
0100
0000
0001
0000
0100
0000
0001
0000
1000
0000
0000
0010
0000
0000
1000
0000
0000
0010
0000
0000
,  // measure 314
0001
1000
0001
1000
0001
1000
0001
1000
,  // measure 315
0001
0000
0100
0000
0001
0000
0100
0000
0001
0000
0100
0000
,  // measure 316
0010
1000
0010
1000
0001
0010
0100
1000
,  // measure 317
0010
0000
0000
0000
1000
0000
0010
0000
0000
0000
1000
0000
0001
0000
0000
0100
0000
0000
0001
0000
0000
0100
0000
0000
,  // measure 318
0010
0100
0010
0100
0010
0100
0010
0100
,  // measure 319
0010
0000
0001
0000
0010
0000
0001
0000
0010
0000
0001
0000
,  // measure 320
1000
0100
1000
0100
0010
1000
0001
0100
,  // measure 321
1000
0000
0100
0000
1000
0000
0100
0000
1000
0000
0100
0000
0010
0000
0000
0001
0000
0000
0010
0000
0000
0001
0000
0000
,  // measure 322
0100
0010
0100
0010
0100
0010
0100
0010
,  // measure 323
0100
0000
1000
0000
0100
0000
1000
0000
0100
0000
1000
0000
,  // measure 324
0001
0010
0001
0010
0100
0001
1000
0010
,  // measure 325
0001
0000
0000
0000
0010
0000
0001
0000
0000
0000
0010
0000
0100
0000
0000
1000
0000
0000
0100
0000
0000
1000
0000
0000
,  // measure 326
2002
0000
0000
0000
,  // measure 327
0000
0000
0000
0000
,  // measure 328
3003
0000
0000
0000
;

//---------------dance-single - ----------------
#NOTES:
     dance-single:
     :
     Challenge:
     26:
     1.540533,3.165465,1.036413,0.835005,1.237821,2570.000000,2323.000000,247.000000,199.000000,0.000000,0.000000,1.540533,3.165465,1.036413,0.835005,1.237821,2570.000000,2323.000000,247.000000,199.000000,0.000000,0.000000:
// measure 0
0000
0000
0000
0000
,  // measure 1
0000
0000
0000
0000
,  // measure 2
0000
0000
0000
0000
,  // measure 3
2020
0000
0000
0000
0030
0000
0010
0010
0100
0000
0001
0000
0010
0000
3100
0000
,  // measure 4
0202
0000
0000
0000
0300
0000
0100
0100
0010
0000
1000
0000
0100
0000
0013
0000
,  // measure 5
0022
0000
0000
0000
0003
0000
0001
0001
1000
0000
0100
0000
0001
0000
1030
0000
,  // measure 6
2200
0000
0000
0000
3000
0000
1000
1000
0001
0000
0010
0000
1000
0000
0301
0000
,  // measure 7
2020
0000
0000
0000
0030
0000
0010
0010
0100
0000
0001
0000
0010
0000
3100
0000
,  // measure 8
0202
0000
0000
0000
0300
0000
0100
0100
0010
0000
1000
0000
0100
0000
0013
0000
,  // measure 9
0022
0000
0000
0000
0003
0000
0001
0001
1000
0000
0100
0000
0001
0000
1030
0000
,  // measure 10
2200
0000
0000
0000
3000
0000
1000
1000
0001
0000
0010
0000
1000
0000
0301
0000
,  // measure 11
1000
0001
1000
0010
0001
0001
1000
0000
0010
0001
0010
0000
1000
1000
0010
0000
,  // measure 12
0001
1000
0001
0100
1000
1000
0001
0000
0100
1000
0100
0000
0001
0001
0100
0000
,  // measure 13
0010
0100
0010
0001
0100
0100
0010
0000
0001
0100
0001
0000
0010
0010
1000
0000
,  // measure 14
0100
0010
0100
1000
0010
0010
0100
0000
1000
0010
1000
0000
0100
0100
0001
0000
,  // measure 15
1000
0001
1000
0010
0001
0001
1000
0000
0010
0001
0010
0000
1000
1000
0100
0000
,  // measure 16
0001
1000
0001
0100
1000
1000
0001
0000
0100
1000
0100
0000
0001
0001
0010
0000
,  // measure 17
0010
0100
0010
0001
0100
0100
0010
0000
0001
0100
0001
0000
0010
0010
1000
0000
,  // measure 18
0100
0010
0100
1000
0010
0010
0100
0000
1000
0010
1000
0000
0100
0100
0001
0000
,  // measure 19
1000
0001
1000
0001
1000
0001
1000
0001
1000
0001
1000
0001
,  // measure 20
1100
0000
0100
1000
0100
0000
0000
0000
0101
0000
0001
0000
0001
0000
0000
0000
,  // measure 21
0110
0000
0100
0010
0100
0000
0000
0000
0101
0000
0001
0000
0001
0000
0000
0000
,  // measure 22
0001
0000
0000
0000
1000
0000
0000
0000
0001
0000
0000
0000
1000
0000
0000
0000
0001
0000
0000
0000
1000
0000
0000
0000
0001
0000
0000
0000
1000
0000
0000
0000
0001
0000
0000
0000
1000
0000
0000
0001
0000
0000
0010
0000
0000
1000
0000
0000
,  // measure 23
0001
1000
0001
1000
0001
1000
0001
1000
0001
1000
0001
1000
,  // measure 24
0011
0000
0010
0001
0010
0000
0000
0000
1010
0000
1000
0000
1000
0000
0000
0000
,  // measure 25
0110
0000
0010
0100
0010
0000
0000
0000
1010
0000
1000
0000
1000
0000
0000
0000
,  // measure 26
1000
0000
0000
0000
0001
0000
0000
0000
1000
0000
0000
0000
0001
0000
0000
0000
1000
0000
0000
0000
0001
0000
0000
0000
1000
0000
0000
0000
0001
0000
0000
0000
1000
0000
0000
0000
0001
0000
0000
1000
0000
0000
0100
0000
0000
0001
0000
0000
,  // measure 27
0010
0100
0010
0100
0010
0100
0010
0100
0010
0100
0010
0100
,  // measure 28
1010
0000
1000
0010
1000
0000
0000
0000
1100
0000
0100
0000
0100
0000
0000
0000
,  // measure 29
1001
0000
1000
0001
1000
0000
0000
0000
1100
0000
0100
0000
0100
0000
0000
0000
,  // measure 30
0100
0000
0000
0000
0010
0000
0000
0000
0100
0000
0000
0000
0010
0000
0000
0000
0100
0000
0000
0000
0010
0000
0000
0000
0100
0000
0000
0000
0010
0000
0000
0000
0100
0000
0000
0000
0010
0000
0000
0100
0000
0000
0001
0000
0000
0010
0000
0000
,  // measure 31
0100
0010
0100
0010
0100
0010
0100
0010
0100
0010
0100
0010
,  // measure 32
0101
0000
0001
0100
0001
0000
0000
0000
0011
0000
0010
0000
0010
0000
0000
0000
,  // measure 33
1001
0000
0001
1000
0001
0000
0000
0000
0011
0000
0010
0000
0010
0000
0000
0000
,  // measure 34
0010
0000
0000
0000
0100
0000
0000
0000
0010
0000
0000
0000
0100
0000
0000
0000
0010
0000
0000
0000
0100
0000
0000
0000
0010
0000
0000
0000
0100
0000
0000
0000
0010
0000
0000
0000
0100
0000
0000
0010
0000
0000
1000
0000
0000
0100
0000
0000
,  // measure 35
1000
0010
1000
0010
1000
0010
1000
0100
0001
0100
1000
0100
,  // measure 36
0010
0100
0010
0000
0110
0000
0000
0000
0100
0000
0100
0000
0110
0000
0000
0000
,  // measure 37
0001
0100
0001
0100
0001
0100
0001
0010
1000
0010
0001
0010
,  // measure 38
0100
0010
0100
0000
0110
0000
0000
0000
0010
0000
0010
0000
0110
0000
0000
0000
,  // measure 39
0010
0001
0010
0001
0010
0001
0010
1000
0100
1000
0010
1000
,  // measure 40
0001
1000
0001
0000
1001
0000
0000
0000
1000
0000
1000
0000
1001
0000
0000
0000
,  // measure 41
0100
1000
0100
1000
0100
1000
0100
0001
0010
0001
0100
0001
,  // measure 42
1000
0001
1000
0000
1001
0000
0000
0000
0001
0000
0001
0000
1001
0000
0000
0000
,  // measure 43
1010
0000
0100
0000
1000
0000
0100
0000
1000
0000
0100
0000
2020
0000
0000
0000
0000
0000
0000
0000
0000
3030
0000
0000
,  // measure 44
0101
0000
0010
0000
0001
0000
0010
0000
0001
0000
0010
0000
0202
0000
0000
0000
0000
0000
0000
0000
0000
0303
0000
0000
,  // measure 45
0011
0000
1000
0000
0010
0000
1000
0000
0010
0000
1000
0000
0022
0000
0000
0000
0000
0000
0000
0000
0000
0033
0000
0000
,  // measure 46
1100
0000
0001
0000
0100
0000
0001
0000
0100
0000
0001
0000
2200
0000
0000
0000
0000
0000
0000
0000
0000
3300
0000
0000
,  // measure 47
1000
0001
1000
0001
1000
0001
1000
0001
,  // measure 48
1000
0001
1000
0001
1000
0001
1000
0001
1000
0001
1000
0001
1000
0001
1000
0001
,  // measure 49
0210
0010
0010
0010
,  // measure 50
0310
0000
0000
0000
0100
0000
0000
0000
0010
0000
0000
0000
0100
0000
0000
0000
0010
0000
0000
0000
0100
0000
0000
0000
0010
0000
0000
0100
0000
0000
0010
0000
0000
0100
0000
0000
0010
0000
0000
0100
0000
0000
0010
0000
0000
0100
0000
0000
,  // measure 51
1000
0001
1000
0100
0001
1000
0001
0010
,  // measure 52
1000
0000
0100
0000
0010
0000
0100
0000
0010
0000
0001
0000
,  // measure 53
0100
0000
0010
0000
1000
0000
0100
0000
0001
0000
0010
0000
,  // measure 54
0001
0100
0001
0100
1000
0010
1000
0010
,  // measure 55
0001
0000
1000
0000
0001
0000
1000
0000
0001
0000
1000
0000
,  // measure 56
0010
0000
0000
0000
0100
0000
0000
0000
0010
0000
0000
0000
0100
0000
0000
0001
0000
0000
0100
0000
0000
0001
0000
0000
,  // measure 57
1010
0000
0010
0000
0100
0010
1000
0000
,  // measure 58
0011
0000
0010
0000
1001
0010
0100
0000
,  // measure 59
0001
1000
0001
0010
1000
0001
1000
0100
,  // measure 60
0001
0000
0010
0000
0100
0000
0010
0000
0100
0000
1000
0000
,  // measure 61
0010
0000
0100
0000
0001
0000
0010
0000
1000
0000
0100
0000
,  // measure 62
1000
0010
1000
0010
0001
0100
0001
0100
,  // measure 63
1000
0000
0001
0000
1000
0000
0001
0000
1000
0000
0001
0000
,  // measure 64
0100
0000
0000
0000
0010
0000
0000
0000
0100
0000
0000
0000
0010
0000
0000
1000
0000
0000
0010
0000
0000
1000
0000
0000
,  // measure 65
0101
0000
0100
0000
0010
0100
0001
0000
,  // measure 66
1100
0000
0100
0000
1001
0100
0010
0000
,  // measure 67
0010
0100
0010
1000
0100
0010
0100
0001
,  // measure 68
0010
0000
1000
0000
0001
0000
1000
0000
0001
0000
0100
0000
,  // measure 69
1000
0000
0001
0000
0010
0000
1000
0000
0100
0000
0001
0000
,  // measure 70
0100
1000
0100
1000
0010
0001
0010
0001
,  // measure 71
0100
0000
0010
0000
0100
0000
0010
0000
0100
0000
0010
0000
,  // measure 72
0001
0000
0000
0000
1000
0000
0000
0000
0001
0000
0000
0000
1000
0000
0000
0100
0000
0000
1000
0000
0000
0100
0000
0000
,  // measure 73
0011
0000
0001
0000
1000
0001
0010
0000
,  // measure 74
0101
0000
0001
0000
0110
0001
1000
0000
,  // measure 75
0100
0010
0100
0001
0010
0100
0010
1000
,  // measure 76
0100
0000
0001
0000
1000
0000
0001
0000
1000
0000
0010
0000
,  // measure 77
0001
0000
1000
0000
0100
0000
0001
0000
0010
0000
1000
0000
,  // measure 78
0010
0001
0010
0001
0100
1000
0100
1000
,  // measure 79
0010
0000
0100
0000
0010
0000
0100
0000
0010
0000
0100
0000
,  // measure 80
1000
0000
0000
0000
0001
0000
0000
0000
1000
0000
0000
0000
0001
0000
0000
0010
0000
0000
0001
0000
0000
0010
0000
0000
,  // measure 81
1100
0000
1000
0000
0001
1000
0100
0000
,  // measure 82
1010
0000
1000
0000
0110
1000
0001
0000
,  // measure 83
1001
0000
0100
0000
1000
0000
0010
0000
1000
0000
0100
0000
1000
0010
1000
0000
,  // measure 84
1001
0000
0010
0000
0001
0000
0100
0000
0001
0000
0010
0000
0001
0100
0001
0000
,  // measure 85
0110
0000
0001
0000
0010
0000
1000
0000
0010
0000
0001
0000
0010
1000
0010
0000
,  // measure 86
0110
0000
1000
0000
0100
0000
0001
0000
0100
0000
1000
0000
0100
0001
0100
0000
,  // measure 87
1000
0001
1000
0100
0001
1000
0001
0010
,  // measure 88
1000
0000
0100
0000
0010
0000
0100
0000
0010
0000
0001
0000
,  // measure 89
0100
0000
0010
0000
1000
0000
0100
0000
0001
0000
0010
0000
,  // measure 90
0001
0100
0001
0100
1000
0010
1000
0010
,  // measure 91
0001
0000
1000
0000
0001
0000
1000
0000
0001
0000
1000
0000
,  // measure 92
0010
0000
0000
0000
0100
0000
0000
0000
0010
0000
0000
0000
0100
0000
0000
0001
0000
0000
0100
0000
0000
0001
0000
0000
,  // measure 93
1010
0000
0010
0000
0100
0010
1000
0000
,  // measure 94
0011
0000
0010
0000
1001
0010
0100
0000
,  // measure 95
1001
0000
0010
0000
0001
0000
0100
0000
0001
0000
0010
0000
0001
0100
0001
0000
,  // measure 96
1001
0000
0100
0000
1000
0000
0010
0000
1000
0000
0100
0000
1000
0010
1000
0000
,  // measure 97
0110
0000
1000
0000
0100
0000
0001
0000
0100
0000
1000
0000
0100
0001
0100
0000
,  // measure 98
0110
0000
0001
0000
0010
0000
1000
0000
0010
0000
0001
0000
0010
1000
0010
0000
,  // measure 99
0001
1000
0001
0010
1000
0001
1000
0100
,  // measure 100
0001
0000
0010
0000
0100
0000
0010
0000
0100
0000
1000
0000
,  // measure 101
0010
0000
0100
0000
0001
0000
0010
0000
1000
0000
0100
0000
,  // measure 102
1000
0010
1000
0010
0001
0100
0001
0100
,  // measure 103
1000
0000
0001
0000
1000
0000
0001
0000
1000
0000
0001
0000
,  // measure 104
0100
0000
0000
0000
0010
0000
0000
0000
0100
0000
0000
0000
0010
0000
0000
1000
0000
0000
0010
0000
0000
1000
0000
0000
,  // measure 105
0101
0000
0100
0000
0010
0001
0010
0000
,  // measure 106
1100
0000
0100
0000
1001
0100
0010
0000
,  // measure 107
2002
0000
0000
0000
,  // measure 108
0000
0000
0000
3003
,  // measure 109
0220
0000
0000
0000
,  // measure 110
0000
0000
0000
0330
,  // measure 111
2002
0000
0000
0000
,  // measure 112
0000
0000
0000
3003
,  // measure 113
1000
0100
0010
0001
1000
0100
0010
0001
1000
0100
0010
0001
1000
0100
0010
0001
,  // measure 114
1001
0000
0110
0000
1000
0100
0010
0001
1001
0000
0110
0000
0001
0010
0100
1000
,  // measure 115
0220
0000
0000
0330
,  // measure 116
2002
0000
0000
3003
,  // measure 117
0220
0000
0000
0330
,  // measure 118
2002
0000
0000
3003
,  // measure 119
1001
0100
0000
0000
0100
0010
0000
0000
0001
0010
0000
0000
0100
0010
0000
0000
,  // measure 120
1001
0010
0000
0000
0010
0100
0000
0000
1000
0100
0000
0000
0010
0100
0000
0000
,  // measure 121
1000
0000
0000
0001
0000
0000
1000
0000
0000
0001
0000
0000
1000
0000
0000
0001
0000
0000
1000
0000
0000
0001
0000
0000
1000
0000
0001
0000
1000
0000
0001
0000
1000
0000
0001
0000
1000
0000
0001
0000
1000
0000
0001
0000
1000
0000
0001
0000
,  // measure 122
1000
0000
0001
1000
0001
1000
0001
1000
0001
0000
1000
0001
1000
0001
1000
0001
,  // measure 123
0100
0010
0100
0010
1000
0010
1000
0010
,  // measure 124
0102
0100
0103
1010
0020
0100
1000
0030
,  // measure 125
0102
0100
0103
1010
0020
0100
1000
0030
,  // measure 126
0102
0100
0103
1010
0020
0100
1000
0030
,  // measure 127
0100
0010
0100
0010
1000
0010
1000
0010
,  // measure 128
0102
0100
0103
1010
0020
0100
1000
0030
,  // measure 129
1010
1000
0101
0000
0110
0001
0101
0000
,  // measure 130
1000
0000
0001
0000
1000
0000
0001
0000
1000
0001
1000
0001
1000
0001
1000
0001
,  // measure 131
0010
0100
0010
0100
0001
0100
0001
0100
,  // measure 132
2010
0010
3010
0101
0200
0010
0001
0300
,  // measure 133
2010
0010
3010
0101
0200
0010
0001
0300
,  // measure 134
2010
0010
3010
0101
0200
0010
0001
0300
,  // measure 135
0010
0100
0010
0100
0001
0100
0001
0100
,  // measure 136
2010
0010
3010
0101
0200
0010
0001
0300
,  // measure 137
0101
0001
1010
0000
0110
1000
1010
0000
,  // measure 138
0001
0000
1000
0000
0001
0000
1000
0000
0001
1000
0001
1000
0001
1000
0001
1000
,  // measure 139
1000
0001
1000
0001
0010
0001
0010
0001
,  // measure 140
1200
1000
1300
0011
0002
1000
0010
0003
,  // measure 141
1200
1000
1300
0011
0002
1000
0010
0003
,  // measure 142
1200
1000
1300
0011
0002
1000
0010
0003
,  // measure 143
1000
0001
1000
0001
0010
0001
0010
0001
,  // measure 144
1200
1000
1300
0011
0002
1000
0010
0003
,  // measure 145
0011
0010
1100
0000
1001
0100
1100
0000
,  // measure 146
0010
0000
0100
0000
0010
0000
0100
0000
0010
0100
0010
0100
0010
0100
0010
0100
,  // measure 147
0001
1000
0001
1000
0100
1000
0100
1000
,  // measure 148
0021
0001
0031
1100
2000
0001
0000
3000
,  // measure 149
0021
0001
0031
1100
2000
0001
0000
3000
,  // measure 150
0021
0001
0031
1100
2000
0001
0100
3000
,  // measure 151
0001
1000
0001
1000
0100
1000
0100
1000
,  // measure 152
0021
0001
0031
1100
2000
0001
0000
3000
,  // measure 153
1100
0100
0011
0000
1001
0010
0011
0000
,  // measure 154
0100
0000
0010
0000
0100
0000
0010
0000
0100
0010
0100
0010
0100
0010
0100
0010
,  // measure 155
2002
0000
0000
0000
0000
0000
0000
0000
0000
0000
0000
0000
0000
0000
0000
3003
,  // measure 156
0120
0001
0000
0230
0000
0000
2300
0001
0000
3002
0000
0000
0013
0100
1000
0010
,  // measure 157
0210
1000
0000
0320
0000
0000
0032
1000
0000
2003
0000
0000
3100
0010
0001
0100
,  // measure 158
1002
0100
0000
2003
0000
0000
3020
0100
0000
0230
0000
0000
0301
1000
0010
0001
,  // measure 159
2001
0010
0000
3002
0000
0000
0203
0010
0000
0320
0000
0000
1030
0001
0100
1000
,  // measure 160
0120
0001
0000
0230
0000
0000
2300
0001
0000
3002
0000
0000
0013
0100
1000
0010
,  // measure 161
0210
1000
0000
0320
0000
0000
0032
1000
0000
2003
0000
0000
3100
0010
0001
0100
,  // measure 162
1002
0100
0000
2003
0000
0000
3020
0100
0000
0230
0000
0000
0301
1000
0010
0001
,  // measure 163
2001
0010
0000
3002
0000
0000
0203
0010
0000
0320
0000
0000
1030
0001
0100
1000
,  // measure 164
0011
0011
1010
1010
0011
0011
1010
1010
,  // measure 165
1100
1100
0101
0101
1100
1100
0101
0101
,  // measure 166
0101
0101
0011
0011
0101
0101
0011
0011
,  // measure 167
1010
1010
1100
1100
1010
1010
1100
1100
,  // measure 168
1000
0000
0100
0000
0010
0001
1000
0100
1000
0000
0100
0000
0010
0001
1000
0100
,  // measure 169
0010
0000
0100
0000
0010
0100
1000
0001
0010
0000
0100
0000
0010
0100
1000
0001
,  // measure 170
1000
0100
0010
0001
0100
0010
1000
0001
0100
0010
0001
1000
0001
0010
0100
1000
,  // measure 171
0001
0000
0000
0000
0000
0000
0000
0000
1000
0000
0000
0000
0000
0000
0000
0000
0001
0000
0000
0000
0000
0000
0000
0000
1000
0000
0000
0000
0000
0000
0000
0000
0001
0000
0000
0000
0000
0000
0000
0000
1000
0000
0000
0000
0000
0000
0000
0000
0001
0000
0000
0000
0000
0000
0000
0000
1000
0000
0000
0000
0000
0000
0000
0000
0001
0000
0000
0000
0000
0000
0000
0000
1000
0000
0000
0000
0000
0000
0000
0000
0001
0000
0000
0000
0000
0000
0000
0000
1000
0000
0000
0000
0000
0000
0000
0000
0001
0000
0000
0000
0000
0000
1000
0000
0000
0000
0000
0000
0001
0000
0000
0000
0000
0000
1000
0000
0000
0000
0000
0000
0001
0000
0000
0000
0000
0000
1000
0000
0000
0000
0000
0000
0001
0000
0000
0000
0000
0000
1000
0000
0000
0000
0000
0000
0001
0000
0000
0000
0000
0000
1000
0000
0000
0000
0000
0000
0001
0000
0000
0000
0000
0000
1000
0000
0000
0000
0000
0000
0001
0000
0000
0000
0000
0000
1000
0000
0000
0000
0000
0000
0001
0000
0000
0000
0000
0000
1000
0000
0000
0000
0000
0000
,  // measure 172
2002
0000
0000
0000
,  // measure 173
0000
0000
0000
0000
,  // measure 174
0000
0000
0000
0000
,  // measure 175
0000
0000
0000
3003
,  // measure 176
1000
0001
1000
0001
1000
0001
1000
0001
,  // measure 177
1000
0001
1000
0001
1000
0001
1000
0001
1000
0001
1000
0001
1000
0001
1000
0001
,  // measure 178
0210
0010
0010
0010
,  // measure 179
0310
0000
0000
0000
0100
0000
0000
0000
0010
0000
0000
0000
0100
0000
0000
0000
0010
0000
0000
0000
0100
0000
0000
0000
0010
0000
0000
0100
0000
0000
0010
0000
0000
0100
0000
0000
0010
0000
0000
0100
0000
0000
0010
0000
0000
0100
0000
0000
,  // measure 180
1000
0001
1000
0001
0010
0001
0100
0001
,  // measure 181
1000
0001
0100
0001
0010
0000
0001
0000
,  // measure 182
0100
1000
0100
0010
,  // measure 183
2010
0000
0010
3000
0021
0000
0001
0030
,  // measure 184
0001
1000
0001
1000
0100
1000
0010
1000
,  // measure 185
0001
1000
0010
1000
0100
0000
1000
0000
,  // measure 186
0010
0001
0010
0100
,  // measure 187
0102
0000
0100
0003
1200
0000
1000
0300
,  // measure 188
0010
0100
0010
0100
0001
0100
1000
0100
,  // measure 189
0010
0100
1000
0100
0001
0000
0100
0000
,  // measure 190
1000
0010
1000
0001
,  // measure 191
0021
0000
0001
0030
0102
0000
0100
0003
,  // measure 192
0100
0010
0100
0010
1000
0010
0001
0010
,  // measure 193
0100
0010
0001
0010
1000
0000
0010
0000
,  // measure 194
0001
0100
0001
1000
,  // measure 195
1200
0000
1000
0300
2010
0000
0010
3000
,  // measure 196
1000
0001
1000
0001
0010
0001
0100
0001
,  // measure 197
1000
0001
0100
0001
0010
0000
0001
0000
,  // measure 198
0100
1000
0100
0010
,  // measure 199
2010
0000
0010
3000
0021
0000
0001
0030
,  // measure 200
0001
1000
0001
1000
0100
1000
0010
1000
,  // measure 201
0001
1000
0010
1000
0100
0000
1000
0000
,  // measure 202
0010
0001
0010
0100
,  // measure 203
0102
0000
0100
0003
1200
0000
1000
0300
,  // measure 204
0010
0100
0010
0100
0001
0100
1000
0100
,  // measure 205
0010
0100
1000
0100
0001
0000
0100
0000
,  // measure 206
1000
0010
1000
0001
,  // measure 207
0021
0000
0001
0030
0102
0000
0100
0003
,  // measure 208
0100
0010
0100
0010
1000
0010
0001
0010
,  // measure 209
0100
0010
0001
0010
1000
0000
0010
0000
,  // measure 210
0001
0100
0001
1000
,  // measure 211
1200
0000
1000
0300
2010
0000
0010
3000
,  // measure 212
1000
0001
1000
0001
0010
0001
0100
0001
,  // measure 213
1000
0001
0100
0001
0010
0000
0001
0000
,  // measure 214
0100
1000
0100
0010
,  // measure 215
2010
0000
0010
3000
0021
0000
0001
0030
,  // measure 216
0001
1000
0001
1000
0100
1000
0010
1000
,  // measure 217
0001
1000
0010
1000
0100
0000
1000
0000
,  // measure 218
0010
0001
0010
0100
,  // measure 219
0102
0000
0100
0003
1200
0000
1000
0300
,  // measure 220
0010
0100
0010
0100
0001
0100
1000
0100
,  // measure 221
0010
0100
1000
0100
0001
0000
0100
0000
,  // measure 222
1000
0010
1000
0001
,  // measure 223
0021
0000
0001
0030
0102
0000
0100
0003
,  // measure 224
0100
0010
0100
0010
1000
0010
0001
0010
,  // measure 225
0100
0010
0001
0010
1000
0000
0010
0000
,  // measure 226
0001
0100
0001
1000
,  // measure 227
1200
0000
1000
0300
2010
0000
0010
3000
,  // measure 228
1000
0001
1000
0001
0010
0001
0100
0001
,  // measure 229
1000
0001
0100
0001
0010
0000
0001
0000
,  // measure 230
0100
1000
0100
0010
,  // measure 231
2010
0000
0010
3000
0021
0000
0001
0030
,  // measure 232
0001
1000
0001
1000
0100
1000
0010
1000
,  // measure 233
0001
1000
0010
1000
0100
0000
1000
0000
,  // measure 234
0010
0001
0010
0100
,  // measure 235
0102
0000
0100
0003
1200
0000
1000
0300
,  // measure 236
0010
0100
0010
0100
0001
0100
1000
0100
,  // measure 237
0010
0100
1000
0100
0001
0000
0100
0000
,  // measure 238
1000
0010
1000
0001
,  // measure 239
0021
0000
0001
0030
0102
0000
0100
0003
,  // measure 240
0100
0010
0100
0010
1000
0010
0001
0010
,  // measure 241
0100
0010
0001
0010
1000
0000
0010
0000
,  // measure 242
0001
0100
0001
1000
,  // measure 243
1200
0000
1000
0300
2010
0000
0010
3000
,  // measure 244
2020
0000
0000
0000
0030
0000
0010
0010
0100
0000
0001
0000
0010
0000
3100
0000
,  // measure 245
0202
0000
0000
0000
0300
0000
0100
0100
0010
0000
1000
0000
0100
0000
0013
0000
,  // measure 246
0022
0000
0000
0000
0003
0000
0001
0001
1000
0000
0100
0000
0001
0000
1030
0000
,  // measure 247
2200
0000
0000
0000
3000
0000
1000
1000
0001
0000
0010
0000
1000
0000
0301
0000
,  // measure 248
2020
0000
0000
0000
0030
0000
0010
0010
0100
0000
0001
0000
0010
0000
3100
0000
,  // measure 249
0202
0000
0000
0000
0300
0000
0100
0100
0010
0000
1000
0000
0100
0000
0013
0000
,  // measure 250
0022
0000
0000
0000
0003
0000
0001
0001
1000
0000
0100
0000
0001
0000
1030
0000
,  // measure 251
2200
0000
0000
0000
3000
0000
1000
1000
0001
0000
0010
0000
1000
0000
0301
0000
,  // measure 252
0120
0001
0000
0230
0000
0000
2300
0001
0000
3002
0000
0000
0013
0100
1000
0010
,  // measure 253
0210
1000
0000
0320
0000
0000
0032
1000
0000
2003
0000
0000
3100
0010
0001
0100
,  // measure 254
1002
0100
0000
2003
0000
0000
3020
0100
0000
0230
0000
0000
0301
1000
0010
0001
,  // measure 255
2001
0010
0000
3002
0000
0000
0203
0010
0000
0320
0000
0000
1030
0001
0100
1000
,  // measure 256
1000
0000
0100
0000
0010
0001
1000
0100
1000
0000
0100
0000
0010
0001
1000
0100
,  // measure 257
0010
0000
0100
0000
0010
0100
1000
0001
0010
0000
0100
0000
0010
0100
1000
0001
,  // measure 258
1000
0001
1000
0001
1000
0001
1000
0001
,  // measure 259
1000
0001
1000
0001
1000
0001
1000
0001
1000
0001
1000
0001
1000
0001
1000
0001
,  // measure 260
0210
0010
0010
0010
,  // measure 261
0310
0000
0000
0000
0100
0000
0000
0000
0010
0000
0000
0000
0100
0000
0000
0000
0010
0000
0000
0000
0100
0000
0000
0000
0010
0000
0000
0100
0000
0000
0010
0000
0000
0100
0000
0000
0010
0000
0000
0100
0000
0000
0010
0000
0000
0100
0000
0000
,  // measure 262
1000
0000
0000
0100
0000
0000
0010
0000
0000
0001
0000
0000
0100
0000
0000
0000
0001
0000
0000
0000
0100
0000
0000
0000
,  // measure 263
0001
0100
0001
0100
0001
0100
1002
0000
,  // measure 264
0000
0000
1000
0000
0000
0000
0003
0000
0000
2010
0000
0000
0000
0000
0000
0000
0000
0010
0000
0000
0000
3000
0000
0000
,  // measure 265
0201
0000
0000
0000
0001
0000
0310
0000
0100
0000
0010
0000
,  // measure 266
0001
0000
0000
0010
0000
0000
0100
0000
0000
1000
0000
0000
0010
0000
0000
0000
1000
0000
0000
0000
0010
0000
0000
0000
,  // measure 267
1000
0010
1000
0010
1000
0010
2001
0000
,  // measure 268
0000
0000
0001
0000
0000
0000
3000
0000
0000
0102
0000
0000
0000
0000
0000
0000
0000
0100
0000
0000
0000
0003
0000
0000
,  // measure 269
1020
0000
0000
0000
1000
0000
0130
0000
0010
0000
0100
0000
,  // measure 270
0010
0000
0000
1000
0000
0000
0001
0000
0000
0100
0000
0000
1000
0000
0000
0000
0100
0000
0000
0000
1000
0000
0000
0000
,  // measure 271
0100
1000
0100
1000
0100
1000
0210
0000
,  // measure 272
0000
0000
0010
0000
0000
0000
0300
0000
0000
0021
0000
0000
0000
0000
0000
0000
0000
0001
0000
0000
0000
0030
0000
0000
,  // measure 273
2100
0000
0000
0000
0100
0000
3001
0000
1000
0000
0001
0000
,  // measure 274
0100
0000
0000
0001
0000
0000
1000
0000
0000
0010
0000
0000
0001
0000
0000
0000
0010
0000
0000
0000
0001
0000
0000
0000
,  // measure 275
0010
0001
0010
0001
0010
0001
0120
0000
,  // measure 276
0000
0000
0100
0000
0000
0000
0030
0000
0000
1200
0000
0000
0000
0000
0000
0000
0000
1000
0000
0000
0000
0300
0000
0000
,  // measure 277
0012
0000
0000
0000
0010
0000
1003
0000
0001
0000
1000
0000
,  // measure 278
1000
0000
0000
0100
0000
0000
0010
0000
0000
0001
0000
0000
0100
0000
0000
0000
0001
0000
0000
0000
0100
0000
0000
0000
,  // measure 279
0001
0100
0001
0100
0001
0100
1002
0000
,  // measure 280
0000
0000
1000
0000
0000
0000
0003
0000
0000
2010
0000
0000
0000
0000
0000
0000
0000
0010
0000
0000
0000
3000
0000
0000
,  // measure 281
0201
0000
0000
0000
0001
0000
0310
0000
0100
0000
0010
0000
,  // measure 282
0001
0000
0000
0010
0000
0000
0100
0000
0000
1000
0000
0000
0010
0000
0000
0000
1000
0000
0000
0000
0010
0000
0000
0000
,  // measure 283
1000
0010
1000
0010
1000
0010
2001
0000
,  // measure 284
0000
0000
0001
0000
0000
0000
3000
0000
0000
0102
0000
0000
0000
0000
0000
0000
0000
0100
0000
0000
0000
0003
0000
0000
,  // measure 285
1020
0000
0000
0000
1000
0000
0130
0000
0010
0000
0100
0000
,  // measure 286
0010
0000
0000
1000
0000
0000
0001
0000
0000
0100
0000
0000
1000
0000
0000
0000
0100
0000
0000
0000
1000
0000
0000
0000
,  // measure 287
0100
1000
0100
1000
0100
1000
0210
0000
,  // measure 288
0000
0000
0010
0000
0000
0000
0300
0000
0000
0021
0000
0000
0000
0000
0000
0000
0000
0001
0000
0000
0000
0030
0000
0000
,  // measure 289
2100
0000
0000
0000
0100
0000
3001
0000
1000
0000
0001
0000
,  // measure 290
0100
0000
0000
0001
0000
0000
1000
0000
0000
0010
0000
0000
0001
0000
0000
0000
0010
0000
0000
0000
0001
0000
0000
0000
,  // measure 291
0010
0001
0010
0001
0010
0001
0120
0000
,  // measure 292
0000
0000
0100
0000
0000
0000
0030
0000
0000
1200
0000
0000
0000
0000
0000
0000
0000
1000
0000
0000
0000
0300
0000
0000
,  // measure 293
0012
0000
0000
0000
0010
0000
1003
0000
0001
0000
1000
0000
,  // measure 294
1000
0001
1000
0100
0001
1000
0001
0010
,  // measure 295
1000
0000
0100
0000
0010
0000
0100
0000
0010
0000
0001
0000
,  // measure 296
0100
0000
0010
0000
1000
0000
0100
0000
0001
0000
0010
0000
,  // measure 297
0001
0100
0001
0100
1000
0010
1000
0010
,  // measure 298
0001
0000
1000
0000
0001
0000
1000
0000
0001
0000
1000
0000
,  // measure 299
0010
0000
0000
0000
0100
0000
0000
0000
0010
0000
0000
0000
0100
0000
0000
0001
0000
0000
0100
0000
0000
0001
0000
0000
,  // measure 300
1010
0000
0010
0000
0100
0010
1000
0000
,  // measure 301
0011
0000
0010
0000
1001
0010
0100
0000
,  // measure 302
0001
1000
0001
0010
1000
0001
1000
0100
,  // measure 303
0001
0000
0010
0000
0100
0000
0010
0000
0100
0000
1000
0000
,  // measure 304
0010
0000
0100
0000
0001
0000
0010
0000
1000
0000
0100
0000
,  // measure 305
1000
0010
1000
0010
0001
0100
0001
0100
,  // measure 306
1000
0000
0001
0000
1000
0000
0001
0000
1000
0000
0001
0000
,  // measure 307
0100
0000
0000
0000
0010
0000
0000
0000
0100
0000
0000
0000
0010
0000
0000
1000
0000
0000
0010
0000
0000
1000
0000
0000
,  // measure 308
0101
0000
0100
0000
0010
0100
0001
0000
,  // measure 309
1100
0000
0100
0000
1001
0100
0010
0000
,  // measure 310
1000
0001
1000
0001
1000
0001
1000
0001
,  // measure 311
1000
0010
1000
0010
1000
0010
1000
0010
,  // measure 312
0100
0001
0100
0001
1000
0100
0010
0001
,  // measure 313
0100
0000
0001
0000
0100
0000
0001
0000
0100
0000
0001
0000
1000
0000
0000
0010
0000
0000
1000
0000
0000
0010
0000
0000
,  // measure 314
0001
1000
0001
1000
0001
1000
0001
1000
,  // measure 315
0001
0100
0001
0100
0001
0100
0001
0100
,  // measure 316
0010
1000
0010
1000
0001
0010
0100
1000
,  // measure 317
0010
0000
1000
0000
0010
0000
1000
0000
0010
0000
1000
0000
0001
0000
0000
0100
0000
0000
0001
0000
0000
0100
0000
0000
,  // measure 318
0010
0100
0010
0100
0010
0100
0010
0100
,  // measure 319
0010
0001
0010
0001
0010
0001
0010
0001
,  // measure 320
1000
0100
1000
0100
0010
1000
0001
0100
,  // measure 321
1000
0000
0100
0000
1000
0000
0100
0000
1000
0000
0100
0000
0010
0000
0000
0001
0000
0000
0010
0000
0000
0001
0000
0000
,  // measure 322
0100
0010
0100
0010
0100
0010
0100
0010
,  // measure 323
0100
1000
0100
1000
0100
1000
0100
1000
,  // measure 324
0001
0010
0001
0010
0100
0001
1000
0010
,  // measure 325
0001
0000
0010
0000
0001
0000
0010
0000
0001
0000
0010
0000
0100
0000
0000
1000
0000
0000
0100
0000
0000
1000
0000
0000
,  // measure 326
2002
0000
0000
0000
,  // measure 327
0000
0000
0000
0000
,  // measure 328
3003
0000
0000
0000
;

//---------------dance-single - Deluxe----------------
#NOTES:
     dance-single:
     :
     Edit:
     28:
     1.644234,3.165465,1.044805,0.835005,1.346917,2743.000000,2494.000000,249.000000,199.000000,0.000000,0.000000,1.644234,3.165465,1.044805,0.835005,1.346917,2743.000000,2494.000000,249.000000,199.000000,0.000000,0.000000:
// measure 0
0000
0000
0000
0000
,  // measure 1
0000
0000
0000
0000
,  // measure 2
0000
0000
0000
0000
,  // measure 3
2020
0000
0000
0000
0030
0000
0010
0010
0100
0010
0001
0000
0010
0000
3100
0000
,  // measure 4
0202
0000
0000
0000
0300
0000
0100
0100
0010
0100
1000
0000
0100
0000
0013
0000
,  // measure 5
0022
0000
0000
0000
0003
0000
0001
0001
1000
0001
0100
0000
0001
0000
1030
0000
,  // measure 6
2200
0000
0000
0000
3000
0000
1000
1000
0001
1000
0010
0000
1000
0000
0301
0000
,  // measure 7
2020
0000
0000
0000
0030
0000
0010
0010
0100
0010
0001
0000
0010
0000
3100
0000
,  // measure 8
0202
0000
0000
0000
0300
0000
0100
0100
0010
0100
1000
0000
0100
0000
0013
0000
,  // measure 9
0022
0000
0000
0000
0003
0000
0001
0001
1000
0001
0100
0000
0001
0000
1030
0000
,  // measure 10
2200
0000
0000
0000
3000
0000
1000
1000
0001
1000
0010
0000
1000
0000
0301
0000
,  // measure 11
1000
0001
1000
0010
0001
0001
1000
0000
0010
0001
0010
0100
1000
1000
0010
0000
,  // measure 12
0001
1000
0001
0100
1000
1000
0001
0000
0100
1000
0100
0010
0001
0001
0100
0000
,  // measure 13
0010
0100
0010
0001
0100
0100
0010
0000
0001
0100
0001
1000
0010
0010
1000
0000
,  // measure 14
0100
0010
0100
1000
0010
0010
0100
0000
1000
0010
1000
0001
0100
0100
0001
0000
,  // measure 15
1000
0001
1000
0010
0001
0001
1000
0000
0010
0001
0010
0100
1000
1000
0100
0000
,  // measure 16
0001
1000
0001
0100
1000
1000
0001
0000
0100
1000
0100
0010
0001
0001
0010
0000
,  // measure 17
0010
0100
0010
0001
0100
0100
0010
0000
0001
0100
0001
1000
0010
0010
1000
0000
,  // measure 18
0100
0010
0100
1000
0010
0010
0100
0000
1000
0010
1000
0001
0100
0100
0001
0000
,  // measure 19
1000
0001
1000
0001
1000
0001
1000
0001
1000
0001
1000
0001
,  // measure 20
1100
0000
0100
1000
0100
0000
0000
0000
0101
0000
0001
0100
0001
0000
0000
0000
,  // measure 21
0110
0000
0100
0010
0100
0000
0000
0000
0101
0000
0001
0100
0001
0000
0000
0000
,  // measure 22
0001
0000
0000
0000
1000
0000
0000
0000
0001
0000
0000
0000
1000
0000
0000
0000
0001
0000
0000
0000
1000
0000
0000
0000
0001
0000
0000
0000
1000
0000
0000
0000
0001
0000
0000
0000
1000
0000
0000
0001
0000
0000
0010
0000
0000
1000
0000
0000
,  // measure 23
0001
1000
0001
1000
0001
1000
0001
1000
0001
1000
0001
1000
,  // measure 24
0011
0000
0010
0001
0010
0000
0000
0000
1010
0000
1000
0010
1000
0000
0000
0000
,  // measure 25
0110
0000
0010
0100
0010
0000
0000
0000
1010
0000
1000
0010
1000
0000
0000
0000
,  // measure 26
1000
0000
0000
0000
0001
0000
0000
0000
1000
0000
0000
0000
0001
0000
0000
0000
1000
0000
0000
0000
0001
0000
0000
0000
1000
0000
0000
0000
0001
0000
0000
0000
1000
0000
0000
0000
0001
0000
0000
1000
0000
0000
0100
0000
0000
0001
0000
0000
,  // measure 27
0010
0100
0010
0100
0010
0100
0010
0100
0010
0100
0010
0100
,  // measure 28
1010
0000
1000
0010
1000
0000
0000
0000
1100
0000
0100
1000
0100
0000
0000
0000
,  // measure 29
1001
0000
1000
0001
1000
0000
0000
0000
1100
0000
0100
1000
0100
0000
0000
0000
,  // measure 30
0100
0000
0000
0000
0010
0000
0000
0000
0100
0000
0000
0000
0010
0000
0000
0000
0100
0000
0000
0000
0010
0000
0000
0000
0100
0000
0000
0000
0010
0000
0000
0000
0100
0000
0000
0000
0010
0000
0000
0100
0000
0000
0001
0000
0000
0010
0000
0000
,  // measure 31
0100
0010
0100
0010
0100
0010
0100
0010
0100
0010
0100
0010
,  // measure 32
0101
0000
0001
0100
0001
0000
0000
0000
0011
0000
0010
0001
0010
0000
0000
0000
,  // measure 33
1001
0000
0001
1000
0001
0000
0000
0000
0011
0000
0010
0001
0010
0000
0000
0000
,  // measure 34
0010
0000
0000
0000
0100
0000
0000
0000
0010
0000
0000
0000
0100
0000
0000
0000
0010
0000
0000
0000
0100
0000
0000
0000
0010
0000
0000
0000
0100
0000
0000
0000
0010
0000
0000
0000
0100
0000
0000
0010
0000
0000
1000
0000
0000
0100
0000
0000
,  // measure 35
1000
0010
1000
0010
1000
0010
1000
0100
0001
0100
1000
0100
,  // measure 36
0010
0100
0010
0000
0110
0000
0000
0000
0100
0010
0100
0000
0110
0000
0000
0000
,  // measure 37
0001
0100
0001
0100
0001
0100
0001
0010
1000
0010
0001
0010
,  // measure 38
0100
0010
0100
0000
0110
0000
0000
0000
0010
0100
0010
0000
0110
0000
0000
0000
,  // measure 39
0010
0001
0010
0001
0010
0001
0010
1000
0100
1000
0010
1000
,  // measure 40
0001
1000
0001
0000
1001
0000
0000
0000
1000
0001
1000
0000
1001
0000
0000
0000
,  // measure 41
0100
1000
0100
1000
0100
1000
0100
0001
0010
0001
0100
0001
,  // measure 42
1000
0001
1000
0000
1001
0000
0000
0000
0001
1000
0001
0000
1001
0000
0000
0000
,  // measure 43
1010
0000
0100
0000
1000
0000
0100
0000
1000
0000
0100
0000
2020
0000
0000
0000
0000
0000
0000
0000
0000
3030
0000
0000
,  // measure 44
0101
0000
0010
0000
0001
0000
0010
0000
0001
0000
0010
0000
0202
0000
0000
0000
0000
0000
0000
0000
0000
0303
0000
0000
,  // measure 45
0011
0000
1000
0000
0010
0000
1000
0000
0010
0000
1000
0000
0022
0000
0000
0000
0000
0000
0000
0000
0000
0033
0000
0000
,  // measure 46
1100
0000
0001
0000
0100
0000
0001
0000
0100
0000
0001
0000
2200
0000
0000
0000
0000
0000
0000
0000
0000
3300
0000
0000
,  // measure 47
1000
0001
1000
0001
1000
0001
1000
0001
,  // measure 48
1000
0001
1000
0001
1000
0001
1000
0001
1000
0001
1000
0001
1000
0001
1000
0001
,  // measure 49
0210
0010
0010
0010
,  // measure 50
0310
0000
0000
0000
0100
0000
0000
0000
0010
0000
0000
0000
0100
0000
0000
0000
0010
0000
0000
0000
0100
0000
0000
0000
0010
0000
0000
0100
0000
0000
0010
0000
0000
0100
0000
0000
0010
0000
0000
0100
0000
0000
0010
0000
0000
0100
0000
0000
,  // measure 51
1000
0001
1000
0100
0001
1000
0001
0010
,  // measure 52
1000
0000
0100
0000
0010
0000
0100
0000
0010
0000
0001
0000
,  // measure 53
0100
0000
0010
0000
1000
0000
0100
0000
0001
0000
0010
0000
,  // measure 54
0001
0100
0001
0100
1000
0010
1000
0010
,  // measure 55
0001
0000
1000
0000
0001
0000
1000
0000
0001
0000
1000
0000
,  // measure 56
0010
0000
0000
0000
0100
0000
0000
0000
0010
0000
0000
0000
0100
0000
0000
0001
0000
0000
0100
0000
0000
0001
0000
0000
,  // measure 57
1010
0000
0010
0000
0100
0010
1000
0100
,  // measure 58
0011
0000
0010
0000
1001
0010
0100
0010
,  // measure 59
0001
1000
0001
0010
1000
0001
1000
0100
,  // measure 60
0001
0000
0010
0000
0100
0000
0010
0000
0100
0000
1000
0000
,  // measure 61
0010
0000
0100
0000
0001
0000
0010
0000
1000
0000
0100
0000
,  // measure 62
1000
0010
1000
0010
0001
0100
0001
0100
,  // measure 63
1000
0000
0001
0000
1000
0000
0001
0000
1000
0000
0001
0000
,  // measure 64
0100
0000
0000
0000
0010
0000
0000
0000
0100
0000
0000
0000
0010
0000
0000
1000
0000
0000
0010
0000
0000
1000
0000
0000
,  // measure 65
0101
0000
0100
0000
0010
0100
0001
0010
,  // measure 66
1100
0000
0100
0000
1001
0100
0010
0100
,  // measure 67
0010
0100
0010
1000
0100
0010
0100
0001
,  // measure 68
0010
0000
1000
0000
0001
0000
1000
0000
0001
0000
0100
0000
,  // measure 69
1000
0000
0001
0000
0010
0000
1000
0000
0100
0000
0001
0000
,  // measure 70
0100
1000
0100
1000
0010
0001
0010
0001
,  // measure 71
0100
0000
0010
0000
0100
0000
0010
0000
0100
0000
0010
0000
,  // measure 72
0001
0000
0000
0000
1000
0000
0000
0000
0001
0000
0000
0000
1000
0000
0000
0100
0000
0000
1000
0000
0000
0100
0000
0000
,  // measure 73
0011
0000
0001
0000
1000
0001
0010
1000
,  // measure 74
0101
0000
0001
0000
0110
0001
1000
0001
,  // measure 75
0100
0010
0100
0001
0010
0100
0010
1000
,  // measure 76
0100
0000
0001
0000
1000
0000
0001
0000
1000
0000
0010
0000
,  // measure 77
0001
0000
1000
0000
0100
0000
0001
0000
0010
0000
1000
0000
,  // measure 78
0010
0001
0010
0001
0100
1000
0100
1000
,  // measure 79
0010
0000
0100
0000
0010
0000
0100
0000
0010
0000
0100
0000
,  // measure 80
1000
0000
0000
0000
0001
0000
0000
0000
1000
0000
0000
0000
0001
0000
0000
0010
0000
0000
0001
0000
0000
0010
0000
0000
,  // measure 81
1100
0000
1000
0000
0001
1000
0100
0001
,  // measure 82
1010
0000
1000
0000
0110
1000
0001
1000
,  // measure 83
1001
0000
0100
0000
1000
0000
0010
0000
1000
0100
1000
0010
1000
0100
1000
0000
,  // measure 84
1001
0000
0010
0000
0001
0000
0100
0000
0001
0010
0001
0100
0001
0010
0001
0000
,  // measure 85
0110
0000
0001
0000
0010
0000
1000
0000
0010
1000
0010
0001
0010
1000
0010
0000
,  // measure 86
0110
0000
1000
0000
0100
0000
0001
0000
0100
0001
0100
1000
0100
0001
0100
0000
,  // measure 87
1000
0001
1000
0100
0001
1000
0001
0010
,  // measure 88
1000
0000
0100
0000
0010
0000
0100
0000
0010
0000
0001
0000
,  // measure 89
0100
0000
0010
0000
1000
0000
0100
0000
0001
0000
0010
0000
,  // measure 90
0001
0100
0001
0100
1000
0010
1000
0010
,  // measure 91
0001
0000
1000
0000
0001
0000
1000
0000
0001
0000
1000
0000
,  // measure 92
0010
0000
0000
0000
0100
0000
0000
0000
0010
0000
0000
0000
0100
0000
0000
0001
0000
0000
0100
0000
0000
0001
0000
0000
,  // measure 93
1010
0000
0010
0000
0100
0010
1000
0100
,  // measure 94
0011
0000
0010
0000
1001
0010
0100
0010
,  // measure 95
1001
0000
0010
0000
0001
0000
0100
0000
0001
0010
0001
0100
0001
0010
0001
0000
,  // measure 96
1001
0000
0100
0000
1000
0000
0010
0000
1000
0100
1000
0010
1000
0100
1000
0000
,  // measure 97
0110
0000
1000
0000
0100
0000
0001
0000
0100
0001
0100
1000
0100
0001
0100
0000
,  // measure 98
0110
0000
0001
0000
0010
0000
1000
0000
0010
1000
0010
0001
0010
1000
0010
0000
,  // measure 99
0001
1000
0001
0010
1000
0001
1000
0100
,  // measure 100
0001
0000
0010
0000
0100
0000
0010
0000
0100
0000
1000
0000
,  // measure 101
0010
0000
0100
0000
0001
0000
0010
0000
1000
0000
0100
0000
,  // measure 102
1000
0010
1000
0010
0001
0100
0001
0100
,  // measure 103
1000
0000
0001
0000
1000
0000
0001
0000
1000
0000
0001
0000
,  // measure 104
0100
0000
0000
0000
0010
0000
0000
0000
0100
0000
0000
0000
0010
0000
0000
1000
0000
0000
0010
0000
0000
1000
0000
0000
,  // measure 105
0101
0000
0100
0000
0010
0001
0010
0001
,  // measure 106
1100
0000
0100
0000
1001
0100
0010
0100
,  // measure 107
2002
0000
0000
0000
0000
0000
0000
0003
,  // measure 108
0001
0001
0001
0001
0001
0001
3001
0000
,  // measure 109
0220
0000
0000
0000
0000
0000
0000
0300
,  // measure 110
0100
0100
0100
0100
0100
0100
0130
0000
,  // measure 111
2002
0000
0000
0000
0000
0000
0000
3000
,  // measure 112
1000
1000
1000
1000
1000
1000
1003
0000
,  // measure 113
1000
0100
0010
0001
1000
0100
0010
0001
1000
0100
0010
0001
1000
0100
0010
0001
,  // measure 114
1001
0000
0110
0000
1000
0100
0010
0001
1001
0000
0110
0000
0001
0010
0100
1000
,  // measure 115
0220
0000
0000
0030
0010
0000
0310
0000
,  // measure 116
2002
0000
0000
3000
1000
0000
1003
0000
,  // measure 117
0220
0000
0000
0300
0100
0000
0130
0000
,  // measure 118
2002
0000
0000
0003
0001
0000
3001
0000
,  // measure 119
1001
0100
1000
0000
0100
0010
0100
0000
0001
0010
0001
0000
0100
0010
0100
0000
,  // measure 120
1001
0010
0001
0000
0010
0100
0010
0000
1000
0100
1000
0000
0010
0100
0010
0000
,  // measure 121
1000
0000
0000
0001
0000
0000
1000
0000
0000
0001
0000
0000
1000
0000
0000
0001
0000
0000
1000
0000
0000
0001
0000
0000
1000
0000
0001
0000
1000
0000
0001
0000
1000
0000
0001
0000
1000
0000
0001
0000
1000
0000
0001
0000
1000
0000
0001
0000
,  // measure 122
1000
0000
1001
1000
0001
1000
0001
1000
0001
0000
1001
0001
1000
0001
1000
0001
,  // measure 123
0100
0010
0100
0010
1000
0010
1000
0010
,  // measure 124
0102
0100
0103
1010
0020
0100
1000
0030
,  // measure 125
0102
0100
0103
1010
0020
0100
1000
0030
,  // measure 126
0102
0100
0103
1010
0020
0100
1000
0030
,  // measure 127
0100
0010
0100
0010
1000
0010
1000
0010
,  // measure 128
0102
0100
0103
1010
0020
0100
1000
0030
,  // measure 129
1010
1000
0101
0001
0110
0001
0101
1000
,  // measure 130
1000
0000
0001
0000
1000
0000
0001
0000
1000
0001
1000
0001
1000
0001
1000
0001
,  // measure 131
0010
0100
0010
0100
0001
0100
0001
0100
,  // measure 132
2010
0010
3010
0101
0200
0010
0001
0300
,  // measure 133
2010
0010
3010
0101
0200
0010
0001
0300
,  // measure 134
2010
0010
3010
0101
0200
0010
0001
0300
,  // measure 135
0010
0100
0010
0100
0001
0100
0001
0100
,  // measure 136
2010
0010
3010
0101
0200
0010
0001
0300
,  // measure 137
0101
0001
1010
1000
0110
1000
1010
0001
,  // measure 138
0001
0000
1000
0000
0001
0000
1000
0000
0001
1000
0001
1000
0001
1000
0001
1000
,  // measure 139
1000
0001
1000
0001
0010
0001
0010
0001
,  // measure 140
1200
1000
1300
0011
0002
1000
0010
0003
,  // measure 141
1200
1000
1300
0011
0002
1000
0010
0003
,  // measure 142
1200
1000
1300
0011
0002
1000
0010
0003
,  // measure 143
1000
0001
1000
0001
0010
0001
0010
0001
,  // measure 144
1200
1000
1300
0011
0002
1000
0010
0003
,  // measure 145
0011
0010
1100
0010
1001
0100
1100
0100
,  // measure 146
0010
0000
0100
0000
0010
0000
0100
0000
0010
0100
0010
0100
0010
0100
0010
0100
,  // measure 147
0001
1000
0001
1000
0100
1000
0100
1000
,  // measure 148
0021
0001
0031
1100
2000
0001
0000
3000
,  // measure 149
0021
0001
0031
1100
2000
0001
0000
3000
,  // measure 150
0021
0001
0031
1100
2000
0001
0100
3000
,  // measure 151
0001
1000
0001
1000
0100
1000
0100
1000
,  // measure 152
0021
0001
0031
1100
2000
0001
0000
3000
,  // measure 153
1100
0100
0011
0000
1001
0010
0011
0000
,  // measure 154
0100
0000
0010
0000
0100
0000
0010
0000
0100
0010
0100
0010
0100
0010
0100
0010
,  // measure 155
2002
0000
0000
0000
0000
0000
0000
0000
0000
0000
0000
0000
0000
0000
0000
3003
,  // measure 156
0120
0001
0000
0230
0000
0000
2300
0001
0000
3002
1000
0000
0013
0100
1000
0010
,  // measure 157
0210
1000
0000
0320
0000
0000
0032
1000
0000
2003
0001
0000
3100
0010
0001
0100
,  // measure 158
1002
0100
0000
2003
0000
0000
3020
0100
0000
0230
0010
0000
0301
1000
0010
0001
,  // measure 159
2001
0010
0000
3002
0000
0000
0203
0010
0000
0320
0100
0000
1030
0001
0100
1000
,  // measure 160
0120
0001
0000
0230
0000
0000
2300
0001
0000
3002
1000
0000
0013
0100
1000
0010
,  // measure 161
0210
1000
0000
0320
0000
0000
0032
1000
0000
2003
0001
0000
3100
0010
0001
0100
,  // measure 162
1002
0100
0000
2003
0000
0000
3020
0100
0000
0230
0010
0000
0301
1000
0010
0001
,  // measure 163
2001
0010
0000
3002
0000
0000
0203
0010
0000
0320
0100
0000
1030
0001
0100
1000
,  // measure 164
0011
0011
1010
1010
0011
0011
1010
1010
,  // measure 165
1100
1100
0101
0101
1100
1100
0101
0101
,  // measure 166
0101
0101
0011
0011
0101
0101
0011
0011
,  // measure 167
1010
1010
1100
1100
1010
1010
1100
1100
,  // measure 168
1000
0000
0100
0000
0010
0001
1000
0100
1000
0000
0100
0000
0010
0001
1000
0100
,  // measure 169
0010
0000
0100
0000
0010
0100
1000
0001
0010
0000
0100
0000
0010
0100
1000
0001
,  // measure 170
1000
0100
0010
0001
0100
0010
1000
0001
0100
0010
0001
1000
0001
0010
0100
1000
,  // measure 171
0001
0000
0000
0000
0000
0000
0000
0000
1000
0000
0000
0000
0000
0000
0000
0000
0001
0000
0000
0000
0000
0000
0000
0000
1000
0000
0000
0000
0000
0000
0000
0000
0001
0000
0000
0000
0000
0000
0000
0000
1000
0000
0000
0000
0000
0000
0000
0000
0001
0000
0000
0000
0000
0000
0000
0000
1000
0000
0000
0000
0000
0000
0000
0000
0001
0000
0000
0000
0000
0000
0000
0000
1000
0000
0000
0000
0000
0000
0000
0000
0001
0000
0000
0000
0000
0000
0000
0000
1000
0000
0000
0000
0000
0000
0000
0000
0001
0000
0000
0000
0000
0000
1000
0000
0000
0000
0000
0000
0001
0000
0000
0000
0000
0000
1000
0000
0000
0000
0000
0000
0001
0000
0000
0000
0000
0000
1000
0000
0000
0000
0000
0000
0001
0000
0000
0000
0000
0000
1000
0000
0000
0000
0000
0000
0001
0000
0000
0000
0000
0000
1000
0000
0000
0000
0000
0000
0001
0000
0000
0000
0000
0000
1000
0000
0000
0000
0000
0000
0001
0000
0000
0000
0000
0000
1000
0000
0000
0000
0000
0000
0001
0000
0000
0000
0000
0000
1000
0000
0000
0000
0000
0000
,  // measure 172
2002
0000
0000
0000
,  // measure 173
0000
0000
0000
0000
,  // measure 174
0000
0000
0000
0000
,  // measure 175
0000
0000
0000
3003
,  // measure 176
1000
0001
1000
0001
1000
0001
1000
0001
,  // measure 177
1000
0001
1000
0001
1000
0001
1000
0001
1000
0001
1000
0001
1000
0001
1000
0001
,  // measure 178
0210
0010
0010
0010
,  // measure 179
0310
0000
0000
0000
0100
0000
0000
0000
0010
0000
0000
0000
0100
0000
0000
0000
0010
0000
0000
0000
0100
0000
0000
0000
0010
0000
0000
0100
0000
0000
0010
0000
0000
0100
0000
0000
0010
0000
0000
0100
0000
0000
0010
0000
0000
0100
0000
0000
,  // measure 180
1000
0001
1000
0001
0010
0001
0100
0001
,  // measure 181
1000
0001
0100
0001
0010
0000
0001
0000
,  // measure 182
0100
0001
1000
0000
0100
0001
0010
0000
,  // measure 183
2010
0000
0010
3000
0021
0000
0001
0030
,  // measure 184
0001
1000
0001
1000
0100
1000
0010
1000
,  // measure 185
0001
1000
0010
1000
0100
0000
1000
0000
,  // measure 186
0010
1000
0001
0000
0010
1000
0100
0000
,  // measure 187
0102
0000
0100
0003
1200
0000
1000
0300
,  // measure 188
0010
0100
0010
0100
0001
0100
1000
0100
,  // measure 189
0010
0100
1000
0100
0001
0000
0100
0000
,  // measure 190
1000
0100
0010
0000
1000
0100
0001
0000
,  // measure 191
0021
0000
0001
0030
0102
0000
0100
0003
,  // measure 192
0100
0010
0100
0010
1000
0010
0001
0010
,  // measure 193
0100
0010
0001
0010
1000
0000
0010
0000
,  // measure 194
0001
0010
0100
0000
0001
0010
1000
0000
,  // measure 195
1200
0000
1000
0300
2010
0000
0010
3000
,  // measure 196
1000
0001
1000
0001
0010
0001
0100
0001
,  // measure 197
1000
0001
0100
0001
0010
0000
0001
0000
,  // measure 198
0100
0001
1000
0000
0100
0001
0010
0000
,  // measure 199
2010
0000
0010
3000
0021
0000
0001
0030
,  // measure 200
0001
1000
0001
1000
0100
1000
0010
1000
,  // measure 201
0001
1000
0010
1000
0100
0000
1000
0000
,  // measure 202
0010
1000
0001
0000
0010
1000
0100
0000
,  // measure 203
0102
0000
0100
0003
1200
0000
1000
0300
,  // measure 204
0010
0100
0010
0100
0001
0100
1000
0100
,  // measure 205
0010
0100
1000
0100
0001
0000
0100
0000
,  // measure 206
1000
0100
0010
0000
1000
0100
0001
0000
,  // measure 207
0021
0000
0001
0030
0102
0000
0100
0003
,  // measure 208
0100
0010
0100
0010
1000
0010
0001
0010
,  // measure 209
0100
0010
0001
0010
1000
0000
0010
0000
,  // measure 210
0001
0010
0100
0000
0001
0010
1000
0000
,  // measure 211
1200
0000
1000
0300
2010
0000
0010
3000
,  // measure 212
1000
0001
1000
0001
0010
0001
0100
0001
,  // measure 213
1000
0001
0100
0001
0010
0000
0001
0000
,  // measure 214
0100
0001
1000
0000
0100
0001
0010
0000
,  // measure 215
2010
0000
0010
3000
0021
0000
0001
0030
,  // measure 216
0001
1000
0001
1000
0100
1000
0010
1000
,  // measure 217
0001
1000
0010
1000
0100
0000
1000
0000
,  // measure 218
0010
1000
0001
0000
0010
1000
0100
0000
,  // measure 219
0102
0000
0100
0003
1200
0000
1000
0300
,  // measure 220
0010
0100
0010
0100
0001
0100
1000
0100
,  // measure 221
0010
0100
1000
0100
0001
0000
0100
0000
,  // measure 222
1000
0100
0010
0000
1000
0100
0001
0000
,  // measure 223
0021
0000
0001
0030
0102
0000
0100
0003
,  // measure 224
0100
0010
0100
0010
1000
0010
0001
0010
,  // measure 225
0100
0010
0001
0010
1000
0000
0010
0000
,  // measure 226
0001
0010
0100
0000
0001
0010
1000
0000
,  // measure 227
1200
0000
1000
0300
2010
0000
0010
3000
,  // measure 228
1000
0001
1000
0001
0010
0001
0100
0001
,  // measure 229
1000
0001
0100
0001
0010
0000
0001
0000
,  // measure 230
0100
0001
1000
0000
0100
0001
0010
0000
,  // measure 231
2010
0000
0010
3000
0021
0000
0001
0030
,  // measure 232
0001
1000
0001
1000
0100
1000
0010
1000
,  // measure 233
0001
1000
0010
1000
0100
0000
1000
0000
,  // measure 234
0010
1000
0001
0000
0010
1000
0100
0000
,  // measure 235
0102
0000
0100
0003
1200
0000
1000
0300
,  // measure 236
0010
0100
0010
0100
0001
0100
1000
0100
,  // measure 237
0010
0100
1000
0100
0001
0000
0100
0000
,  // measure 238
1000
0100
0010
0000
1000
0100
0001
0000
,  // measure 239
0021
0000
0001
0030
0102
0000
0100
0003
,  // measure 240
0100
0010
0100
0010
1000
0010
0001
0010
,  // measure 241
0100
0010
0001
0010
1000
0000
0010
0000
,  // measure 242
0001
0010
0100
0000
0001
0010
1000
0000
,  // measure 243
1200
0000
1000
0300
2010
0000
0010
3000
,  // measure 244
2020
0000
0000
0000
0030
0000
0010
0010
0100
0010
0001
0000
0010
0000
3100
0000
,  // measure 245
0202
0000
0000
0000
0300
0000
0100
0100
0010
0100
1000
0000
0100
0000
0013
0000
,  // measure 246
0022
0000
0000
0000
0003
0000
0001
0001
1000
0001
0100
0000
0001
0000
1030
0000
,  // measure 247
2200
0000
0000
0000
3000
0000
1000
1000
0001
1000
0010
0000
1000
0000
0301
0000
,  // measure 248
2020
0000
0000
0000
0030
0000
0010
0010
0100
0010
0001
0000
0010
0000
3100
0000
,  // measure 249
0202
0000
0000
0000
0300
0000
0100
0100
0010
0100
1000
0000
0100
0000
0013
0000
,  // measure 250
0022
0000
0000
0000
0003
0000
0001
0001
1000
0001
0100
0000
0001
0000
1030
0000
,  // measure 251
2200
0000
0000
0000
3000
0000
1000
1000
0001
1000
0010
0000
1000
0000
0301
0000
,  // measure 252
0120
0001
0000
0230
0000
0000
2300
0001
0000
3002
1000
0000
0013
0100
1000
0010
,  // measure 253
0210
1000
0000
0320
0000
0000
0032
1000
0000
2003
0001
0000
3100
0010
0001
0100
,  // measure 254
1002
0100
0000
2003
0000
0000
3020
0100
0000
0230
0010
0000
0301
1000
0010
0001
,  // measure 255
2001
0010
0000
3002
0000
0000
0203
0010
0000
0320
0100
0000
1030
0001
0100
1000
,  // measure 256
1000
0000
0100
0000
0010
0001
1000
0100
1000
0000
0100
0000
0010
0001
1000
0100
,  // measure 257
0010
0000
0100
0000
0010
0100
1000
0001
0010
0000
0100
0000
0010
0100
1000
0001
,  // measure 258
1000
0001
1000
0001
1000
0001
1000
0001
,  // measure 259
1000
0001
1000
0001
1000
0001
1000
0001
1000
0001
1000
0001
1000
0001
1000
0001
,  // measure 260
0210
0010
0010
0010
,  // measure 261
0310
0000
0000
0000
0100
0000
0000
0000
0010
0000
0000
0000
0100
0000
0000
0000
0010
0000
0000
0000
0100
0000
0000
0000
0010
0000
0000
0100
0000
0000
0010
0000
0000
0100
0000
0000
0010
0000
0000
0100
0000
0000
0010
0000
0000
0100
0000
0000
,  // measure 262
1000
0100
0010
0001
0100
0001
0100
0010
,  // measure 263
0001
0100
0001
0100
0001
0100
1002
0000
,  // measure 264
0000
0000
1000
0000
0000
0000
0003
0000
0000
2010
0000
0000
0000
0000
0000
0000
0000
0010
0000
0000
0000
3000
0000
0000
,  // measure 265
0201
0000
0000
0000
0001
0000
0310
0000
0100
0000
0010
0000
,  // measure 266
0001
0010
0100
1000
0010
1000
0010
0100
,  // measure 267
1000
0010
1000
0010
1000
0010
2001
0000
,  // measure 268
0000
0000
0001
0000
0000
0000
3000
0000
0000
0102
0000
0000
0000
0000
0000
0000
0000
0100
0000
0000
0000
0003
0000
0000
,  // measure 269
1020
0000
0000
0000
1000
0000
0130
0000
0010
0000
0100
0000
,  // measure 270
0010
1000
0001
0100
1000
0100
1000
0001
,  // measure 271
0100
1000
0100
1000
0100
1000
0210
0000
,  // measure 272
0000
0000
0010
0000
0000
0000
0300
0000
0000
0021
0000
0000
0000
0000
0000
0000
0000
0001
0000
0000
0000
0030
0000
0000
,  // measure 273
2100
0000
0000
0000
0100
0000
3001
0000
1000
0000
0001
0000
,  // measure 274
0100
0001
1000
0010
0001
0010
0001
1000
,  // measure 275
0010
0001
0010
0001
0010
0001
0120
0000
,  // measure 276
0000
0000
0100
0000
0000
0000
0030
0000
0000
1200
0000
0000
0000
0000
0000
0000
0000
1000
0000
0000
0000
0300
0000
0000
,  // measure 277
0012
0000
0000
0000
0010
0000
1003
0000
0001
0000
1000
0000
,  // measure 278
1000
0100
0010
0001
0100
0001
0100
0010
,  // measure 279
0001
0100
0001
0100
0001
0100
1002
0000
,  // measure 280
0000
0000
1000
0000
0000
0000
0003
0000
0000
2010
0000
0000
0000
0000
0000
0000
0000
0010
0000
0000
0000
3000
0000
0000
,  // measure 281
0201
0000
0000
0000
0001
0000
0310
0000
0100
0000
0010
0000
,  // measure 282
0001
0010
0100
1000
0010
1000
0010
0100
,  // measure 283
1000
0010
1000
0010
1000
0010
2001
0000
,  // measure 284
0000
0000
0001
0000
0000
0000
3000
0000
0000
0102
0000
0000
0000
0000
0000
0000
0000
0100
0000
0000
0000
0003
0000
0000
,  // measure 285
1020
0000
0000
0000
1000
0000
0130
0000
0010
0000
0100
0000
,  // measure 286
0010
1000
0001
0100
1000
0100
1000
0001
,  // measure 287
0100
1000
0100
1000
0100
1000
0210
0000
,  // measure 288
0000
0000
0010
0000
0000
0000
0300
0000
0000
0021
0000
0000
0000
0000
0000
0000
0000
0001
0000
0000
0000
0030
0000
0000
,  // measure 289
2100
0000
0000
0000
0100
0000
3001
0000
1000
0000
0001
0000
,  // measure 290
0100
0001
1000
0010
0001
0010
0001
1000
,  // measure 291
0010
0001
0010
0001
0010
0001
0120
0000
,  // measure 292
0000
0000
0100
0000
0000
0000
0030
0000
0000
1200
0000
0000
0000
0000
0000
0000
0000
1000
0000
0000
0000
0300
0000
0000
,  // measure 293
0012
0000
0000
0000
0010
0000
1003
0000
0001
0000
1000
0000
,  // measure 294
1000
0001
1000
0100
0001
1000
0001
0010
,  // measure 295
1000
0000
0100
0000
0010
0000
0100
0000
0010
0000
0001
0000
,  // measure 296
0100
0000
0010
0000
1000
0000
0100
0000
0001
0000
0010
0000
,  // measure 297
0001
0100
0001
0100
1000
0010
1000
0010
,  // measure 298
0001
0000
1000
0000
0001
0000
1000
0000
0001
0000
1000
0000
,  // measure 299
0010
0000
0000
0000
0100
0000
0000
0000
0010
0000
0000
0000
0100
0000
0000
0001
0000
0000
0100
0000
0000
0001
0000
0000
,  // measure 300
1010
0000
0010
0000
0100
0010
1000
0100
,  // measure 301
0011
0000
0010
0000
1001
0010
0100
0010
,  // measure 302
0001
1000
0001
0010
1000
0001
1000
0100
,  // measure 303
0001
0000
0010
0000
0100
0000
0010
0000
0100
0000
1000
0000
,  // measure 304
0010
0000
0100
0000
0001
0000
0010
0000
1000
0000
0100
0000
,  // measure 305
1000
0010
1000
0010
0001
0100
0001
0100
,  // measure 306
1000
0000
0001
0000
1000
0000
0001
0000
1000
0000
0001
0000
,  // measure 307
0100
0000
0000
0000
0010
0000
0000
0000
0100
0000
0000
0000
0010
0000
0000
1000
0000
0000
0010
0000
0000
1000
0000
0000
,  // measure 308
0101
0000
0100
0000
0010
0100
0001
0010
,  // measure 309
1100
0000
0100
0000
1001
0100
0010
0100
,  // measure 310
1000
0000
0001
0000
1000
0000
0001
0000
1000
0000
0001
0000
1000
0000
0000
0001
0000
0000
1000
0000
0000
0001
0000
0000
,  // measure 311
1000
0010
1000
0010
1000
0010
1000
0010
,  // measure 312
0100
0001
0100
0001
1000
0100
0010
0001
,  // measure 313
0100
0000
0001
0000
0100
0000
0001
0000
0100
0000
0001
0000
1000
0000
0000
0010
0000
0000
1000
0000
0000
0010
0000
0000
,  // measure 314
0001
0000
1000
0000
0001
0000
1000
0000
0001
0000
1000
0000
0001
0000
0000
1000
0000
0000
0001
0000
0000
1000
0000
0000
,  // measure 315
0001
0100
0001
0100
0001
0100
0001
0100
,  // measure 316
0010
1000
0010
1000
0001
0010
0100
1000
,  // measure 317
0010
0000
1000
0000
0010
0000
1000
0000
0010
0000
1000
0000
0001
0000
0000
0100
0000
0000
0001
0000
0000
0100
0000
0000
,  // measure 318
0010
0000
0100
0000
0010
0000
0100
0000
0010
0000
0100
0000
0010
0000
0000
0100
0000
0000
0010
0000
0000
0100
0000
0000
,  // measure 319
0010
0001
0010
0001
0010
0001
0010
0001
,  // measure 320
1000
0100
1000
0100
0010
1000
0001
0100
,  // measure 321
1000
0000
0100
0000
1000
0000
0100
0000
1000
0000
0100
0000
0010
0000
0000
0001
0000
0000
0010
0000
0000
0001
0000
0000
,  // measure 322
0100
0000
0010
0000
0100
0000
0010
0000
0100
0000
0010
0000
0100
0000
0000
0010
0000
0000
0100
0000
0000
0010
0000
0000
,  // measure 323
0100
1000
0100
1000
0100
1000
0100
1000
,  // measure 324
0001
0010
0001
0010
0100
0001
1000
0010
,  // measure 325
0001
0000
0010
0000
0001
0000
0010
0000
0001
0000
0010
0000
0100
0000
0000
1000
0000
0000
0100
0000
0000
1000
0000
0000
,  // measure 326
2002
0000
0000
0000
,  // measure 327
0000
0000
0000
0000
,  // measure 328
3003
0000
0000
0000
;

//---------------dance-single - Enjoy----------------
#NOTES:
     dance-single:
     :
     Edit:
     2:
     0.058744,0.275258,0.012588,0.050352,0.000000,98.000000,95.000000,3.000000,12.000000,0.000000,0.000000,0.058744,0.275258,0.012588,0.050352,0.000000,98.000000,95.000000,3.000000,12.000000,0.000000,0.000000:
// measure 0
0000
0000
0000
0000
,  // measure 1
0000
0000
0000
0000
,  // measure 2
0000
0000
0000
0000
,  // measure 3
1000
0000
0000
0000
,  // measure 4
0000
0000
0000
0000
,  // measure 5
0001
0000
0000
0000
,  // measure 6
0000
0000
0000
0000
,  // measure 7
0010
0000
0000
0000
,  // measure 8
0000
0000
0000
0000
,  // measure 9
0100
0000
0000
0000
,  // measure 10
0000
0000
0000
0000
,  // measure 11
0020
0000
0000
0000
,  // measure 12
0000
0000
0000
0000
,  // measure 13
0000
0000
0000
0000
,  // measure 14
0000
0000
0000
0030
,  // measure 15
0200
0000
0000
0000
,  // measure 16
0000
0000
0000
0000
,  // measure 17
0000
0000
0000
0000
,  // measure 18
0000
0000
0000
0300
,  // measure 19
0010
0000
0000
0000
,  // measure 20
0000
0000
0000
0000
,  // measure 21
0000
0000
0000
0000
,  // measure 22
0000
0000
0000
0000
,  // measure 23
0100
0000
0000
0000
,  // measure 24
0000
0000
0000
0000
,  // measure 25
0000
0000
0000
0000
,  // measure 26
0000
0000
0000
0000
,  // measure 27
1000
0000
0000
0000
,  // measure 28
0000
0000
0000
0000
,  // measure 29
0000
0000
0000
0000
,  // measure 30
0000
0000
0000
0000
,  // measure 31
0001
0000
0000
0000
,  // measure 32
0000
0000
0000
0000
,  // measure 33
0000
0000
0000
0000
,  // measure 34
0000
0000
0000
0000
,  // measure 35
0010
0000
0000
0000
,  // measure 36
0000
0000
0000
0000
,  // measure 37
0000
0000
0000
0000
,  // measure 38
0000
0000
0000
0000
,  // measure 39
0010
0000
0000
0000
,  // measure 40
0000
0000
0000
0000
,  // measure 41
0000
0000
0000
0000
,  // measure 42
0000
0000
0000
0000
,  // measure 43
0010
0000
0000
0000
,  // measure 44
0000
0000
0000
0000
,  // measure 45
0000
0000
0000
0000
,  // measure 46
0000
0000
0000
0000
,  // measure 47
0010
0000
0000
0000
,  // measure 48
0000
0000
0000
0000
,  // measure 49
0000
0000
0000
0000
,  // measure 50
0000
0000
0000
0000
,  // measure 51
0100
0000
0000
0000
,  // measure 52
0000
0000
0000
0000
,  // measure 53
0000
0000
0000
0000
,  // measure 54
0000
0000
0000
0000
,  // measure 55
0000
0000
0000
0000
,  // measure 56
0000
0000
0000
0000
,  // measure 57
0000
0000
0000
0000
,  // measure 58
0000
0000
0000
0000
,  // measure 59
0010
0000
0000
0000
,  // measure 60
0000
0000
0000
0000
,  // measure 61
0000
0000
0000
0000
,  // measure 62
0000
0000
0000
0000
,  // measure 63
0000
0000
0000
0000
,  // measure 64
0000
0000
0000
0000
,  // measure 65
0000
0000
0000
0000
,  // measure 66
0000
0000
0000
0000
,  // measure 67
0100
0000
0000
0000
,  // measure 68
0000
0000
0000
0000
,  // measure 69
0000
0000
0000
0000
,  // measure 70
0000
0000
0000
0000
,  // measure 71
0000
0000
0000
0000
,  // measure 72
0000
0000
0000
0000
,  // measure 73
0000
0000
0000
0000
,  // measure 74
0000
0000
0000
0000
,  // measure 75
0010
0000
0000
0000
,  // measure 76
0000
0000
0000
0000
,  // measure 77
0000
0000
0000
0000
,  // measure 78
0000
0000
0000
0000
,  // measure 79
0000
0000
0000
0000
,  // measure 80
0000
0000
0000
0000
,  // measure 81
0000
0000
0000
0000
,  // measure 82
0000
0000
0000
0000
,  // measure 83
2000
0000
0000
0000
,  // measure 84
0000
0000
0000
0000
,  // measure 85
0000
0000
0000
0000
,  // measure 86
0000
0000
0000
3000
,  // measure 87
0000
0000
0000
0000
,  // measure 88
0000
0000
0000
0000
,  // measure 89
0000
0000
0000
0000
,  // measure 90
0000
0000
0000
0000
,  // measure 91
0000
0000
0000
0000
,  // measure 92
0000
0000
0000
0000
,  // measure 93
0000
0000
0000
0000
,  // measure 94
0000
0000
0000
0000
,  // measure 95
0002
0000
0000
0000
,  // measure 96
0000
0000
0000
0000
,  // measure 97
0000
0000
0000
0000
,  // measure 98
0000
0000
0000
0003
,  // measure 99
0000
0000
0000
0000
,  // measure 100
0000
0000
0000
0000
,  // measure 101
0000
0000
0000
0000
,  // measure 102
0000
0000
0000
0000
,  // measure 103
0000
0000
0000
0000
,  // measure 104
0000
0000
0000
0000
,  // measure 105
0000
0000
0000
0000
,  // measure 106
0000
0000
0000
0000
,  // measure 107
0020
0000
0000
0000
,  // measure 108
0000
0000
0000
0000
,  // measure 109
0000
0000
0000
0000
,  // measure 110
0000
0000
0000
0000
,  // measure 111
0000
0000
0000
0000
,  // measure 112
0000
0000
0000
0000
,  // measure 113
0000
0000
0000
0000
,  // measure 114
0000
0000
0000
0030
,  // measure 115
0200
0000
0000
0000
,  // measure 116
0000
0000
0000
0000
,  // measure 117
0000
0000
0000
0000
,  // measure 118
0000
0000
0000
0000
,  // measure 119
0000
0000
0000
0000
,  // measure 120
0000
0000
0000
0000
,  // measure 121
0000
0000
0000
0000
,  // measure 122
0000
0000
0000
0300
,  // measure 123
0010
0000
0000
0000
,  // measure 124
0000
0000
0000
0000
,  // measure 125
0000
0000
0000
0000
,  // measure 126
0000
0000
0000
0000
,  // measure 127
0010
0000
0000
0000
,  // measure 128
0000
0000
0000
0000
,  // measure 129
0000
0000
0000
0000
,  // measure 130
0000
0000
0000
0000
,  // measure 131
0100
0000
0000
0000
,  // measure 132
0000
0000
0000
0000
,  // measure 133
0000
0000
0000
0000
,  // measure 134
0000
0000
0000
0000
,  // measure 135
0100
0000
0000
0000
,  // measure 136
0000
0000
0000
0000
,  // measure 137
0000
0000
0000
0000
,  // measure 138
0000
0000
0000
0000
,  // measure 139
1000
0000
0000
0000
,  // measure 140
0000
0000
0000
0000
,  // measure 141
0000
0000
0000
0000
,  // measure 142
0000
0000
0000
0000
,  // measure 143
1000
0000
0000
0000
,  // measure 144
0000
0000
0000
0000
,  // measure 145
0000
0000
0000
0000
,  // measure 146
0000
0000
0000
0000
,  // measure 147
0001
0000
0000
0000
,  // measure 148
0000
0000
0000
0000
,  // measure 149
0000
0000
0000
0000
,  // measure 150
0000
0000
0000
0000
,  // measure 151
0001
0000
0000
0000
,  // measure 152
0000
0000
0000
0000
,  // measure 153
0000
0000
0000
0000
,  // measure 154
0000
0000
0000
0000
,  // measure 155
1001
0000
0000
0000
,  // measure 156
0020
0000
0000
0000
,  // measure 157
0000
0000
0000
0000
,  // measure 158
0000
0000
0000
0000
,  // measure 159
0000
0000
0000
0000
,  // measure 160
0000
0000
0000
0000
,  // measure 161
0000
0000
0000
0000
,  // measure 162
0000
0000
0000
0000
,  // measure 163
0000
0000
0000
0000
,  // measure 164
0000
0000
0000
0000
,  // measure 165
0000
0000
0000
0000
,  // measure 166
0000
0000
0000
0000
,  // measure 167
0000
0000
0000
0000
,  // measure 168
0000
0000
0000
0000
,  // measure 169
0000
0000
0000
0000
,  // measure 170
0000
0000
0000
0000
,  // measure 171
0000
0000
0000
0030
,  // measure 172
0200
0000
0000
0000
,  // measure 173
0000
0000
0000
0000
,  // measure 174
0000
0000
0000
0000
,  // measure 175
0000
0000
0000
0000
,  // measure 176
0000
0000
0000
0000
,  // measure 177
0000
0000
0000
0000
,  // measure 178
0000
0000
0000
0000
,  // measure 179
0000
0000
0000
0300
,  // measure 180
0010
0000
0000
0000
,  // measure 181
0000
0000
0000
0000
,  // measure 182
0000
0000
0000
0000
,  // measure 183
0010
0000
0000
0000
,  // measure 184
0100
0000
0000
0000
,  // measure 185
0000
0000
0000
0000
,  // measure 186
0000
0000
0000
0000
,  // measure 187
0100
0000
0000
0000
,  // measure 188
1000
0000
0000
0000
,  // measure 189
0000
0000
0000
0000
,  // measure 190
0000
0000
0000
0000
,  // measure 191
1000
0000
0000
0000
,  // measure 192
0001
0000
0000
0000
,  // measure 193
0000
0000
0000
0000
,  // measure 194
0000
0000
0000
0000
,  // measure 195
0001
0000
0000
0000
,  // measure 196
0010
0000
0000
0000
,  // measure 197
0000
0000
0000
0000
,  // measure 198
0000
0000
0000
0000
,  // measure 199
0010
0000
0000
0000
,  // measure 200
0100
0000
0000
0000
,  // measure 201
0000
0000
0000
0000
,  // measure 202
0000
0000
0000
0000
,  // measure 203
0100
0000
0000
0000
,  // measure 204
1000
0000
0000
0000
,  // measure 205
0000
0000
0000
0000
,  // measure 206
0000
0000
0000
0000
,  // measure 207
1000
0000
0000
0000
,  // measure 208
0001
0000
0000
0000
,  // measure 209
0000
0000
0000
0000
,  // measure 210
0000
0000
0000
0000
,  // measure 211
0001
0000
0000
0000
,  // measure 212
0010
0000
0000
0000
,  // measure 213
0000
0000
0000
0000
,  // measure 214
0000
0000
0000
0000
,  // measure 215
0010
0000
0000
0000
,  // measure 216
0100
0000
0000
0000
,  // measure 217
0000
0000
0000
0000
,  // measure 218
0000
0000
0000
0000
,  // measure 219
0100
0000
0000
0000
,  // measure 220
1000
0000
0000
0000
,  // measure 221
0000
0000
0000
0000
,  // measure 222
0000
0000
0000
0000
,  // measure 223
1000
0000
0000
0000
,  // measure 224
0001
0000
0000
0000
,  // measure 225
0000
0000
0000
0000
,  // measure 226
0000
0000
0000
0000
,  // measure 227
0001
0000
0000
0000
,  // measure 228
0010
0000
0000
0000
,  // measure 229
0000
0000
0000
0000
,  // measure 230
0000
0000
0000
0000
,  // measure 231
0010
0000
0000
0000
,  // measure 232
0100
0000
0000
0000
,  // measure 233
0000
0000
0000
0000
,  // measure 234
0000
0000
0000
0000
,  // measure 235
0100
0000
0000
0000
,  // measure 236
1000
0000
0000
0000
,  // measure 237
0000
0000
0000
0000
,  // measure 238
0000
0000
0000
0000
,  // measure 239
1000
0000
0000
0000
,  // measure 240
0001
0000
0000
0000
,  // measure 241
0000
0000
0000
0000
,  // measure 242
0000
0000
0000
0000
,  // measure 243
0001
0000
0000
0000
,  // measure 244
1000
0000
0000
0000
,  // measure 245
0000
0000
0000
0000
,  // measure 246
0001
0000
0000
0000
,  // measure 247
0000
0000
0000
0000
,  // measure 248
0010
0000
0000
0000
,  // measure 249
0000
0000
0000
0000
,  // measure 250
0100
0000
0000
0000
,  // measure 251
0000
0000
0000
0000
,  // measure 252
0010
0000
0000
0000
,  // measure 253
0000
0000
0000
0000
,  // measure 254
0010
0000
0000
0000
,  // measure 255
0000
0000
0000
0000
,  // measure 256
0010
0000
0000
0000
,  // measure 257
0000
0000
0000
0000
,  // measure 258
2002
0000
0000
0000
,  // measure 259
0000
0000
0000
0000
,  // measure 260
0000
0000
0000
0000
,  // measure 261
0000
0000
0000
3003
,  // measure 262
0010
0000
0000
0000
,  // measure 263
0000
0000
0000
0000
,  // measure 264
0000
0000
0000
0000
,  // measure 265
0000
0000
0000
0000
,  // measure 266
0100
0000
0000
0000
,  // measure 267
0000
0000
0000
0000
,  // measure 268
0000
0000
0000
0000
,  // measure 269
0000
0000
0000
0000
,  // measure 270
0001
0000
0000
0000
,  // measure 271
0000
0000
0000
0000
,  // measure 272
0000
0000
0000
0000
,  // measure 273
0000
0000
0000
0000
,  // measure 274
1000
0000
0000
0000
,  // measure 275
0000
0000
0000
0000
,  // measure 276
0000
0000
0000
0000
,  // measure 277
0000
0000
0000
0000
,  // measure 278
1000
0000
0000
0000
,  // measure 279
0000
0000
0000
0000
,  // measure 280
0000
0000
0000
0000
,  // measure 281
0000
0000
0000
0000
,  // measure 282
0100
0000
0000
0000
,  // measure 283
0000
0000
0000
0000
,  // measure 284
0000
0000
0000
0000
,  // measure 285
0000
0000
0000
0000
,  // measure 286
0001
0000
0000
0000
,  // measure 287
0000
0000
0000
0000
,  // measure 288
0000
0000
0000
0000
,  // measure 289
0000
0000
0000
0000
,  // measure 290
0010
0000
0000
0000
,  // measure 291
0000
0000
0000
0000
,  // measure 292
0000
0000
0000
0000
,  // measure 293
0000
0000
0000
0000
,  // measure 294
0100
0000
0000
0000
,  // measure 295
0000
0000
0000
0000
,  // measure 296
0000
0000
0000
0000
,  // measure 297
0000
0000
0000
0000
,  // measure 298
0000
0000
0000
0000
,  // measure 299
0000
0000
0000
0000
,  // measure 300
0000
0000
0000
0000
,  // measure 301
0000
0000
0000
0000
,  // measure 302
0010
0000
0000
0000
,  // measure 303
0000
0000
0000
0000
,  // measure 304
0000
0000
0000
0000
,  // measure 305
0000
0000
0000
0000
,  // measure 306
0000
0000
0000
0000
,  // measure 307
0000
0000
0000
0000
,  // measure 308
0000
0000
0000
0000
,  // measure 309
0000
0000
0000
0000
,  // measure 310
0100
0000
0000
0000
,  // measure 311
0000
0000
0000
0000
,  // measure 312
0100
0000
0000
0000
,  // measure 313
0000
0000
0000
0000
,  // measure 314
0100
0000
0000
0000
,  // measure 315
0100
0000
0000
0000
,  // measure 316
0100
0000
0000
0000
,  // measure 317
0000
0000
0000
0000
,  // measure 318
0010
0000
0000
0000
,  // measure 319
0000
0000
0000
0000
,  // measure 320
0010
0000
0000
0000
,  // measure 321
0000
0000
0000
0000
,  // measure 322
0010
0000
0000
0000
,  // measure 323
0010
0000
0000
0000
,  // measure 324
0010
0000
0000
0000
,  // measure 325
0010
0000
0000
0000
,  // measure 326
2002
0000
0000
0000
,  // measure 327
0000
0000
0000
0000
,  // measure 328
3003
0000
0000
0000
;

//---------------dance-single - Hell----------------
#NOTES:
     dance-single:
     :
     Edit:
     37:
     2.258649,3.647166,2.156746,0.994453,2.114786,3768.000000,3254.000000,514.000000,237.000000,0.000000,0.000000,2.258649,3.647166,2.156746,0.994453,2.114786,3768.000000,3254.000000,514.000000,237.000000,0.000000,0.000000:
// measure 0
0000
0000
0000
0000
,  // measure 1
0000
0000
0000
0000
,  // measure 2
0000
0000
0000
0000
,  // measure 3
2100
0010
0001
0100
0010
0100
0000
0010
0100
0001
0010
0100
0010
0100
0001
3010
,  // measure 4
0012
0100
1000
0010
0100
0010
0000
0100
0010
1000
0100
0010
0100
0010
1000
0103
,  // measure 5
1020
0001
0100
1000
0001
1000
0000
0001
1000
0100
0001
1000
0001
1000
0100
0031
,  // measure 6
0201
1000
0010
0001
1000
0001
0000
1000
0001
0010
1000
0001
1000
0001
0010
1300
,  // measure 7
0012
0100
1000
0010
0100
0010
0000
0100
0010
1000
0100
0010
0100
0010
1000
0103
,  // measure 8
2100
0010
0001
0100
0010
0100
0000
0010
0100
0001
0010
0100
0010
0100
0001
3010
,  // measure 9
0201
1000
0010
0001
1000
0001
0000
1000
0001
0010
1000
0001
1000
0001
0010
1300
,  // measure 10
1020
0001
0100
1000
0001
1000
0000
0001
1000
0100
0001
1000
0001
1000
0100
0031
,  // measure 11
1000
0000
0100
0000
0010
0000
0001
0000
0010
0000
0100
0000
0010
0000
0000
1000
0000
0000
1000
0000
0000
1000
0000
0000
0100
0000
0000
0001
0000
0000
0001
0000
0000
0001
0000
0000
1010
0000
0000
0010
0000
0000
0011
0000
0000
0010
0000
0000
,  // measure 12
0001
0000
0010
0000
0100
0000
1000
0000
0100
0000
0010
0000
0100
0000
0000
0001
0000
0000
0001
0000
0000
0001
0000
0000
0010
0000
0000
1000
0000
0000
1000
0000
0000
1000
0000
0000
0101
0000
0000
0100
0000
0000
1100
0000
0000
0100
0000
0000
,  // measure 13
0010
0000
1000
0000
0001
0000
0100
0000
0001
0000
1000
0000
0001
0000
0000
0010
0000
0000
0010
0000
0000
0010
0000
0000
1000
0000
0000
0100
0000
0000
0100
0000
0000
0100
0000
0000
0011
0000
0000
0001
0000
0000
0101
0000
0000
0001
0000
0000
,  // measure 14
0100
0000
0001
0000
1000
0000
0010
0000
1000
0000
0001
0000
1000
0000
0000
0100
0000
0000
0100
0000
0000
0100
0000
0000
0001
0000
0000
0010
0000
0000
0010
0000
0000
0010
0000
0000
1100
0000
0000
1000
0000
0000
1010
0000
0000
1000
0000
0000
,  // measure 15
0001
0000
0010
0000
0100
0000
1000
0000
0100
0000
0010
0000
0100
0000
0000
0001
0000
0000
0001
0000
0000
0001
0000
0000
0010
0000
0000
1000
0000
0000
1000
0000
0000
1000
0000
0000
0101
0000
0000
0100
0000
0000
1100
0000
0000
0100
0000
0000
,  // measure 16
1000
0000
0100
0000
0010
0000
0001
0000
0010
0000
0100
0000
0010
0000
0000
1000
0000
0000
1000
0000
0000
1000
0000
0000
0100
0000
0000
0001
0000
0000
0001
0000
0000
0001
0000
0000
1010
0000
0000
0010
0000
0000
0011
0000
0000
0010
0000
0000
,  // measure 17
0100
0000
0001
0000
1000
0000
0010
0000
1000
0000
0001
0000
1000
0000
0000
0100
0000
0000
0100
0000
0000
0100
0000
0000
0001
0000
0000
0010
0000
0000
0010
0000
0000
0010
0000
0000
1100
0000
0000
1000
0000
0000
1010
0000
0000
1000
0000
0000
,  // measure 18
0010
0000
1000
0000
0001
0000
0100
0000
0001
0000
1000
0000
0001
0000
0000
0010
0000
0000
0010
0000
0000
0010
0000
0000
1000
0000
0000
0100
0000
0000
0100
0000
0000
0100
0000
0000
0011
0000
0000
0001
0000
0000
0101
0000
0000
0001
0000
0000
,  // measure 19
1001
0110
1001
0110
1001
0110
1001
0110
1001
0110
1001
0110
,  // measure 20
1000
0010
1000
0010
1000
0000
1010
0000
0100
0010
0001
0010
0100
0000
0101
0000
,  // measure 21
0001
0010
0100
1000
0100
0000
0110
0000
0001
1000
0001
1000
0001
0000
1001
0000
,  // measure 22
0001
0100
0001
0100
0001
0100
0001
0100
1000
0100
0010
0001
1000
0100
0010
0001
,  // measure 23
1001
0110
1001
0110
1001
0110
1001
0110
1001
0110
1001
0110
,  // measure 24
0001
0100
0001
0100
0001
0000
0101
0000
0010
0100
1000
0100
0010
0000
1010
0000
,  // measure 25
1000
0100
0010
0001
0010
0000
0110
0000
1000
0001
1000
0001
1000
0000
1001
0000
,  // measure 26
1000
0010
1000
0010
1000
0010
1000
0010
0001
0010
0100
1000
0001
0010
0100
1000
,  // measure 27
0110
1001
0110
1001
0110
1001
0110
1001
0110
1001
0110
1001
,  // measure 28
0010
0001
0010
0001
0010
0000
0011
0000
1000
0001
0100
0001
1000
0000
1100
0000
,  // measure 29
0100
0001
1000
0010
1000
0000
1001
0000
0100
0010
0100
0010
0100
0000
0110
0000
,  // measure 30
0100
1000
0100
1000
0100
1000
0100
1000
0010
1000
0001
0100
0010
1000
0001
0100
,  // measure 31
0110
1001
0110
1001
0110
1001
0110
1001
0110
1001
0110
1001
,  // measure 32
0100
1000
0100
1000
0100
0000
1100
0000
0001
1000
0010
1000
0001
0000
0011
0000
,  // measure 33
0010
1000
0001
0100
0001
0000
1001
0000
0010
0100
0010
0100
0010
0000
0110
0000
,  // measure 34
0010
0001
0010
0001
0010
0001
0010
0001
0100
0001
1000
0010
0100
0001
1000
0010
,  // measure 35
0101
0010
0101
0010
0101
0010
0101
0010
0101
0010
0101
0010
,  // measure 36
1000
0100
0010
0001
0010
0100
1000
0100
0010
0001
0010
0100
1000
0100
0010
0001
,  // measure 37
1010
0100
1010
0100
1010
0100
1010
0100
1010
0100
1010
0100
,  // measure 38
0001
0010
0100
1000
0100
0010
0001
0010
0100
1000
0100
0010
0001
0010
0100
1000
,  // measure 39
1100
0001
1100
0001
1100
0001
1100
0001
1100
0001
1100
0001
,  // measure 40
0010
1000
0001
0100
0001
1000
0010
1000
0001
0100
0001
1000
0010
1000
0001
0100
,  // measure 41
0011
1000
0011
1000
0011
1000
0011
1000
0011
1000
0011
1000
,  // measure 42
0100
0001
1000
0010
1000
0001
0100
0001
1000
0010
1000
0001
0100
0001
1000
0010
,  // measure 43
2100
0010
0001
0100
0010
0001
3200
0010
0001
1000
0010
0301
,  // measure 44
0012
0100
1000
0010
0100
1000
0023
0100
1000
0001
0100
1030
,  // measure 45
1020
0001
0100
1000
0001
0100
2030
0001
0100
0010
0001
3100
,  // measure 46
0201
1000
0010
0001
1000
0010
0302
1000
0010
0100
1000
0013
,  // measure 47
1000
0001
1000
0001
1000
0001
1000
0001
1000
0001
1000
0001
1000
0001
1000
0001
,  // measure 48
1000
0001
1000
0001
1000
0001
1000
0001
1000
0001
1000
0001
1000
0001
1000
0001
,  // measure 49
2002
0000
0000
0000
0000
0000
0000
3003
,  // measure 50
0010
0100
0010
0100
0010
0100
0010
0100
0010
0100
0010
0100
0010
0100
0010
0100
0010
0100
0010
0100
0010
0100
0010
0100
,  // measure 51
1000
0100
0010
0001
0010
0100
0010
0001
,  // measure 52
1000
0100
0010
1000
0100
0010
0001
0010
,  // measure 53
0001
0010
1000
0100
0001
0010
1000
0100
,  // measure 54
1000
0100
0001
0100
1000
0100
0001
0100
,  // measure 55
0011
0100
0011
0100
0011
0100
0011
0100
,  // measure 56
1100
0010
1100
0010
1100
0010
1100
0010
,  // measure 57
0101
0010
0001
0100
0010
0100
0010
0000
,  // measure 58
1010
0100
1000
0010
0100
0001
0010
0001
,  // measure 59
0001
0010
0100
1000
0100
0010
0100
1000
,  // measure 60
0001
0010
0100
0001
0010
0100
1000
0100
,  // measure 61
1000
0100
0001
0010
1000
0100
0001
0010
,  // measure 62
0001
0010
1000
0010
0001
0010
1000
0010
,  // measure 63
1100
0010
1100
0010
1100
0010
1100
0010
,  // measure 64
0011
0100
0011
0100
0011
0100
0011
0100
,  // measure 65
1010
0100
1000
0010
0100
0010
0100
0000
,  // measure 66
0101
0010
0001
0100
0010
1000
0100
1000
,  // measure 67
0010
1000
0001
0100
0001
1000
0001
0100
,  // measure 68
0010
1000
0001
0010
1000
0001
0100
0001
,  // measure 69
0100
0001
0010
1000
0100
0001
0010
1000
,  // measure 70
0010
1000
0100
1000
0010
1000
0100
1000
,  // measure 71
0101
1000
0101
1000
0101
1000
0101
1000
,  // measure 72
1010
0001
1010
0001
1010
0001
1010
0001
,  // measure 73
1100
0001
0100
1000
0001
1000
0001
0000
,  // measure 74
0011
1000
0010
0001
1000
0100
0001
0100
,  // measure 75
0100
0001
1000
0010
1000
0001
1000
0010
,  // measure 76
0100
0001
1000
0100
0001
1000
0010
1000
,  // measure 77
0010
1000
0100
0001
0010
1000
0100
0001
,  // measure 78
0100
0001
0010
0001
0100
0001
0010
0001
,  // measure 79
1010
0001
1010
0001
1010
0001
1010
0001
,  // measure 80
0101
1000
0101
1000
0101
1000
0101
1000
,  // measure 81
0011
1000
0010
0001
1000
0001
1000
0000
,  // measure 82
1100
0001
0100
1000
0001
0010
1000
0010
,  // measure 83
1010
0100
1000
0100
1000
0000
0100
0000
0010
0000
1000
0000
0100
0010
0001
0000
,  // measure 84
0101
0010
0001
0010
0001
0000
0010
0000
0100
0000
0001
0000
0010
0100
1000
0000
,  // measure 85
0011
1000
0010
1000
0010
0000
1000
0000
0001
0000
0010
0000
1000
0001
0100
0000
,  // measure 86
1100
0001
0100
0001
0100
0000
0001
0000
1000
0000
0100
0000
0001
1000
0010
0000
,  // measure 87
1000
0100
0010
0001
0010
0100
0010
0001
,  // measure 88
1000
0100
0010
1000
0100
0010
0001
0010
,  // measure 89
0001
0010
1000
0100
0001
0010
1000
0100
,  // measure 90
1000
0100
0001
0100
1000
0100
0001
0100
,  // measure 91
0011
0100
0011
0100
0011
0100
0011
0100
,  // measure 92
1100
0010
1100
0010
1100
0010
1100
0010
,  // measure 93
0101
0010
0001
0100
0010
0100
0010
0000
,  // measure 94
1010
0100
1000
0010
0100
0001
0010
0001
,  // measure 95
0101
0010
0001
0010
0001
0000
0010
0000
0100
0000
0001
0000
0010
0100
1000
0000
,  // measure 96
1010
0100
1000
0100
1000
0000
0100
0000
0010
0000
1000
0000
0100
0010
0001
0000
,  // measure 97
1100
0001
0100
0001
0100
0000
0001
0000
1000
0000
0100
0000
0001
1000
0010
0000
,  // measure 98
0011
1000
0010
1000
0010
0000
1000
0000
0001
0000
0010
0000
1000
0001
0100
0000
,  // measure 99
0001
0010
0100
1000
0100
0010
0100
1000
,  // measure 100
0001
0010
0100
0001
0010
0100
1000
0100
,  // measure 101
1000
0100
0001
0010
1000
0100
0001
0010
,  // measure 102
0001
0010
1000
0010
0001
0010
1000
0010
,  // measure 103
1100
0010
1100
0010
1100
0010
1100
0010
,  // measure 104
0011
0100
0011
0100
0011
0100
0011
0100
,  // measure 105
1010
0100
1000
0010
0100
0010
0100
0000
,  // measure 106
0101
0010
0001
0100
0010
1000
0100
1000
,  // measure 107
1000
0010
1000
0010
0001
0100
0001
0100
,  // measure 108
0001
0100
0001
0100
1000
0010
1000
0010
,  // measure 109
0010
0001
0010
0001
0100
1000
0100
1000
,  // measure 110
0100
1000
0100
1000
0010
0001
0010
0001
,  // measure 111
0010
1000
0010
1000
0100
0001
0100
0001
,  // measure 112
0110
0001
0110
0001
0110
1000
0110
1000
,  // measure 113
0101
1010
0101
1010
0110
0001
0110
1000
0110
0001
0110
1000
0011
0110
1100
1001
,  // measure 114
1001
0001
1001
0001
0110
0100
1100
0100
1001
1000
1001
1000
0110
0010
0011
0010
,  // measure 115
1000
0010
1000
0010
0001
0100
0001
0100
,  // measure 116
0001
0100
0001
0100
1000
0010
1000
0010
,  // measure 117
0010
0001
0010
0001
0100
1000
0100
1000
,  // measure 118
0100
1000
0100
1000
0010
0001
0010
0001
,  // measure 119
1001
0110
1001
0000
0110
0011
0110
0000
1001
0110
1001
0000
0110
1100
0110
0000
,  // measure 120
0110
1001
0110
0000
1001
1010
1001
0000
0110
1001
0110
0000
1001
0101
1001
0000
,  // measure 121
1000
0001
1000
0001
1000
0001
1000
0001
1000
0001
1000
0001
1000
0001
1000
0001
1000
0001
1000
0001
1000
0001
1000
0001
,  // measure 122
1001
0000
0100
0000
0010
0000
0001
0000
0010
0000
0100
0000
1000
0000
0100
0000
0000
0000
1001
0000
0000
0100
0000
0000
1001
0000
0010
0000
0100
0000
1000
0000
0100
0000
0010
0000
0001
0000
0010
0000
0000
0000
1001
0000
0000
0010
0000
0000
,  // measure 123
2001
3010
2001
3010
2001
3010
2100
3010
,  // measure 124
2100
3001
2010
3100
2010
3100
2001
3010
,  // measure 125
2100
0010
0001
3010
2100
0100
0100
3100
,  // measure 126
2100
0010
0010
3100
1001
1001
1001
1001
,  // measure 127
2001
3001
2001
3001
2001
3001
2001
3001
,  // measure 128
2100
0001
0100
0001
0100
0001
0100
3001
,  // measure 129
0101
0110
0101
0110
1010
0110
1010
0110
,  // measure 130
1000
0100
0010
0100
0010
0001
0010
0100
1000
0100
0010
0100
0010
0100
1000
0001
,  // measure 131
1002
0103
1002
0103
1002
0103
0012
0103
,  // measure 132
0012
1003
0102
0013
0102
0013
1002
0103
,  // measure 133
0012
0100
1000
0103
0012
0010
0010
0013
,  // measure 134
0012
0100
0100
0013
1001
1001
1001
1001
,  // measure 135
1002
1003
1002
1003
1002
1003
1002
1003
,  // measure 136
0012
1000
0010
1000
0010
1000
0010
1003
,  // measure 137
1010
0110
1010
0110
0101
0110
0101
0110
,  // measure 138
0001
0010
0100
0010
0100
1000
0100
0010
0001
0010
0100
0010
0100
0010
0001
1000
,  // measure 139
0120
0031
0120
0031
0120
0031
1020
0031
,  // measure 140
1020
0130
0021
1030
0021
1030
0120
0031
,  // measure 141
1020
0001
0100
0031
1020
1000
1000
1030
,  // measure 142
1020
0001
0001
1030
0110
0110
0110
0110
,  // measure 143
0120
0130
0120
0130
0120
0130
0120
0130
,  // measure 144
1020
0100
1000
0100
1000
0100
1000
0130
,  // measure 145
1100
1001
1100
1001
0011
1001
0011
1001
,  // measure 146
0010
1000
0001
1000
0001
0100
0001
1000
0010
1000
0001
1000
0001
1000
0010
0100
,  // measure 147
0210
1300
0210
1300
0210
1300
0201
1300
,  // measure 148
0201
0310
1200
0301
1200
0301
0210
1300
,  // measure 149
0201
1000
0010
1300
0201
0001
0001
0301
,  // measure 150
0201
1000
1000
0301
0110
0110
0110
0110
,  // measure 151
0210
0310
0210
0310
0210
0310
0210
0310
,  // measure 152
0201
0010
0001
0010
0001
0010
0001
0310
,  // measure 153
0011
1001
0011
1001
1100
1001
1100
1001
,  // measure 154
0100
0001
1000
0001
1000
0010
1000
0001
0100
0001
1000
0001
1000
0001
0100
0010
,  // measure 155
1000
0000
0000
0000
0001
0000
0000
0000
1000
0000
0000
0000
0001
0000
0000
0000
1000
0000
0001
0000
1000
0000
0001
0000
1000
0001
1000
0001
1000
0001
1000
0001
,  // measure 156
2000
0100
0010
0000
0000
0000
0010
0000
3000
0000
0000
0000
0200
0010
0001
0000
0000
0000
0001
0000
0300
0000
0000
0000
2000
0100
0010
0000
0001
0000
3010
0000
,  // measure 157
0020
1000
0001
0000
0000
0000
0001
0000
0030
0000
0000
0000
2000
0001
0100
0000
0000
0000
0100
0000
3000
0000
0000
0000
0020
1000
0001
0000
0100
0000
0031
0000
,  // measure 158
0002
0010
0100
0000
0000
0000
0100
0000
0003
0000
0000
0000
0020
0100
1000
0000
0000
0000
1000
0000
0030
0000
0000
0000
0002
0010
0100
0000
1000
0000
0103
0000
,  // measure 159
0200
0001
1000
0000
0000
0000
1000
0000
0300
0000
0000
0000
0002
1000
0010
0000
0000
0000
0010
0000
0003
0000
0000
0000
0200
0001
1000
0000
0010
0000
1300
0000
,  // measure 160
2000
0100
0010
0000
0000
0000
0010
0000
3000
0000
0000
0000
0200
0010
0001
0000
0000
0000
0001
0000
0300
0000
0000
0000
2000
0100
0010
0000
0001
0000
3010
0000
,  // measure 161
0020
1000
0001
0000
0000
0000
0001
0000
0030
0000
0000
0000
2000
0001
0100
0000
0000
0000
0100
0000
3000
0000
0000
0000
0020
1000
0001
0000
0100
0000
0031
0000
,  // measure 162
0002
0010
0100
0000
0000
0000
0100
0000
0003
0000
0000
0000
0020
0100
1000
0000
0000
0000
1000
0000
0030
0000
0000
0000
0002
0010
0100
0000
1000
0000
0103
0000
,  // measure 163
0200
0001
1000
0000
0000
0000
1000
0000
0300
0000
0000
0000
0002
1000
0010
0000
0000
0000
0010
0000
0003
0000
0000
0000
0200
0001
1000
0000
0010
0000
1300
0000
,  // measure 164
0011
0100
0011
0100
0011
0100
1010
0100
1010
0100
0011
0100
1010
0100
1010
0001
,  // measure 165
1100
0010
1100
0010
1100
0010
0101
0010
0101
0010
1100
0010
0101
0010
0101
1000
,  // measure 166
0101
1000
0101
1000
0101
1000
0011
1000
0011
1000
0101
1000
0011
1000
0011
0100
,  // measure 167
1010
0001
1010
0001
1010
0001
1100
0001
1100
0001
1010
0001
1100
0001
1100
0010
,  // measure 168
2000
0100
0010
0001
0100
0010
0001
0100
0010
0001
0100
0010
0001
0100
0010
3001
,  // measure 169
0002
0010
0100
1000
0010
0100
1000
0010
0100
1000
0010
0100
1000
0010
0100
1003
,  // measure 170
0020
1000
0001
0100
1000
0001
0100
1000
0001
0100
1000
0001
0100
1000
0001
0130
,  // measure 171
1000
0001
1000
0001
1000
0001
1000
0001
1000
0001
1000
0001
1000
0001
1000
0001
1000
0001
1000
0001
1000
0001
1000
0001
1000
0001
1000
0001
1000
0001
1000
0001
,  // measure 172
1000
0001
1000
0001
1000
0001
1000
0001
,  // measure 173
1000
0001
1000
0001
1000
0001
1000
0001
,  // measure 174
1000
0001
1000
0001
1000
0001
1000
0001
,  // measure 175
1000
0001
1000
0001
1000
0001
1000
0001
,  // measure 176
1000
0001
1000
0001
1000
0001
1000
0001
1000
0001
1000
0001
1000
0001
1000
0001
,  // measure 177
1000
0001
1000
0001
1000
0001
1000
0001
1000
0001
1000
0001
1000
0001
1000
0001
,  // measure 178
0010
0000
0000
0100
0000
0000
0010
0000
0000
0100
0000
0000
0010
0000
0100
0000
0010
0000
0100
0000
0010
0000
0100
0000
,  // measure 179
0010
0000
0000
0100
0000
0000
0010
0000
0000
0100
0000
0000
0010
0000
0000
0100
0000
0000
0010
0000
0000
0100
0000
0000
0010
0000
0100
0000
0010
0000
0100
0000
0010
0000
0100
0000
0010
0000
0100
0000
0010
0000
0100
0000
0010
0000
0100
0000
,  // measure 180
2001
0010
0100
0010
0001
0010
0100
3000
,  // measure 181
2100
0010
0001
0010
0001
0010
0100
3000
,  // measure 182
2100
0010
0100
0001
0010
0100
0010
3000
,  // measure 183
2010
0001
0010
3001
0012
1000
0010
1003
,  // measure 184
1002
0100
0010
0100
1000
0100
0010
0003
,  // measure 185
0012
0100
1000
0100
1000
0100
0010
0003
,  // measure 186
0012
0100
0010
1000
0100
0010
0100
0003
,  // measure 187
0102
1000
0100
1003
2100
0001
0100
3001
,  // measure 188
0120
0001
1000
0001
0100
0001
1000
0030
,  // measure 189
1020
0001
0100
0001
0100
0001
1000
0030
,  // measure 190
1020
0001
1000
0100
0001
1000
0001
0030
,  // measure 191
0021
0100
0001
0130
0201
0010
0001
0310
,  // measure 192
0210
1000
0001
1000
0010
1000
0001
0300
,  // measure 193
0201
1000
0010
1000
0010
1000
0001
0300
,  // measure 194
0201
1000
0001
0010
1000
0001
1000
0300
,  // measure 195
1200
0010
1000
0310
1020
0100
1000
0130
,  // measure 196
2001
0010
0100
0010
0001
0010
0100
3000
,  // measure 197
2100
0010
0001
0010
0001
0010
0100
3000
,  // measure 198
2100
0010
0100
0001
0010
0100
0010
3000
,  // measure 199
2010
0001
0010
3001
0012
1000
0010
1003
,  // measure 200
1002
0100
0010
0100
1000
0100
0010
0003
,  // measure 201
0012
0100
1000
0100
1000
0100
0010
0003
,  // measure 202
0012
0100
0010
1000
0100
0010
0100
0003
,  // measure 203
0102
1000
0100
1003
2100
0001
0100
3001
,  // measure 204
0120
0001
1000
0001
0100
0001
1000
0030
,  // measure 205
1020
0001
0100
0001
0100
0001
1000
0030
,  // measure 206
1020
0001
1000
0100
0001
1000
0001
0030
,  // measure 207
0021
0100
0001
0130
0201
0010
0001
0310
,  // measure 208
0210
1000
0001
1000
0010
1000
0001
0300
,  // measure 209
0201
1000
0010
1000
0010
1000
0001
0300
,  // measure 210
0201
1000
0001
0010
1000
0001
1000
0300
,  // measure 211
1200
0010
1000
0310
1020
0100
1000
0130
,  // measure 212
2001
0010
0100
0010
0001
0010
0100
3000
,  // measure 213
2100
0010
0001
0010
0001
0010
0100
3000
,  // measure 214
2100
0010
0100
0001
0010
0100
0010
3000
,  // measure 215
2010
0001
0010
3001
0012
1000
0010
1003
,  // measure 216
1002
0100
0010
0100
1000
0100
0010
0003
,  // measure 217
0012
0100
1000
0100
1000
0100
0010
0003
,  // measure 218
0012
0100
0010
1000
0100
0010
0100
0003
,  // measure 219
0102
1000
0100
1003
2100
0001
0100
3001
,  // measure 220
0120
0001
1000
0001
0100
0001
1000
0030
,  // measure 221
1020
0001
0100
0001
0100
0001
1000
0030
,  // measure 222
1020
0001
1000
0100
0001
1000
0001
0030
,  // measure 223
0021
0100
0001
0130
0201
0010
0001
0310
,  // measure 224
0210
1000
0001
1000
0010
1000
0001
0300
,  // measure 225
0201
1000
0010
1000
0010
1000
0001
0300
,  // measure 226
0201
1000
0001
0010
1000
0001
1000
0300
,  // measure 227
1200
0010
1000
0310
1020
0100
1000
0130
,  // measure 228
2001
0010
0100
0010
0001
0010
0100
3000
,  // measure 229
2100
0010
0001
0010
0001
0010
0100
3000
,  // measure 230
2100
0010
0100
0001
0010
0100
0010
3000
,  // measure 231
2010
0001
0010
3001
0012
1000
0010
1003
,  // measure 232
1002
0100
0010
0100
1000
0100
0010
0003
,  // measure 233
0012
0100
1000
0100
1000
0100
0010
0003
,  // measure 234
0012
0100
0010
1000
0100
0010
0100
0003
,  // measure 235
0102
1000
0100
1003
2100
0001
0100
3001
,  // measure 236
0120
0001
1000
0001
0100
0001
1000
0030
,  // measure 237
1020
0001
0100
0001
0100
0001
1000
0030
,  // measure 238
1020
0001
1000
0100
0001
1000
0001
0030
,  // measure 239
0021
0100
0001
0130
0201
0010
0001
0310
,  // measure 240
0210
1000
0001
1000
0010
1000
0001
0300
,  // measure 241
0201
1000
0010
1000
0010
1000
0001
0300
,  // measure 242
0201
1000
0001
0010
1000
0001
1000
0300
,  // measure 243
1200
0010
1000
0310
1020
0100
1000
0130
,  // measure 244
2100
0010
0001
0100
0010
0100
0000
0010
0100
0001
0010
0100
0010
0100
0001
3010
,  // measure 245
0012
0100
1000
0010
0100
0010
0000
0100
0010
1000
0100
0010
0100
0010
1000
0103
,  // measure 246
1020
0001
0100
1000
0001
1000
0000
0001
1000
0100
0001
1000
0001
1000
0100
0031
,  // measure 247
0201
1000
0010
0001
1000
0001
0000
1000
0001
0010
1000
0001
1000
0001
0010
1300
,  // measure 248
2100
0010
0001
0100
0010
0100
0000
0010
0100
0001
0010
0100
0010
0100
0001
3010
,  // measure 249
0012
0100
1000
0010
0100
0010
0000
0100
0010
1000
0100
0010
0100
0010
1000
0103
,  // measure 250
1020
0001
0100
1000
0001
1000
0000
0001
1000
0100
0001
1000
0001
1000
0100
0031
,  // measure 251
0201
1000
0010
0001
1000
0001
0000
1000
0001
0010
1000
0001
1000
0001
0010
1300
,  // measure 252
2000
0100
0010
0000
0000
0000
0010
0000
3000
0000
0000
0000
0200
0010
0001
0000
0000
0000
0001
0000
0300
0000
0000
0000
2000
0100
0010
0000
0001
0000
3010
0000
,  // measure 253
0020
1000
0001
0000
0000
0000
0001
0000
0030
0000
0000
0000
2000
0001
0100
0000
0000
0000
0100
0000
3000
0000
0000
0000
0020
1000
0001
0000
0100
0000
0031
0000
,  // measure 254
0002
0010
0100
0000
0000
0000
0100
0000
0003
0000
0000
0000
0020
0100
1000
0000
0000
0000
1000
0000
0030
0000
0000
0000
0002
0010
0100
0000
1000
0000
0103
0000
,  // measure 255
0200
0001
1000
0000
0000
0000
1000
0000
0300
0000
0000
0000
0002
1000
0010
0000
0000
0000
0010
0000
0003
0000
0000
0000
0200
0001
1000
0000
0010
0000
1300
0000
,  // measure 256
2000
0100
0010
0001
0100
0010
0001
0100
0010
0001
0100
0010
0001
0100
0010
3001
,  // measure 257
0002
0010
0100
1000
0010
0100
1000
0010
0100
1000
0010
0100
1000
0010
0100
1003
,  // measure 258
1000
0001
1000
0001
1000
0001
1000
0001
1000
0001
1000
0001
1000
0001
1000
0001
,  // measure 259
1000
0001
1000
0001
1000
0001
1000
0001
1000
0001
1000
0001
1000
0001
1000
0001
,  // measure 260
0010
0000
0000
0100
0000
0000
0010
0000
0000
0100
0000
0000
0010
0000
0100
0000
0010
0000
0100
0000
0010
0000
0100
0000
,  // measure 261
0010
0000
0000
0100
0000
0000
0010
0000
0000
0100
0000
0000
0010
0000
0000
0100
0000
0000
0010
0000
0000
0100
0000
0000
0010
0000
0100
0000
0010
0000
0100
0000
0010
0000
0100
0000
0010
0000
0100
0000
0010
0000
0100
0000
0010
0000
0100
0000
,  // measure 262
1000
0001
1000
0001
0100
0001
0100
0000
0010
0000
0100
0000
,  // measure 263
1000
0000
0100
0000
0010
0000
1000
0000
0100
0000
1000
0000
,  // measure 264
0120
1000
0100
0030
0021
0100
0001
0030
,  // measure 265
0120
0001
0100
0031
1000
0001
1000
0001
,  // measure 266
0010
0100
0010
0100
1000
0100
1000
0000
0001
0000
1000
0000
,  // measure 267
0010
0000
1000
0000
0001
0000
0010
0000
1000
0000
0010
0000
,  // measure 268
1002
0010
1000
0003
0102
1000
0100
0003
,  // measure 269
1002
0100
1000
0103
0010
0100
0010
0100
,  // measure 270
0001
1000
0001
1000
0010
1000
0010
0000
0100
0000
0010
0000
,  // measure 271
0001
0000
0010
0000
0100
0000
0001
0000
0010
0000
0001
0000
,  // measure 272
0210
0001
0010
0300
1200
0010
1000
0300
,  // measure 273
0210
1000
0010
1300
0001
1000
0001
1000
,  // measure 274
0100
0010
0100
0010
0001
0010
0001
0000
1000
0000
0001
0000
,  // measure 275
0100
0000
0001
0000
1000
0000
0100
0000
0001
0000
0100
0000
,  // measure 276
2001
0100
0001
3000
2010
0001
0010
3000
,  // measure 277
2001
0010
0001
3010
0100
0010
0100
0010
,  // measure 278
1000
0001
1000
0001
0100
0001
0100
0000
0010
0000
0100
0000
,  // measure 279
1000
0000
0100
0000
0010
0000
1000
0000
0100
0000
1000
0000
,  // measure 280
0120
1000
0100
0030
0021
0100
0001
0030
,  // measure 281
0120
0001
0100
0031
1000
0001
1000
0001
,  // measure 282
0010
0100
0010
0100
1000
0100
1000
0000
0001
0000
1000
0000
,  // measure 283
0010
0000
1000
0000
0001
0000
0010
0000
1000
0000
0010
0000
,  // measure 284
1002
0010
1000
0003
0102
1000
0100
0003
,  // measure 285
1002
0100
1000
0103
0010
0100
0010
0100
,  // measure 286
0001
1000
0001
1000
0010
1000
0010
0000
0100
0000
0010
0000
,  // measure 287
0001
0000
0010
0000
0100
0000
0001
0000
0010
0000
0001
0000
,  // measure 288
0210
0001
0010
0300
1200
0010
1000
0300
,  // measure 289
0210
1000
0010
1300
0001
1000
0001
1000
,  // measure 290
0100
0010
0100
0010
0001
0010
0001
0000
1000
0000
0001
0000
,  // measure 291
0100
0000
0001
0000
1000
0000
0100
0000
0001
0000
0100
0000
,  // measure 292
2001
0100
0001
3000
2010
0001
0010
3000
,  // measure 293
2001
0010
0001
3010
0100
0010
0100
0010
,  // measure 294
1000
0100
0010
0001
0010
0100
0010
0001
,  // measure 295
1000
0100
0010
1000
0100
0010
0001
0010
,  // measure 296
0001
0010
1000
0100
0001
0010
1000
0100
,  // measure 297
1000
0100
0001
0100
1000
0100
0001
0100
,  // measure 298
0011
0100
0011
0100
0011
0100
0011
0100
,  // measure 299
1100
0010
1100
0010
1100
0010
1100
0010
,  // measure 300
0101
0010
0001
0100
0010
0100
0010
0000
,  // measure 301
1010
0100
1000
0010
0100
0001
0010
0001
,  // measure 302
0001
0010
0100
1000
0100
0010
0100
1000
,  // measure 303
0001
0010
0100
0001
0010
0100
1000
0100
,  // measure 304
1000
0100
0001
0010
1000
0100
0001
0010
,  // measure 305
0001
0010
1000
0010
0001
0010
1000
0010
,  // measure 306
1100
0010
1100
0010
1100
0010
1100
0010
,  // measure 307
0011
0100
0011
0100
0011
0100
0011
0100
,  // measure 308
1010
0100
1000
0010
1000
0010
0100
0000
,  // measure 309
0101
0010
0001
0100
0001
1000
0100
1000
,  // measure 310
0001
0010
0100
1000
0001
0010
0100
1000
0100
1000
0100
1000
,  // measure 311
0100
1000
0010
1000
0010
0100
0001
0100
0001
0010
0001
0010
,  // measure 312
0001
0100
0001
0100
0001
0010
1000
0010
0001
1000
0100
0001
,  // measure 313
1000
0100
0010
0001
1000
0100
0010
0001
1000
0100
0010
0001
,  // measure 314
0100
0010
0100
0010
1000
0010
1000
0010
0100
0010
0100
0010
,  // measure 315
1000
0010
0100
0001
1000
0010
0100
0001
1000
0010
0100
0001
,  // measure 316
1000
0000
0000
0100
0000
0000
0001
0000
0000
1000
0000
0000
0100
0000
0001
0000
0100
0000
1000
0000
0100
0000
0001
0000
,  // measure 317
0010
0000
0000
1000
0000
0000
0100
0000
0000
0010
0000
0000
1000
0000
0100
0000
1000
0000
0010
0000
1000
0000
0100
0000
,  // measure 318
1000
0100
0010
0001
1000
0100
0010
0001
0010
0001
0010
0001
,  // measure 319
0010
0001
0100
0001
0100
0010
1000
0010
1000
0100
1000
0100
,  // measure 320
1000
0010
1000
0010
1000
0100
0001
0100
1000
0001
0010
1000
,  // measure 321
0001
0010
0100
1000
0001
0010
0100
1000
0001
0010
0100
1000
,  // measure 322
0010
0100
0010
0100
0001
0100
0001
0100
0010
0100
0010
0100
,  // measure 323
0001
0100
0010
1000
0001
0100
0010
1000
0001
0100
0010
1000
,  // measure 324
0001
0000
0000
0010
0000
0000
1000
0000
0000
0001
0000
0000
0010
0000
1000
0000
0010
0000
0001
0000
0010
0000
1000
0000
,  // measure 325
0100
0000
0000
0001
0000
0000
0010
0000
0000
0100
0000
0000
0001
0000
0010
0000
0001
0000
0100
0000
0001
0000
0010
0000
,  // measure 326
2002
0000
0000
0000
,  // measure 327
0000
0000
0000
0000
,  // measure 328
3003
0000
0000
0000
;
