#VERSION:0.83;
#TITLE:聖人の塔;
#SUBTITLE:;
#ARTIST:Beridzebeth;
#TITLETRANSLIT:Tower of Saints;
#SUBTITLETRANSLIT:;
#ARTISTTRANSLIT:PRASTIK DANCEFLOOR;
#GENRE:BATTLE TRACK;
#ORIGIN:;
#CREDIT:;
#BANNER:;
#BACKGROUND:;
#PREVIEWVID:;
#JACKET:;
#CDIMAGE:;
#DISCIMAGE:;
#LYRICSPATH:;
#CDTITLE:;
#MUSIC:Tower of Saints.ogg;
#OFFSET:-0.427000;
#SAMPLESTART:20.220814;
#SAMPLELENGTH:15.000000;
#SELECTABLE:YES;
#BPMS:0.000=97.000,
32.000=194.000,
224.000=97.000,
240.000=194.000,
304.000=97.000;
#STOPS:;
#DELAYS:;
#WARPS:;
#TIMESIGNATURES:0.000=4=4;
#TICKCOUNTS:0.000=4;
#COMBOS:0.000=1;
#SPEEDS:0.000=1.000=0.000=0;
#SCROLLS:0.000=1.000;
#FAKES:;
#LABELS:0.000=Song Start;
#BGCHANGES:;
#KEYSOUNDS:;
#ATTACKS:
;

//---------------dance-single - ----------------
#NOTEDATA:;
#CHARTNAME:;
#STEPSTYPE:dance-single;
#DESCRIPTION:;
#CHARTSTYLE:;
#DIFFICULTY:Easy;
#METER:15;
#RADARVALUES:0.733799,0.945975,0.330327,0.181680,0.384006,622.000000,582.000000,40.000000,22.000000,0.000000,0.000000,0.000000,0.000000,0.000000,0.733799,0.945975,0.330327,0.181680,0.384006,622.000000,582.000000,40.000000,22.000000,0.000000,0.000000,0.000000,0.000000,0.000000;
#CREDIT:;
#NOTES:
0000
0000
0000
0000
,
0000
0000
0000
0000
,
0000
0000
0000
0000
,
0000
0000
0000
0000
,
0010
0001
0010
0100
0010
1000
0100
0010
,
0100
1000
0100
0010
0100
0001
0010
0100
,
0001
0100
0001
1000
0001
0010
1000
0001
,
1000
0000
0001
0000
1000
0000
0001
0000
1000
0000
0001
0000
1000
0000
0001
0000
1000
0000
0001
0000
1000
0000
0001
0000
1000
0001
1000
0001
1000
0001
1000
0001
,
0100
0100
0010
0010
1000
0100
0010
0001
,
0010
0100
0000
0000
0010
0001
0000
0000
0010
0100
0000
0000
0010
0001
0000
0000
,
0001
0001
0100
0100
0010
0100
0010
0100
,
0010
0000
0100
0000
0010
0000
0100
0000
1000
0010
1000
0010
0100
0001
0100
0001
,
0010
0010
0100
0100
0001
0010
0100
1000
,
0100
0010
0000
0000
0100
1000
0000
0000
0100
0010
0000
0000
0100
1000
0000
0000
,
1000
1000
0010
0010
0100
0010
0100
0010
,
0100
0000
0010
0000
0100
0000
0010
0000
0001
0100
0001
0100
0010
1000
0010
1000
,
0200
0000
0000
0000
0000
0000
0310
0001
0000
0000
0010
0001
0010
0000
0100
0000
,
0100
0000
0010
0000
1000
0000
0100
0000
0010
0100
0010
0000
0001
0010
0000
0000
,
1000
0010
1000
0000
0100
0000
0010
0000
0001
0000
0100
0000
0010
0000
0001
0000
,
0020
0230
0302
0023
,
0130
0100
0110
0010
0010
1000
0100
0001
,
0010
0010
0110
0100
0100
0001
0010
1000
,
0100
0010
0001
0000
0001
0000
0010
0000
0100
0000
1000
0000
0100
0010
0100
0000
,
0010
0100
1000
0000
1000
0000
0100
0000
0010
0000
0001
0000
0010
0100
0010
0000
,
1000
1000
0001
0001
0010
1000
0001
0100
,
0001
1000
0000
0000
0001
0100
0000
0000
0001
1000
0000
0000
0001
0100
0000
0000
,
0100
0100
1000
1000
0001
1000
0001
1000
,
0001
0000
1000
0000
0001
0000
1000
0000
0010
0001
0010
0001
1000
0100
1000
0100
,
0001
0001
1000
1000
0100
0001
1000
0010
,
1000
0001
0000
0000
1000
0010
0000
0000
1000
0001
0000
0000
1000
0010
0000
0000
,
0010
0010
0001
0001
1000
0001
1000
0001
,
1000
0000
0001
0000
1000
0000
0001
0000
0100
1000
0100
1000
0001
0010
0001
0010
,
2000
0000
0000
0000
0000
0000
3001
0100
0000
0000
0001
0100
0001
0000
1000
0000
,
1000
0000
0001
0000
0010
0000
1000
0000
0001
1000
0001
0000
0100
0001
0000
0000
,
0010
0001
0010
0000
1000
0000
0001
0000
0100
0000
1000
0000
0001
0000
0100
0000
,
0002
2003
3200
0302
,
1003
1000
1001
0001
0001
0010
1000
0100
,
0001
0001
1001
1000
1000
0100
0001
0010
,
1000
0001
0100
0000
0100
0000
0001
0000
1000
0000
0010
0000
1000
0001
1000
0000
,
0001
1000
0010
0000
0010
0000
1000
0000
0001
0000
0100
0000
0001
1000
0001
0000
,
0110
0100
0100
0101
0001
0001
1010
0010
,
1000
0010
0101
0100
0010
0100
0010
0200
,
0010
0010
0010
1000
,
0010
0000
0001
0000
1000
1000
1000
1300
,
0110
0010
0010
1010
1000
1000
0101
0100
,
0001
0100
1010
0010
0100
0010
0100
0020
,
0100
0100
0100
0001
,
0100
0000
1000
0000
0001
0001
0001
0031
,
1001
1000
1000
1100
0100
0100
0011
0001
,
0010
0001
1100
1000
0001
1000
0001
2000
,
0001
0001
0001
0010
,
0001
0000
0100
0000
0010
0010
0010
3010
,
1001
0001
0001
0011
0010
0010
1100
1000
,
0100
1000
0011
0001
1000
0001
1000
0002
,
1000
1000
1000
0100
,
1000
0000
0010
0000
0100
0100
0100
0103
,
2000
0000
0000
0000
3200
0000
0000
0300
,
0002
0000
0000
0000
0023
0000
0000
0030
,
0020
0000
0000
0000
2030
0000
0000
3000
,
1000
0000
0001
0000
1000
0000
0001
0000
1000
0000
0001
0000
1000
0000
0001
0000
1000
0000
0001
0000
1000
0000
0001
0000
1000
0001
1000
0001
1000
0001
1000
0001
,
0100
0100
0100
1000
0010
0100
0010
1000
,
0100
0001
0000
0100
0001
0000
0100
0001
0000
0100
0001
0000
0100
0001
0100
0001
,
0010
0010
0010
0001
0100
0010
0100
0001
,
1000
0100
0010
0000
0001
0010
0100
0000
1000
0100
0010
0000
0001
0010
0100
0000
,
0001
0010
0001
1000
0010
0001
0100
1000
,
1000
0100
1000
0001
0100
1000
0010
0001
,
0100
0001
0100
0010
0001
0100
1000
0010
,
0100
0000
0010
0000
0100
0000
0010
0000
0100
0010
0100
0010
0100
0010
0100
0000
,
1010
0000
0000
1010
0000
0000
0101
0000
,
0000
0101
0000
0000
0110
0000
0000
0110
,
0000
0000
1001
0000
0000
1001
0000
0000
,
1010
0000
0000
0010
0000
0000
0101
0000
0000
0100
0000
0000
1001
0000
0000
0000
,
1010
0010
0010
0000
0110
0100
0000
0101
,
0010
0000
1010
0100
0000
0011
1000
0000
,
1100
0001
0000
0110
0001
0000
0110
1000
,
0001
0000
1000
0000
0001
0000
1000
0000
0001
1000
0001
1000
0001
1000
0001
1000
,
0010
0001
0010
0100
0010
1000
0100
0010
,
0100
1000
0100
0010
0100
0001
0010
0100
,
2002
0000
0000
0000
,
3003
0000
0000
0000
;

//---------------dance-single - ----------------
#NOTEDATA:;
#CHARTNAME:;
#STEPSTYPE:dance-single;
#DESCRIPTION:;
#CHARTSTYLE:;
#DIFFICULTY:Beginner;
#METER:14;
#RADARVALUES:0.701946,0.880735,0.330327,0.156905,0.305553,595.000000,555.000000,40.000000,19.000000,0.000000,0.000000,0.000000,0.000000,0.000000,0.701946,0.880735,0.330327,0.156905,0.305553,595.000000,555.000000,40.000000,19.000000,0.000000,0.000000,0.000000,0.000000,0.000000;
#CREDIT:;
#NOTES:
0000
0000
0000
0000
,
0000
0000
0000
0000
,
0000
0000
0000
0000
,
0000
0000
0000
0000
,
0010
0001
0010
0100
0010
1000
0100
0010
,
0100
1000
0100
0010
0100
0001
0010
0100
,
0001
0100
0001
1000
0001
0010
1000
0001
,
1000
0000
0001
0000
1000
0000
0001
0000
1000
0000
0001
0000
1000
0000
0001
0000
1000
0000
0001
0000
1000
0000
0001
0000
1000
0000
0001
0000
1000
0001
1000
0001
,
0100
0100
0010
0010
1000
0100
0010
0001
,
0010
0100
0000
0000
0010
0001
0000
0000
0010
0100
0000
0000
0010
0001
0000
0000
,
0001
0001
0100
0100
0010
0100
0010
0100
,
0010
0000
0100
0000
0010
0000
0100
0000
1000
0010
1000
0000
0100
0001
0100
0000
,
0010
0010
0100
0100
0001
0010
0100
1000
,
0100
0010
0000
0000
0100
1000
0000
0000
0100
0010
0000
0000
0100
1000
0000
0000
,
1000
1000
0010
0010
0100
0010
0100
0010
,
0100
0000
0010
0000
0100
0000
0010
0000
0001
0100
0001
0000
0010
1000
0010
0000
,
0200
0000
0000
0000
0000
0000
0310
0001
0000
0000
0010
0001
0010
0000
0100
0000
,
0100
0000
0010
0000
1000
0000
0100
0000
0010
0100
0010
0000
0001
0010
0000
0000
,
1000
0010
1000
0000
0100
0000
0010
0000
0001
0000
0100
0000
0010
0000
0001
0000
,
0020
0230
0302
0023
,
0130
0100
0110
0010
0010
1000
0100
0001
,
0010
0010
0110
0100
0100
0001
0010
1000
,
0100
0010
0001
0000
0001
0000
0010
0000
0100
0000
1000
0000
0100
0010
0100
0000
,
0010
0100
1000
0000
1000
0000
0100
0000
0010
0000
0001
0000
0010
0100
0010
0000
,
1000
1000
0001
0001
0010
1000
0001
0100
,
0001
1000
0000
0000
0001
0100
0000
0000
0001
1000
0000
0000
0001
0100
0000
0000
,
0100
0100
1000
1000
0001
1000
0001
1000
,
0001
0000
1000
0000
0001
0000
1000
0000
0010
0001
0010
0000
1000
0100
1000
0000
,
0001
0001
1000
1000
0100
0001
1000
0010
,
1000
0001
0000
0000
1000
0010
0000
0000
1000
0001
0000
0000
1000
0010
0000
0000
,
0010
0010
0001
0001
1000
0001
1000
0001
,
1000
0000
0001
0000
1000
0000
0001
0000
0100
1000
0100
0000
0001
0010
0001
0000
,
2000
0000
0000
0000
0000
0000
3001
0100
0000
0000
0001
0100
0001
0000
1000
0000
,
1000
0000
0001
0000
0010
0000
1000
0000
0001
1000
0001
0000
0100
0001
0000
0000
,
0010
0001
0010
0000
1000
0000
0001
0000
0100
0000
1000
0000
0001
0000
0100
0000
,
0002
2003
3200
0302
,
1003
1000
1001
0001
0001
0010
1000
0100
,
0001
0001
1001
1000
1000
0100
0001
0010
,
1000
0001
0100
0000
0100
0000
0001
0000
1000
0000
0010
0000
1000
0001
1000
0000
,
0001
1000
0010
0000
0010
0000
1000
0000
0001
0000
0100
0000
0001
1000
0001
0000
,
0110
0100
0100
0101
0001
0001
1010
0010
,
1000
0010
0101
0100
0010
0100
0010
0200
,
0010
0010
0010
1000
,
0010
0000
0001
0000
1000
0000
1000
1300
,
0110
0010
0010
1010
1000
1000
0101
0100
,
0001
0100
1010
0010
0100
0010
0100
0020
,
0100
0100
0100
0001
,
0100
0000
1000
0000
0001
0000
0001
0031
,
1001
1000
1000
1100
0100
0100
0011
0001
,
0010
0001
1100
1000
0001
1000
0001
2000
,
0001
0001
0001
0010
,
0001
0000
0100
0000
0010
0000
0010
3010
,
1001
0001
0001
0011
0010
0010
1100
1000
,
0100
1000
0011
0001
1000
0001
1000
0002
,
1000
1000
1000
0100
,
1000
0000
0010
0000
0100
0000
0100
0103
,
2000
0000
0000
0000
0000
0000
0000
3000
,
0002
0000
0000
0000
0000
0000
0000
0003
,
0020
0000
0000
0000
0000
0000
0000
0030
,
1000
0000
0001
0000
1000
0000
0001
0000
1000
0000
0001
0000
1000
0000
0001
0000
1000
0000
0001
0000
1000
0000
0001
0000
1000
0000
0001
0000
1000
0001
1000
0001
,
0100
0100
0100
1000
0010
0100
0010
1000
,
0100
0001
0000
0100
0001
0000
0100
0001
0000
0100
0001
0000
0100
0001
0100
0000
,
0010
0010
0010
0001
0100
0010
0100
0001
,
1000
0000
0100
0000
0001
0000
0010
0000
1000
0100
0010
0000
0001
0010
0100
0000
,
0001
0010
0001
1000
0010
0001
0100
1000
,
1000
0100
1000
0001
0100
1000
0010
0001
,
0100
0001
0100
0010
0001
0100
1000
0010
,
0100
0000
0010
0000
0100
0000
0010
0000
0100
0000
0010
0000
0100
0010
0100
0000
,
1010
0000
0000
1010
0000
0000
0101
0000
,
0000
0101
0000
0000
0110
0000
0000
0110
,
0000
0000
1001
0000
0000
1001
0000
0000
,
1010
0000
0000
0010
0000
0000
0101
0000
0000
0100
0000
0000
1001
0000
0000
0000
,
1010
0000
0010
0000
0110
0100
0000
0101
,
0010
0000
1010
0100
0000
0011
1000
0000
,
1100
0001
0000
0110
0001
0000
0110
1000
,
0001
0000
1000
0000
0001
0000
1000
0000
0001
0000
1000
0000
0001
1000
0001
1000
,
0010
0001
0010
0100
0010
1000
0100
0010
,
0100
1000
0100
0010
0100
0001
0010
0100
,
2002
0000
0000
0000
,
3003
0000
0000
0000
;

//---------------dance-single - ----------------
#NOTEDATA:;
#CHARTNAME:;
#STEPSTYPE:dance-single;
#DESCRIPTION:;
#CHARTSTYLE:;
#DIFFICULTY:Medium;
#METER:16;
#RADARVALUES:0.803403,1.141694,0.338586,0.181680,0.536782,681.000000,640.000000,41.000000,22.000000,0.000000,0.000000,0.000000,0.000000,0.000000,0.803403,1.141694,0.338586,0.181680,0.536782,681.000000,640.000000,41.000000,22.000000,0.000000,0.000000,0.000000,0.000000,0.000000;
#CREDIT:;
#NOTES:
0000
0000
0000
0000
,
0000
0000
0000
0000
,
0000
0000
0000
0000
,
0000
0000
0000
0000
,
0010
0000
0001
0000
0010
0000
0100
0000
0010
0000
1000
0000
0100
0010
0001
0010
,
0100
0000
1000
0000
0100
0000
0010
0000
0100
0000
0001
0000
0010
0100
1000
0100
,
0001
0000
0100
0000
0001
0000
1000
0000
0001
0000
0010
0000
1000
0001
0100
0001
,
1000
0000
0001
0000
1000
0000
0001
0000
1000
0000
0001
0000
1000
0000
0001
0000
1000
0001
1000
0001
1000
0001
1000
0001
1000
0001
1000
0001
1000
0001
1000
0001
,
0100
0100
0010
0010
1000
0100
0010
0001
,
0010
0100
0000
0000
0010
0001
0000
0000
0010
0100
0000
0000
0010
0001
0010
0000
,
0001
0001
0100
0100
0010
0100
0010
0100
,
0010
0000
0100
0000
0010
0000
0100
0000
1000
0010
1000
0010
0100
0001
0100
0001
,
0010
0010
0100
0100
0001
0010
0100
1000
,
0100
0010
0000
0000
0100
1000
0000
0000
0100
0010
0000
0000
0100
1000
0100
0000
,
1000
1000
0010
0010
0100
0010
0100
0010
,
0100
0000
0010
0000
0100
0000
0010
0000
0001
0100
0001
0100
0010
1000
0010
1000
,
0200
0000
0010
0000
0000
0000
0310
0001
0000
0000
0010
0001
0010
0000
0100
0000
,
0100
0000
0010
0000
1000
0000
0100
0000
0010
0100
0010
0000
0001
0010
0000
0000
,
1000
0010
1000
0000
0100
0000
0010
0000
0001
0000
0100
0000
0010
0000
0001
0000
,
0020
0230
0302
0023
,
0130
0100
0110
0010
0010
1000
0100
0001
,
0010
0010
0110
0100
0100
0001
0010
1000
,
0100
0010
0001
0000
0001
0000
0010
0000
0100
0000
1000
0000
0100
0010
0100
0000
,
0010
0100
1000
0000
1000
0000
0100
0000
0010
0000
0001
0000
0010
0100
0010
0000
,
1000
1000
0001
0001
0010
1000
0001
0100
,
0001
1000
0000
0000
0001
0100
0000
0000
0001
1000
0000
0000
0001
0100
0001
0000
,
0100
0100
1000
1000
0001
1000
0001
1000
,
0001
0000
1000
0000
0001
0000
1000
0000
0010
0001
0010
0001
1000
0100
1000
0100
,
0001
0001
1000
1000
0100
0001
1000
0010
,
1000
0001
0000
0000
1000
0010
0000
0000
1000
0001
0000
0000
1000
0010
1000
0000
,
0010
0010
0001
0001
1000
0001
1000
0001
,
1000
0000
0001
0000
1000
0000
0001
0000
0100
1000
0100
1000
0001
0010
0001
0010
,
2000
0000
0001
0000
0000
0000
3001
0100
0000
0000
0001
0100
0001
0000
1000
0000
,
1000
0000
0001
0000
0010
0000
1000
0000
0001
1000
0001
0000
0100
0001
0000
0000
,
0010
0001
0010
0000
1000
0000
0001
0000
0100
0000
1000
0000
0001
0000
0100
0000
,
0002
2003
3200
0302
,
1003
1000
1001
0001
0001
0010
1000
0100
,
0001
0001
1001
1000
1000
0100
0001
0010
,
1000
0001
0100
0000
0100
0000
0001
0000
1000
0000
0010
0000
1000
0001
1000
0000
,
0001
1000
0010
0000
0010
0000
1000
0000
0001
0000
0100
0000
0001
1000
0001
0000
,
0110
0100
0100
0101
0001
0001
1010
0010
,
1000
0010
0101
0100
0010
0100
0010
0200
,
0010
0010
0010
1000
,
0010
1000
0001
1000
1000
1000
1000
1300
,
0110
0010
0010
1010
1000
1000
0101
0100
,
0001
0100
1010
0010
0100
0010
0100
0020
,
0100
0100
0100
0001
,
0100
0001
1000
0001
0001
0001
0001
0031
,
1001
1000
1000
1100
0100
0100
0011
0001
,
0010
0001
1100
1000
0001
1000
0001
2000
,
0001
0001
0001
0010
,
0001
0010
0100
0010
0010
0010
0010
3010
,
1001
0001
0001
0011
0010
0010
1100
1000
,
0100
1000
0011
0001
1000
0001
1000
0002
,
1000
1000
1000
0100
,
1000
0100
0010
0100
0100
0100
0100
0103
,
2000
0000
0000
0000
3200
0000
0010
0310
,
0002
0000
0000
0000
0023
0000
0100
0130
,
0020
0000
0000
0000
2030
0000
0001
3001
,
1000
0000
0001
0000
1000
0000
0001
0000
1000
0000
0001
0000
1000
0000
0001
0000
1000
0001
1000
0001
1000
0001
1000
0001
1000
0001
1000
0001
1000
0001
1000
0001
,
0100
0001
0100
0001
0100
0000
1000
0000
0010
0000
0100
0000
0010
0000
1000
0000
,
0100
0001
0000
0100
0001
0000
0100
0001
0000
0100
0001
0000
0100
0001
0100
0001
,
0010
1000
0010
1000
0010
0000
0001
0000
0100
0000
0010
0000
0100
0000
0001
0000
,
1000
0100
0010
0000
0001
0010
0100
0000
1000
0100
0010
0000
0001
0010
0100
0000
,
0001
0010
1000
0000
0001
0000
1000
0000
0010
0000
0001
0000
0100
0000
1000
0000
,
1000
0100
0001
0000
1000
0000
0001
0000
0100
0000
1000
0000
0010
0000
0001
0000
,
0100
0001
1000
0000
0100
0000
0010
0000
0001
0000
0100
0000
1000
0000
0010
0000
,
0100
0010
0100
0010
0100
0010
0100
0010
0100
0010
0100
0010
0100
0010
0100
0000
,
1010
0000
0000
1000
0000
0000
1010
0000
0000
0000
0000
0000
0101
0000
0000
0001
,
0000
0000
0101
0000
0000
0000
0000
0000
0110
0000
0000
0010
0000
0000
0110
0000
,
0000
0000
0000
0000
1001
0000
0000
0100
0000
0000
1001
0000
0000
0000
0000
0000
,
1010
0000
0000
0010
0000
0000
0101
0000
0000
0100
0000
0000
1001
0000
0000
0000
,
1010
0010
0011
0100
0110
0100
0000
0101
,
0010
0000
1010
0100
0000
0011
1000
0000
,
1100
0001
0000
0110
0001
0000
0110
1000
,
0001
1000
0001
1000
0001
1000
0001
1000
0001
1000
0001
1000
0001
1000
0001
1000
,
0010
0000
0001
0000
0010
0000
0100
0000
0010
0000
1000
0000
0100
0010
0001
0010
,
0100
0000
1000
0000
0100
0000
0010
0000
0100
0000
0001
0000
0010
0100
1000
0100
,
2002
0000
0000
0000
,
3003
0000
0000
0000
;

//---------------dance-single - ----------------
#NOTEDATA:;
#CHARTNAME:;
#STEPSTYPE:dance-single;
#DESCRIPTION:;
#CHARTSTYLE:;
#DIFFICULTY:Hard;
#METER:17;
#RADARVALUES:0.844694,1.174314,0.355102,0.181680,0.635880,716.000000,673.000000,43.000000,22.000000,0.000000,0.000000,0.000000,0.000000,0.000000,0.844694,1.174314,0.355102,0.181680,0.635880,716.000000,673.000000,43.000000,22.000000,0.000000,0.000000,0.000000,0.000000,0.000000;
#CREDIT:;
#NOTES:
0000
0000
0000
0000
,
0000
0000
0000
0000
,
0000
0000
0000
0000
,
0000
0000
0000
0000
,
0010
0010
0001
0000
0010
0000
0100
0000
0010
0000
1000
0000
0100
0010
0001
0010
,
0100
0100
1000
0000
0100
0000
0010
0000
0100
0000
0001
0000
0010
0100
1000
0100
,
0001
0001
0100
0000
0001
0000
1000
0000
0001
0000
0010
0000
1000
0001
0100
0001
,
1000
0000
0001
0000
1000
0000
0001
0000
1000
0000
0001
0000
1000
0000
0001
0000
1000
0001
1000
0001
1000
0001
1000
0001
1000
0001
1000
0001
1000
0001
1000
0001
,
0100
0001
0100
0000
0010
0000
0010
0000
1000
0000
0100
0000
0010
0000
0001
0000
,
0010
0100
0000
0000
0010
0001
0000
0000
0010
0100
0000
0000
0010
0001
0010
0000
,
0001
0100
0001
0000
0100
0000
0100
0000
0010
0000
0100
0000
0010
0000
0100
0000
,
0010
0000
0100
0000
0010
0000
0100
0000
1000
0010
1000
0010
0100
0001
0100
0001
,
0010
1000
0010
0000
0100
0000
0100
0000
0001
0000
0010
0000
0100
0000
1000
0000
,
0100
0010
0000
0000
0100
1000
0000
0000
0100
0010
0000
0000
0100
1000
0100
0000
,
1000
0010
1000
0000
0010
0000
0010
0000
0100
0000
0010
0000
0100
0000
0010
0000
,
0100
0000
0010
0000
0100
0000
0010
0000
0001
0100
0001
0100
0010
1000
0010
1000
,
0200
0000
0010
0000
0000
0000
0310
0001
0000
0000
0010
0001
0010
0000
0100
0000
,
0100
0000
0010
0000
1000
0000
0100
0000
0010
0100
0010
0000
0001
0010
0000
0000
,
1000
0010
1000
0000
0100
0000
0010
0000
0001
0000
0100
0000
0010
0000
0001
0000
,
0020
0000
0230
0000
0302
0000
0023
0100
,
0130
0010
0100
0000
0110
0000
0010
0000
0010
0000
1000
0000
0100
0000
0001
0000
,
0010
0100
0010
0000
0110
0000
0100
0000
0100
0000
0001
0000
0010
0000
1000
0000
,
0100
0010
0001
0000
0001
0000
0010
0000
0100
0000
1000
0000
0100
0010
0100
0000
,
0010
0100
1000
0000
1000
0000
0100
0000
0010
0000
0001
0000
0010
0100
0010
0000
,
1000
0100
1000
0000
0001
0000
0001
0000
0010
0000
1000
0000
0001
0000
0100
0000
,
0001
1000
0000
0000
0001
0100
0000
0000
0001
1000
0000
0000
0001
0100
0001
0000
,
0100
1000
0100
0000
1000
0000
1000
0000
0001
0000
1000
0000
0001
0000
1000
0000
,
0001
0000
1000
0000
0001
0000
1000
0000
0010
0001
0010
0001
1000
0100
1000
0100
,
0001
0010
0001
0000
1000
0000
1000
0000
0100
0000
0001
0000
1000
0000
0010
0000
,
1000
0001
0000
0000
1000
0010
0000
0000
1000
0001
0000
0000
1000
0010
1000
0000
,
0010
0001
0010
0000
0001
0000
0001
0000
1000
0000
0001
0000
1000
0000
0001
0000
,
1000
0000
0001
0000
1000
0000
0001
0000
0100
1000
0100
1000
0001
0010
0001
0010
,
2000
0000
0001
0000
0000
0000
3001
0100
0000
0000
0001
0100
0001
0000
1000
0000
,
1000
0000
0001
0000
0010
0000
1000
0000
0001
1000
0001
0000
0100
0001
0000
0000
,
0010
0001
0010
0000
1000
0000
0001
0000
0100
0000
1000
0000
0001
0000
0100
0000
,
0002
0000
2003
0000
3200
0000
0302
1000
,
1003
0001
1000
0000
1001
0000
0001
0000
0001
0000
0010
0000
1000
0000
0100
0000
,
0001
1000
0001
0000
1001
0000
1000
0000
1000
0000
0100
0000
0001
0000
0010
0000
,
1000
0001
0100
0000
0100
0000
0001
0000
1000
0000
0010
0000
1000
0001
1000
0000
,
0001
1000
0010
0000
0010
0000
1000
0000
0001
0000
0100
0000
0001
1000
0001
0000
,
0110
0100
0100
0101
0001
0001
1010
0010
,
1000
0010
0101
0100
0010
0100
0010
0200
,
0010
0000
0010
0000
0010
0001
1000
0000
,
0010
1000
0001
1000
1000
1000
1000
1300
,
0110
0010
0010
1010
1000
1000
0101
0100
,
0001
0100
1010
0010
0100
0010
0100
0020
,
0100
0000
0100
0000
0100
1000
0001
0000
,
0100
0001
1000
0001
0001
0001
0001
0031
,
1001
1000
1000
1100
0100
0100
0011
0001
,
0010
0001
1100
1000
0001
1000
0001
2000
,
0001
0000
0001
0000
0001
0100
0010
0000
,
0001
0010
0100
0010
0010
0010
0010
3010
,
1001
0001
0001
0011
0010
0010
1100
1000
,
0100
1000
0011
0001
1000
0001
1000
0002
,
1000
0000
1000
0000
1000
0010
0100
0000
,
1000
0100
0010
0100
0100
0100
0100
0103
,
2000
0000
0001
0000
3200
0000
0010
0310
,
0002
0000
1000
0000
0023
0000
0100
0130
,
0020
0000
0100
0000
2030
0000
0001
3001
,
1000
0000
0001
0000
1000
0000
0001
0000
1000
0000
0001
0000
1000
0000
0001
0000
1000
0001
1000
0001
1000
0001
1000
0001
1000
0001
1000
0001
1000
0001
1000
0001
,
0100
0001
0100
0001
0110
0000
1000
0000
0010
0000
0100
0000
0010
0000
1000
0000
,
0100
0001
0000
0100
0001
0000
0100
0001
0000
0100
0001
0000
0100
0001
0100
0001
,
0010
1000
0010
1000
0110
0000
0001
0000
0100
0000
0010
0000
0100
0000
0001
0000
,
1000
0100
0010
0000
0001
0010
0100
0000
1000
0100
0010
0000
0001
0010
0100
0000
,
0001
0010
1000
0010
0001
0000
1000
0000
0010
0000
0001
0000
0100
0000
1000
0000
,
1000
0100
0001
0100
1000
0000
0001
0000
0100
0000
1000
0000
0010
0000
0001
0000
,
0100
0001
1000
0001
0100
0000
0010
0000
0001
0000
0100
0000
1000
0000
0010
0000
,
0100
0010
0100
0010
0100
0010
0100
0010
0100
0010
0100
0010
0100
0010
0100
0000
,
1010
0000
0000
1000
0000
0000
1010
0000
0000
0010
0000
0000
0101
0000
0000
0001
,
0000
0000
0101
0000
0000
0100
0000
0000
0110
0000
0000
0010
0000
0000
0110
0000
,
0000
0100
0000
0000
1001
0000
0000
0100
0000
0000
1001
0000
0000
0010
0000
0000
,
1010
0000
0000
0010
0000
0000
0101
0000
0000
0100
0000
0000
1001
0000
0000
0000
,
1010
0010
0011
0100
0110
0100
0000
0101
,
0010
0000
1010
0100
0000
0011
1000
0000
,
1100
0001
0000
0110
0001
0000
0110
1000
,
0001
1000
0001
1000
0001
1000
0001
1000
0001
1000
0001
1000
0001
1000
0001
1000
,
0010
0010
0001
0000
0010
0000
0100
0000
0010
0000
1000
0000
0100
0010
0001
0010
,
0100
0100
1000
0000
0100
0000
0010
0000
0100
0000
0001
0000
0010
0100
1000
0100
,
2002
0000
0000
0000
,
3003
0000
0000
0000
;

//---------------dance-single - ----------------
#NOTEDATA:;
#CHARTNAME:;
#STEPSTYPE:dance-single;
#DESCRIPTION:;
#CHARTSTYLE:;
#DIFFICULTY:Challenge;
#METER:17;
#RADARVALUES:0.887165,1.239553,0.404651,0.181680,0.722591,752.000000,703.000000,49.000000,22.000000,0.000000,0.000000,0.000000,0.000000,0.000000,0.887165,1.239553,0.404651,0.181680,0.722591,752.000000,703.000000,49.000000,22.000000,0.000000,0.000000,0.000000,0.000000,0.000000;
#CREDIT:;
#NOTES:
0000
0000
0000
0000
,
0000
0000
0000
0000
,
0000
0000
0000
0000
,
0000
0000
0000
0000
,
0010
0010
0001
0000
0010
0000
0100
0000
0010
0100
1000
0000
0100
0010
0001
0010
,
0100
0100
1000
0000
0100
0000
0010
0000
0100
0010
0001
0000
0010
0100
1000
0100
,
0001
0001
0100
0000
0001
0000
1000
0000
0001
1000
0010
0000
1000
0001
0100
0001
,
1000
0000
0001
0000
1000
0000
0001
0000
1000
0000
0001
0000
1000
0000
0001
0000
1000
0001
1000
0001
1000
0001
1000
0001
1000
0001
1000
0001
1000
0001
1000
0001
,
0100
0001
0100
0000
0010
1000
0010
0000
1000
0000
0100
0000
0010
0000
0001
0000
,
0010
0100
0000
0000
0010
0001
0000
0000
0010
0100
0000
0000
0010
0001
0010
0000
,
0001
0100
0001
0000
0100
0001
0100
0000
0010
0000
0100
0000
0010
0000
0100
0000
,
0010
0000
0100
0000
0010
0000
0100
0000
1000
0010
1000
0010
0100
0001
0100
0001
,
0010
1000
0010
0000
0100
0001
0100
0000
0001
0000
0010
0000
0100
0000
1000
0000
,
0100
0010
0000
0000
0100
1000
0000
0000
0100
0010
0000
0000
0100
1000
0100
0000
,
1000
0010
1000
0000
0010
1000
0010
0000
0100
0000
0010
0000
0100
0000
0010
0000
,
0100
0000
0010
0000
0100
0000
0010
0000
0001
0100
0001
0100
0010
1000
0010
1000
,
0200
0000
0010
0000
0000
0000
0310
0001
0000
0000
0010
0001
0010
0000
0100
0000
,
0100
0000
0010
0000
1000
0000
0100
0000
0010
0100
0010
0000
0001
0010
0000
0000
,
1000
0010
1000
0000
0100
0000
0010
0000
0001
0000
0100
0000
0010
0000
0001
0000
,
0020
0000
0230
0000
0302
0000
0023
0100
,
0130
0010
0100
0000
0110
0000
0010
0000
0010
0000
1000
0000
0100
0010
0001
0000
,
0010
0100
0010
0000
0110
0000
0100
0000
0100
0000
0001
0000
0010
0100
1000
0000
,
0100
0010
0001
0000
0001
0000
0010
0000
0100
0000
1000
0000
0100
0010
0100
0000
,
0010
0100
1000
0000
1000
0000
0100
0000
0010
0000
0001
0000
0010
0100
0010
0000
,
1000
0100
1000
0000
0001
0010
0001
0000
0010
0000
1000
0000
0001
0000
0100
0000
,
0001
1000
0000
0000
0001
0100
0000
0000
0001
1000
0000
0000
0001
0100
0001
0000
,
0100
1000
0100
0000
1000
0100
1000
0000
0001
0000
1000
0000
0001
0000
1000
0000
,
0001
0000
1000
0000
0001
0000
1000
0000
0010
0001
0010
0001
1000
0100
1000
0100
,
0001
0010
0001
0000
1000
0000
1000
0000
0100
0000
0001
0000
1000
0000
0010
0000
,
1000
0001
0000
0000
1000
0010
0000
0000
1000
0001
0000
0000
1000
0010
1000
0000
,
0010
0001
0010
0000
0001
0010
0001
0000
1000
0000
0001
0000
1000
0000
0001
0000
,
1000
0000
0001
0000
1000
0000
0001
0000
0100
1000
0100
1000
0001
0010
0001
0010
,
2000
0000
0001
0000
0000
0000
3001
0100
0000
0000
0001
0100
0001
0000
1000
0000
,
1000
0000
0001
0000
0010
0000
1000
0000
0001
1000
0001
0000
0100
0001
0000
0000
,
0010
0001
0010
0000
1000
0000
0001
0000
0100
0000
1000
0000
0001
0000
0100
0000
,
0002
0000
2003
0000
3200
0000
0302
1000
,
1003
0001
1000
0000
1001
0000
0001
0000
0001
0000
0010
0000
1000
0001
0100
0000
,
0001
1000
0001
0000
1001
0000
1000
0000
1000
0000
0100
0000
0001
1000
0010
0000
,
1000
0001
0100
0000
0100
0000
0001
0000
1000
0000
0010
0000
1000
0001
1000
0000
,
0001
1000
0010
0000
0010
0000
1000
0000
0001
0000
0100
0000
0001
1000
0001
1000
,
0110
0100
0100
0101
0001
0001
1010
0010
,
1000
0010
0101
0100
0010
0100
0010
0200
,
0010
0010
0010
0000
0010
0001
1000
0000
,
0010
1000
0001
1000
1000
1000
1000
1300
,
0110
0010
0010
1010
1000
1000
0101
0100
,
0001
0100
1010
0010
0100
0010
0100
0020
,
0100
0100
0100
0000
0100
1000
0001
0000
,
0100
0001
1000
0001
0001
0001
0001
0031
,
1001
1000
1000
1100
0100
0100
0011
0001
,
0010
0001
1100
1000
0001
1000
0001
2000
,
0001
0001
0001
0000
0001
0100
0010
0000
,
0001
0010
0100
0010
0010
0010
0010
3010
,
1001
0001
0001
0011
0010
0010
1100
1000
,
0100
1000
0011
0001
1000
0001
1000
0002
,
1000
1000
1000
0000
1000
0010
0100
0000
,
1000
0100
0010
0100
0100
0100
0100
0103
,
2000
0000
0001
0001
3200
0000
0010
0310
,
0002
0000
1000
1000
0023
0000
0100
0130
,
0020
0000
0100
0100
2030
0000
0001
3001
,
1000
0000
0001
0000
1000
0000
0001
0000
1000
0000
0001
0000
1000
0000
0001
0000
1000
0001
1000
0001
1000
0001
1000
0001
1000
0001
1000
0001
1000
0001
1000
0001
,
0100
0001
0100
0001
0110
0000
1000
0000
0010
0000
0100
0000
0010
0000
1000
0000
,
0100
0001
0010
0100
0001
0000
0100
0001
0000
0100
0001
0000
0100
0001
0100
0001
,
0010
1000
0010
1000
0110
0000
0001
0000
0100
0000
0010
0000
0100
0000
0001
0000
,
1000
0100
0010
0000
0001
0010
0100
0000
1000
0100
0010
0100
0001
0010
0100
0010
,
0001
0010
1000
0010
0001
0000
1000
0000
0010
0000
0001
0000
0100
0000
1000
0000
,
1000
0100
0001
0100
1000
0100
0001
0000
0100
0000
1000
0000
0010
0000
0001
0000
,
0100
0001
1000
0001
0100
0001
0010
0000
0001
0000
0100
0000
1000
0000
0010
0000
,
0100
0010
0100
0010
0100
0010
0100
0010
0100
0010
0100
0010
0100
0010
0100
0000
,
1010
0000
0000
1000
0000
0000
1010
0000
0000
0010
0000
0000
0101
0000
0000
0001
,
0000
0000
0101
0000
0000
0100
0000
0000
0110
0000
0000
0010
0000
0000
0110
0000
,
0000
0100
0000
0000
1001
0000
0000
0100
0000
0000
1001
0000
0000
0010
0000
0000
,
1010
0000
0000
0010
0000
0000
0101
0000
0000
0100
0000
0000
1001
0000
0000
0000
,
1010
0010
0011
0100
0110
0100
0100
0101
,
1010
0000
1010
0101
0000
0011
1100
0000
,
1100
0011
0000
0110
0101
0000
0110
1010
,
0001
1000
0001
1000
0001
1000
0001
1000
0001
1000
0001
1000
0001
1000
0001
1000
,
0010
0010
0001
0000
0010
0000
0100
0000
0010
0100
1000
0000
0100
0010
0001
0010
,
0100
0100
1000
0000
0100
0000
0010
0000
0100
0010
0001
0000
0010
0100
1000
0100
,
2002
0000
0000
0000
,
3003
0000
0000
0000
;

//---------------dance-single - Deluxe----------------
#NOTEDATA:;
#CHARTNAME:;
#STEPSTYPE:dance-single;
#DESCRIPTION:Deluxe;
#CHARTSTYLE:;
#DIFFICULTY:Edit;
#METER:18;
#RADARVALUES:0.961489,1.500512,0.528524,0.264262,0.916658,815.000000,751.000000,64.000000,32.000000,0.000000,0.000000,0.000000,0.000000,0.000000,0.961489,1.500512,0.528524,0.264262,0.916658,815.000000,751.000000,64.000000,32.000000,0.000000,0.000000,0.000000,0.000000,0.000000;
#CREDIT:;
#NOTES:
0000
0000
0000
0000
,
0000
0000
0000
0000
,
0000
0000
0000
0000
,
0000
0000
0000
0000
,
0010
0010
0001
0000
0010
1000
0100
0000
0010
0100
1000
0000
0100
0010
0001
0010
,
0100
0100
1000
0000
0100
0001
0010
0000
0100
0010
0001
0000
0010
0100
1000
0100
,
0001
0001
0100
0000
0001
0010
1000
0000
0001
1000
0010
0000
1000
0001
0100
0001
,
1000
0001
1000
0001
1000
0001
1000
0001
1000
0001
1000
0001
1000
0001
1000
0001
1000
0001
1000
0001
1000
0001
1000
0001
1000
0001
1000
0001
1000
0001
1000
0001
,
0100
0001
0100
0000
0010
1000
0010
0000
1000
0000
0100
0000
0010
0000
0001
0000
,
0010
0100
0000
0000
0010
0001
0000
0000
0010
0100
0000
0000
0010
0001
0010
0000
,
0001
0100
0001
0000
0100
0001
0100
0000
0010
0000
0100
0000
0010
0000
0100
0000
,
0010
0100
0010
0100
0010
0000
0100
0000
1000
0010
1000
0010
0100
0001
0100
0001
,
0010
1000
0010
0000
0100
0001
0100
0000
0001
0000
0010
0000
0100
0000
1000
0000
,
0100
0010
0000
0000
0100
1000
0000
0000
0100
0010
0000
0000
0100
1000
0100
0000
,
1000
0010
1000
0000
0010
1000
0010
0000
0100
0000
0010
0000
0100
0000
0010
0000
,
0100
0010
0100
0010
0100
0000
0010
0000
0001
0100
0001
0100
0010
1000
0010
1000
,
0200
0000
0010
0000
0000
0000
0310
0001
0000
0000
0010
0001
0010
0000
0100
0001
,
0100
0000
0010
0000
1000
0000
0100
0000
0010
0100
0010
0000
0001
0010
0000
0000
,
1000
0010
1000
0000
0100
0000
0010
0000
0001
0000
0100
0000
0010
0000
0001
0000
,
0120
0000
0230
0000
0302
0000
0023
0100
,
0130
0010
0100
0000
0110
0000
0010
0000
0010
0000
1000
0000
0100
0010
0001
0000
,
0010
0100
0010
0000
0110
0000
0100
0000
0100
0000
0001
0000
0010
0100
1000
0000
,
0100
0010
0001
0000
0001
0000
0010
0000
0100
0000
1000
0000
0100
0010
0100
0000
,
0010
0100
1000
0000
1000
0000
0100
0000
0010
0000
0001
0000
0010
0100
0010
0000
,
1000
0100
1000
0000
0001
0010
0001
0000
0010
0000
1000
0000
0001
0000
0100
0000
,
0001
1000
0000
0000
0001
0100
0000
0000
0001
1000
0000
0000
0001
0100
0001
0000
,
0100
1000
0100
0000
1000
0100
1000
0000
0001
0000
1000
0000
0001
0000
1000
0000
,
0001
1000
0001
1000
0001
0000
1000
0000
0010
0001
0010
0001
1000
0100
1000
0100
,
0001
0010
0001
0000
1000
0000
1000
0000
0100
0000
0001
0000
1000
0000
0010
0000
,
1000
0001
0000
0000
1000
0010
0000
0000
1000
0001
0000
0000
1000
0010
1000
0000
,
0010
0001
0010
0000
0001
0010
0001
0000
1000
0000
0001
0000
1000
0000
0001
0000
,
1000
0001
1000
0001
1000
0000
0001
0000
0100
1000
0100
1000
0001
0010
0001
0010
,
2000
0000
0001
0000
0000
0000
3001
0100
0000
0000
0001
0100
0001
0000
1000
0100
,
1000
0000
0001
0000
0010
0000
1000
0000
0001
1000
0001
0000
0100
0001
0000
0000
,
0010
0001
0010
0000
1000
0000
0001
0000
0100
0000
1000
0000
0001
0000
0100
0000
,
1002
0000
2003
0000
3200
0000
0302
1000
,
1003
0001
1000
0000
1001
0000
0001
0000
0001
0000
0010
0000
1000
0001
0100
0000
,
0001
1000
0001
0000
1001
0000
1000
0000
1000
0000
0100
0000
0001
1000
0010
0000
,
1000
0001
0100
0000
0100
0000
0001
0000
1000
0000
0010
0000
1000
0001
1000
0000
,
0001
1000
0010
0000
0010
0000
1000
0000
0001
0000
0100
0000
0001
1000
0001
1000
,
0110
0100
0100
0101
0001
0001
1010
0010
,
1000
0000
0010
0000
0101
0000
0100
0000
0010
0000
0100
0010
0100
0010
0200
0000
,
0010
0010
0010
0000
0010
0001
1000
0000
,
0010
1000
0001
1000
1000
1000
1000
1300
,
0110
0010
0010
1010
1000
1000
0101
0100
,
0001
0000
0100
0000
1010
0000
0010
0000
0100
0010
0100
0010
0100
0000
0020
0000
,
0100
0100
0100
0000
0100
1000
0001
0000
,
0100
0001
1000
0001
0001
0001
0001
0031
,
1001
1000
1000
1100
0100
0100
0011
0001
,
0010
0000
0001
0000
1100
0000
1000
0000
0001
1000
0001
1000
0001
0000
2000
0000
,
0001
0001
0001
0000
0001
0100
0010
0000
,
0001
0010
0100
0010
0010
0010
0010
3010
,
1001
0001
0001
0011
0010
0010
1100
1000
,
0100
0000
1000
0000
0011
0000
0001
0000
1000
0001
1000
0001
1000
0000
0002
0000
,
1000
1000
1000
0000
1000
0010
0100
0000
,
1000
0100
0010
0100
0100
0100
0100
0103
,
2000
0000
0000
0000
0001
0001
0001
0000
3200
0000
0000
0000
0010
0010
0310
0000
,
0002
0000
0000
0000
1000
1000
1000
0000
0023
0000
0000
0000
0100
0100
0130
0000
,
0020
0000
0000
0000
0100
0100
0100
0000
2030
0000
0000
0000
0001
0000
3001
0000
,
1000
0001
1000
0001
1000
0001
1000
0001
1000
0001
1000
0001
1000
0001
1000
0001
1000
0001
1000
0001
1000
0001
1000
0001
1000
0001
1000
0001
1000
0001
1000
0001
,
0100
0001
0100
0001
0110
0000
1000
0000
0010
0000
0100
0000
0010
0000
1000
0000
,
0100
0001
0010
0100
0001
0010
0100
0001
0000
0100
0001
0000
0100
0001
0100
0001
,
0010
1000
0010
1000
0110
0000
0001
0000
0100
0000
0010
0000
0100
0000
0001
0000
,
1000
0100
0010
1000
0001
0010
0100
0001
1000
0100
0010
0100
0001
0010
0100
0010
,
0001
0010
1000
0010
0001
0000
1000
0000
0010
0000
0001
0000
0100
0000
1000
0000
,
1000
0100
0001
0100
1000
0100
0001
0000
1100
0000
1000
0000
0010
0000
0001
0000
,
0100
0001
1000
0001
0100
0001
0010
0000
0011
0000
0100
0000
1000
0000
0010
0000
,
0100
0010
0100
0010
0100
0010
0100
0010
0100
0010
0100
0010
0100
0010
0100
0000
,
1010
0000
0000
1100
0000
0000
1010
0000
0000
0110
0000
0000
0101
0000
0000
0011
,
0000
0000
0101
0000
0000
0110
0000
0000
0110
0000
0000
1010
0000
0000
0110
0000
,
0000
0101
0000
0000
1001
0000
0000
1100
0000
0000
1001
0000
0000
0011
0000
0000
,
1010
0000
0000
1010
0000
0000
0101
0000
0000
0101
0000
0000
1001
0000
1001
0000
,
1010
0010
0011
0100
0110
0100
0100
0101
,
2020
0000
0000
3030
1010
0000
0202
0000
0000
0303
0011
0000
2200
0000
0000
3300
,
1100
0000
0022
0000
0000
0033
0110
0000
0202
0000
0000
0303
0110
0000
1010
0000
,
0001
1000
0001
1000
0001
1000
0001
1000
0001
1000
0001
1000
0001
1000
0001
1000
,
0010
0010
0001
0000
0010
1000
0100
0000
0010
0100
1000
0000
0100
0010
0001
0010
,
0100
0100
1000
0000
0100
0001
0010
0000
0100
0010
0001
0000
0010
0100
1000
0100
,
2002
0000
0000
0000
,
3003
0000
0000
0000
;

//---------------dance-single - Enjoy----------------
#NOTEDATA:;
#CHARTNAME:;
#STEPSTYPE:dance-single;
#DESCRIPTION:Enjoy;
#CHARTSTYLE:;
#DIFFICULTY:Edit;
#METER:1;
#RADARVALUES:0.044830,0.128828,0.057807,0.041291,0.000000,38.000000,31.000000,7.000000,5.000000,0.000000,0.000000,0.000000,0.000000,0.000000,0.044830,0.128828,0.057807,0.041291,0.000000,38.000000,31.000000,7.000000,5.000000,0.000000,0.000000,0.000000,0.000000,0.000000;
#CREDIT:;
#NOTES:
// measure 0
0000
0000
0000
0000
,  // measure 1
0000
0000
0000
0000
,  // measure 2
0000
0000
0000
0000
,  // measure 3
0000
0000
0000
0000
,  // measure 4
0010
0000
0000
0000
,  // measure 5
0100
0000
0000
0000
,  // measure 6
0001
0000
0000
0000
,  // measure 7
1000
0000
0000
0000
,  // measure 8
0010
0000
0000
0000
,  // measure 9
0000
0000
0000
0000
,  // measure 10
0010
0000
0000
0000
,  // measure 11
0000
0000
0000
0000
,  // measure 12
0100
0000
0000
0000
,  // measure 13
0000
0000
0000
0000
,  // measure 14
0100
0000
0000
0000
,  // measure 15
0000
0000
0000
0000
,  // measure 16
0020
0000
0000
0000
,  // measure 17
0000
0000
0000
0000
,  // measure 18
0000
0000
0000
0000
,  // measure 19
0000
0000
0000
0030
,  // measure 20
0200
0000
0000
0000
,  // measure 21
0000
0000
0000
0000
,  // measure 22
0000
0000
0000
0000
,  // measure 23
0000
0000
0000
0300
,  // measure 24
0001
0000
0000
0000
,  // measure 25
0000
0000
0000
0000
,  // measure 26
0001
0000
0000
0000
,  // measure 27
0000
0000
0000
0000
,  // measure 28
1000
0000
0000
0000
,  // measure 29
0000
0000
0000
0000
,  // measure 30
1000
0000
0000
0000
,  // measure 31
0000
0000
0000
0000
,  // measure 32
0002
0000
0000
0000
,  // measure 33
0000
0000
0000
0000
,  // measure 34
0000
0000
0000
0000
,  // measure 35
0000
0000
0000
0003
,  // measure 36
2000
0000
0000
0000
,  // measure 37
0000
0000
0000
0000
,  // measure 38
0000
0000
0000
0000
,  // measure 39
0000
0000
0000
3000
,  // measure 40
0101
0000
0000
0000
,  // measure 41
0000
0000
0000
0000
,  // measure 42
0000
0000
0000
0000
,  // measure 43
0000
0000
0000
0000
,  // measure 44
1010
0000
0000
0000
,  // measure 45
0000
0000
0000
0000
,  // measure 46
0000
0000
0000
0000
,  // measure 47
0000
0000
0000
0000
,  // measure 48
1001
0000
0000
0000
,  // measure 49
0000
0000
0000
0000
,  // measure 50
0000
0000
0000
0000
,  // measure 51
0000
0000
0000
0000
,  // measure 52
0110
0000
0000
0000
,  // measure 53
0000
0000
0000
0000
,  // measure 54
0000
0000
0000
0000
,  // measure 55
0000
0000
0000
0000
,  // measure 56
0020
0000
0000
0000
,  // measure 57
0000
0000
0000
0000
,  // measure 58
0000
0000
0000
0000
,  // measure 59
0000
0000
0000
0030
,  // measure 60
0010
0000
0000
0000
,  // measure 61
0000
0000
0000
0000
,  // measure 62
0010
0000
0000
0000
,  // measure 63
0000
0000
0000
0000
,  // measure 64
0100
0000
0000
0000
,  // measure 65
0000
0000
0000
0000
,  // measure 66
0100
0000
0000
0000
,  // measure 67
0010
0000
0000
0000
,  // measure 68
1001
0000
0000
0000
,  // measure 69
0000
0000
0000
0000
,  // measure 70
0000
0000
0000
0000
,  // measure 71
0000
0000
0000
0000
,  // measure 72
0110
0000
0000
0000
,  // measure 73
0000
0000
0000
0000
,  // measure 74
0000
0000
0000
0000
,  // measure 75
0000
0000
0000
0000
,  // measure 76
0010
0000
0000
0000
,  // measure 77
0100
0000
0000
0000
,  // measure 78
1001
0000
0000
0000
;
