#TITLE:TRIBALが失われるResort開発なんて非道すぎます!!;
#SUBTITLE:;
#ARTIST:キュアノイジー;
#TITLETRANSLIT:The Resort development that TRIBAL will be gone is too unfair!!;
#SUBTITLETRANSLIT:;
#ARTISTTRANSLIT:Cure Noisy;
#GENRE:TRIBAL RESORT;
#CREDIT:;
#BANNER:;
#BACKGROUND:;
#LYRICSPATH:;
#CDTITLE:;
#MUSIC:The Resort development that TRIBAL will be gone is too unfair!!.ogg;
#OFFSET:-1.920000;
#SAMPLESTART:17.280001;
#SAMPLELENGTH:15.000000;
#SELECTABLE:YES;
#BPMS:0.000000=125
;
#STOPS:
;
#BGCHANGES:;
#KEYSOUNDS:;
#ATTACKS:;

//---------------dance-single - ----------------
#NOTES:
     dance-single:
     :
     Easy:
     7:
     0.284887,0.354196,0.066970,0.163704,0.059529,268.000000,259.000000,9.000000,22.000000,0.000000,0.000000,0.284887,0.354196,0.066970,0.163704,0.059529,268.000000,259.000000,9.000000,22.000000,0.000000,0.000000:
// measure 0
0000
0000
0000
0000
,  // measure 1
0000
0000
0000
0000
,  // measure 2
0000
0000
0000
0000
,  // measure 3
0000
0000
0000
0000
,  // measure 4
0000
0000
0000
0000
,  // measure 5
0000
0000
0000
0000
,  // measure 6
0000
0000
0000
0000
,  // measure 7
0000
0000
0000
0000
,  // measure 8
0010
0000
0000
0001
0000
0000
1000
0000
0100
0000
0000
0100
0000
0000
0100
0000
,  // measure 9
0001
0000
0000
0001
0000
0000
0010
0000
0100
0000
0000
1000
0000
0000
0100
0000
,  // measure 10
0100
0000
0000
1000
0000
0000
0001
0000
0010
0000
0000
0010
0000
0000
0010
0000
,  // measure 11
1000
0000
0000
1000
0000
0000
0100
0000
0010
0000
0000
0001
0000
0000
0010
0000
,  // measure 12
0001
0000
0000
0100
0000
0000
0010
0000
1000
0000
0000
1000
0000
0000
1000
0000
,  // measure 13
0100
0000
0000
0100
0000
0000
0001
0000
1000
0000
0000
0010
0000
0000
1000
0000
,  // measure 14
1000
0000
0000
0010
0000
0000
0100
0000
0001
0000
0000
0001
0000
0000
0001
0000
,  // measure 15
0010
0000
0000
0010
0000
0000
1000
0000
0001
0000
0000
0100
0000
0000
0001
0000
,  // measure 16
0010
0010
0010
0000
0010
1000
0010
0000
,  // measure 17
0100
0010
0001
0000
1000
0100
0001
0000
,  // measure 18
0100
0100
0100
0000
0100
0001
0100
0000
,  // measure 19
0010
0100
1000
0000
0001
0010
1000
0000
,  // measure 20
0001
0001
0001
0000
0001
0010
0001
0000
,  // measure 21
1000
0001
0100
0000
0010
1000
0100
0000
,  // measure 22
1000
1000
1000
0000
1000
0100
1000
0000
,  // measure 23
0001
1000
0010
0000
0100
0001
0010
0000
,  // measure 24
0110
0000
0000
0000
,  // measure 25
0101
0000
0000
0000
,  // measure 26
0110
0000
0000
0000
,  // measure 27
1010
0000
0000
0000
,  // measure 28
1001
0000
0000
0000
,  // measure 29
1100
0000
0000
0000
,  // measure 30
1001
0000
0000
0000
,  // measure 31
0011
0000
0000
0000
,  // measure 32
0020
0000
0000
0030
,  // measure 33
0000
0000
0000
0000
,  // measure 34
0020
0000
0000
0030
,  // measure 35
0000
0000
0000
0000
,  // measure 36
2000
0000
0000
3000
,  // measure 37
0000
0000
0000
0000
,  // measure 38
0002
0000
0000
0003
,  // measure 39
0000
0000
0000
0000
,  // measure 40
0200
0000
0000
0300
,  // measure 41
0000
0000
0000
0000
,  // measure 42
0200
0000
0000
0300
,  // measure 43
0000
0000
0000
0000
,  // measure 44
0010
0100
0010
0000
0010
0001
0010
0000
,  // measure 45
0100
0010
0001
0000
0001
0010
0100
0000
,  // measure 46
0100
0010
0100
0000
0100
1000
0100
0000
,  // measure 47
0010
0100
1000
0000
1000
0100
0010
0000
,  // measure 48
0001
1000
0001
0000
0001
0100
0001
0000
,  // measure 49
1000
0001
0100
0000
0100
0001
1000
0000
,  // measure 50
1000
0001
1000
0000
1000
0010
1000
0000
,  // measure 51
0001
1000
0010
0000
0010
1000
0001
0000
,  // measure 52
0020
0100
0100
0000
0230
0001
1000
0000
,  // measure 53
0302
0010
0100
0000
0023
0100
1000
1030
,  // measure 54
0200
0010
0010
0000
0320
1000
0001
0000
,  // measure 55
2030
0100
0010
0000
3200
0010
0001
0301
,  // measure 56
0002
1000
1000
0000
2003
0100
0010
0000
,  // measure 57
3200
0001
1000
0000
0302
1000
0010
0013
,  // measure 58
2000
0001
0001
0000
3002
0010
0100
0000
,  // measure 59
0023
1000
0001
0000
2030
0001
0100
3100
,  // measure 60
0010
0000
0010
0100
1000
0000
0001
1000
,  // measure 61
0001
0000
0010
0001
0100
0000
0100
1000
,  // measure 62
0100
0000
0100
0010
0001
0000
1000
0001
,  // measure 63
1000
0000
0100
1000
0010
0000
0010
0001
,  // measure 64
0001
0000
0001
1000
0010
0000
0100
0010
,  // measure 65
0100
0000
0001
0100
1000
0000
1000
0010
,  // measure 66
1000
0000
1000
0001
0100
0000
0010
0100
,  // measure 67
0010
0000
1000
0010
0001
0000
0001
0100
,  // measure 68
1001
0000
0000
0000
;

//---------------dance-single - ----------------
#NOTES:
     dance-single:
     :
     Beginner:
     7:
     0.263627,0.354196,0.066970,0.163704,0.044647,248.000000,239.000000,9.000000,22.000000,0.000000,0.000000,0.263627,0.354196,0.066970,0.163704,0.044647,248.000000,239.000000,9.000000,22.000000,0.000000,0.000000:
0000
0000
0000
0000
,
0000
0000
0000
0000
,
0000
0000
0000
0000
,
0000
0000
0000
0000
,
0000
0000
0000
0000
,
0000
0000
0000
0000
,
0000
0000
0000
0000
,
0000
0000
0000
0000
,
0010
0000
0000
0000
0000
0000
1000
0000
0100
0000
0000
0100
0000
0000
0100
0000
,
0001
0000
0000
0001
0000
0000
0010
0000
0100
0000
0000
1000
0000
0000
0100
0000
,
0100
0000
0000
0000
0000
0000
0001
0000
0010
0000
0000
0010
0000
0000
0010
0000
,
1000
0000
0000
1000
0000
0000
0100
0000
0010
0000
0000
0001
0000
0000
0010
0000
,
0001
0000
0000
0000
0000
0000
0010
0000
1000
0000
0000
1000
0000
0000
1000
0000
,
0100
0000
0000
0100
0000
0000
0001
0000
1000
0000
0000
0010
0000
0000
1000
0000
,
1000
0000
0000
0000
0000
0000
0100
0000
0001
0000
0000
0001
0000
0000
0001
0000
,
0010
0000
0000
0010
0000
0000
1000
0000
0001
0000
0000
0100
0000
0000
0001
0000
,
0010
0000
0010
0000
0010
1000
0010
0000
,
0100
0010
0001
0000
1000
0100
0001
0000
,
0100
0000
0100
0000
0100
0001
0100
0000
,
0010
0100
1000
0000
0001
0010
1000
0000
,
0001
0000
0001
0000
0001
0010
0001
0000
,
1000
0001
0100
0000
0010
1000
0100
0000
,
1000
0000
1000
0000
1000
0100
1000
0000
,
0001
1000
0010
0000
0100
0001
0010
0000
,
0110
0000
0000
0000
,
0101
0000
0000
0000
,
0110
0000
0000
0000
,
1010
0000
0000
0000
,
1001
0000
0000
0000
,
1100
0000
0000
0000
,
1001
0000
0000
0000
,
0011
0000
0000
0000
,
0020
0000
0000
0030
,
0000
0000
0000
0000
,
0020
0000
0000
0030
,
0000
0000
0000
0000
,
2000
0000
0000
3000
,
0000
0000
0000
0000
,
0002
0000
0000
0003
,
0000
0000
0000
0000
,
0200
0000
0000
0300
,
0000
0000
0000
0000
,
0200
0000
0000
0300
,
0000
0000
0000
0000
,
0010
0000
0010
0000
0010
0001
0010
0000
,
0100
0010
0001
0000
0001
0010
0100
0000
,
0100
0000
0100
0000
0100
1000
0100
0000
,
0010
0100
1000
0000
1000
0100
0010
0000
,
0001
0000
0001
0000
0001
0100
0001
0000
,
1000
0001
0100
0000
0100
0001
1000
0000
,
1000
0000
1000
0000
1000
0010
1000
0000
,
0001
1000
0010
0000
0010
1000
0001
0000
,
0020
0000
0100
0000
0230
0001
1000
0000
,
0302
0010
0100
0000
0023
0100
1000
1030
,
0200
0000
0010
0000
0320
1000
0001
0000
,
2030
0100
0010
0000
3200
0010
0001
0301
,
0002
0000
1000
0000
2003
0100
0010
0000
,
3200
0001
1000
0000
0302
1000
0010
0013
,
2000
0000
0001
0000
3002
0010
0100
0000
,
0023
1000
0001
0000
2030
0001
0100
3100
,
0010
0000
0010
0100
1000
0000
0001
0000
,
0001
0000
0010
0001
0100
0000
0100
1000
,
0100
0000
0100
0010
0001
0000
1000
0000
,
1000
0000
0100
1000
0010
0000
0010
0001
,
0001
0000
0001
1000
0010
0000
0100
0000
,
0100
0000
0001
0100
1000
0000
1000
0010
,
1000
0000
1000
0001
0100
0000
0010
0000
,
0010
0000
1000
0010
0001
0000
0001
0100
,
1001
0000
0000
0000
;

//---------------dance-single - ----------------
#NOTES:
     dance-single:
     :
     Medium:
     8:
     0.301895,0.379495,0.066970,0.163704,0.059529,284.000000,275.000000,9.000000,22.000000,0.000000,0.000000,0.301895,0.379495,0.066970,0.163704,0.059529,284.000000,275.000000,9.000000,22.000000,0.000000,0.000000:
0000
0000
0000
0000
,
0000
0000
0000
0000
,
0000
0000
0000
0000
,
0000
0000
0000
0000
,
0000
0000
0000
0000
,
0000
0000
0000
0000
,
0000
0000
0000
0000
,
0000
0000
0000
0000
,
0010
0000
0000
0001
0000
0000
1000
0000
0100
0000
0000
0100
0000
0000
0100
0000
,
0001
0000
0000
0001
0000
0000
0010
0000
0100
0000
0000
1000
0000
0000
0100
0000
,
0100
0000
0000
1000
0000
0000
0001
0000
0010
0000
0000
0010
0000
0000
0010
0000
,
1000
0000
0000
1000
0000
0000
0100
0000
0010
0000
0000
0001
0000
0000
0010
0000
,
0001
0000
0000
0100
0000
0000
0010
0000
1000
0000
0000
1000
0000
0000
1000
0000
,
0100
0000
0000
0100
0000
0000
0001
0000
1000
0000
0000
0010
0000
0000
1000
0000
,
1000
0000
0000
0010
0000
0000
0100
0000
0001
0000
0000
0001
0000
0000
0001
0000
,
0010
0000
0000
0010
0000
0000
1000
0000
0001
0000
0000
0100
0000
0000
0001
0000
,
0010
0010
0010
0010
0010
1000
0010
0000
,
0100
0010
0001
0000
1000
0100
0001
0000
,
0100
0100
0100
0100
0100
0001
0100
0000
,
0010
0100
1000
0000
0001
0010
1000
0000
,
0001
0001
0001
0001
0001
0010
0001
0000
,
1000
0001
0100
0000
0010
1000
0100
0000
,
1000
1000
1000
1000
1000
0100
1000
0000
,
0001
1000
0010
0000
0100
0001
0010
0000
,
0110
0000
0000
0000
,
0101
0000
0100
0000
,
0110
0000
0000
0000
,
1010
0000
0010
0000
,
1001
0000
0000
0000
,
1100
0000
1000
0000
,
1001
0000
0000
0000
,
0011
0000
0001
0000
,
0020
0000
0000
0030
,
0000
0000
0000
0000
,
0020
0000
0000
0030
,
0000
0000
0000
0000
,
2000
0000
0000
3000
,
0000
0000
0000
0000
,
0002
0000
0000
0003
,
0000
0000
0000
0000
,
0200
0000
0000
0300
,
0000
0000
0000
0000
,
0200
0000
0000
0300
,
0000
0000
0000
0000
,
0010
0100
0010
0000
0010
0001
0010
0000
,
0100
0010
0001
0000
0001
0010
0100
0000
,
0100
0010
0100
0000
0100
1000
0100
0000
,
0010
0100
1000
0000
1000
0100
0010
0000
,
0001
1000
0001
0000
0001
0100
0001
0000
,
1000
0001
0100
0000
0100
0001
1000
0000
,
1000
0001
1000
0000
1000
0010
1000
0000
,
0001
1000
0010
0000
0010
1000
0001
0000
,
0020
0100
0100
1000
0230
0001
1000
0000
,
0302
0010
0100
0000
0023
0100
1000
1030
,
0200
0010
0010
0001
0320
1000
0001
0000
,
2030
0100
0010
0000
3200
0010
0001
0301
,
0002
1000
1000
0010
2003
0100
0010
0000
,
3200
0001
1000
0000
0302
1000
0010
0013
,
2000
0001
0001
0100
3002
0010
0100
0000
,
0023
1000
0001
0000
2030
0001
0100
3100
,
0010
0001
0010
0100
1000
0000
0001
1000
,
0001
0000
0010
0001
0100
0000
0100
1000
,
0100
1000
0100
0010
0001
0000
1000
0001
,
1000
0000
0100
1000
0010
0000
0010
0001
,
0001
0100
0001
1000
0010
0000
0100
0010
,
0100
0000
0001
0100
1000
0000
1000
0010
,
1000
0010
1000
0001
0100
0000
0010
0100
,
0010
0000
1000
0010
0001
0000
0001
0100
,
1001
0000
0000
0000
;

//---------------dance-single - ----------------
#NOTES:
     dance-single:
     :
     Hard:
     8:
     0.314652,0.379495,0.096734,0.163704,0.059529,296.000000,283.000000,13.000000,22.000000,0.000000,0.000000,0.314652,0.379495,0.096734,0.163704,0.059529,296.000000,283.000000,13.000000,22.000000,0.000000,0.000000:
0000
0000
0000
0000
,
0000
0000
0000
0000
,
0000
0000
0000
0000
,
0000
0000
0000
0000
,
0000
0000
0000
0000
,
0000
0000
0000
0000
,
0000
0000
0000
0000
,
0000
0000
0000
0000
,
0010
0000
0000
0001
0000
0000
1000
0000
0110
0000
0000
0100
0000
0000
0100
0000
,
0001
0000
0000
0001
0000
0000
0010
0000
0100
0000
0000
1000
0000
0000
0100
0000
,
0100
0000
0000
1000
0000
0000
0001
0000
0110
0000
0000
0010
0000
0000
0010
0000
,
1000
0000
0000
1000
0000
0000
0100
0000
0010
0000
0000
0001
0000
0000
0010
0000
,
0001
0000
0000
0100
0000
0000
0010
0000
1001
0000
0000
1000
0000
0000
1000
0000
,
0100
0000
0000
0100
0000
0000
0001
0000
1000
0000
0000
0010
0000
0000
1000
0000
,
1000
0000
0000
0010
0000
0000
0100
0000
1001
0000
0000
0001
0000
0000
0001
0000
,
0010
0000
0000
0010
0000
0000
1000
0000
0001
0000
0000
0100
0000
0000
0001
0000
,
0010
0010
0010
0010
0010
1000
0010
0000
,
0100
0010
0001
0000
1000
0100
0001
0000
,
0100
0100
0100
0100
0100
0001
0100
0000
,
0010
0100
1000
0000
0001
0010
1000
0000
,
0001
0001
0001
0001
0001
0010
0001
0000
,
1000
0001
0100
0000
0010
1000
0100
0000
,
1000
1000
1000
1000
1000
0100
1000
0000
,
0001
1000
0010
0000
0100
0001
0010
0000
,
0110
0000
0100
0000
,
0101
0000
0100
0000
,
0110
0000
0010
0000
,
1010
0000
0010
0000
,
1001
0000
1000
0000
,
1100
0000
1000
0000
,
1001
0000
0001
0000
,
0011
0000
0001
0000
,
0020
0000
0000
0030
,
0000
0000
0000
0000
,
0020
0000
0000
0030
,
0000
0000
0000
0000
,
2000
0000
0000
3000
,
0000
0000
0000
0000
,
0002
0000
0000
0003
,
0000
0000
0000
0000
,
0200
0000
0000
0300
,
0000
0000
0000
0000
,
0200
0000
0000
0300
,
0000
0000
0000
0000
,
0010
0100
0010
0000
0010
0001
0010
0000
,
0100
0010
0001
0000
0001
0010
0100
1000
,
0100
0010
0100
0000
0100
1000
0100
0000
,
0010
0100
1000
0000
1000
0100
0010
0001
,
0001
1000
0001
0000
0001
0100
0001
0000
,
1000
0001
0100
0000
0100
0001
1000
0010
,
1000
0001
1000
0000
1000
0010
1000
0000
,
0001
1000
0010
0000
0010
1000
0001
0100
,
0020
0100
0100
1000
0230
0001
1000
0000
,
0302
0010
0100
0000
0023
0100
1000
1030
,
0200
0010
0010
0001
0320
1000
0001
0000
,
2030
0100
0010
0000
3200
0010
0001
0301
,
0002
1000
1000
0010
2003
0100
0010
0000
,
3200
0001
1000
0000
0302
1000
0010
0013
,
2000
0001
0001
0100
3002
0010
0100
0000
,
0023
1000
0001
0000
2030
0001
0100
3100
,
0010
0001
0010
0100
1000
0000
0001
1000
,
0001
0000
0010
0001
0100
0000
0100
1000
,
0100
1000
0100
0010
0001
0000
1000
0001
,
1000
0000
0100
1000
0010
0000
0010
0001
,
0001
0100
0001
1000
0010
0000
0100
0010
,
0100
0000
0001
0100
1000
0000
1000
0010
,
1000
0010
1000
0001
0100
0000
0010
0100
,
0010
0000
1000
0010
0001
0000
0001
0100
,
1001
0000
0000
0000
;

//---------------dance-single - ----------------
#NOTES:
     dance-single:
     :
     Challenge:
     8:
     0.329534,0.404795,0.111616,0.163704,0.059529,310.000000,295.000000,15.000000,22.000000,0.000000,0.000000,0.329534,0.404795,0.111616,0.163704,0.059529,310.000000,295.000000,15.000000,22.000000,0.000000,0.000000:
0000
0000
0000
0000
,
0000
0000
0000
0000
,
0000
0000
0000
0000
,
0000
0000
0000
0000
,
0000
0000
0000
0000
,
0000
0000
0000
0000
,
0000
0000
0000
0000
,
0000
0000
0000
0000
,
0010
0000
0000
0001
0000
0000
1000
0000
0110
0000
0000
0100
0000
0000
0100
0000
,
0001
0000
0000
0001
0000
0000
0010
0000
0100
0000
0000
1000
0000
0000
0100
0000
,
0100
0000
0000
1000
0000
0000
0001
0000
0110
0000
0000
0010
0000
0000
0010
0000
,
1000
0000
0000
1000
0000
0000
0100
0000
0010
0000
0000
0001
0000
0000
0010
0000
,
0001
0000
0000
0100
0000
0000
0010
0000
1001
0000
0000
1000
0000
0000
1000
0000
,
0100
0000
0000
0100
0000
0000
0001
0000
1000
0000
0000
0010
0000
0000
1000
0000
,
1000
0000
0000
0010
0000
0000
0100
0000
1001
0000
0000
0001
0000
0000
0001
0000
,
0010
0000
0000
0010
0000
0000
1000
0000
0001
0000
0000
0100
0000
0000
0001
0000
,
0010
0010
0010
0010
0010
1000
0010
0000
,
0100
0010
0001
0010
1000
0100
0001
0000
,
0100
0100
0100
0100
0100
0001
0100
0000
,
0010
0100
1000
0100
0001
0010
1000
0000
,
0001
0001
0001
0001
0001
0010
0001
0000
,
1000
0001
0100
0001
0010
1000
0100
0000
,
1000
1000
1000
1000
1000
0100
1000
0000
,
0001
1000
0010
1000
0100
0001
0010
0000
,
0110
0000
0100
0000
,
0101
0000
0100
0000
,
0110
0000
0010
0000
,
1010
0000
0010
0000
,
1001
0000
1000
0000
,
1100
0000
1000
0000
,
1001
0000
0001
0000
,
0011
0000
0001
0000
,
0020
0000
0000
0030
,
0000
0000
0000
0000
,
0020
0000
0000
0030
,
0000
0000
0000
0000
,
2001
0000
0000
3000
,
0000
0000
0000
0000
,
1002
0000
0000
0003
,
0000
0000
0000
0000
,
0200
0000
0000
0300
,
0000
0000
0000
0000
,
0200
0000
0000
0300
,
0000
0000
0000
0000
,
0010
0100
0010
0000
0010
0001
0010
0001
,
0100
0010
0001
0000
0001
0010
0100
1000
,
0100
0010
0100
0000
0100
1000
0100
1000
,
0010
0100
1000
0000
1000
0100
0010
0001
,
0001
1000
0001
0000
0001
0100
0001
0100
,
1000
0001
0100
0000
0100
0001
1000
0010
,
1000
0001
1000
0000
1000
0010
1000
0010
,
0001
1000
0010
0000
0010
1000
0001
0100
,
0020
0100
0100
1000
0230
0001
1000
0000
,
0302
0010
0100
0000
0023
0100
1000
1030
,
0200
0010
0010
0001
0320
1000
0001
0000
,
2030
0100
0010
0000
3200
0010
0001
0301
,
0002
1000
1000
0010
2003
0100
0010
0000
,
3200
0001
1000
0000
0302
1000
0010
0013
,
2000
0001
0001
0100
3002
0010
0100
0000
,
0023
1000
0001
0000
2030
0001
0100
3100
,
0010
0001
0010
0100
1000
0100
0001
1000
,
0001
0000
0010
0001
0100
0000
0100
1000
,
0100
1000
0100
0010
0001
0010
1000
0001
,
1000
0000
0100
1000
0010
0000
0010
0001
,
0001
0100
0001
1000
0010
0001
0100
0010
,
0100
0000
0001
0100
1000
0000
1000
0010
,
1000
0010
1000
0001
0100
1000
0010
0100
,
0010
0000
1000
0010
0001
0000
0001
0100
,
1001
0000
0000
0000
;

//---------------dance-single - Deluxe----------------
#NOTES:
     dance-single:
     :
     Edit:
     9:
     0.346542,0.430095,0.141381,0.163704,0.059529,326.000000,307.000000,19.000000,22.000000,0.000000,0.000000,0.346542,0.430095,0.141381,0.163704,0.059529,326.000000,307.000000,19.000000,22.000000,0.000000,0.000000:
0000
0000
0000
0000
,
0000
0000
0000
0000
,
0000
0000
0000
0000
,
0000
0000
0000
0000
,
0000
0000
0000
0000
,
0000
0000
0000
0000
,
0000
0000
0000
0000
,
0000
0000
0000
0000
,
1010
0000
0000
0001
0000
0000
1000
0000
0110
0000
0000
0100
0000
0000
0100
0000
,
0001
0000
0000
0001
0000
0000
0010
0000
0100
0000
0000
1000
0000
0000
0100
0000
,
0101
0000
0000
1000
0000
0000
0001
0000
0110
0000
0000
0010
0000
0000
0010
0000
,
1000
0000
0000
1000
0000
0000
0100
0000
0010
0000
0000
0001
0000
0000
0010
0000
,
0011
0000
0000
0100
0000
0000
0010
0000
1001
0000
0000
1000
0000
0000
1000
0000
,
0100
0000
0000
0100
0000
0000
0001
0000
1000
0000
0000
0010
0000
0000
1000
0000
,
1100
0000
0000
0010
0000
0000
0100
0000
1001
0000
0000
0001
0000
0000
0001
0000
,
0010
0000
0000
0010
0000
0000
1000
0000
0001
0000
0000
0100
0000
0000
0001
0000
,
0010
0010
0010
0010
0010
1000
0010
0000
,
0100
0010
0001
0010
1000
0100
0001
0010
,
0100
0100
0100
0100
0100
0001
0100
0000
,
0010
0100
1000
0100
0001
0010
1000
0100
,
0001
0001
0001
0001
0001
0010
0001
0000
,
1000
0001
0100
0001
0010
1000
0100
0001
,
1000
1000
1000
1000
1000
0100
1000
0000
,
0001
1000
0010
1000
0100
0001
0010
1000
,
0110
0000
0100
0000
,
0101
0000
0100
0000
,
0110
0000
0010
0000
,
1010
0000
0010
0000
,
1001
0000
1000
0000
,
1100
0000
1000
0000
,
1001
0000
0001
0000
,
0011
0000
0001
0000
,
0020
0000
0000
0030
,
0000
0000
0000
0000
,
0020
0000
0000
0030
,
0000
0000
0000
0000
,
2001
0000
0000
3000
,
0000
0000
0000
0000
,
1002
0000
0000
0003
,
0000
0000
0000
0000
,
0200
0000
0000
0300
,
0000
0000
0000
0000
,
0200
0000
0000
0300
,
0000
0000
0000
0000
,
0010
0100
0010
0100
0010
0001
0010
0001
,
0100
0010
0001
0000
0001
0010
0100
1000
,
0100
0010
0100
0010
0100
1000
0100
1000
,
0010
0100
1000
0000
1000
0100
0010
0001
,
0001
1000
0001
1000
0001
0100
0001
0100
,
1000
0001
0100
0000
0100
0001
1000
0010
,
1000
0001
1000
0001
1000
0010
1000
0010
,
0001
1000
0010
0000
0010
1000
0001
0100
,
0020
0100
0100
1000
0230
0001
1000
0000
,
0302
0010
0100
0000
0023
0100
1000
1030
,
0200
0010
0010
0001
0320
1000
0001
0000
,
2030
0100
0010
0000
3200
0010
0001
0301
,
0002
1000
1000
0010
2003
0100
0010
0000
,
3200
0001
1000
0000
0302
1000
0010
0013
,
2000
0001
0001
0100
3002
0010
0100
0000
,
0023
1000
0001
0000
2030
0001
0100
3100
,
0010
0001
0010
0100
1000
0100
0001
1000
,
0001
0010
0010
0001
0100
0000
0100
1000
,
0100
1000
0100
0010
0001
0010
1000
0001
,
1000
0100
0100
1000
0010
0000
0010
0001
,
0001
0100
0001
1000
0010
0001
0100
0010
,
0100
0001
0001
0100
1000
0000
1000
0010
,
1000
0010
1000
0001
0100
1000
0010
0100
,
0010
1000
1000
0010
0001
0000
0001
0100
,
1001
0000
0000
0000
;
