#VERSION:0.83;
#TITLE:Sweet and Sour;
#SUBTITLE:(2009);
#ARTIST:P*Light;
#TITLETRANSLIT:;
#SUBTITLETRANSLIT:;
#ARTISTTRANSLIT:;
#GENRE:;
#ORIGIN:;
#CREDIT:;
#BANNER:;
#BACKGROUND:;
#PREVIEWVID:;
#JACKET:;
#CDIMAGE:;
#DISCIMAGE:;
#LYRICSPATH:;
#CDTITLE:;
#MUSIC:Sweet and Sour.ogg;
#OFFSET:-1.059000;
#SAMPLESTART:91.411942;
#SAMPLELENGTH:15.000000;
#SELECTABLE:YES;
#BPMS:0.000=170.000;
#STOPS:;
#DELAYS:;
#WARPS:;
#TIMESIGNATURES:0.000=4=4;
#TICKCOUNTS:0.000=4;
#COMBOS:0.000=1;
#SPEEDS:0.000=1.000=0.000=0;
#SCROLLS:0.000=1.000;
#FAKES:;
#LABELS:0.000=Song Start;
#LASTSECONDHINT:54.706062;
#BGCHANGES:;
#KEYSOUNDS:;
#ATTACKS:
;

//---------------dance-single - Prototype----------------
#NOTEDATA:;
#CHARTNAME:Prototype;
#STEPSTYPE:dance-single;
#DESCRIPTION:Prototype;
#CHARTSTYLE:;
#DIFFICULTY:Edit;
#METER:2;
#RADARVALUES:0.113884,0.209059,0.000000,0.002712,0.000000,294.000000,294.000000,0.000000,1.000000,0.000000,0.000000,0.000000,0.000000,0.000000,0.113884,0.209059,0.000000,0.002712,0.000000,294.000000,294.000000,0.000000,1.000000,0.000000,0.000000,0.000000,0.000000,0.000000;
#CREDIT:Dr.Bright;
#NOTES:
0000
0000
0000
0000
,
0000
0000
0000
0000
,
0000
0000
0000
0000
,
0000
0000
0000
0000
,
0000
0000
0000
0000
,
0000
0000
0000
0000
,
0000
0000
0000
0000
,
0000
0000
0000
0000
,
0000
0000
0000
0000
,
0000
0000
0000
0000
,
0000
0000
0000
0000
,
0000
0000
0000
0000
,
0000
0000
0000
0000
,
0000
0000
0000
0000
,
0000
0000
0000
0000
,
0000
0000
0000
0000
,
1000
0000
0010
0000
,
0001
0000
0010
0000
,
1000
0000
0010
0000
,
0001
0000
0010
0000
,
1000
0000
0010
0000
,
0001
0000
0010
0000
,
1000
0000
0010
0000
,
0100
0000
0000
0000
,
1000
0000
0010
0000
,
0001
0000
0010
0000
,
1000
0000
0010
0000
,
0001
0000
0010
0000
,
1000
0000
0010
0000
,
0001
0000
0010
0000
,
1000
0000
0010
0000
,
0001
0000
0010
0000
,
1000
0000
0000
0000
,
0010
0000
0000
0000
,
0001
0000
0000
0000
,
0010
0000
0000
0000
,
1000
0000
0000
0000
,
0010
0000
0000
0000
,
0001
0000
0000
0000
,
0010
0000
0000
0000
,
1000
0000
0000
0000
,
0010
0000
0000
0000
,
0001
0000
0000
0000
,
0010
0000
0000
0000
,
1000
0000
0000
0000
,
0010
0000
0000
0000
,
0001
0000
0000
0000
,
0010
0000
0000
0000
,
0001
0000
0000
0000
,
1000
0000
0000
0000
,
0001
0000
0000
0000
,
1000
0000
0000
0000
,
0001
0000
0000
0000
,
1000
0000
0000
0000
,
0001
0000
0000
0000
,
1000
0000
0000
0000
,
0001
0000
0000
0000
,
1000
0000
0000
0000
,
0001
0000
0000
0000
,
1000
0000
0000
0000
,
0001
0000
0000
0000
,
1000
0000
0000
0000
,
0001
0000
0000
0000
,
1000
0000
0000
0000
,
0100
0000
0000
0000
,
0001
0000
1000
0000
,
0100
0000
0000
0000
,
0001
0000
1000
0000
,
0100
0000
0000
0000
,
0001
0000
1000
0000
,
0100
0000
0000
0000
,
0001
0000
1000
0000
,
0100
0000
0000
0000
,
0001
0000
1000
0000
,
0100
0000
0000
0000
,
0001
0000
1000
0000
,
0100
0000
0000
0000
,
0001
0000
1000
0000
,
0100
0000
0000
0000
,
0001
0000
1000
0000
,
0100
0000
0000
0000
,
0001
0000
1000
0000
,
0100
0000
0000
0000
,
0001
0000
1000
0000
,
0100
0000
0000
0000
,
0001
0000
1000
0000
,
0100
0000
0000
0000
,
0001
0000
1000
0000
,
0100
0000
0000
0000
,
0001
0000
1000
0000
,
0100
0000
0000
0000
,
0001
0000
1000
0000
,
0100
0000
0000
0000
,
0001
0000
1000
0000
,
0100
0000
0000
0000
,
0001
0000
0000
0000
,
0010
0000
0000
0000
,
0100
0000
0000
0000
,
1000
0000
0000
0000
,
0001
0000
0000
0000
,
1000
0000
0000
0000
,
0010
0000
0000
0000
,
0001
0000
0000
0000
,
1000
0000
0000
0000
,
0001
0000
0000
0000
,
0100
0000
0000
0000
,
1000
0000
0000
0000
,
0001
0000
0000
0000
,
1000
0000
0000
0000
,
0010
0000
0000
0000
,
0001
0000
0000
0000
,
1000
0000
0000
0000
,
0010
0000
0000
0000
,
0100
0000
0000
0000
,
0010
0000
0000
0000
,
0100
0000
0000
0000
,
0010
0000
0000
0000
,
0100
0000
0000
0000
,
0010
0000
0000
0000
,
0100
0000
0000
0000
,
0010
0000
0000
0000
,
0100
0000
0000
0000
,
0010
0000
0000
0000
,
0100
0000
0000
0000
,
0010
0000
0000
0000
,
0100
0000
0000
0000
,
0010
0000
0000
0000
,
0100
0000
0000
0000
,
1000
0000
0000
0000
,
0001
0000
0000
0000
,
1000
0000
0000
0000
,
0001
0000
0000
0000
,
1000
0000
0000
0000
,
0001
0000
0000
0000
,
1000
0000
0000
0000
,
0001
0000
0000
0000
,
1000
0000
0000
0000
,
0001
0000
0000
0000
,
1000
0000
0000
0000
,
0001
0000
0000
0000
,
1000
0000
0000
0000
,
0001
0000
1000
0000
,
1000
0001
1000
0001
,
0000
0000
0000
0000
,
0010
0000
1000
0000
,
0001
0000
0100
0000
,
0100
0000
0000
0000
,
0010
0000
0000
0000
,
0010
0000
1000
0000
,
0001
0000
0100
0000
,
0100
0000
0000
0000
,
0010
0000
0000
0000
,
0010
0000
1000
0000
,
0001
0000
0100
0000
,
0100
0000
0000
0000
,
0010
0000
0000
0000
,
0010
0000
1000
0000
,
0001
0000
0100
0000
,
0100
0000
0000
0000
,
0000
0000
0000
0000
,
0100
0000
0000
0000
,
0001
0000
1000
0000
,
0100
0000
0000
0000
,
0001
0000
1000
0000
,
0100
0000
0000
0000
,
0001
0000
1000
0000
,
0100
0000
0000
0000
,
0001
0000
1000
0000
,
0100
0000
0000
0000
,
0001
0000
1000
0000
,
0100
0000
0000
0000
,
0001
0000
1000
0000
,
0100
0000
0000
0000
,
0001
0000
1000
0000
,
0100
0000
0000
0000
,
0001
0000
1000
0000
,
0100
0000
0000
0000
,
0001
0000
1000
0000
,
0100
0000
0000
0000
,
0001
0000
1000
0000
,
0100
0000
0000
0000
,
0001
0000
1000
0000
,
0100
0000
0000
0000
,
0001
0000
1000
0000
,
0100
0000
0000
0000
,
0001
0000
1000
0000
,
0100
0000
0000
0000
,
0001
0000
1000
0000
,
0100
0000
0000
0000
,
0001
0000
1000
0000
,
0100
0000
0000
0000
,
0000
0000
0000
0000
,
1000
0000
0000
0000
,
0001
0000
0000
0000
,
1000
0000
0000
0000
,
0001
0000
0000
0000
,
1000
0000
0000
0000
,
0001
0000
0000
0000
,
1000
0000
0000
0000
,
0001
0000
0000
0000
,
1000
0000
0000
0000
,
0001
0000
0000
0000
,
1000
0000
0000
0000
,
0001
0000
0000
0000
,
1000
0000
0000
0000
,
0001
0000
0000
0000
,
1000
0000
0000
0000
,
0000
0000
0000
0000
,
1000
0000
0000
0000
,
0010
0000
0000
0000
,
0001
0000
0000
0000
,
0010
0000
0000
0000
,
1000
0000
0000
0000
,
0010
0000
0000
0000
,
0001
0000
0000
0000
,
0010
0000
0000
0000
,
1000
0000
0000
0000
,
0010
0000
0000
0000
,
0001
0000
0000
0000
,
0010
0000
0000
0000
,
1000
0000
0000
0000
,
0010
0000
0000
0000
,
0001
0000
0000
0000
,
0010
0000
0000
0000
,
1000
0000
0000
0000
,
0010
0000
0000
0000
,
0001
0000
0000
0000
,
0010
0000
0000
0000
,
1000
0000
0000
0000
,
0010
0000
0000
0000
,
0001
0000
0000
0000
,
0010
0000
0000
0000
,
1000
0000
0000
0000
,
0010
0000
0000
0000
,
0001
0000
0000
0000
,
0010
0000
0000
0000
,
1000
0000
0000
0000
,
0010
0000
0000
0000
,
0001
0000
0000
0000
,
0010
0000
0000
0000
,
1000
0000
0000
0000
,
0010
0000
0000
0000
,
0001
0000
0000
0000
,
0010
0000
0000
0000
,
1000
0000
0000
0000
,
0010
0000
0000
0000
,
0001
0000
0000
0000
,
0010
0000
0000
0000
,
1000
0000
0000
0000
,
0010
0000
0000
0000
,
0001
0000
0000
0000
,
0010
0000
0000
0000
,
1000
0000
0000
0000
,
0010
0000
0000
0000
,
0001
0000
0000
0000
,
0010
0000
0000
0000
,
0200
0000
0000
0000
,
0300
0000
0000
0000
;

//---------------dance-single - Old Easy----------------
#NOTEDATA:;
#CHARTNAME:;
#STEPSTYPE:dance-single;
#DESCRIPTION:Old Easy;
#CHARTSTYLE:;
#DIFFICULTY:Edit;
#METER:6;
#RADARVALUES:0.272702,0.313588,0.029827,0.005423,0.000000,704.000000,693.000000,11.000000,2.000000,0.000000,0.000000,0.000000,0.000000,0.000000,0.272702,0.313588,0.029827,0.005423,0.000000,704.000000,693.000000,11.000000,2.000000,0.000000,0.000000,0.000000,0.000000,0.000000;
#CREDIT:;
#NOTES:
0000
0000
0000
0000
,
0000
0000
0000
0000
,
0000
0000
0000
0000
,
0000
0000
0000
0000
,
0000
0000
0000
0000
,
0000
0000
0000
0000
,
0000
0000
0000
0000
,
0000
0000
0000
0000
,
0000
0000
0000
0000
,
0000
0000
0000
0000
,
0000
0000
0000
0000
,
0000
0000
0000
0000
,
0000
0000
0000
0000
,
0000
0000
0000
0000
,
0000
0000
0000
0000
,
0000
0000
0000
0000
,
1000
0000
0000
0100
0000
0010
0000
0000
,
0001
0000
0100
0010
,
1000
0000
0000
0100
0000
0010
0000
0000
,
0001
0000
0100
0010
,
1000
0000
0000
0100
0000
0010
0000
0000
,
0001
0000
0100
0010
,
1000
0000
0000
0100
0000
0010
0000
0110
,
0000
0000
0110
0000
0000
0000
0020
0030
,
1000
0000
0000
0100
0000
0010
0000
0000
,
0001
0000
0100
0010
,
1000
0000
0000
0100
0000
0010
0000
0000
,
0001
0000
0100
0010
,
1000
0000
0000
0100
0000
0010
0000
0000
,
0001
0000
0100
0010
,
1000
0000
0000
0100
0000
0010
0000
0000
,
0001
0000
0100
0010
,
1000
0000
0001
0100
,
0010
0000
0100
1000
,
0001
0000
1000
0010
,
1000
0000
0000
0100
0000
0010
0000
0000
,
1000
0000
0001
0100
,
0010
0000
0100
1000
,
0001
0000
1000
0010
,
0001
0000
0100
0010
,
1000
0000
0001
0100
,
0010
0000
0100
1000
,
0001
0000
1000
0010
,
1000
0000
0000
0100
0000
0010
0000
0000
,
1000
0000
0001
0100
,
0010
0000
0100
1000
,
0001
0000
1000
0010
,
0001
0000
0100
0010
,
1000
0000
0000
0001
0000
0000
1000
0000
,
1000
0000
0000
0001
0000
0000
1000
0000
,
1000
0000
0000
0001
0000
0000
1000
0000
,
1000
0000
0000
0001
0000
0000
1000
0000
,
1000
0000
0000
0001
0000
0000
1000
0000
,
1000
0000
0000
0001
0000
0000
1000
0000
,
1000
0000
0000
0001
0000
0000
1000
0000
,
1000
0000
0000
0001
0000
0000
1000
0000
,
1000
0000
0000
0001
0000
0000
1000
0000
,
1000
0000
0000
0001
0000
0000
1000
0000
,
1000
0000
0000
0001
0000
0000
1000
0000
,
1000
0000
0000
0001
0000
0000
1000
0000
,
1000
0000
0000
0001
0000
0000
1000
0000
,
1000
0000
0000
0001
0000
0000
1000
0000
,
1000
0000
0000
0001
0000
0000
1000
0000
,
1000
0000
0000
0001
0000
0000
1000
0000
,
0100
0000
0000
0100
0000
0010
0000
0000
,
0010
0000
0000
1000
0000
0000
1000
0000
,
0100
0000
0000
0100
0000
0010
0000
0000
,
0010
0000
0000
1000
0000
0000
1000
0000
,
0100
0000
0000
0100
0000
0010
0000
0000
,
0010
0000
0000
1000
0000
0000
1000
0000
,
0100
0000
0000
0100
0000
0010
0000
0000
,
0010
0000
0000
1000
0000
0000
1000
0000
,
0100
0000
0000
0100
0000
0010
0000
0000
,
0010
0000
0000
1000
0000
0000
1000
0000
,
0100
0000
0000
0100
0000
0010
0000
0000
,
0010
0000
0000
1000
0000
0000
1000
0000
,
0100
0000
0000
0100
0000
0010
0000
0000
,
0010
0000
0000
1000
0000
0000
1000
0000
,
0100
0000
0000
0100
0000
0010
0000
0000
,
0010
0000
0000
1000
0000
0000
1000
0000
,
0100
0000
0000
0100
0000
0010
0000
0000
,
0010
0000
0000
1000
0000
0000
1000
0000
,
0100
0000
0000
0100
0000
0010
0000
0000
,
0010
0000
0000
1000
0000
0000
1000
0000
,
0100
0000
0000
0100
0000
0010
0000
0000
,
0010
0000
0000
1000
0000
0000
1000
0000
,
0100
0000
0000
0100
0000
0010
0000
0000
,
0010
0000
0000
1000
0000
0000
1000
0000
,
0100
0000
0000
0100
0000
0010
0000
0000
,
0010
0000
0000
1000
0000
0000
1000
0000
,
0100
0000
0000
0100
0000
0010
0000
0000
,
0010
0000
0000
1000
0000
0000
1000
0000
,
0100
0000
0000
0100
0000
0010
0000
0000
,
0010
0000
0000
1000
0000
0000
1000
0000
,
0100
0000
0000
0100
0000
0010
0000
0000
,
0010
0000
0000
0010
,
0010
0000
0000
0110
,
0000
0000
0000
1100
,
0000
0000
0000
0001
,
0001
0000
0000
1000
0000
0000
1000
0000
,
0100
0000
0000
0110
,
0000
0000
0000
0011
,
0000
0000
0000
1000
,
1000
0000
0000
0001
0000
0000
0001
0000
,
0010
0000
0000
0110
,
0000
0000
0000
1100
,
0000
0000
0000
0001
,
0001
0000
0000
1000
0000
0000
1000
0000
,
0100
0000
0000
0110
,
0000
0000
0000
0011
,
0000
0000
0000
1000
,
1000
0000
0000
0001
0000
0000
0001
0000
,
1000
0000
0000
0100
0000
0010
0000
0000
,
0001
0000
0100
0010
,
1000
0000
0000
0100
0000
0010
0000
0000
,
0001
0000
0100
0010
,
1000
0000
0000
0100
0000
0010
0000
0000
,
0001
0000
0100
0010
,
1000
0000
0000
0100
0000
0010
0000
0000
,
0001
0000
0100
0010
,
1000
0000
0000
0100
0000
0010
0000
0000
,
0001
0000
0100
0010
,
1000
0000
0000
0100
0000
0010
0000
0000
,
0001
0000
0100
0010
,
1000
0000
0000
0100
0000
0010
0000
0000
,
0001
0000
0100
0010
,
1000
0000
0000
0100
0000
0010
0000
0000
,
0001
0000
0100
0010
,
1000
0000
0000
0001
0000
0000
1000
0000
,
1000
0000
0000
0001
0000
0000
1000
0000
,
1000
0000
0000
0001
0000
0000
1000
0000
,
1000
0000
0000
0001
0000
0000
1000
0000
,
1000
0000
0000
0001
0000
0000
1000
0000
,
1000
0000
0000
0001
0000
0000
1000
0000
,
1000
0000
0000
0001
0000
0000
1000
0000
,
1000
0000
0000
0001
0000
0000
1000
0000
,
1000
0000
0000
0001
0000
0000
1000
0000
,
1000
0000
0000
0001
0000
0000
1000
0000
,
1000
0000
0000
0001
0000
0000
1000
0000
,
1000
0000
0000
0001
0000
0000
1000
0000
,
1000
0000
1000
0000
,
1000
0000
1000
0000
,
1000
1000
1000
1000
,
1000
0000
0001
0010
,
0000
0100
0000
0000
0010
0000
0000
0100
,
0000
0010
0000
0000
0100
0000
0000
0010
,
0000
0100
0000
0000
0000
0100
0000
0000
,
0000
0000
0000
0010
0000
0000
0000
0010
,
0000
0100
0000
0000
0010
0000
0000
0100
,
0000
0010
0000
0000
0100
0000
0000
0010
,
0000
0100
0000
0000
0000
0100
0000
0000
,
0000
0000
0000
0010
0000
0000
0000
0010
,
0000
0100
0000
0000
0010
0000
0000
0100
,
0000
0010
0000
0000
0100
0000
0000
0010
,
0000
0100
0000
0000
0000
0100
0000
0000
,
0000
0000
0000
0010
0000
0000
0000
0010
,
0000
0100
0000
0000
0010
0000
0000
0100
,
0000
0010
0000
0000
0100
0000
0000
0010
,
0000
0100
0000
0000
0000
0100
0000
0000
,
1000
0000
0001
0010
,
0100
0000
0000
0100
0000
0010
0000
0000
,
0010
0000
0000
1000
0000
0000
1000
0000
,
0100
0000
0000
0100
0000
0010
0000
0000
,
0010
0000
0000
1000
0000
0000
1000
0000
,
0100
0000
0000
0100
0000
0010
0000
0000
,
0010
0000
0000
1000
0000
0000
1000
0000
,
0100
0000
0000
0100
0000
0010
0000
0000
,
0010
0000
0000
1000
0000
0000
1000
0000
,
0100
0000
0000
0100
0000
0010
0000
0000
,
0010
0000
0000
1000
0000
0000
1000
0000
,
0100
0000
0000
0100
0000
0010
0000
0000
,
0010
0000
0000
1000
0000
0000
1000
0000
,
0100
0000
0000
0100
0000
0010
0000
0000
,
0010
0000
0000
1000
0000
0000
1000
0000
,
0100
0000
0000
0100
0000
0010
0000
0000
,
0010
0000
0000
1000
0000
0000
1000
0000
,
0100
0000
0000
0100
0000
0010
0000
0000
,
0010
0000
0000
1000
0000
0000
1000
0000
,
0100
0000
0000
0100
0000
0010
0000
0000
,
0010
0000
0000
1000
0000
0000
1000
0000
,
0100
0000
0000
0100
0000
0010
0000
0000
,
0010
0000
0000
1000
0000
0000
1000
0000
,
0100
0000
0000
0100
0000
0010
0000
0000
,
0010
0000
0000
1000
0000
0000
1000
0000
,
0100
0000
0000
0100
0000
0010
0000
0000
,
0010
0000
0000
1000
0000
0000
1000
0000
,
0100
0000
0000
0100
0000
0010
0000
0000
,
0010
0000
0000
1000
0000
0000
1000
0000
,
0100
0000
0000
0100
0000
0010
0000
0000
,
0010
0000
0000
1000
0000
0000
1000
0000
,
0100
0000
0000
0100
0000
0010
0000
0000
,
1000
0000
0001
0010
,
1000
0000
0000
0001
0000
0000
1000
0000
,
1000
0000
0000
0001
0000
0000
1000
0000
,
1000
0000
0000
0001
0000
0000
1000
0000
,
1000
0000
0000
0001
0000
0000
1000
0000
,
1000
0000
0000
0001
0000
0000
1000
0000
,
1000
0000
0000
0001
0000
0000
1000
0000
,
1000
0000
0000
0001
0000
0000
1000
0000
,
1000
0000
0000
0001
0000
0000
1000
0000
,
1000
0000
0000
0001
0000
0000
1000
0000
,
1000
0000
0000
0001
0000
0000
1000
0000
,
1000
0000
0000
0001
0000
0000
1000
0000
,
1000
0000
0000
0001
0000
0000
1000
0000
,
1000
0000
0000
0001
0000
0000
1000
0000
,
1000
0000
0000
0001
0000
0000
1000
0000
,
1000
0000
0000
0001
0000
0000
1000
0000
,
1000
0100
0010
1001
,
1000
0000
0001
0100
,
0010
0000
0100
1000
,
0001
0000
1000
0010
,
0001
0000
0100
0010
,
1000
0000
0001
0100
,
0010
0000
0100
1000
,
0001
0000
1000
0010
,
0001
0000
0100
0010
,
1000
0000
0001
0100
,
0010
0000
0100
1000
,
0001
0000
1000
0010
,
0001
0000
0100
0010
,
1000
0000
0001
0100
,
0010
0000
0100
1000
,
0001
0000
1000
0010
,
0001
0000
0100
0010
,
1000
0000
0001
0100
,
0010
0000
0100
1000
,
0001
0000
1000
0010
,
0001
0000
0100
0010
,
1000
0000
0001
0100
,
0010
0000
0100
1000
,
0001
0000
1000
0010
,
0001
0000
0100
0010
,
1000
0000
0001
0100
,
0010
0000
0100
1000
,
0001
0000
1000
0010
,
0001
0000
0100
0010
,
1000
0000
0001
0100
,
0010
0000
0100
1000
,
0001
0000
1000
0010
,
0001
0000
0100
0010
,
1000
0000
0001
0100
,
0010
0000
0100
1000
,
0001
0000
1000
0010
,
0001
0000
0100
0010
,
1000
0000
0001
0100
,
0010
0000
0100
1000
,
0001
0000
1000
0010
,
0001
0000
0100
0010
,
1000
0000
0001
0100
,
0010
0000
0100
1000
,
0001
0000
1000
0010
,
0001
0000
0100
0010
,
1000
0000
0001
0100
,
0010
0000
0100
1000
,
0001
0000
1000
0010
,
0001
0000
0100
0010
,
0200
0000
0000
0000
,
0300
0000
0000
0000
;

//---------------dance-single - Old Normal----------------
#NOTEDATA:;
#CHARTNAME:;
#STEPSTYPE:dance-single;
#DESCRIPTION:Old Normal;
#CHARTSTYLE:;
#DIFFICULTY:Edit;
#METER:9;
#RADARVALUES:0.370317,0.452960,0.078634,0.008135,0.287422,956.000000,927.000000,29.000000,3.000000,0.000000,0.000000,0.000000,0.000000,0.000000,0.370317,0.452960,0.078634,0.008135,0.287422,956.000000,927.000000,29.000000,3.000000,0.000000,0.000000,0.000000,0.000000,0.000000;
#CREDIT:;
#NOTES:
0000
0000
0000
0000
,
0000
0000
0000
0000
,
0000
0000
0000
0000
,
0000
0000
0000
0000
,
0000
0000
0000
0000
,
0000
0000
0000
0000
,
0000
0000
0000
0000
,
0000
0000
0000
0000
,
0000
0000
0000
0000
,
0000
0000
0000
0000
,
0000
0000
0000
0000
,
0000
0000
0000
0000
,
0000
0000
0000
0000
,
0000
0000
0000
0000
,
0000
0000
0000
0000
,
0000
0000
0000
0000
,
1000
0000
0000
1000
0000
0000
0100
0000
0000
0000
0010
0000
0000
0000
0000
0000
,
0001
0000
0000
0001
0000
0000
0000
0000
0100
0000
0000
0000
0010
0000
0000
0000
,
1000
0000
0000
1000
0000
0000
0100
0000
0000
0000
0010
0000
0000
0000
0000
0000
,
0001
0000
0000
0001
0000
0000
0000
0000
0100
0000
0000
0000
0010
0000
0000
0000
,
1000
0000
0000
1000
0000
0000
0100
0000
0000
0000
0010
0000
0000
0000
0000
0000
,
0001
0000
0000
0001
0000
0000
0000
0000
0100
0000
0000
0000
0010
0000
0000
0000
,
1000
0000
0000
1000
0000
0000
0100
0000
0000
0000
0010
0000
0000
0000
0110
0000
,
0000
0010
0000
0100
0000
0000
0020
0030
,
1000
0000
0000
1000
0000
0000
0100
0000
0000
0000
0010
0000
0000
0000
0000
0000
,
0001
0000
0000
0001
0000
0000
0000
0000
0100
0000
0000
0000
0010
0000
0000
0000
,
1000
0000
0000
1000
0000
0000
0100
0000
0000
0000
0010
0000
0000
0000
0000
0000
,
0001
0000
0000
0001
0000
0000
0000
0000
0100
0000
0000
0000
0010
0000
0000
0000
,
1000
0000
0000
1000
0000
0000
0100
0000
0000
0000
0010
0000
0000
0000
0000
0000
,
0001
0000
0000
0001
0000
0000
0000
0000
0100
0000
0000
0000
0010
0000
0000
0000
,
1000
0000
0000
1000
0000
0000
0100
0000
0000
0000
0010
0000
0000
0000
0000
0000
,
0001
0000
0000
0001
0000
0000
0000
0000
0100
0000
0000
0000
0010
0000
0000
0000
,
1000
0000
0000
1000
0000
0000
0000
0000
0001
0000
0000
0000
0100
0000
0000
0000
,
0010
0000
0000
0010
0000
0000
0000
0000
0100
0000
0000
0000
1000
0000
0000
0000
,
0001
0000
0000
0001
0000
0000
0000
0000
1000
0000
0000
0000
0010
0000
0000
0000
,
1000
0000
0000
1000
0000
0000
0100
0000
0000
0000
0010
0000
0000
0000
0000
0000
,
1000
0000
0000
1000
0000
0000
0000
0000
0001
0000
0000
0000
0100
0000
0000
0000
,
0010
0000
0000
0010
0000
0000
0000
0000
0100
0000
0000
0000
1000
0000
0000
0000
,
0001
0000
0000
0001
0000
0000
0000
0000
1000
0000
0000
0000
0010
0000
0000
0000
,
0001
0000
0000
0001
0000
0000
0000
0000
0100
0000
0000
0000
0010
0000
0000
0000
,
1000
0000
0000
1000
0000
0000
0000
0000
0001
0000
0000
0000
0100
0000
0000
0000
,
0010
0000
0000
0010
0000
0000
0000
0000
0100
0000
0000
0000
1000
0000
0000
0000
,
0001
0000
0000
0001
0000
0000
0000
0000
1000
0000
0000
0000
0010
0000
0000
0000
,
1000
0000
0000
1000
0000
0000
0100
0000
0000
0000
0010
0000
0000
0000
0000
0000
,
1000
0000
0000
1000
0000
0000
0000
0000
0001
0000
0000
0000
0100
0000
0000
0000
,
0010
0000
0000
0010
0000
0000
0000
0000
0100
0000
0000
0000
1000
0000
0000
0000
,
0001
0000
0000
0001
0000
0000
0000
0000
1000
0000
0000
0000
0010
0000
0000
0000
,
0001
0000
0000
0001
0000
0000
0000
0000
0100
0000
0000
0000
0010
0000
0000
0000
,
1000
0000
0000
0010
0000
0000
0001
0000
0000
0000
0000
0000
1000
0000
0000
0000
,
1000
0000
0000
0010
0000
0000
0001
0000
0000
0000
0000
0000
1000
0000
0000
0000
,
1000
0000
0000
0010
0000
0000
0001
0000
0000
0000
0000
0000
1000
0000
0000
0000
,
1000
0000
0000
0010
0000
0000
0001
0000
0000
0000
0000
0000
1000
0000
0000
0000
,
1000
0000
0000
0010
0000
0000
0001
0000
0000
0000
0000
0000
1000
0000
0000
0000
,
1000
0000
0000
0010
0000
0000
0001
0000
0000
0000
0000
0000
1000
0000
0000
0000
,
1000
0000
0000
0010
0000
0000
0001
0000
0000
0000
0000
0000
1000
0000
0000
0000
,
1000
0000
0000
0010
0000
0000
0001
0000
0000
0000
0000
0000
1000
0000
0000
0000
,
1000
0000
0000
0010
0000
0000
0001
0000
0000
0000
0000
0000
1000
0000
0000
0000
,
1000
0000
0000
0010
0000
0000
0001
0000
0000
0000
0000
0000
1000
0000
0000
0000
,
1000
0000
0000
0010
0000
0000
0001
0000
0000
0000
0000
0000
1000
0000
0000
0000
,
1000
0000
0000
0010
0000
0000
0001
0000
0000
0000
0000
0000
1000
0000
0000
0000
,
1000
0000
0000
0010
0000
0000
0001
0000
0000
0000
0000
0000
1000
0000
0000
0000
,
1000
0000
0000
0010
0000
0000
0001
0000
0000
0000
0000
0000
1000
0000
0000
0000
,
1000
0000
0000
0010
0000
0000
0001
0000
0000
0000
0000
0000
1000
0000
0000
0000
,
1000
0000
0000
0010
0000
0000
0001
0000
0000
0000
0000
0000
1000
0000
0000
0000
,
0100
0000
0000
0010
0000
0000
0100
0000
0000
0000
0010
0000
0000
0000
0000
0000
,
0010
0000
0000
0100
0000
0000
1000
0000
0000
0000
0000
0000
1000
0000
0000
0000
,
0100
0000
0000
0010
0000
0000
0100
0000
0000
0000
0010
0000
0000
0000
0000
0000
,
0010
0000
0000
0100
0000
0000
1000
0000
0000
0000
0000
0000
1000
0000
0000
0000
,
0100
0000
0000
0010
0000
0000
0100
0000
0000
0000
0010
0000
0000
0000
0000
0000
,
0010
0000
0000
0100
0000
0000
1000
0000
0000
0000
0000
0000
1000
0000
0000
0000
,
0100
0000
0000
0010
0000
0000
0100
0000
0000
0000
0010
0000
0000
0000
0000
0000
,
0010
0000
0000
0100
0000
0000
1000
0000
0000
0000
0000
0000
1000
0000
0000
0000
,
0100
0000
0000
0010
0000
0000
0100
0000
0000
0000
0010
0000
0000
0000
0000
0000
,
0010
0000
0000
0100
0000
0000
1000
0000
0000
0000
0000
0000
1000
0000
0000
0000
,
0100
0000
0000
0010
0000
0000
0100
0000
0000
0000
0010
0000
0000
0000
0000
0000
,
0010
0000
0000
0100
0000
0000
1000
0000
0000
0000
0000
0000
1000
0000
0000
0000
,
0100
0000
0000
0010
0000
0000
0100
0000
0000
0000
0010
0000
0000
0000
0000
0000
,
0010
0000
0000
0100
0000
0000
1000
0000
0000
0000
0000
0000
1000
0000
0000
0000
,
0100
0000
0000
0010
0000
0000
0100
0000
0000
0000
0010
0000
0000
0000
0000
0000
,
0010
0000
0000
0100
0000
0000
1000
0000
0000
0000
0000
0000
1000
0000
0000
0000
,
0100
0000
0000
0010
0000
0000
0100
0000
0000
0000
0010
0000
0000
0000
0000
0000
,
0010
0000
0000
0100
0000
0000
1000
0000
0000
0000
0000
0000
1000
0000
0000
0000
,
0100
0000
0000
0010
0000
0000
0100
0000
0000
0000
0010
0000
0000
0000
0000
0000
,
0010
0000
0000
0100
0000
0000
1000
0000
0000
0000
0000
0000
1000
0000
0000
0000
,
0100
0000
0000
0010
0000
0000
0100
0000
0000
0000
0010
0000
0000
0000
0000
0000
,
0010
0000
0000
0100
0000
0000
1000
0000
0000
0000
0000
0000
1000
0000
0000
0000
,
0100
0000
0000
0010
0000
0000
0100
0000
0000
0000
0010
0000
0000
0000
0000
0000
,
0010
0000
0000
0100
0000
0000
1000
0000
0000
0000
0000
0000
1000
0000
0000
0000
,
0100
0000
0000
0010
0000
0000
0100
0000
0000
0000
0010
0000
0000
0000
0000
0000
,
0010
0000
0000
0100
0000
0000
1000
0000
0000
0000
0000
0000
1000
0000
0000
0000
,
0100
0000
0000
0010
0000
0000
0100
0000
0000
0000
0010
0000
0000
0000
0000
0000
,
0010
0000
0000
0100
0000
0000
1000
0000
0000
0000
0000
0000
1000
0000
0000
0000
,
0100
0000
0000
0010
0000
0000
0100
0000
0000
0000
0010
0000
0000
0000
0000
0000
,
0010
0000
0000
0100
0000
0000
1000
0000
0000
0000
0000
0000
1000
0000
0000
0000
,
0100
0000
0000
0010
0000
0000
0100
0000
0000
0000
0010
0000
0000
0000
0000
0000
,
0020
0000
0030
0010
,
0010
0000
0000
0110
,
0000
0000
0000
1100
,
0000
0000
0000
0001
,
0001
0000
0000
1000
0000
0000
1000
0000
,
0100
0000
0000
0110
,
0000
0000
0000
0011
,
0000
0000
0000
1000
,
1000
0000
0000
0001
0000
0000
0001
0000
,
0010
0000
0000
0110
,
0000
0000
0000
1100
,
0000
0000
0000
0001
,
0001
0000
0000
1000
0000
0000
1000
0000
,
0100
0000
0000
0110
,
0000
0000
0000
0011
,
0000
0000
0000
1000
,
1000
0000
0000
0001
0000
0000
0001
0000
,
1000
0000
0000
1000
0000
0000
0100
0000
0000
0000
0010
0000
0000
0000
0000
0000
,
0001
0000
0000
0001
0000
0000
0000
0000
0100
0000
0000
0000
0010
0000
0000
0000
,
1000
0000
0000
1000
0000
0000
0100
0000
0000
0000
0010
0000
0000
0000
0000
0000
,
0001
0000
0000
0001
0000
0000
0000
0000
0100
0000
0000
0000
0010
0000
0000
0000
,
1000
0000
0000
1000
0000
0000
0100
0000
0000
0000
0010
0000
0000
0000
0000
0000
,
0001
0000
0000
0001
0000
0000
0000
0000
0100
0000
0000
0000
0010
0000
0000
0000
,
1000
0000
0000
1000
0000
0000
0100
0000
0000
0000
0010
0000
0000
0000
0000
0000
,
0001
0000
0000
0001
0000
0000
0000
0000
0100
0000
0000
0000
0010
0000
0000
0000
,
1000
0000
0000
1000
0000
0000
0100
0000
0000
0000
0010
0000
0000
0000
0000
0000
,
0001
0000
0000
0001
0000
0000
0000
0000
0100
0000
0000
0000
0010
0000
0000
0000
,
1000
0000
0000
1000
0000
0000
0100
0000
0000
0000
0010
0000
0000
0000
0000
0000
,
0001
0000
0000
0001
0000
0000
0000
0000
0100
0000
0000
0000
0010
0000
0000
0000
,
1000
0000
0000
1000
0000
0000
0100
0000
0000
0000
0010
0000
0000
0000
0000
0000
,
0001
0000
0000
0001
0000
0000
0000
0000
0100
0000
0000
0000
0010
0000
0000
0000
,
1000
0000
0000
1000
0000
0000
0100
0000
0000
0000
0010
0000
0000
0000
0000
0000
,
0001
0000
0000
0001
0000
0000
0000
0000
0100
0000
0000
0000
0010
0000
0000
0000
,
1000
0000
0000
0010
0000
0000
0001
0000
0000
0000
0000
0000
1000
0000
0000
0000
,
1000
0000
0000
0010
0000
0000
0001
0000
0000
0000
0000
0000
1000
0000
0000
0000
,
1000
0000
0000
0010
0000
0000
0001
0000
0000
0000
0000
0000
1000
0000
0000
0000
,
1000
0000
0000
0010
0000
0000
0001
0000
0000
0000
0000
0000
1000
0000
0000
0000
,
1000
0000
0000
0010
0000
0000
0001
0000
0000
0000
0000
0000
1000
0000
0000
0000
,
1000
0000
0000
0010
0000
0000
0001
0000
0000
0000
0000
0000
1000
0000
0000
0000
,
1000
0000
0000
0010
0000
0000
0001
0000
0000
0000
0000
0000
1000
0000
0000
0000
,
1000
0000
0000
0010
0000
0000
0001
0000
0000
0000
0000
0000
1000
0000
0000
0000
,
1000
0000
0000
0010
0000
0000
0001
0000
0000
0000
0000
0000
1000
0000
0000
0000
,
1000
0000
0000
0010
0000
0000
0001
0000
0000
0000
0000
0000
1000
0000
0000
0000
,
1000
0000
0000
0010
0000
0000
0001
0000
0000
0000
0000
0000
1000
0000
0000
0000
,
1000
0000
0000
0010
0000
0000
0001
0000
0000
0000
0000
0000
1000
0000
0000
0000
,
1000
0000
0000
0010
0000
0000
0001
0000
1000
0000
0000
0010
0000
0000
0001
0000
,
1000
0000
0000
0010
0000
0000
0001
0000
1000
0000
0000
0010
0000
0000
0001
0000
,
1000
1000
1000
1000
,
1000
0100
0010
1001
,
0000
0000
0100
0000
0000
0000
0000
0000
0110
0000
0000
0001
0000
0000
0110
0000
,
0000
0000
0010
0000
0000
0000
0000
0000
0110
0000
0000
1000
0000
0000
0110
0000
,
0000
0100
0000
1000
0000
0100
0000
1000
,
0000
0001
0000
0010
0000
0001
0000
0010
,
0000
0000
0100
0000
0000
0000
0000
0000
0110
0000
0000
0001
0000
0000
0110
0000
,
0000
0000
0010
0000
0000
0000
0000
0000
0110
0000
0000
1000
0000
0000
0110
0000
,
0000
0100
0000
1000
0000
0100
0000
1000
,
0000
0001
0000
0010
0000
0001
0000
0010
,
0000
0000
0100
0000
0000
0000
0000
0000
0110
0000
0000
0001
0000
0000
0110
0000
,
0000
0000
0010
0000
0000
0000
0000
0000
0110
0000
0000
1000
0000
0000
0110
0000
,
0000
0100
0000
1000
0000
0100
0000
1000
,
0000
0001
0000
0010
0000
0001
0000
0010
,
0000
0000
0100
0000
0000
0000
0000
0000
0110
0000
0000
0001
0000
0000
0110
0000
,
0000
0000
0010
0000
0000
0000
0000
0000
0110
0000
0000
1000
0000
0000
0110
0000
,
0000
0100
0000
1000
0000
0100
0000
1000
,
1000
0100
0010
1001
,
0100
0000
0000
0010
0000
0000
0100
0000
0000
0000
0010
0000
0000
0000
0000
0000
,
0010
0000
0000
0100
0000
0000
1000
0000
0000
0000
0000
0000
1000
0000
0000
0000
,
0100
0000
0000
0010
0000
0000
0100
0000
0000
0000
0010
0000
0000
0000
0000
0000
,
0010
0000
0000
0100
0000
0000
1000
0000
0000
0000
0000
0000
1000
0000
0000
0000
,
0100
0000
0000
0010
0000
0000
0100
0000
0000
0000
0010
0000
0000
0000
0000
0000
,
0010
0000
0000
0100
0000
0000
1000
0000
0000
0000
0000
0000
1000
0000
0000
0000
,
0100
0000
0000
0010
0000
0000
0100
0000
0000
0000
0010
0000
0000
0000
0000
0000
,
0010
0000
0000
0100
0000
0000
1000
0000
0000
0000
0000
0000
1000
0000
0000
0000
,
0100
0000
0000
0010
0000
0000
0100
0000
0000
0000
0010
0000
0000
0000
0000
0000
,
0010
0000
0000
0100
0000
0000
1000
0000
0000
0000
0000
0000
1000
0000
0000
0000
,
0100
0000
0000
0010
0000
0000
0100
0000
0000
0000
0010
0000
0000
0000
0000
0000
,
0010
0000
0000
0100
0000
0000
1000
0000
0000
0000
0000
0000
1000
0000
0000
0000
,
0100
0000
0000
0010
0000
0000
0100
0000
0000
0000
0010
0000
0000
0000
0000
0000
,
0010
0000
0000
0100
0000
0000
1000
0000
0000
0000
0000
0000
1000
0000
0000
0000
,
0100
0000
0000
0010
0000
0000
0100
0000
0000
0000
0010
0000
0000
0000
0000
0000
,
0010
0000
0000
0100
0000
0000
1000
0000
0000
0000
0000
0000
1000
0000
0000
0000
,
0100
0000
0000
0010
0000
0000
0100
0000
0000
0000
0010
0000
0000
0000
0000
0000
,
0010
0000
0000
0100
0000
0000
1000
0000
0000
0000
0000
0000
1000
0000
0000
0000
,
0100
0000
0000
0010
0000
0000
0100
0000
0000
0000
0010
0000
0000
0000
0000
0000
,
0010
0000
0000
0100
0000
0000
1000
0000
0000
0000
0000
0000
1000
0000
0000
0000
,
0100
0000
0000
0010
0000
0000
0100
0000
0000
0000
0010
0000
0000
0000
0000
0000
,
0010
0000
0000
0100
0000
0000
1000
0000
0000
0000
0000
0000
1000
0000
0000
0000
,
0100
0000
0000
0010
0000
0000
0100
0000
0000
0000
0010
0000
0000
0000
0000
0000
,
0010
0000
0000
0100
0000
0000
1000
0000
0000
0000
0000
0000
1000
0000
0000
0000
,
0100
0000
0000
0010
0000
0000
0100
0000
0000
0000
0010
0000
0000
0000
0000
0000
,
0010
0000
0000
0100
0000
0000
1000
0000
0000
0000
0000
0000
1000
0000
0000
0000
,
0100
0000
0000
0010
0000
0000
0100
0000
0000
0000
0010
0000
0000
0000
0000
0000
,
0010
0000
0000
0100
0000
0000
1000
0000
0000
0000
0000
0000
1000
0000
0000
0000
,
0100
0000
0000
0010
0000
0000
0100
0000
0000
0000
0010
0000
0000
0000
0000
0000
,
0010
0000
0000
0100
0000
0000
1000
0000
0000
0000
0000
0000
1000
0000
0000
0000
,
0100
0000
0000
0010
0000
0000
0100
0000
0000
0000
0010
0000
0000
0000
0000
0000
,
1000
0100
0010
1001
,
1000
0000
0000
0010
0000
0000
0001
0000
0000
0000
0000
0000
1000
0000
0000
0000
,
1000
0000
0000
0010
0000
0000
0001
0000
0000
0000
0000
0000
1000
0000
0000
0000
,
1000
0000
0000
0010
0000
0000
0001
0000
0000
0000
0000
0000
1000
0000
0000
0000
,
1000
0000
0000
0010
0000
0000
0001
0000
0000
0000
0000
0000
1000
0000
0000
0000
,
1000
0000
0000
0010
0000
0000
0001
0000
0000
0000
0000
0000
1000
0000
0000
0000
,
1000
0000
0000
0010
0000
0000
0001
0000
0000
0000
0000
0000
1000
0000
0000
0000
,
1000
0000
0000
0010
0000
0000
0001
0000
0000
0000
0000
0000
1000
0000
0000
0000
,
1000
0000
0000
0010
0000
0000
0001
0000
0000
0000
0000
0000
1000
0000
0000
0000
,
1000
0000
0000
0010
0000
0000
0001
0000
0000
0000
0000
0000
1000
0000
0000
0000
,
1000
0000
0000
0010
0000
0000
0001
0000
0000
0000
0000
0000
1000
0000
0000
0000
,
1000
0000
0000
0010
0000
0000
0001
0000
0000
0000
0000
0000
1000
0000
0000
0000
,
1000
0000
0000
0010
0000
0000
0001
0000
0000
0000
0000
0000
1000
0000
0000
0000
,
1000
0000
0000
0010
0000
0000
0001
0000
0000
0000
0000
0000
1000
0000
0000
0000
,
1000
0000
0000
0010
0000
0000
0001
0000
0000
0000
0000
0000
1000
0000
0000
0000
,
1000
0000
0000
0010
0000
0000
0001
0000
0000
0000
0000
0000
1000
0000
0000
0000
,
1000
0100
0010
1001
,
1000
0000
0000
1000
0000
0000
0000
0000
0001
0000
0000
0000
0100
0000
0000
0000
,
0010
0000
0000
0010
0000
0000
0000
0000
0100
0000
0000
0000
1000
0000
0000
0000
,
0001
0000
0000
0001
0000
0000
0000
0000
1000
0000
0000
0000
0010
0000
0000
0000
,
0001
0000
0000
0001
0000
0000
0000
0000
0100
0000
0000
0000
0010
0000
0000
0000
,
1000
0000
0000
1000
0000
0000
0000
0000
0001
0000
0000
0000
0100
0000
0000
0000
,
0010
0000
0000
0010
0000
0000
0000
0000
0100
0000
0000
0000
1000
0000
0000
0000
,
0001
0000
0000
0001
0000
0000
0000
0000
1000
0000
0000
0000
0010
0000
0000
0000
,
0001
0000
0000
0001
0000
0000
0000
0000
0100
0000
0000
0000
0010
0000
0000
0000
,
1000
0000
0000
1000
0000
0000
0000
0000
0001
0000
0000
0000
0100
0000
0000
0000
,
0010
0000
0000
0010
0000
0000
0000
0000
0100
0000
0000
0000
1000
0000
0000
0000
,
0001
0000
0000
0001
0000
0000
0000
0000
1000
0000
0000
0000
0010
0000
0000
0000
,
0001
0000
0000
0001
0000
0000
0000
0000
0100
0000
0000
0000
0010
0000
0000
0000
,
1000
0000
0000
1000
0000
0000
0000
0000
0001
0000
0000
0000
0100
0000
0000
0000
,
0010
0000
0000
0010
0000
0000
0000
0000
0100
0000
0000
0000
1000
0000
0000
0000
,
0001
0000
0000
0001
0000
0000
0000
0000
1000
0000
0000
0000
0010
0000
0000
0000
,
0001
0000
0000
0001
0000
0000
0000
0000
0100
0000
0000
0000
0010
0000
0000
0000
,
1000
0000
0000
1000
0000
0000
0000
0000
0001
0000
0000
0000
0100
0000
0000
0000
,
0010
0000
0000
0010
0000
0000
0000
0000
0100
0000
0000
0000
1000
0000
0000
0000
,
0001
0000
0000
0001
0000
0000
0000
0000
1000
0000
0000
0000
0010
0000
0000
0000
,
0001
0000
0000
0001
0000
0000
0000
0000
0100
0000
0000
0000
0010
0000
0000
0000
,
1000
0000
0000
1000
0000
0000
0000
0000
0001
0000
0000
0000
0100
0000
0000
0000
,
0010
0000
0000
0010
0000
0000
0000
0000
0100
0000
0000
0000
1000
0000
0000
0000
,
0001
0000
0000
0001
0000
0000
0000
0000
1000
0000
0000
0000
0010
0000
0000
0000
,
0001
0000
0000
0001
0000
0000
0000
0000
0100
0000
0000
0000
0010
0000
0000
0000
,
1000
0000
0000
1000
0000
0000
0000
0000
0001
0000
0000
0000
0100
0000
0000
0000
,
0010
0000
0000
0010
0000
0000
0000
0000
0100
0000
0000
0000
1000
0000
0000
0000
,
0001
0000
0000
0001
0000
0000
0000
0000
1000
0000
0000
0000
0010
0000
0000
0000
,
0001
0000
0000
0001
0000
0000
0000
0000
0100
0000
0000
0000
0010
0000
0000
0000
,
1000
0000
0000
1000
0000
0000
0000
0000
0001
0000
0000
0000
0100
0000
0000
0000
,
0010
0000
0000
0010
0000
0000
0000
0000
0100
0000
0000
0000
1000
0000
0000
0000
,
0001
0000
0000
0001
0000
0000
0000
0000
1000
0000
0000
0000
0010
0000
0000
0000
,
0001
0000
0000
0001
0000
0000
0000
0000
0100
0000
0000
0000
0010
0000
0000
0000
,
1000
0000
0000
1000
0000
0000
0000
0000
0001
0000
0000
0000
0100
0000
0000
0000
,
0010
0000
0000
0010
0000
0000
0000
0000
0100
0000
0000
0000
1000
0000
0000
0000
,
0001
0000
0000
0001
0000
0000
0000
0000
1000
0000
0000
0000
0010
0000
0000
0000
,
0001
0000
0000
0001
0000
0000
0000
0000
0100
0000
0000
0000
0010
0000
0000
0000
,
1000
0000
0000
1000
0000
0000
0000
0000
0001
0000
0000
0000
0100
0000
0000
0000
,
0010
0000
0000
0010
0000
0000
0000
0000
0100
0000
0000
0000
1000
0000
0000
0000
,
0001
0000
0000
0001
0000
0000
0000
0000
1000
0000
0000
0000
0010
0000
0000
0000
,
0001
0000
0000
0001
0000
0000
0000
0000
0100
0000
0000
0000
0010
0000
0000
0000
,
1000
0000
0000
1000
0000
0000
0000
0000
0001
0000
0000
0000
0100
0000
0000
0000
,
0010
0000
0000
0010
0000
0000
0000
0000
0100
0000
0000
0000
1000
0000
0000
0000
,
0001
0000
0000
0001
0000
0000
0000
0000
1000
0000
0000
0000
0010
0000
0000
0000
,
0001
0000
0000
0001
0000
0000
0000
0000
0100
0000
0000
0000
0010
0000
0000
0000
,
1000
0000
0000
1000
0000
0000
0000
0000
0001
0000
0000
0000
0100
0000
0000
0000
,
0010
0000
0000
0010
0000
0000
0000
0000
0100
0000
0000
0000
1000
0000
0000
0000
,
0001
0000
0000
0001
0000
0000
0000
0000
1000
0000
0000
0000
0010
0000
0000
0000
,
0001
0000
0000
0001
0000
0000
0000
0000
0100
0000
0000
0000
0010
0000
0000
0000
,
0200
0000
0000
0000
,
0300
0000
0000
0000
;

//---------------dance-single - Old Hyper----------------
#NOTEDATA:;
#CHARTNAME:;
#STEPSTYPE:dance-single;
#DESCRIPTION:Old Hyper;
#CHARTSTYLE:;
#DIFFICULTY:Edit;
#METER:17;
#RADARVALUES:0.610481,0.731705,1.144264,0.010846,0.287422,1576.000000,1154.000000,422.000000,4.000000,0.000000,0.000000,0.000000,0.000000,0.000000,0.610481,0.731705,1.144264,0.010846,0.287422,1576.000000,1154.000000,422.000000,4.000000,0.000000,0.000000,0.000000,0.000000,0.000000;
#CREDIT:;
#NOTES:
0000
0000
0000
0000
,
0000
0000
0000
0000
,
0000
0000
0000
0000
,
0000
0000
0000
0000
,
0000
0000
0000
0000
,
0000
0000
0000
0000
,
0000
0000
0000
0000
,
0000
0000
0000
0000
,
0000
0000
0000
0000
,
0000
0000
0000
0000
,
0000
0000
0000
0000
,
0000
0000
0000
0000
,
0000
0000
0000
0000
,
0000
0000
0000
0000
,
0000
0000
0000
0000
,
0000
0000
0000
0000
,
1000
0000
0000
1100
0000
0000
0100
0000
0000
0000
1010
0000
0000
0000
0000
0000
,
0001
0000
0000
0101
0000
0000
1000
0000
0100
0000
0010
0000
0100
0000
0000
0000
,
1000
0000
0000
1100
0000
0000
0100
0000
0000
0000
1010
0000
0000
0000
0000
0000
,
0001
0000
0000
0101
0000
0000
1000
0000
0100
0000
0010
0000
0100
0000
0000
0000
,
1000
0000
0000
1100
0000
0000
0100
0000
0000
0000
1010
0000
0000
0000
0000
0000
,
0001
0000
0000
0101
0000
0000
1000
0000
0100
0000
0010
0000
0100
0000
0000
0000
,
1000
0000
0000
1100
0000
0000
0100
0000
0000
0000
1010
0000
0000
0000
0110
0000
,
0000
0110
0000
1100
0100
0001
2002
3003
,
1000
0000
0000
1100
0000
0000
0100
0000
0000
0000
1010
0000
0000
0000
0000
0000
,
0001
0000
0000
0101
0000
0000
1000
0000
0100
0000
0010
0000
0100
0000
0000
0000
,
1000
0000
0000
1100
0000
0000
0100
0000
0000
0000
1010
0000
0000
0000
0000
0000
,
0001
0000
0000
0101
0000
0000
1000
0000
0100
0000
0010
0000
0100
0000
0000
0000
,
1000
0000
0000
1100
0000
0000
0100
0000
0000
0000
1010
0000
0000
0000
0000
0000
,
0001
0000
0000
0101
0000
0000
1000
0000
0100
0000
0010
0000
0100
0000
0000
0000
,
1000
0000
0000
1100
0000
0000
0100
0000
0000
0000
1010
0000
0000
0000
0000
0000
,
0001
0000
0000
0101
0000
0000
1000
0000
0100
0000
0010
0000
0100
0000
0000
0000
,
1000
0000
0000
1000
0000
0000
1000
0000
0001
0000
0100
0000
0001
0000
0000
0000
,
0010
0000
0000
0010
0000
0000
0010
0000
0100
0000
1000
0000
0100
0000
0000
0000
,
0001
0000
0000
0001
0000
0000
0001
0000
1000
0000
0100
0000
0010
0000
0000
0000
,
1000
0000
0000
1100
0000
0000
0100
0000
0000
0000
1010
0000
0000
0000
0000
0000
,
1000
0000
0000
1000
0000
0000
1000
0000
0001
0000
0100
0000
0001
0000
0000
0000
,
0010
0000
0000
0010
0000
0000
0010
0000
0100
0000
1000
0000
0100
0000
0000
0000
,
0001
0000
0000
0001
0000
0000
0001
0000
1000
0000
0100
0000
0010
0000
0000
0000
,
0001
0000
0000
0101
0000
0000
1000
0000
0100
0000
0010
0000
0100
0000
0000
0000
,
1000
0000
0000
1000
0000
0000
1000
0000
0001
0000
0100
0000
0001
0000
0000
0000
,
0010
0000
0000
0010
0000
0000
0010
0000
0100
0000
1000
0000
0100
0000
0000
0000
,
0001
0000
0000
0001
0000
0000
0001
0000
1000
0000
0100
0000
0010
0000
0000
0000
,
1000
0000
0000
1100
0000
0000
0100
0000
0000
0000
1010
0000
0000
0000
0000
0000
,
1000
0000
0000
1000
0000
0000
1000
0000
0001
0000
0100
0000
0001
0000
0000
0000
,
0010
0000
0000
0010
0000
0000
0010
0000
0100
0000
1000
0000
0100
0000
0000
0000
,
0001
0000
0000
0001
0000
0000
0001
0000
1000
0000
0100
0000
0010
0000
0000
0000
,
0001
0000
0000
0101
0000
0000
1000
0000
0100
0000
0010
0000
0100
0000
0000
0000
,
1010
0000
0000
0010
0000
0000
0011
0000
0000
0000
0010
0000
1100
0000
0000
0000
,
1010
0000
0000
0010
0000
0000
0011
0000
0000
0000
0010
0000
1100
0000
0000
0000
,
1010
0000
0000
0010
0000
0000
0011
0000
0000
0000
0010
0000
1100
0000
0000
0000
,
1010
0000
0000
0010
0000
0000
0011
0000
0000
0000
0010
0000
1010
0000
0000
0000
,
1010
0000
0000
0010
0000
0000
0011
0000
0000
0000
0010
0000
1100
0000
0000
0000
,
1010
0000
0000
0010
0000
0000
0011
0000
0000
0000
0010
0000
1100
0000
0000
0000
,
1010
0000
0000
0010
0000
0000
0011
0000
0000
0000
0010
0000
1100
0000
0000
0000
,
1010
0000
0000
0010
0000
0000
0011
0000
0000
0000
0010
0000
1010
0000
0000
0000
,
1010
0000
0000
0010
0000
0000
0011
0000
0000
0000
0010
0000
1100
0000
0000
0000
,
1010
0000
0000
0010
0000
0000
0011
0000
0000
0000
0010
0000
1100
0000
0000
0000
,
1010
0000
0000
0010
0000
0000
0011
0000
0000
0000
0010
0000
1100
0000
0000
0000
,
1010
0000
0000
0010
0000
0000
0011
0000
0000
0000
0010
0000
1010
0000
0000
0000
,
1010
0000
0000
0010
0000
0000
0011
0000
0000
0000
0010
0000
1100
0000
0000
0000
,
1010
0000
0000
0010
0000
0000
0011
0000
0000
0000
0010
0000
1100
0000
0000
0000
,
1010
0000
0000
0010
0000
0000
0011
0000
0000
0000
0010
0000
1100
0000
0000
0000
,
1010
0000
0000
0010
0000
0000
0011
0000
0000
0000
0010
0000
1010
0000
0000
0000
,
0110
0000
0000
0010
0000
0000
0101
0000
0000
0000
0010
0000
0000
0000
0000
0000
,
0110
0000
0000
0100
0000
0000
1010
0000
0000
0000
0000
0000
1100
0000
0000
0000
,
0110
0000
0000
0010
0000
0000
0101
0000
0000
0000
0010
0000
0000
0000
0000
0000
,
0110
0000
0000
0100
0000
0000
1010
0000
0000
0000
0000
0000
1100
0000
0000
0000
,
0110
0000
0000
0010
0000
0000
0101
0000
0000
0000
0010
0000
0000
0000
0000
0000
,
0110
0000
0000
0100
0000
0000
1010
0000
0000
0000
0000
0000
1100
0000
0000
0000
,
0110
0000
0000
0010
0000
0000
0101
0000
0000
0000
0010
0000
0000
0000
0000
0000
,
0110
0000
0000
0100
0000
0000
1010
0000
0000
0000
0000
0000
1100
0000
0000
0000
,
0110
0000
0000
0010
0000
0000
0101
0000
0000
0000
0010
0000
0000
0000
0000
0000
,
0110
0000
0000
0100
0000
0000
1010
0000
0000
0000
0000
0000
1100
0000
0000
0000
,
0110
0000
0000
0010
0000
0000
0101
0000
0000
0000
0010
0000
0000
0000
0000
0000
,
0110
0000
0000
0100
0000
0000
1010
0000
0000
0000
0000
0000
1100
0000
0000
0000
,
0110
0000
0000
0010
0000
0000
0101
0000
0000
0000
0010
0000
0000
0000
0000
0000
,
0110
0000
0000
0100
0000
0000
1010
0000
0000
0000
0000
0000
1100
0000
0000
0000
,
0110
0000
0000
0010
0000
0000
0101
0000
0000
0000
0010
0000
0000
0000
0000
0000
,
0110
0000
0000
0100
0000
0000
1010
0000
0000
0000
0000
0000
1100
0000
0000
0000
,
0110
0000
0000
0010
0000
0000
0101
0000
0000
0000
0010
0000
0000
0000
0000
0000
,
0110
0000
0000
0100
0000
0000
1010
0000
0000
0000
0000
0000
1100
0000
0000
0000
,
0110
0000
0000
0010
0000
0000
0101
0000
0000
0000
0010
0000
0000
0000
0000
0000
,
0110
0000
0000
0100
0000
0000
1010
0000
0000
0000
0000
0000
1100
0000
0000
0000
,
0110
0000
0000
0010
0000
0000
0101
0000
0000
0000
0010
0000
0000
0000
0000
0000
,
0110
0000
0000
0100
0000
0000
1010
0000
0000
0000
0000
0000
1100
0000
0000
0000
,
0110
0000
0000
0010
0000
0000
0101
0000
0000
0000
0010
0000
0000
0000
0000
0000
,
0110
0000
0000
0100
0000
0000
1010
0000
0000
0000
0000
0000
1100
0000
0000
0000
,
0110
0000
0000
0010
0000
0000
0101
0000
0000
0000
0010
0000
0000
0000
0000
0000
,
0110
0000
0000
0100
0000
0000
1010
0000
0000
0000
0000
0000
1100
0000
0000
0000
,
0110
0000
0000
0010
0000
0000
0101
0000
0000
0000
0010
0000
0000
0000
0000
0000
,
0110
0000
0000
0100
0000
0000
1010
0000
0000
0000
0000
0000
1100
0000
0000
0000
,
0110
0000
0000
0010
0000
0000
0101
0000
0000
0000
0010
0000
0000
0000
0000
0000
,
0110
0000
0000
0100
0000
0000
1010
0000
0000
0000
0000
0000
1100
0000
0000
0000
,
0110
0000
0000
0010
0000
0000
0101
0000
0000
0000
0010
0000
0000
0000
0000
0000
,
1001
0000
0000
0010
,
0010
0000
0000
0000
0000
0000
0010
0100
,
0000
0000
0000
0000
0000
0000
1000
0100
,
0000
0000
0000
0001
,
0001
0000
0000
1000
0000
0000
1000
0000
,
0100
0000
0000
0000
0000
0000
0100
0010
,
0000
0000
0000
0000
0000
0000
0001
0010
,
0000
0000
0000
1000
,
1000
0000
0000
0001
0000
0000
0001
0000
,
0010
0000
0000
0000
0000
0000
0010
0100
,
0000
0000
0000
0000
0000
0000
1000
0100
,
0000
0000
0000
0001
,
0001
0000
0000
1000
0000
0000
1000
0000
,
0100
0000
0000
0000
0000
0000
0100
0010
,
0000
0000
0000
0000
0000
0000
0001
0010
,
0000
0000
0000
1000
,
1000
0000
0000
0001
0000
0000
0001
0000
,
1000
0000
0000
1100
0000
0000
0100
0000
0000
0000
1010
0000
0000
0000
0000
0000
,
0001
0000
0000
0101
0000
0000
1000
0000
0100
0000
0010
0000
0100
0000
0000
0000
,
1000
0000
0000
1100
0000
0000
0100
0000
0000
0000
1010
0000
0000
0000
0000
0000
,
0001
0000
0000
0101
0000
0000
1000
0000
0100
0000
0010
0000
0100
0000
0000
0000
,
1000
0000
0000
1100
0000
0000
0100
0000
0000
0000
1010
0000
0000
0000
0000
0000
,
0001
0000
0000
0101
0000
0000
1000
0000
0100
0000
0010
0000
0100
0000
0000
0000
,
1000
0000
0000
1100
0000
0000
0100
0000
0000
0000
1010
0000
0000
0000
0000
0000
,
0001
0000
0000
0101
0000
0000
1000
0000
0100
0000
0010
0000
0100
0000
0000
0000
,
1000
0000
0000
1100
0000
0000
0100
0000
0000
0000
1010
0000
0000
0000
0000
0000
,
0001
0000
0000
0101
0000
0000
1000
0000
0100
0000
0010
0000
0100
0000
0000
0000
,
1000
0000
0000
1100
0000
0000
0100
0000
0000
0000
1010
0000
0000
0000
0000
0000
,
0001
0000
0000
0101
0000
0000
1000
0000
0100
0000
0010
0000
0100
0000
0000
0000
,
1000
0000
0000
1100
0000
0000
0100
0000
0000
0000
1010
0000
0000
0000
0000
0000
,
0001
0000
0000
0101
0000
0000
1000
0000
0100
0000
0010
0000
0100
0000
0000
0000
,
1000
0000
0000
1100
0000
0000
0100
0000
0000
0000
1010
0000
0000
0000
0000
0000
,
0001
0000
0000
0101
0000
0000
1000
0000
0100
0000
0010
0000
0100
0000
0000
0000
,
1010
0000
0000
0010
0000
0000
0011
0000
0000
0000
0010
0000
1100
0000
0000
0000
,
1010
0000
0000
0010
0000
0000
0011
0000
0000
0000
0010
0000
1100
0000
0000
0000
,
1010
0000
0000
0010
0000
0000
0011
0000
0000
0000
0010
0000
1100
0000
0000
0000
,
1010
0000
0000
0010
0000
0000
0011
0000
0000
0000
0010
0000
1010
0000
0000
0000
,
1010
0000
0000
0010
0000
0000
0011
0000
0000
0000
0010
0000
1100
0000
0000
0000
,
1010
0000
0000
0010
0000
0000
0011
0000
0000
0000
0010
0000
1100
0000
0000
0000
,
1010
0000
0000
0010
0000
0000
0011
0000
0000
0000
0010
0000
1100
0000
0000
0000
,
1010
0000
0000
0010
0000
0000
0011
0000
0000
0000
0010
0000
1010
0000
0000
0000
,
1010
0000
0000
0010
0000
0000
0011
0000
0000
0000
0010
0000
1100
0000
0000
0000
,
1010
0000
0000
0010
0000
0000
0011
0000
0000
0000
0010
0000
1100
0000
0000
0000
,
1010
0000
0000
0010
0000
0000
0011
0000
0000
0000
0010
0000
1100
0000
0000
0000
,
1010
0000
0000
0010
0000
0000
0011
0000
0000
0000
0010
0000
1010
0000
0000
0000
,
1010
0000
0000
0010
0000
0000
0011
0000
1010
0000
0000
0010
0000
0000
0011
0000
,
1010
0000
0000
0010
0000
0000
0011
0000
1010
0000
0000
0010
0000
0000
0011
0000
,
1000
0010
1000
0010
1000
0010
1000
0010
,
1100
0110
0011
1001
,
0000
0000
0100
0000
0010
0000
1000
0000
0110
0000
0000
0001
0000
0000
0110
0000
,
0000
0000
0010
0000
0100
0000
0001
0000
0110
0000
0000
1000
0000
0000
0110
0000
,
0000
0110
0000
1100
0000
0110
0000
1100
,
0000
0011
0000
0110
0000
0011
0000
0110
,
0000
0000
0100
0000
0010
0000
1000
0000
0110
0000
0000
0001
0000
0000
0110
0000
,
0000
0000
0010
0000
0100
0000
0001
0000
0110
0000
0000
1000
0000
0000
0110
0000
,
0000
0110
0000
1100
0000
0110
0000
1100
,
0000
0011
0000
0110
0000
0011
0000
0110
,
0000
0000
0100
0000
0010
0000
1000
0000
0110
0000
0000
0001
0000
0000
0110
0000
,
0000
0000
0010
0000
0100
0000
0001
0000
0110
0000
0000
1000
0000
0000
0110
0000
,
0000
0110
0000
1100
0000
0110
0000
1100
,
0000
0011
0000
0110
0000
0011
0000
0110
,
0000
0000
0100
0000
0010
0000
1000
0000
0110
0000
0000
0001
0000
0000
0110
0000
,
0000
0000
0010
0000
0100
0000
0001
0000
0110
0000
0000
1000
0000
0000
0110
0000
,
0000
0110
0000
1100
0000
0110
0000
1100
,
1100
0110
0011
1001
,
0110
0000
0000
0010
0000
0000
0101
0000
0000
0000
0010
0000
0000
0000
0000
0000
,
0110
0000
0000
0100
0000
0000
1010
0000
0000
0000
0000
0000
1100
0000
0000
0000
,
0110
0000
0000
0010
0000
0000
0101
0000
0000
0000
0010
0000
0000
0000
0000
0000
,
0110
0000
0000
0100
0000
0000
1010
0000
0000
0000
0000
0000
1100
0000
0000
0000
,
0110
0000
0000
0010
0000
0000
0101
0000
0000
0000
0010
0000
0000
0000
0000
0000
,
0110
0000
0000
0100
0000
0000
1010
0000
0000
0000
0000
0000
1100
0000
0000
0000
,
0110
0000
0000
0010
0000
0000
0101
0000
0000
0000
0010
0000
0000
0000
0000
0000
,
0110
0000
0000
0100
0000
0000
1010
0000
0000
0000
0000
0000
1100
0000
0000
0000
,
0110
0000
0000
0010
0000
0000
0101
0000
0000
0000
0010
0000
0000
0000
0000
0000
,
0110
0000
0000
0100
0000
0000
1010
0000
0000
0000
0000
0000
1100
0000
0000
0000
,
0110
0000
0000
0010
0000
0000
0101
0000
0000
0000
0010
0000
0000
0000
0000
0000
,
0110
0000
0000
0100
0000
0000
1010
0000
0000
0000
0000
0000
1100
0000
0000
0000
,
0110
0000
0000
0010
0000
0000
0101
0000
0000
0000
0010
0000
0000
0000
0000
0000
,
0110
0000
0000
0100
0000
0000
1010
0000
0000
0000
0000
0000
1100
0000
0000
0000
,
0110
0000
0000
0010
0000
0000
0101
0000
0000
0000
0010
0000
0000
0000
0000
0000
,
0110
0000
0000
0100
0000
0000
1010
0000
0000
0000
0000
0000
1100
0000
0000
0000
,
0110
0000
0000
0010
0000
0000
0101
0000
0000
0000
0010
0000
0000
0000
0000
0000
,
0110
0000
0000
0100
0000
0000
1010
0000
0000
0000
0000
0000
1100
0000
0000
0000
,
0110
0000
0000
0010
0000
0000
0101
0000
0000
0000
0010
0000
0000
0000
0000
0000
,
0110
0000
0000
0100
0000
0000
1010
0000
0000
0000
0000
0000
1100
0000
0000
0000
,
0110
0000
0000
0010
0000
0000
0101
0000
0000
0000
0010
0000
0000
0000
0000
0000
,
0110
0000
0000
0100
0000
0000
1010
0000
0000
0000
0000
0000
1100
0000
0000
0000
,
0110
0000
0000
0010
0000
0000
0101
0000
0000
0000
0010
0000
0000
0000
0000
0000
,
0110
0000
0000
0100
0000
0000
1010
0000
0000
0000
0000
0000
1100
0000
0000
0000
,
0110
0000
0000
0010
0000
0000
0101
0000
0000
0000
0010
0000
0000
0000
0000
0000
,
0110
0000
0000
0100
0000
0000
1010
0000
0000
0000
0000
0000
1100
0000
0000
0000
,
0110
0000
0000
0010
0000
0000
0101
0000
0000
0000
0010
0000
0000
0000
0000
0000
,
0110
0000
0000
0100
0000
0000
1010
0000
0000
0000
0000
0000
1100
0000
0000
0000
,
0110
0000
0000
0010
0000
0000
0101
0000
0000
0000
0010
0000
0000
0000
0000
0000
,
0110
0000
0000
0100
0000
0000
1010
0000
0000
0000
0000
0000
1100
0000
0000
0000
,
0110
0000
0000
0010
0000
0000
0101
0000
0000
0000
0010
0000
0000
0000
0000
0000
,
1100
0110
0011
1001
,
1010
0000
0000
0010
0000
0000
0011
0000
0000
0000
0010
0000
1100
0000
0000
0000
,
1010
0000
0000
0010
0000
0000
0011
0000
0000
0000
0010
0000
1100
0000
0000
0000
,
1010
0000
0000
0010
0000
0000
0011
0000
0000
0000
0010
0000
1100
0000
0000
0000
,
1010
0000
0000
0010
0000
0000
0011
0000
0000
0000
0010
0000
1010
0000
0000
0000
,
1010
0000
0000
0010
0000
0000
0011
0000
0000
0000
0010
0000
1100
0000
0000
0000
,
1010
0000
0000
0010
0000
0000
0011
0000
0000
0000
0010
0000
1100
0000
0000
0000
,
1010
0000
0000
0010
0000
0000
0011
0000
0000
0000
0010
0000
1100
0000
0000
0000
,
1010
0000
0000
0010
0000
0000
0011
0000
0000
0000
0010
0000
1010
0000
0000
0000
,
1010
0000
0000
0010
0000
0000
0011
0000
0000
0000
0010
0000
1100
0000
0000
0000
,
1010
0000
0000
0010
0000
0000
0011
0000
0000
0000
0010
0000
1100
0000
0000
0000
,
1010
0000
0000
0010
0000
0000
0011
0000
0000
0000
0010
0000
1100
0000
0000
0000
,
1010
0000
0000
0010
0000
0000
0011
0000
0000
0000
0010
0000
1010
0000
0000
0000
,
1010
0000
0000
0010
0000
0000
0011
0000
0000
0000
0010
0000
1100
0000
0000
0000
,
1010
0000
0000
0010
0000
0000
0011
0000
0000
0000
0010
0000
1100
0000
0000
0000
,
1010
0000
0000
0010
0000
0000
0011
0000
0000
0000
0010
0000
1100
0000
0000
0000
,
1100
0110
0011
1001
,
1000
0000
0000
1000
0000
0000
1000
0000
0001
0000
0100
0000
0001
0000
0000
0000
,
0010
0000
0000
0010
0000
0000
0010
0000
0100
0000
1000
0000
0100
0000
0000
0000
,
0001
0000
0000
0001
0000
0000
0001
0000
1000
0000
0100
0000
0010
0000
0000
0000
,
0001
0000
0000
0101
0000
0000
1000
0000
0100
0000
0010
0000
0100
0000
0000
0000
,
1000
0000
0000
1000
0000
0000
1000
0000
0001
0000
0100
0000
0001
0000
0000
0000
,
0010
0000
0000
0010
0000
0000
0010
0000
0100
0000
1000
0000
0100
0000
0000
0000
,
0001
0000
0000
0001
0000
0000
0001
0000
1000
0000
0100
0000
0010
0000
0000
0000
,
0001
0000
0000
0101
0000
0000
1000
0000
0100
0000
0010
0000
0100
0000
0000
0000
,
1000
0000
0000
1000
0000
0000
1000
0000
0001
0000
0100
0000
0001
0000
0000
0000
,
0010
0000
0000
0010
0000
0000
0010
0000
0100
0000
1000
0000
0100
0000
0000
0000
,
0001
0000
0000
0001
0000
0000
0001
0000
1000
0000
0100
0000
0010
0000
0000
0000
,
0001
0000
0000
0101
0000
0000
1000
0000
0100
0000
0010
0000
0100
0000
0000
0000
,
1000
0000
0000
1000
0000
0000
1000
0000
0001
0000
0100
0000
0001
0000
0000
0000
,
0010
0000
0000
0010
0000
0000
0010
0000
0100
0000
1000
0000
0100
0000
0000
0000
,
0001
0000
0000
0001
0000
0000
0001
0000
1000
0000
0100
0000
0010
0000
0000
0000
,
0001
0000
0000
0101
0000
0000
1000
0000
0100
0000
0010
0000
0100
0000
0000
0000
,
1000
0000
0000
1000
0000
0000
1000
0000
0001
0000
0100
0000
0001
0000
0000
0000
,
0010
0000
0000
0010
0000
0000
0010
0000
0100
0000
1000
0000
0100
0000
0000
0000
,
0001
0000
0000
0001
0000
0000
0001
0000
1000
0000
0100
0000
0010
0000
0000
0000
,
0001
0000
0000
0101
0000
0000
1000
0000
0100
0000
0010
0000
0100
0000
0000
0000
,
1000
0000
0000
1000
0000
0000
1000
0000
0001
0000
0100
0000
0001
0000
0000
0000
,
0010
0000
0000
0010
0000
0000
0010
0000
0100
0000
1000
0000
0100
0000
0000
0000
,
0001
0000
0000
0001
0000
0000
0001
0000
1000
0000
0100
0000
0010
0000
0000
0000
,
0001
0000
0000
0101
0000
0000
1000
0000
0100
0000
0010
0000
0100
0000
0000
0000
,
1000
0000
0000
1000
0000
0000
1000
0000
0001
0000
0100
0000
0001
0000
0000
0000
,
0010
0000
0000
0010
0000
0000
0010
0000
0100
0000
1000
0000
0100
0000
0000
0000
,
0001
0000
0000
0001
0000
0000
0001
0000
1000
0000
0100
0000
0010
0000
0000
0000
,
0001
0000
0000
0101
0000
0000
1000
0000
0100
0000
0010
0000
0100
0000
0000
0000
,
1000
0000
0000
1000
0000
0000
1000
0000
0001
0000
0100
0000
0001
0000
0000
0000
,
0010
0000
0000
0010
0000
0000
0010
0000
0100
0000
1000
0000
0100
0000
0000
0000
,
0001
0000
0000
0001
0000
0000
0001
0000
1000
0000
0100
0000
0010
0000
0000
0000
,
0001
0000
0000
0101
0000
0000
1000
0000
0100
0000
0010
0000
0100
0000
0000
0000
,
1000
0000
0000
1000
0000
0000
1000
0000
0001
0000
0100
0000
0001
0000
0000
0000
,
0010
0000
0000
0010
0000
0000
0010
0000
0100
0000
1000
0000
0100
0000
0000
0000
,
0001
0000
0000
0001
0000
0000
0001
0000
1000
0000
0100
0000
0010
0000
0000
0000
,
0001
0000
0000
0101
0000
0000
1000
0000
0100
0000
0010
0000
0100
0000
0000
0000
,
1000
0000
0000
1000
0000
0000
1000
0000
0001
0000
0100
0000
0001
0000
0000
0000
,
0010
0000
0000
0010
0000
0000
0010
0000
0100
0000
1000
0000
0100
0000
0000
0000
,
0001
0000
0000
0001
0000
0000
0001
0000
1000
0000
0100
0000
0010
0000
0000
0000
,
0001
0000
0000
0101
0000
0000
1000
0000
0100
0000
0010
0000
0100
0000
0000
0000
,
1000
0000
0000
1000
0000
0000
1000
0000
0001
0000
0100
0000
0001
0000
0000
0000
,
0010
0000
0000
0010
0000
0000
0010
0000
0100
0000
1000
0000
0100
0000
0000
0000
,
0001
0000
0000
0001
0000
0000
0001
0000
1000
0000
0100
0000
0010
0000
0000
0000
,
0001
0000
0000
0101
0000
0000
1000
0000
0100
0000
0010
0000
0100
0000
0000
0000
,
1000
0000
0000
1000
0000
0000
1000
0000
0001
0000
0100
0000
0001
0000
0000
0000
,
0010
0000
0000
0010
0000
0000
0010
0000
0100
0000
1000
0000
0100
0000
0000
0000
,
0001
0000
0000
0001
0000
0000
0001
0000
1000
0000
0100
0000
0010
0000
0000
0000
,
0001
0000
0000
0101
0000
0000
1000
0000
0100
0000
0010
0000
0100
0000
0000
0000
,
2002
0000
0000
0000
,
3003
0000
0000
0000
;

//---------------dance-single - Old Extra----------------
#NOTEDATA:;
#CHARTNAME:;
#STEPSTYPE:dance-single;
#DESCRIPTION:Old Extra;
#CHARTSTYLE:;
#DIFFICULTY:Edit;
#METER:19;
#RADARVALUES:0.791766,0.905921,1.697415,0.081346,0.500277,2044.000000,1418.000000,626.000000,30.000000,0.000000,0.000000,0.000000,0.000000,0.000000,0.791766,0.905921,1.697415,0.081346,0.500277,2044.000000,1418.000000,626.000000,30.000000,0.000000,0.000000,0.000000,0.000000,0.000000;
#CREDIT:;
#NOTES:
0000
0000
0000
0000
,
0000
0000
0000
0000
,
0000
0000
0000
0000
,
0000
0000
0000
0000
,
0000
0000
0000
0000
,
0000
0000
0000
0000
,
0000
0000
0000
0000
,
0000
0000
0000
0000
,
0000
0000
0000
0000
,
0000
0000
0000
0000
,
0000
0000
0000
0000
,
0000
0000
0000
0000
,
0000
0000
0000
0000
,
0000
0000
0000
0000
,
0000
0000
0000
0000
,
0000
0000
0000
0000
,
1000
0000
0000
1100
0000
0000
0100
0000
0000
0000
1010
0000
0000
0000
0000
0000
,
0001
0000
0000
0101
0000
0000
1000
0000
0100
0010
0100
0010
0100
0000
0000
0000
,
1000
0000
0000
1100
0000
0000
0100
0000
0000
0000
1010
0000
0000
0000
0000
0000
,
0001
0000
0000
0101
0000
0000
1000
0000
0100
0010
0100
0010
0100
0000
0000
0000
,
1000
0000
0000
1100
0000
0000
0100
0000
0000
0000
1010
0000
0000
0000
0000
0000
,
0001
0000
0000
0101
0000
0000
1000
0000
0100
0010
0100
0010
0100
0000
0000
0000
,
1000
0000
0000
1100
0000
0000
0100
0000
0000
0000
1010
0000
0000
0000
0100
0010
,
0000
0000
0010
0100
0000
0100
1000
0000
0100
0000
0001
0000
2002
0000
3003
0000
,
1000
0000
0000
1100
0000
0000
0100
0000
0000
0000
1010
0000
0000
0000
0000
0000
,
0001
0000
0000
0101
0000
0000
1000
0000
0100
0010
0100
0010
0100
0000
0000
0000
,
1000
0000
0000
1100
0000
0000
0100
0000
0000
0000
1010
0000
0000
0000
0000
0000
,
0001
0000
0000
0101
0000
0000
1000
0000
0100
0010
0100
0010
0100
0000
0000
0000
,
1000
0000
0000
1100
0000
0000
0100
0000
0000
0000
1010
0000
0000
0000
0000
0000
,
0001
0000
0000
0101
0000
0000
1000
0000
0100
0010
0100
0010
0100
0000
0000
0000
,
1000
0000
0000
1100
0000
0000
0100
0000
0000
0000
1010
0000
0000
0000
0000
0000
,
0001
0000
0000
0101
0000
0000
1000
0000
0100
0010
0100
0010
0100
0000
0000
0000
,
1000
0000
0000
1000
0000
0000
1000
0000
0001
0100
0001
0100
0001
0000
0000
0000
,
0010
0000
0000
0010
0000
0000
0010
0000
0100
1000
0100
1000
0100
0000
0000
0000
,
0001
0000
0000
0001
0000
0000
0001
0000
0100
1000
0100
0010
0100
0000
0000
0000
,
1000
0000
0000
1100
0000
0000
0100
0000
0000
0000
1010
0000
0000
0000
0000
0000
,
1000
0000
0000
1000
0000
0000
1000
0000
0001
0100
0001
0100
0001
0000
0000
0000
,
0010
0000
0000
0010
0000
0000
0010
0000
0100
1000
0100
1000
0100
0000
0000
0000
,
0001
0000
0000
0001
0000
0000
0001
0000
0100
1000
0100
0010
0100
0000
0000
0000
,
0001
0000
0000
0101
0000
0000
1000
0000
0100
0010
0100
0010
0100
0000
0000
0000
,
1000
0000
0000
1000
0000
0000
1000
0000
0001
0100
0001
0100
0001
0000
0000
0000
,
0010
0000
0000
0010
0000
0000
0010
0000
0100
1000
0100
1000
0100
0000
0000
0000
,
0001
0000
0000
0001
0000
0000
0001
0000
0100
1000
0100
0010
0100
0000
0000
0000
,
1000
0000
0000
1100
0000
0000
0100
0000
0000
0000
1010
0000
0000
0000
0000
0000
,
1000
0000
0000
1000
0000
0000
1000
0000
0001
0100
0001
0100
0001
0000
0000
0000
,
0010
0000
0000
0010
0000
0000
0010
0000
0100
1000
0100
1000
0100
0000
0000
0000
,
0001
0000
0000
0001
0000
0000
0001
0000
0100
1000
0100
0010
0100
0000
0000
0000
,
0001
0000
0000
0101
0000
0000
1000
0000
0100
0010
0100
0010
0100
0000
0000
0000
,
1010
0000
0000
0110
0000
0000
0011
0000
0000
0000
0110
0000
1100
0000
0000
0000
,
1010
0000
0000
0110
0000
0000
0011
0000
0000
0000
0110
0000
1100
0000
0000
0000
,
1010
0000
0000
0110
0000
0000
0011
0000
0000
0000
0110
0000
1100
0000
0000
0000
,
1010
0000
0000
0110
0000
0000
0011
0000
0000
0000
0110
0000
1010
0000
0101
0000
,
1010
0000
0000
0110
0000
0000
0011
0000
0000
0000
0110
0000
1100
0000
0000
0000
,
1010
0000
0000
0110
0000
0000
0011
0000
0000
0000
0110
0000
1100
0000
0000
0000
,
1010
0000
0000
0110
0000
0000
0011
0000
0000
0000
0110
0000
1100
0000
0000
0000
,
1010
0000
0000
0110
0000
0000
0011
0000
0000
0000
0110
0000
1010
0000
0101
0000
,
1010
0000
0000
0110
0000
0000
0011
0000
0000
0000
0110
0000
1100
0000
0000
0000
,
1010
0000
0000
0110
0000
0000
0011
0000
0000
0000
0110
0000
1100
0000
0000
0000
,
1010
0000
0000
0110
0000
0000
0011
0000
0000
0000
0110
0000
1100
0000
0000
0000
,
1010
0000
0000
0110
0000
0000
0011
0000
0000
0000
0110
0000
1010
0000
0101
0000
,
1010
0000
0000
0110
0000
0000
0011
0000
0000
0000
0110
0000
1100
0000
0000
0000
,
1010
0000
0000
0110
0000
0000
0011
0000
0000
0000
0110
0000
1100
0000
0000
0000
,
1010
0000
0000
0110
0000
0000
0011
0000
0000
0000
0110
0000
1100
0000
0000
0000
,
1010
0000
0000
0110
0000
0000
0011
0000
0000
0000
0110
0000
1010
0000
0101
0000
,
0110
0000
0000
1010
0000
0000
0101
0000
0000
0000
1010
0000
0000
0000
0000
0000
,
0110
0000
0000
0101
0000
0000
1010
0000
0100
0000
0001
0000
1100
0000
0000
0000
,
0110
0000
0000
1010
0000
0000
0101
0000
0000
0000
1010
0000
0000
0000
0000
0000
,
0110
0000
0000
0101
0000
0000
1010
0000
0100
0000
0001
0000
1100
0000
0000
0000
,
0110
0000
0000
1010
0000
0000
0101
0000
0000
0000
1010
0000
0000
0000
0000
0000
,
0110
0000
0000
0101
0000
0000
1010
0000
0100
0000
0001
0000
1100
0000
0000
0000
,
0110
0000
0000
1010
0000
0000
0101
0000
0000
0000
1010
0000
0000
0000
0000
0000
,
0110
0000
0000
0101
0000
0000
1010
0000
0100
0000
0001
0000
1100
0000
0000
0000
,
0110
0000
0000
1010
0000
0000
0101
0000
0000
0000
1010
0000
0000
0000
0000
0000
,
0110
0000
0000
0101
0000
0000
1010
0000
0100
0000
0001
0000
1100
0000
0000
0000
,
0110
0000
0000
1010
0000
0000
0101
0000
0000
0000
1010
0000
0000
0000
0000
0000
,
0110
0000
0000
0101
0000
0000
1010
0000
0100
0000
0001
0000
1100
0000
0000
0000
,
0110
0000
0000
1010
0000
0000
0101
0000
0000
0000
1010
0000
0000
0000
0000
0000
,
0110
0000
0000
0101
0000
0000
1010
0000
0100
0000
0001
0000
1100
0000
0000
0000
,
0110
0000
0000
1010
0000
0000
0101
0000
0000
0000
1010
0000
0000
0000
0000
0000
,
0110
0000
0000
0101
0000
0000
1010
0000
0100
0000
0001
0000
1100
0000
0000
0000
,
0110
0000
0000
1010
0000
0000
0101
0000
0000
0000
1010
0000
0000
0000
0000
0000
,
0110
0000
0000
0101
0000
0000
1010
0000
0100
0000
0001
0000
1100
0000
0000
0000
,
0110
0000
0000
1010
0000
0000
0101
0000
0000
0000
1010
0000
0000
0000
0000
0000
,
0110
0000
0000
0101
0000
0000
1010
0000
0100
0000
0001
0000
1100
0000
0000
0000
,
0110
0000
0000
1010
0000
0000
0101
0000
0000
0000
1010
0000
0000
0000
0000
0000
,
0110
0000
0000
0101
0000
0000
1010
0000
0100
0000
0001
0000
1100
0000
0000
0000
,
0110
0000
0000
1010
0000
0000
0101
0000
0000
0000
1010
0000
0000
0000
0000
0000
,
0110
0000
0000
0101
0000
0000
1010
0000
0100
0000
0001
0000
1100
0000
0000
0000
,
0110
0000
0000
1010
0000
0000
0101
0000
0000
0000
1010
0000
0000
0000
0000
0000
,
0110
0000
0000
0101
0000
0000
1010
0000
0100
0000
0001
0000
1100
0000
0000
0000
,
0110
0000
0000
1010
0000
0000
0101
0000
0000
0000
1010
0000
0000
0000
0000
0000
,
0110
0000
0000
0101
0000
0000
1010
0000
0100
0000
0001
0000
1100
0000
0000
0000
,
0110
0000
0000
1010
0000
0000
0101
0000
0000
0000
1010
0000
0000
0000
0000
0000
,
0110
0000
0000
0101
0000
0000
1010
0000
0100
0000
0001
0000
1100
0000
0000
0000
,
0110
0000
0000
1010
0000
0000
0101
0000
0000
0000
1010
0000
0000
0000
0000
0000
,
2002
0000
0000
0000
0000
3003
0010
0000
,
0020
0000
0000
0000
0000
0030
0010
0200
,
0000
0000
0000
0000
0000
0000
1300
0200
,
0000
0000
0000
0301
,
0002
0000
0000
2003
0000
3000
2000
0000
,
3200
0000
0000
0000
0000
0300
0100
0020
,
0000
0000
0000
0000
0000
0000
0031
0020
,
0000
0000
0000
1030
,
2000
0000
0000
3002
0000
0003
0002
0000
,
0023
0000
0000
0000
0000
0030
0010
0200
,
0000
0000
0000
0000
0000
0000
1300
0200
,
0000
0000
0000
0301
,
0002
0000
0000
2003
0000
3000
2000
0000
,
3200
0000
0000
0000
0000
0300
0100
0020
,
0000
0000
0000
0000
0000
0000
0031
0020
,
0000
0000
0000
1030
,
2000
0000
0000
3002
0000
0003
0002
0000
,
1003
0000
0000
1100
0000
0000
0100
0000
0000
0000
1010
0000
0000
0000
0000
0000
,
0001
0000
0000
0101
0000
0000
1000
0000
0100
0010
0100
0010
0100
0000
0000
0000
,
1000
0000
0000
1100
0000
0000
0100
0000
0000
0000
1010
0000
0000
0000
0000
0000
,
0001
0000
0000
0101
0000
0000
1000
0000
0100
0010
0100
0010
0100
0000
0000
0000
,
1000
0000
0000
1100
0000
0000
0100
0000
0000
0000
1010
0000
0000
0000
0000
0000
,
0001
0000
0000
0101
0000
0000
1000
0000
0100
0010
0100
0010
0100
0000
0000
0000
,
1000
0000
0000
1100
0000
0000
0100
0000
0000
0000
1010
0000
0000
0000
0000
0000
,
0001
0000
0000
0101
0000
0000
1000
0000
0100
0010
0100
0010
0100
0000
0000
0000
,
1000
0000
0000
1100
0000
0000
0100
0000
0000
0000
1010
0000
0000
0000
0000
0000
,
0001
0000
0000
0101
0000
0000
1000
0000
0100
0010
0100
0010
0100
0000
0000
0000
,
1000
0000
0000
1100
0000
0000
0100
0000
0000
0000
1010
0000
0000
0000
0000
0000
,
0001
0000
0000
0101
0000
0000
1000
0000
0100
0010
0100
0010
0100
0000
0000
0000
,
1000
0000
0000
1100
0000
0000
0100
0000
0000
0000
1010
0000
0000
0000
0000
0000
,
0001
0000
0000
0101
0000
0000
1000
0000
0100
0010
0100
0010
0100
0000
0000
0000
,
1000
0000
0000
1100
0000
0000
0100
0000
0000
0000
1010
0000
0000
0000
0000
0000
,
0001
0000
0000
0101
0000
0000
1000
0000
0100
0010
0100
0010
0100
0000
0000
0000
,
1010
0000
0000
0110
0000
0000
0011
0000
0000
0000
0110
0000
1100
0000
0000
0000
,
1010
0000
0000
0110
0000
0000
0011
0000
0000
0000
0110
0000
1100
0000
0000
0000
,
1010
0000
0000
0110
0000
0000
0011
0000
0000
0000
0110
0000
1100
0000
0000
0000
,
1010
0000
0000
0110
0000
0000
0011
0000
0000
0000
0110
0000
1010
0000
0101
0000
,
1010
0000
0000
0110
0000
0000
0011
0000
0000
0000
0110
0000
1100
0000
0000
0000
,
1010
0000
0000
0110
0000
0000
0011
0000
0000
0000
0110
0000
1100
0000
0000
0000
,
1010
0000
0000
0110
0000
0000
0011
0000
0000
0000
0110
0000
1100
0000
0000
0000
,
1010
0000
0000
0110
0000
0000
0011
0000
0000
0000
0110
0000
1010
0000
0101
0000
,
1010
0000
0000
0110
0000
0000
0011
0000
0000
0000
0110
0000
1100
0000
0000
0000
,
1010
0000
0000
0110
0000
0000
0011
0000
0000
0000
0110
0000
1100
0000
0000
0000
,
1010
0000
0000
0110
0000
0000
0011
0000
0000
0000
0110
0000
1100
0000
0000
0000
,
1010
0000
0000
0110
0000
0000
0011
0000
0000
0000
0110
0000
1010
0000
0101
0000
,
1010
0000
0000
0110
0000
0000
0011
0000
1010
0000
0000
0110
0000
0000
0011
0000
,
1010
0000
0000
0110
0000
0000
0011
0000
1010
0000
0000
0110
0000
0000
0011
0000
,
1010
0000
1010
0000
1010
1010
1010
1010
,
1100
0100
0110
0010
0011
0001
1001
0000
,
0000
0000
0100
0000
0010
0000
1000
0000
0110
0000
0000
0101
0000
0000
0110
0000
,
0000
0000
0010
0000
0100
0000
0001
0000
0110
0000
0000
1010
0000
0000
0110
0000
,
0000
0010
0110
1000
1100
0010
0110
1000
,
1100
0001
0011
0100
0110
0001
0011
0100
,
0110
0000
0100
0000
0010
0000
1000
0000
0110
0000
0000
0101
0000
0000
0110
0000
,
0000
0000
0010
0000
0100
0000
0001
0000
0110
0000
0000
1010
0000
0000
0110
0000
,
0000
0010
0110
1000
1100
0010
0110
1000
,
1100
0001
0011
0100
0110
0001
0011
0100
,
0110
0000
0100
0000
0010
0000
1000
0000
0110
0000
0000
0101
0000
0000
0110
0000
,
0000
0000
0010
0000
0100
0000
0001
0000
0110
0000
0000
1010
0000
0000
0110
0000
,
0000
0010
0110
1000
1100
0010
0110
1000
,
1100
0001
0011
0100
0110
0001
0011
0100
,
0110
0000
0100
0000
0010
0000
1000
0000
0110
0000
0000
0101
0000
0000
0110
0000
,
0000
0000
0010
0000
0100
0000
0001
0000
0110
0000
0000
1010
0000
0000
0110
0000
,
0000
0010
0110
1000
1100
0010
0110
1000
,
1100
0100
0110
0010
0011
0001
1001
0000
,
0110
0000
0000
1010
0000
0000
0101
0000
0000
0000
1010
0000
0000
0000
0000
0000
,
0110
0000
0000
0101
0000
0000
1010
0000
0100
0000
0001
0000
1100
0000
0000
0000
,
0110
0000
0000
1010
0000
0000
0101
0000
0000
0000
1010
0000
0000
0000
0000
0000
,
0110
0000
0000
0101
0000
0000
1010
0000
0100
0000
0001
0000
1100
0000
0000
0000
,
0110
0000
0000
1010
0000
0000
0101
0000
0000
0000
1010
0000
0000
0000
0000
0000
,
0110
0000
0000
0101
0000
0000
1010
0000
0100
0000
0001
0000
1100
0000
0000
0000
,
0110
0000
0000
1010
0000
0000
0101
0000
0000
0000
1010
0000
0000
0000
0000
0000
,
0110
0000
0000
0101
0000
0000
1010
0000
0100
0000
0001
0000
1100
0000
0000
0000
,
0110
0000
0000
1010
0000
0000
0101
0000
0000
0000
1010
0000
0000
0000
0000
0000
,
0110
0000
0000
0101
0000
0000
1010
0000
0100
0000
0001
0000
1100
0000
0000
0000
,
0110
0000
0000
1010
0000
0000
0101
0000
0000
0000
1010
0000
0000
0000
0000
0000
,
0110
0000
0000
0101
0000
0000
1010
0000
0100
0000
0001
0000
1100
0000
0000
0000
,
0110
0000
0000
1010
0000
0000
0101
0000
0000
0000
1010
0000
0000
0000
0000
0000
,
0110
0000
0000
0101
0000
0000
1010
0000
0100
0000
0001
0000
1100
0000
0000
0000
,
0110
0000
0000
1010
0000
0000
0101
0000
0000
0000
1010
0000
0000
0000
0000
0000
,
0110
0000
0000
0101
0000
0000
1010
0000
0100
0000
0001
0000
1100
0000
0000
0000
,
0110
0000
0000
1010
0000
0000
0101
0000
0000
0000
1010
0000
0000
0000
0000
0000
,
0110
0000
0000
0101
0000
0000
1010
0000
0100
0000
0001
0000
1100
0000
0000
0000
,
0110
0000
0000
1010
0000
0000
0101
0000
0000
0000
1010
0000
0000
0000
0000
0000
,
0110
0000
0000
0101
0000
0000
1010
0000
0100
0000
0001
0000
1100
0000
0000
0000
,
0110
0000
0000
1010
0000
0000
0101
0000
0000
0000
1010
0000
0000
0000
0000
0000
,
0110
0000
0000
0101
0000
0000
1010
0000
0100
0000
0001
0000
1100
0000
0000
0000
,
0110
0000
0000
1010
0000
0000
0101
0000
0000
0000
1010
0000
0000
0000
0000
0000
,
0110
0000
0000
0101
0000
0000
1010
0000
0100
0000
0001
0000
1100
0000
0000
0000
,
0110
0000
0000
1010
0000
0000
0101
0000
0000
0000
1010
0000
0000
0000
0000
0000
,
0110
0000
0000
0101
0000
0000
1010
0000
0100
0000
0001
0000
1100
0000
0000
0000
,
0110
0000
0000
1010
0000
0000
0101
0000
0000
0000
1010
0000
0000
0000
0000
0000
,
0110
0000
0000
0101
0000
0000
1010
0000
0100
0000
0001
0000
1100
0000
0000
0000
,
0110
0000
0000
1010
0000
0000
0101
0000
0000
0000
1010
0000
0000
0000
0000
0000
,
0110
0000
0000
0101
0000
0000
1010
0000
0100
0000
0001
0000
1100
0000
0000
0000
,
0110
0000
0000
1010
0000
0000
0101
0000
0000
0000
1010
0000
0000
0000
0000
0000
,
1100
0100
0110
0010
0011
0001
1001
0000
,
1010
0000
0000
0110
0000
0000
0011
0000
0000
0000
0110
0000
1100
0000
0000
0000
,
1010
0000
0000
0110
0000
0000
0011
0000
0000
0000
0110
0000
1100
0000
0000
0000
,
1010
0000
0000
0110
0000
0000
0011
0000
0000
0000
0110
0000
1100
0000
0000
0000
,
1010
0000
0000
0110
0000
0000
0011
0000
0000
0000
0110
0000
1010
0000
0101
0000
,
1010
0000
0000
0110
0000
0000
0011
0000
0000
0000
0110
0000
1100
0000
0000
0000
,
1010
0000
0000
0110
0000
0000
0011
0000
0000
0000
0110
0000
1100
0000
0000
0000
,
1010
0000
0000
0110
0000
0000
0011
0000
0000
0000
0110
0000
1100
0000
0000
0000
,
1010
0000
0000
0110
0000
0000
0011
0000
0000
0000
0110
0000
1010
0000
0101
0000
,
1010
0000
0000
0110
0000
0000
0011
0000
0000
0000
0110
0000
1100
0000
0000
0000
,
1010
0000
0000
0110
0000
0000
0011
0000
0000
0000
0110
0000
1100
0000
0000
0000
,
1010
0000
0000
0110
0000
0000
0011
0000
0000
0000
0110
0000
1100
0000
0000
0000
,
1010
0000
0000
0110
0000
0000
0011
0000
0000
0000
0110
0000
1010
0000
0101
0000
,
1010
0000
0000
0110
0000
0000
0011
0000
0000
0000
0110
0000
1100
0000
0000
0000
,
1010
0000
0000
0110
0000
0000
0011
0000
0000
0000
0110
0000
1100
0000
0000
0000
,
1010
0000
0000
0110
0000
0000
0011
0000
0000
0000
0110
0000
1100
0000
0000
0000
,
1100
0100
0110
0010
0011
0001
1001
0000
,
1000
0000
0000
1000
0000
0000
1000
0000
0001
0100
0001
0100
0001
0000
0000
0000
,
0010
0000
0000
0010
0000
0000
0010
0000
0100
1000
0100
1000
0100
0000
0000
0000
,
0001
0000
0000
0001
0000
0000
0001
0000
0100
1000
0100
0010
0100
0000
0000
0000
,
0001
0000
0000
0101
0000
0000
1000
0000
0100
0010
0100
0010
0100
0000
0000
0000
,
1000
0000
0000
1000
0000
0000
1000
0000
0001
0100
0001
0100
0001
0000
0000
0000
,
0010
0000
0000
0010
0000
0000
0010
0000
0100
1000
0100
1000
0100
0000
0000
0000
,
0001
0000
0000
0001
0000
0000
0001
0000
0100
1000
0100
0010
0100
0000
0000
0000
,
0001
0000
0000
0101
0000
0000
1000
0000
0100
0010
0100
0010
0100
0000
0000
0000
,
1000
0000
0000
1000
0000
0000
1000
0000
0001
0100
0001
0100
0001
0000
0000
0000
,
0010
0000
0000
0010
0000
0000
0010
0000
0100
1000
0100
1000
0100
0000
0000
0000
,
0001
0000
0000
0001
0000
0000
0001
0000
0100
1000
0100
0010
0100
0000
0000
0000
,
0001
0000
0000
0101
0000
0000
1000
0000
0100
0010
0100
0010
0100
0000
0000
0000
,
1000
0000
0000
1000
0000
0000
1000
0000
0001
0100
0001
0100
0001
0000
0000
0000
,
0010
0000
0000
0010
0000
0000
0010
0000
0100
1000
0100
1000
0100
0000
0000
0000
,
0001
0000
0000
0001
0000
0000
0001
0000
0100
1000
0100
0010
0100
0000
0000
0000
,
0001
0000
0000
0101
0000
0000
1000
0000
0100
0010
0100
0010
0100
0000
0000
0000
,
1000
0000
0000
1000
0000
0000
1000
0000
0001
0100
0001
0100
0001
0000
0000
0000
,
0010
0000
0000
0010
0000
0000
0010
0000
0100
1000
0100
1000
0100
0000
0000
0000
,
0001
0000
0000
0001
0000
0000
0001
0000
0100
1000
0100
0010
0100
0000
0000
0000
,
0001
0000
0000
0101
0000
0000
1000
0000
0100
0010
0100
0010
0100
0000
0000
0000
,
1000
0000
0000
1000
0000
0000
1000
0000
0001
0100
0001
0100
0001
0000
0000
0000
,
0010
0000
0000
0010
0000
0000
0010
0000
0100
1000
0100
1000
0100
0000
0000
0000
,
0001
0000
0000
0001
0000
0000
0001
0000
0100
1000
0100
0010
0100
0000
0000
0000
,
0001
0000
0000
0101
0000
0000
1000
0000
0100
0010
0100
0010
0100
0000
0000
0000
,
1000
0000
0000
1000
0000
0000
1000
0000
0001
0100
0001
0100
0001
0000
0000
0000
,
0010
0000
0000
0010
0000
0000
0010
0000
0100
1000
0100
1000
0100
0000
0000
0000
,
0001
0000
0000
0001
0000
0000
0001
0000
0100
1000
0100
0010
0100
0000
0000
0000
,
0001
0000
0000
0101
0000
0000
1000
0000
0100
0010
0100
0010
0100
0000
0000
0000
,
1000
0000
0000
1000
0000
0000
1000
0000
0001
0100
0001
0100
0001
0000
0000
0000
,
0010
0000
0000
0010
0000
0000
0010
0000
0100
1000
0100
1000
0100
0000
0000
0000
,
0001
0000
0000
0001
0000
0000
0001
0000
0100
1000
0100
0010
0100
0000
0000
0000
,
0001
0000
0000
0101
0000
0000
1000
0000
0100
0010
0100
0010
0100
0000
0000
0000
,
1000
0000
0000
1000
0000
0000
1000
0000
0001
0100
0001
0100
0001
0000
0000
0000
,
0010
0000
0000
0010
0000
0000
0010
0000
0100
1000
0100
1000
0100
0000
0000
0000
,
0001
0000
0000
0001
0000
0000
0001
0000
0100
1000
0100
0010
0100
0000
0000
0000
,
0001
0000
0000
0101
0000
0000
1000
0000
0100
0010
0100
0010
0100
0000
0000
0000
,
1000
0000
0000
1000
0000
0000
1000
0000
0001
0100
0001
0100
0001
0000
0000
0000
,
0010
0000
0000
0010
0000
0000
0010
0000
0100
1000
0100
1000
0100
0000
0000
0000
,
0001
0000
0000
0001
0000
0000
0001
0000
0100
1000
0100
0010
0100
0000
0000
0000
,
0001
0000
0000
0101
0000
0000
1000
0000
0100
0010
0100
0010
0100
0000
0000
0000
,
1000
0000
0000
1000
0000
0000
1000
0000
0001
0100
0001
0100
0001
0000
0000
0000
,
0010
0000
0000
0010
0000
0000
0010
0000
0100
1000
0100
1000
0100
0000
0000
0000
,
0001
0000
0000
0001
0000
0000
0001
0000
0100
1000
0100
0010
0100
0000
0000
0000
,
0001
0000
0000
0101
0000
0000
1000
0000
0100
0010
0100
0010
0100
0000
0000
0000
,
1000
0000
0000
1000
0000
0000
1000
0000
0001
0100
0001
0100
0001
0000
0000
0000
,
0010
0000
0000
0010
0000
0000
0010
0000
0100
1000
0100
1000
0100
0000
0000
0000
,
0001
0000
0000
0001
0000
0000
0001
0000
0100
1000
0100
0010
0100
0000
0000
0000
,
0001
0000
0000
0101
0000
0000
1000
0000
0100
0010
0100
0010
0100
0000
0000
0000
,
2002
0000
0000
0000
,
3003
0000
0000
0000
;

//---------------dance-single - ----------------
#NOTEDATA:;
#CHARTNAME:;
#STEPSTYPE:dance-single;
#DESCRIPTION:;
#CHARTSTYLE:;
#DIFFICULTY:Easy;
#METER:4;
#RADARVALUES:0.165790,0.208245,0.192518,0.059654,0.000000,428.000000,357.000000,71.000000,22.000000,0.000000,0.000000,0.000000,0.000000,0.000000,0.165790,0.208245,0.192518,0.059654,0.000000,428.000000,357.000000,71.000000,22.000000,0.000000,0.000000,0.000000,0.000000,0.000000;
#CREDIT:;
#NOTES:
0000
0000
0000
0000
,
0000
0000
0000
0000
,
0000
0000
0000
0000
,
0000
0000
0000
0000
,
0000
0000
0000
0000
,
0000
0000
0000
0000
,
0000
0000
0000
0000
,
0000
0000
0000
0000
,
1000
0000
1000
0000
,
0000
0000
0000
0000
,
0000
0000
0000
0000
,
1001
0000
0000
0000
,
0001
0000
0001
0000
,
0000
0000
0000
0000
,
0000
0000
0000
0000
,
2002
0000
0000
3003
,
1000
0000
0000
0000
,
1000
0000
0001
0000
,
0001
0000
0000
0000
,
0001
0000
1000
0000
,
0010
0000
0000
0000
,
0010
0000
0100
0000
,
0100
0000
0000
0000
,
0100
0000
0100
0100
,
1000
0000
0000
0000
,
1000
0000
0001
0000
,
0001
0000
0000
0000
,
0001
0000
1000
0000
,
0010
0000
0000
0000
,
0010
0000
0100
0000
,
0100
0000
0000
0000
,
0200
0000
0000
0300
,
0010
0000
0010
0000
,
0010
0000
1000
0000
,
0100
0000
0100
0000
,
0100
0000
0001
0000
,
0001
0000
0001
0000
,
0001
0000
0010
0000
,
1000
0000
1000
0000
,
1000
0000
0001
0000
,
0010
0000
0010
0000
,
0010
0000
1000
0000
,
0100
0000
0100
0000
,
0100
0000
0001
0000
,
0001
0000
0001
0000
,
0001
0000
0010
0000
,
1000
0000
1000
0000
,
0002
0000
0000
0003
,
0100
0000
0000
1000
,
0010
0000
0000
1000
,
0010
0000
0000
0001
,
0100
0000
0000
0001
,
1000
0000
0000
0010
,
0001
0000
0000
0010
,
0001
0000
0000
0100
,
1000
0000
0000
0100
,
0100
0000
0000
1000
,
0010
0000
0000
1000
,
0010
0000
0000
0001
,
0100
0000
0000
0001
,
1000
0000
0000
0010
,
0001
0000
0000
0010
,
0001
0000
0000
0100
,
2000
0000
0000
3000
,
1001
0000
0000
0000
,
0011
0000
0000
0000
,
1001
0000
0000
0000
,
1100
0000
0000
0000
,
0110
0000
0000
0000
,
0101
0000
0000
0000
,
0110
0000
0000
0000
,
1010
0000
0000
0000
,
1001
0000
0000
0000
,
0011
0000
0000
0000
,
1001
0000
0000
0000
,
1100
0000
0000
0000
,
0110
0000
0000
0000
,
0101
0000
0000
0000
,
0110
0000
0000
0000
,
0220
0000
0000
0330
,
1001
0000
0000
0000
,
0011
0000
0000
0000
,
1001
0000
0000
0000
,
1100
0000
0000
0000
,
0110
0000
0000
0000
,
0101
0000
0000
0000
,
0110
0000
0000
0000
,
1010
0000
0000
0000
,
1001
0000
0000
0000
,
0011
0000
0000
0000
,
1001
0000
0000
0000
,
1100
0000
0000
0000
,
0110
0000
0000
0000
,
0101
0000
0000
0000
,
0110
0000
0000
0000
,
0220
0000
0000
0330
,
0010
0000
0000
0000
,
0000
0000
0000
0000
,
0100
0000
0000
0000
,
0000
0000
0000
0000
,
0010
0000
0000
0000
,
0000
0000
0000
0000
,
0100
0000
0000
0000
,
0000
0000
0000
0000
,
0010
0000
0000
0000
,
0000
0000
0000
0000
,
0100
0000
0000
0000
,
0000
0000
0000
0000
,
0010
0000
0000
0000
,
0000
0000
0000
0000
,
0100
0000
0000
0000
,
0020
0000
0000
0030
,
1000
0000
0000
0000
,
1000
0000
0001
0000
,
0001
0000
0000
0000
,
0001
0000
1000
0000
,
0010
0000
0000
0000
,
0010
0000
0100
0000
,
0100
0000
0000
0000
,
0100
0000
0100
0100
,
1000
0000
0000
0000
,
1000
0000
0001
0000
,
0001
0000
0000
0000
,
0001
0000
1000
0000
,
0010
0000
0000
0000
,
0010
0000
0100
0000
,
0100
0000
0000
0000
,
0200
0000
0000
0300
,
0100
0000
0000
1000
,
0010
0000
0000
1000
,
0010
0000
0000
0001
,
0100
0000
0000
0001
,
1000
0000
0000
0010
,
0001
0000
0000
0010
,
0001
0000
0000
0100
,
1000
0000
0000
0100
,
0100
0000
0000
1000
,
0010
0000
0000
1000
,
0010
0000
0000
0001
,
0100
0000
0000
0001
,
1000
0000
0001
0000
,
1000
0000
0001
0000
,
1000
0000
0001
0000
,
2000
0000
0000
3000
,
0010
0000
0010
0000
,
1000
0000
1000
0000
,
0100
0000
0001
0000
,
0100
0000
0001
0000
,
0100
0000
0100
0000
,
0001
0000
0001
0000
,
0010
0000
1000
0000
,
0010
0000
1000
0000
,
0001
0000
0001
0000
,
0010
0000
0010
0000
,
1000
0000
0100
0000
,
1000
0000
0100
0000
,
1000
0000
1000
0000
,
0100
0000
0100
0000
,
0001
0000
0010
0000
,
0002
0000
0000
0003
,
1001
0000
0000
0000
,
0011
0000
0000
0000
,
1001
0000
0000
0000
,
1100
0000
0000
0000
,
0110
0000
0000
0000
,
0101
0000
0000
0000
,
0110
0000
0000
0000
,
1010
0000
0000
0000
,
1001
0000
0000
0000
,
0011
0000
0000
0000
,
1001
0000
0000
0000
,
1100
0000
0000
0000
,
0110
0000
0000
0000
,
0101
0000
0000
0000
,
0110
0000
0000
0000
,
0220
0000
0000
0330
,
1001
0000
0000
0000
,
0011
0000
0000
0000
,
1001
0000
0000
0000
,
1100
0000
0000
0000
,
0110
0000
0000
0000
,
0101
0000
0000
0000
,
0110
0000
0000
0000
,
1010
0000
0000
0000
,
1001
0000
0000
0000
,
0011
0000
0000
0000
,
1001
0000
0000
0000
,
1100
0000
0000
0000
,
0110
0000
0000
0000
,
0101
0000
0000
0000
,
0110
0000
0000
0000
,
0220
0000
0000
0330
,
0100
0000
0000
1000
,
0010
0000
0000
1000
,
0010
0000
0000
0001
,
0100
0000
0000
0001
,
1000
0000
0000
0010
,
0001
0000
0000
0010
,
0001
0000
0000
0100
,
1000
0000
0000
0100
,
0100
0000
0000
1000
,
0010
0000
0000
1000
,
0010
0000
0000
0001
,
0100
0000
0000
0001
,
1000
0000
0000
0010
,
0001
0000
0000
0010
,
0001
0000
0000
0100
,
2000
0000
0000
3000
,
0010
0000
0010
0000
,
0010
0000
1000
0000
,
0100
0000
0100
0000
,
0100
0000
0001
0000
,
0001
0000
0001
0000
,
0001
0000
0010
0000
,
1000
0000
1000
0000
,
1000
0000
0001
0000
,
0010
0000
0010
0000
,
0010
0000
1000
0000
,
0100
0000
0100
0000
,
0100
0000
0001
0000
,
0001
0000
0001
0000
,
0001
0000
0010
0000
,
1000
0000
1000
0000
,
0002
0000
0000
0003
,
0010
0000
0010
0000
,
0010
0000
1000
0000
,
0100
0000
0100
0000
,
0100
0000
0001
0000
,
0001
0000
0001
0000
,
0001
0000
0010
0000
,
1000
0000
1000
0000
,
1000
0000
0001
0000
,
0010
0000
0010
0000
,
0010
0000
1000
0000
,
0100
0000
0100
0000
,
0100
0000
0001
0000
,
0001
0000
0001
0000
,
0001
0000
0010
0000
,
1000
0000
1000
0000
,
0002
0000
0000
0003
,
1000
0000
1000
0000
,
0000
0000
0000
0000
,
0000
0000
0000
0000
,
1001
0000
0000
0000
,
0001
0000
0001
0000
,
0000
0000
0000
0000
,
0000
0000
0000
0000
,
1001
0000
0000
0000
,
0010
0000
0010
0000
,
0000
0000
0000
0000
,
0000
0000
0000
0000
,
0110
0000
0000
0000
,
0100
0000
0100
0000
,
0000
0000
0000
0000
,
0000
0000
0000
0000
,
0220
0000
0000
0330
,
1001
0000
0000
0000
;

//---------------dance-single - ----------------
#NOTEDATA:;
#CHARTNAME:;
#STEPSTYPE:dance-single;
#DESCRIPTION:;
#CHARTSTYLE:;
#DIFFICULTY:Beginner;
#METER:3;
#RADARVALUES:0.123568,0.173538,0.105750,0.048807,0.000000,319.000000,280.000000,39.000000,18.000000,0.000000,0.000000,0.000000,0.000000,0.000000,0.123568,0.173538,0.105750,0.048807,0.000000,319.000000,280.000000,39.000000,18.000000,0.000000,0.000000,0.000000,0.000000,0.000000;
#CREDIT:;
#NOTES:
0000
0000
0000
0000
,
0000
0000
0000
0000
,
0000
0000
0000
0000
,
0000
0000
0000
0000
,
0000
0000
0000
0000
,
0000
0000
0000
0000
,
0000
0000
0000
0000
,
0000
0000
0000
0000
,
1000
0000
0000
0000
,
0000
0000
0000
0000
,
0000
0000
0000
0000
,
1001
0000
0000
0000
,
0001
0000
0000
0000
,
0000
0000
0000
0000
,
0000
0000
0000
0000
,
2002
0000
0000
3003
,
1000
0000
0000
0000
,
1000
0000
0000
0000
,
0001
0000
0000
0000
,
0001
0000
0000
0000
,
0010
0000
0000
0000
,
0010
0000
0000
0000
,
0100
0000
0000
0000
,
0100
0000
0100
0000
,
1000
0000
0000
0000
,
1000
0000
0000
0000
,
0001
0000
0000
0000
,
0001
0000
0000
0000
,
0010
0000
0000
0000
,
0010
0000
0000
0000
,
0100
0000
0000
0000
,
0200
0000
0000
0300
,
0010
0000
0010
0000
,
0010
0000
0000
0000
,
0100
0000
0100
0000
,
0100
0000
0000
0000
,
0001
0000
0001
0000
,
0001
0000
0000
0000
,
1000
0000
1000
0000
,
1000
0000
0000
0000
,
0010
0000
0010
0000
,
0010
0000
0000
0000
,
0100
0000
0100
0000
,
0100
0000
0000
0000
,
0001
0000
0001
0000
,
0001
0000
0000
0000
,
1000
0000
1000
0000
,
0002
0000
0000
0003
,
0100
0000
0000
0000
,
0010
0000
0000
1000
,
0010
0000
0000
0000
,
0100
0000
0000
0001
,
1000
0000
0000
0000
,
0001
0000
0000
0010
,
0001
0000
0000
0000
,
1000
0000
0000
0100
,
0100
0000
0000
0000
,
0010
0000
0000
1000
,
0010
0000
0000
0000
,
0100
0000
0000
0001
,
1000
0000
0000
0000
,
0001
0000
0000
0010
,
0001
0000
0000
0000
,
2000
0000
0000
3000
,
1001
0000
0000
0000
,
0001
0000
0000
0000
,
1001
0000
0000
0000
,
1000
0000
0000
0000
,
0110
0000
0000
0000
,
0100
0000
0000
0000
,
0110
0000
0000
0000
,
0010
0000
0000
0000
,
1001
0000
0000
0000
,
0001
0000
0000
0000
,
1001
0000
0000
0000
,
1000
0000
0000
0000
,
0110
0000
0000
0000
,
0100
0000
0000
0000
,
0110
0000
0000
0000
,
0020
0000
0000
0030
,
1001
0000
0000
0000
,
0001
0000
0000
0000
,
1001
0000
0000
0000
,
1000
0000
0000
0000
,
0110
0000
0000
0000
,
0100
0000
0000
0000
,
0110
0000
0000
0000
,
0010
0000
0000
0000
,
1001
0000
0000
0000
,
0001
0000
0000
0000
,
1001
0000
0000
0000
,
1000
0000
0000
0000
,
0110
0000
0000
0000
,
0100
0000
0000
0000
,
0110
0000
0000
0000
,
0020
0000
0000
0030
,
0010
0000
0000
0000
,
0000
0000
0000
0000
,
0000
0000
0000
0000
,
0000
0000
0000
0000
,
0100
0000
0000
0000
,
0000
0000
0000
0000
,
0000
0000
0000
0000
,
0000
0000
0000
0000
,
0010
0000
0000
0000
,
0000
0000
0000
0000
,
0000
0000
0000
0000
,
0000
0000
0000
0000
,
0100
0000
0000
0000
,
0000
0000
0000
0000
,
0000
0000
0000
0000
,
0020
0000
0000
0030
,
1000
0000
0000
0000
,
1000
0000
0000
0000
,
0001
0000
0000
0000
,
0001
0000
0000
0000
,
0010
0000
0000
0000
,
0010
0000
0000
0000
,
0100
0000
0000
0000
,
0100
0000
0100
0000
,
1000
0000
0000
0000
,
1000
0000
0000
0000
,
0001
0000
0000
0000
,
0001
0000
0000
0000
,
0010
0000
0000
0000
,
0010
0000
0000
0000
,
0100
0000
0000
0000
,
0200
0000
0000
0300
,
0100
0000
0000
0000
,
0010
0000
0000
1000
,
0010
0000
0000
0000
,
0100
0000
0000
0001
,
1000
0000
0000
0000
,
0001
0000
0000
0010
,
0001
0000
0000
0000
,
1000
0000
0000
0100
,
0100
0000
0000
0000
,
0010
0000
0000
1000
,
0010
0000
0000
0000
,
0100
0000
0000
0001
,
1000
0000
0000
0000
,
0001
0000
0000
0000
,
1000
0000
1000
0000
,
2000
0000
0000
3000
,
0010
0000
0000
0000
,
1000
0000
0000
0000
,
0100
0000
0001
0000
,
0100
0000
0001
0000
,
0100
0000
0000
0000
,
0001
0000
0000
0000
,
0010
0000
1000
0000
,
0010
0000
1000
0000
,
0001
0000
0000
0000
,
0010
0000
0000
0000
,
1000
0000
0100
0000
,
1000
0000
0100
0000
,
1000
0000
0000
0000
,
0100
0000
0000
0000
,
0001
0000
0010
0000
,
0002
0000
0000
0003
,
1001
0000
0000
0000
,
0001
0000
0000
0000
,
1001
0000
0000
0000
,
1000
0000
0000
0000
,
0110
0000
0000
0000
,
0100
0000
0000
0000
,
0110
0000
0000
0000
,
0010
0000
0000
0000
,
1001
0000
0000
0000
,
0001
0000
0000
0000
,
1001
0000
0000
0000
,
1000
0000
0000
0000
,
0110
0000
0000
0000
,
0100
0000
0000
0000
,
0110
0000
0000
0000
,
0020
0000
0000
0030
,
1001
0000
0000
0000
,
0001
0000
0000
0000
,
1001
0000
0000
0000
,
1000
0000
0000
0000
,
0110
0000
0000
0000
,
0100
0000
0000
0000
,
0110
0000
0000
0000
,
0010
0000
0000
0000
,
1001
0000
0000
0000
,
0001
0000
0000
0000
,
1001
0000
0000
0000
,
1000
0000
0000
0000
,
0110
0000
0000
0000
,
0100
0000
0000
0000
,
0110
0000
0000
0000
,
0020
0000
0000
0030
,
0100
0000
0000
0000
,
0010
0000
0000
1000
,
0010
0000
0000
0000
,
0100
0000
0000
0001
,
1000
0000
0000
0000
,
0001
0000
0000
0010
,
0001
0000
0000
0000
,
1000
0000
0000
0100
,
0100
0000
0000
0000
,
0010
0000
0000
1000
,
0010
0000
0000
0000
,
0100
0000
0000
0001
,
1000
0000
0000
0000
,
0001
0000
0000
0010
,
0001
0000
0000
0000
,
2000
0000
0000
3000
,
0010
0000
0010
0000
,
0010
0000
0000
0000
,
0100
0000
0100
0000
,
0100
0000
0000
0000
,
0001
0000
0001
0000
,
0001
0000
0000
0000
,
1000
0000
1000
0000
,
1000
0000
0000
0000
,
0010
0000
0010
0000
,
0010
0000
0000
0000
,
0100
0000
0100
0000
,
0100
0000
0000
0000
,
0001
0000
0001
0000
,
0001
0000
0000
0000
,
1000
0000
1000
0000
,
0002
0000
0000
0003
,
0010
0000
0010
0000
,
0010
0000
0000
0000
,
0100
0000
0100
0000
,
0100
0000
0000
0000
,
0001
0000
0001
0000
,
0001
0000
0000
0000
,
1000
0000
1000
0000
,
1000
0000
0000
0000
,
0010
0000
0010
0000
,
0010
0000
0000
0000
,
0100
0000
0100
0000
,
0100
0000
0000
0000
,
0001
0000
0001
0000
,
0001
0000
0000
0000
,
1000
0000
1000
0000
,
0002
0000
0000
0003
,
1000
0000
0000
0000
,
0000
0000
0000
0000
,
0000
0000
0000
0000
,
1001
0000
0000
0000
,
0001
0000
0000
0000
,
0000
0000
0000
0000
,
0000
0000
0000
0000
,
1001
0000
0000
0000
,
0010
0000
0000
0000
,
0000
0000
0000
0000
,
0000
0000
0000
0000
,
0110
0000
0000
0000
,
0100
0000
0000
0000
,
0000
0000
0000
0000
,
0000
0000
0000
0000
,
0220
0000
0000
0330
,
0110
0000
0000
0000
;

//---------------dance-single - ----------------
#NOTEDATA:;
#CHARTNAME:;
#STEPSTYPE:dance-single;
#DESCRIPTION:;
#CHARTSTYLE:;
#DIFFICULTY:Medium;
#METER:5;
#RADARVALUES:0.204527,0.277660,0.197941,0.065077,0.000000,528.000000,455.000000,73.000000,24.000000,0.000000,0.000000,0.000000,0.000000,0.000000,0.204527,0.277660,0.197941,0.065077,0.000000,528.000000,455.000000,73.000000,24.000000,0.000000,0.000000,0.000000,0.000000,0.000000;
#CREDIT:;
#NOTES:
0000
0000
0000
0000
,
0000
0000
0000
0000
,
0000
0000
0000
0000
,
0000
0000
0000
0000
,
0000
0000
0000
0000
,
0000
0000
0000
0000
,
0000
0000
0000
0000
,
0000
0000
0000
0000
,
1000
0000
1000
0000
,
0000
0000
1000
0000
,
0000
0000
0000
0000
,
1001
0000
0000
0000
,
0001
0000
0001
0000
,
0000
0000
0001
0000
,
0000
0000
0000
0000
,
2002
0000
0000
3003
,
1000
0000
1000
0000
,
1000
0000
0001
0000
,
0001
0000
0001
0000
,
0001
0000
1000
0000
,
0010
0000
0010
0000
,
0010
0000
0100
0000
,
0100
0000
0100
0000
,
0100
0000
0100
0100
,
1000
0000
1000
0000
,
1000
0000
0001
0000
,
0001
0000
0001
0000
,
0001
0000
1000
0000
,
0010
0000
0010
0000
,
0010
0000
0100
0000
,
0100
0000
0100
0000
,
0200
0000
0000
0300
,
0010
0000
0010
0000
,
0010
0000
1000
1000
,
0100
0000
0100
0000
,
0100
0000
0001
0001
,
0001
0000
0001
0000
,
0001
0000
0010
0010
,
1000
0000
1000
0000
,
1000
0000
0001
0001
,
0010
0000
0010
0000
,
0010
0000
1000
1000
,
0100
0000
0100
0000
,
0100
0000
0001
0001
,
0001
0000
0001
0000
,
0001
0000
0010
0010
,
1000
0000
1000
0000
,
0002
0000
0000
0003
,
0100
0000
0000
1000
,
0010
1000
0000
1000
,
0010
0000
0000
0001
,
0100
0001
0000
0001
,
1000
0000
0000
0010
,
0001
0010
0000
0010
,
0001
0000
0000
0100
,
1000
0100
0000
0100
,
0100
0000
0000
1000
,
0010
1000
0000
1000
,
0010
0000
0000
0001
,
0100
0001
0000
0001
,
1000
0000
0000
0010
,
0001
0010
0000
0010
,
0001
0000
0000
0100
,
2000
0000
0000
3000
,
1001
0000
0000
0000
,
0011
0000
0001
0000
,
1001
0000
0000
0000
,
1100
0000
1000
0000
,
0110
0000
0000
0000
,
0101
0000
0100
0000
,
0110
0000
0000
0000
,
1010
0000
0010
0000
,
1001
0000
0000
0000
,
0011
0000
0001
0000
,
1001
0000
0000
0000
,
1100
0000
1000
0000
,
0110
0000
0000
0000
,
0101
0000
0100
0000
,
0110
0000
0000
0000
,
0220
0000
0000
0330
,
1001
0000
0000
0000
,
0011
0000
0001
0000
,
1001
0000
0000
0000
,
1100
0000
1000
0000
,
0110
0000
0000
0000
,
0101
0000
0100
0000
,
0110
0000
0000
0000
,
1010
0000
0010
0000
,
1001
0000
0000
0000
,
0011
0000
0001
0000
,
1001
0000
0000
0000
,
1100
0000
1000
0000
,
0110
0000
0000
0000
,
0101
0000
0100
0000
,
0110
0000
0000
0000
,
0220
0000
0000
0330
,
0010
0000
0000
0000
,
0000
0000
0000
0000
,
0100
0000
0000
0000
,
0000
0000
0000
0000
,
0010
0000
0000
0000
,
0000
0000
0000
0000
,
0100
0000
0000
0000
,
0000
0000
0000
0000
,
0010
0000
0000
0000
,
0000
0000
0000
0000
,
0100
0000
0000
0000
,
0000
0000
0000
0000
,
0010
0000
0000
0000
,
0100
0000
0000
0000
,
0010
0000
0000
0000
,
0220
0000
0000
0330
,
1000
0000
1000
0000
,
1000
0000
0001
0000
,
0001
0000
0001
0000
,
0001
0000
1000
0000
,
0010
0000
0010
0000
,
0010
0000
0100
0000
,
0100
0000
0100
0000
,
0100
0000
0100
0100
,
1000
0000
1000
0000
,
1000
0000
0001
0000
,
0001
0000
0001
0000
,
0001
0000
1000
0000
,
0010
0000
0010
0000
,
0010
0000
0100
0000
,
0100
0000
0100
0000
,
0200
0000
0000
0300
,
0100
0000
0000
1000
,
0010
1000
0000
1000
,
0010
0000
0000
0001
,
0100
0001
0000
0001
,
1000
0000
0000
0010
,
0001
0010
0000
0010
,
0001
0000
0000
0100
,
1000
0100
0000
0100
,
0100
0000
0000
1000
,
0010
1000
0000
1000
,
0010
0000
0000
0001
,
0100
0001
0000
0001
,
1000
0000
0001
0000
,
1000
0000
0001
0000
,
1000
0001
1000
0001
,
2002
0000
0000
3003
,
0010
0010
0010
0000
,
1000
0000
1000
0000
,
0100
0000
0001
0000
,
0100
0000
0001
0000
,
0100
0100
0100
0000
,
0001
0000
0001
0000
,
0010
0000
1000
0000
,
0010
0000
1000
0000
,
0001
0001
0001
0000
,
0010
0000
0010
0000
,
1000
0000
0100
0000
,
1000
0000
0100
0000
,
1000
1000
1000
0000
,
0100
0000
0100
0000
,
0001
0000
0010
0000
,
0002
0000
0000
0003
,
1001
0000
0000
0000
,
0011
0000
0001
0000
,
1001
0000
0000
0000
,
1100
0000
1000
0000
,
0110
0000
0000
0000
,
0101
0000
0100
0000
,
0110
0000
0000
0000
,
1010
0000
0010
0000
,
1001
0000
0000
0000
,
0011
0000
0001
0000
,
1001
0000
0000
0000
,
1100
0000
1000
0000
,
0110
0000
0000
0000
,
0101
0000
0100
0000
,
0110
0000
0000
0000
,
0220
0000
0000
0330
,
1001
0000
0000
0000
,
0011
0000
0001
0000
,
1001
0000
0000
0000
,
1100
0000
1000
0000
,
0110
0000
0000
0000
,
0101
0000
0100
0000
,
0110
0000
0000
0000
,
1010
0000
0010
0000
,
1001
0000
0000
0000
,
0011
0000
0001
0000
,
1001
0000
0000
0000
,
1100
0000
1000
0000
,
0110
0000
0000
0000
,
0101
0000
0100
0000
,
0110
0000
0000
0000
,
0220
0000
0000
0330
,
0100
0000
0000
1000
,
0010
1000
0000
1000
,
0010
0000
0000
0001
,
0100
0001
0000
0001
,
1000
0000
0000
0010
,
0001
0010
0000
0010
,
0001
0000
0000
0100
,
1000
0100
0000
0100
,
0100
0000
0000
1000
,
0010
1000
0000
1000
,
0010
0000
0000
0001
,
0100
0001
0000
0001
,
1000
0000
0000
0010
,
0001
0010
0000
0010
,
0001
0000
0000
0100
,
2000
0000
0000
3000
,
0010
0000
0010
0000
,
0010
0000
1000
1000
,
0100
0000
0100
0000
,
0100
0000
0001
0001
,
0001
0000
0001
0000
,
0001
0000
0010
0010
,
1000
0000
1000
0000
,
1000
0000
0001
0001
,
0010
0000
0010
0000
,
0010
0000
1000
1000
,
0100
0000
0100
0000
,
0100
0000
0001
0001
,
0001
0000
0001
0000
,
0001
0000
0010
0010
,
1000
0000
1000
0000
,
0002
0000
0000
0003
,
0010
0000
0010
0000
,
0010
0000
1000
1000
,
0100
0000
0100
0000
,
0100
0000
0001
0001
,
0001
0000
0001
0000
,
0001
0000
0010
0010
,
1000
0000
1000
0000
,
1000
0000
0001
0001
,
0010
0000
0010
0000
,
0010
0000
1000
1000
,
0100
0000
0100
0000
,
0100
0000
0001
0001
,
0001
0000
0001
0000
,
0001
0000
0010
0010
,
1000
0000
1000
0000
,
0002
0000
0000
0003
,
1000
0000
1000
0000
,
0000
0000
1000
0000
,
0000
0000
0000
0000
,
1001
0000
0000
0000
,
0001
0000
0001
0000
,
0000
0000
0001
0000
,
0000
0000
0000
0000
,
1001
0000
0000
0000
,
0010
0000
0010
0000
,
0000
0000
0010
0000
,
0000
0000
0000
0000
,
0110
0000
0000
0000
,
0100
0000
0100
0000
,
0000
0000
0100
0000
,
0000
0000
0000
0000
,
0220
0000
0000
0330
,
1001
0000
0000
0000
;

//---------------dance-single - ----------------
#NOTEDATA:;
#CHARTNAME:;
#STEPSTYPE:dance-single;
#DESCRIPTION:;
#CHARTSTYLE:;
#DIFFICULTY:Hard;
#METER:6;
#RADARVALUES:0.252172,0.347075,0.219634,0.086769,0.000000,651.000000,570.000000,81.000000,32.000000,0.000000,0.000000,0.000000,0.000000,0.000000,0.252172,0.347075,0.219634,0.086769,0.000000,651.000000,570.000000,81.000000,32.000000,0.000000,0.000000,0.000000,0.000000,0.000000;
#CREDIT:;
#NOTES:
0000
0000
0000
0000
,
0000
0000
0000
0000
,
0000
0000
0000
0000
,
0000
0000
0000
0000
,
0000
0000
0000
0000
,
0000
0000
0000
0000
,
0000
0000
0000
0000
,
0000
0000
0000
0000
,
1000
0000
1000
0000
,
0000
0000
1000
1000
,
0000
0000
0000
0000
,
1001
0000
0000
0000
,
0001
0000
0001
0000
,
0000
0000
0001
0001
,
0000
0000
0000
0000
,
2002
0000
0000
3003
,
1000
0000
1000
0000
,
1000
0000
0001
1000
,
0001
0000
0001
0000
,
0001
0000
1000
0001
,
0010
0000
0010
0000
,
0010
0000
0100
0010
,
0100
0000
0100
0000
,
0100
0100
0100
0100
,
1000
0000
1000
0000
,
1000
0000
0001
1000
,
0001
0000
0001
0000
,
0001
0000
1000
0001
,
0010
0000
0010
0000
,
0010
0000
0100
0010
,
0100
0000
0100
0000
,
0220
0000
0000
0330
,
0010
0000
0010
0010
,
0010
0000
1000
1000
,
0100
0000
0100
0100
,
0100
0000
0001
0001
,
0001
0000
0001
0001
,
0001
0000
0010
0010
,
1000
0000
1000
1000
,
1000
0000
0001
0001
,
0010
0000
0010
0010
,
0010
0000
1000
1000
,
0100
0000
0100
0100
,
0100
0000
0001
0001
,
0001
0000
0001
0001
,
0001
0000
0010
0010
,
1000
0000
1000
1000
,
2002
0000
0000
3003
,
0100
0001
0000
1000
,
0010
1000
0000
1000
,
0010
1000
0000
0001
,
0100
0001
0000
0001
,
1000
0100
0000
0010
,
0001
0010
0000
0010
,
0001
0010
0000
0100
,
1000
0100
0000
0100
,
0100
0001
0000
1000
,
0010
1000
0000
1000
,
0010
1000
0000
0001
,
0100
0001
0000
0001
,
1000
0100
0000
0010
,
0001
0010
0000
0010
,
0001
0010
0000
0100
,
2002
0000
0000
3003
,
1001
0000
1000
0000
,
0011
0000
0001
0000
,
1001
0000
0001
0000
,
1100
0000
1000
0000
,
0110
0000
0010
0000
,
0101
0000
0100
0000
,
0110
0000
0100
0000
,
1010
0000
0010
0000
,
1001
0000
1000
0000
,
0011
0000
0001
0000
,
1001
0000
0001
0000
,
1100
0000
1000
0000
,
0110
0000
0010
0000
,
0101
0000
0100
0000
,
0110
0000
0100
0000
,
0220
0000
0000
0330
,
1001
0000
1000
0000
,
0011
0000
0001
0000
,
1001
0000
0001
0000
,
1100
0000
1000
0000
,
0110
0000
0010
0000
,
0101
0000
0100
0000
,
0110
0000
0100
0000
,
1010
0000
0010
0000
,
1001
0000
1000
0000
,
0011
0000
0001
0000
,
1001
0000
0001
0000
,
1100
0000
1000
0000
,
0110
0000
0010
0000
,
0101
0000
0100
0000
,
0110
0000
0100
0000
,
0220
0000
0000
0330
,
0010
0000
0000
0000
,
0010
0000
0000
0000
,
0100
0000
0000
0000
,
0100
0000
0000
0000
,
0010
0000
0000
0000
,
0010
0000
0000
0000
,
0100
0000
0000
0000
,
0100
0000
0000
0000
,
0010
0000
0000
0000
,
0010
0000
0000
0000
,
0100
0000
0000
0000
,
0100
0000
0000
0000
,
0010
0000
0000
0000
,
0100
0000
0000
0000
,
0010
0000
0000
0000
,
0220
0000
0000
0330
,
1000
0000
1000
0000
,
1000
0000
0001
1000
,
0001
0000
0001
0000
,
0001
0000
1000
0001
,
0010
0000
0010
0000
,
0010
0000
0100
0010
,
0100
0000
0100
0000
,
0100
0100
0100
0100
,
1000
0000
1000
0000
,
1000
0000
0001
1000
,
0001
0000
0001
0000
,
0001
0000
1000
0001
,
0010
0000
0010
0000
,
0010
0000
0100
0010
,
0100
0000
0100
0000
,
0220
0000
0000
0330
,
0100
0001
0000
1000
,
0010
1000
0000
1000
,
0010
1000
0000
0001
,
0100
0001
0000
0001
,
1000
0100
0000
0010
,
0001
0010
0000
0010
,
0001
0010
0000
0100
,
1000
0100
0000
0100
,
0100
0001
0000
1000
,
0010
1000
0000
1000
,
0010
1000
0000
0001
,
0100
0001
0000
0001
,
1000
0001
1000
0001
,
1000
0001
1000
0001
,
1000
0001
1000
0001
,
2002
0000
0000
3003
,
0010
0010
0010
0000
,
1000
1000
1000
0000
,
0100
0000
0001
0000
,
0100
0000
0001
0001
,
0100
0100
0100
0000
,
0001
0001
0001
0000
,
0010
0000
1000
0000
,
0010
0000
1000
1000
,
0001
0001
0001
0000
,
0010
0010
0010
0000
,
1000
0000
0100
0000
,
1000
0000
0100
0100
,
1000
1000
1000
0000
,
0100
0100
0100
0000
,
0001
0000
0010
0000
,
2002
0000
0000
3003
,
1001
0000
1000
0000
,
0011
0000
0001
0000
,
1001
0000
0001
0000
,
1100
0000
1000
0000
,
0110
0000
0010
0000
,
0101
0000
0100
0000
,
0110
0000
0100
0000
,
1010
0000
0010
0000
,
1001
0000
1000
0000
,
0011
0000
0001
0000
,
1001
0000
0001
0000
,
1100
0000
1000
0000
,
0110
0000
0010
0000
,
0101
0000
0100
0000
,
0110
0000
0100
0000
,
0220
0000
0000
0330
,
1001
0000
1000
0000
,
0011
0000
0001
0000
,
1001
0000
0001
0000
,
1100
0000
1000
0000
,
0110
0000
0010
0000
,
0101
0000
0100
0000
,
0110
0000
0100
0000
,
1010
0000
0010
0000
,
1001
0000
1000
0000
,
0011
0000
0001
0000
,
1001
0000
0001
0000
,
1100
0000
1000
0000
,
0110
0000
0010
0000
,
0101
0000
0100
0000
,
0110
0000
0100
0000
,
0220
0000
0000
0330
,
0100
0001
0000
1000
,
0010
1000
0000
1000
,
0010
1000
0000
0001
,
0100
0001
0000
0001
,
1000
0100
0000
0010
,
0001
0010
0000
0010
,
0001
0010
0000
0100
,
1000
0100
0000
0100
,
0100
0001
0000
1000
,
0010
1000
0000
1000
,
0010
1000
0000
0001
,
0100
0001
0000
0001
,
1000
0100
0000
0010
,
0001
0010
0000
0010
,
0001
0010
0000
0100
,
2002
0000
0000
3003
,
0010
0000
0010
0010
,
0010
0000
1000
1000
,
0100
0000
0100
0100
,
0100
0000
0001
0001
,
0001
0000
0001
0001
,
0001
0000
0010
0010
,
1000
0000
1000
1000
,
1000
0000
0001
0001
,
0010
0000
0010
0010
,
0010
0000
1000
1000
,
0100
0000
0100
0100
,
0100
0000
0001
0001
,
0001
0000
0001
0001
,
0001
0000
0010
0010
,
1000
0000
1000
1000
,
2002
0000
0000
3003
,
0010
0000
0010
0010
,
0010
0000
1000
1000
,
0100
0000
0100
0100
,
0100
0000
0001
0001
,
0001
0000
0001
0001
,
0001
0000
0010
0010
,
1000
0000
1000
1000
,
1000
0000
0001
0001
,
0010
0000
0010
0010
,
0010
0000
1000
1000
,
0100
0000
0100
0100
,
0100
0000
0001
0001
,
0001
0000
0001
0001
,
0001
0000
0010
0010
,
1000
0000
1000
1000
,
2002
0000
0000
3003
,
1000
0000
1000
0000
,
0000
0000
1000
1000
,
0000
0000
0000
0000
,
1001
0000
0000
0000
,
0001
0000
0001
0000
,
0000
0000
0001
0001
,
0000
0000
0000
0000
,
1001
0000
0000
0000
,
0010
0000
0010
0000
,
0000
0000
0010
0010
,
0000
0000
0000
0000
,
0110
0000
0000
0000
,
0100
0000
0100
0000
,
0000
0000
0100
0100
,
0000
0000
0000
0000
,
2002
0000
0000
3003
,
1001
0000
0000
0000
;

//---------------dance-single - ----------------
#NOTEDATA:;
#CHARTNAME:;
#STEPSTYPE:dance-single;
#DESCRIPTION:;
#CHARTSTYLE:;
#DIFFICULTY:Challenge;
#METER:7;
#RADARVALUES:0.291683,0.416490,0.295556,0.086769,0.000000,753.000000,644.000000,109.000000,32.000000,0.000000,0.000000,0.000000,0.000000,0.000000,0.291683,0.416490,0.295556,0.086769,0.000000,753.000000,644.000000,109.000000,32.000000,0.000000,0.000000,0.000000,0.000000,0.000000;
#CREDIT:;
#NOTES:
// measure 0
0000
0000
0000
0000
,  // measure 1
0000
0000
0000
0000
,  // measure 2
0000
0000
0000
0000
,  // measure 3
0000
0000
0000
0000
,  // measure 4
0000
0000
0000
0000
,  // measure 5
0000
0000
0000
0000
,  // measure 6
0000
0000
0000
0000
,  // measure 7
0000
0000
0000
0000
,  // measure 8
1000
0001
1000
0000
,  // measure 9
0000
0000
1000
1000
,  // measure 10
0000
0000
0000
0000
,  // measure 11
1001
0000
0000
0000
,  // measure 12
0001
1000
0001
0000
,  // measure 13
0000
0000
0001
0001
,  // measure 14
0000
0000
0000
0000
,  // measure 15
2002
0000
0000
3003
,  // measure 16
1000
0000
1000
0001
,  // measure 17
1000
0000
0001
1000
,  // measure 18
0001
0000
0001
1000
,  // measure 19
0001
0000
1000
0001
,  // measure 20
0010
0000
0010
0100
,  // measure 21
0010
0000
0100
0010
,  // measure 22
0100
0000
0100
0010
,  // measure 23
0100
0100
0100
0100
,  // measure 24
1000
0000
1000
0001
,  // measure 25
1000
0000
0001
1000
,  // measure 26
0001
0000
0001
1000
,  // measure 27
0001
0000
1000
0001
,  // measure 28
0010
0000
0010
0100
,  // measure 29
0010
0000
0100
0010
,  // measure 30
0100
0000
0100
0010
,  // measure 31
0220
0000
0000
0330
,  // measure 32
0010
1000
0010
0010
,  // measure 33
0010
0000
1000
1000
,  // measure 34
0100
0001
0100
0100
,  // measure 35
0100
0000
0001
0001
,  // measure 36
0001
0010
0001
0001
,  // measure 37
0001
0000
0010
0010
,  // measure 38
1000
0100
1000
1000
,  // measure 39
1000
0000
0000
0000
0001
1000
0001
0000
,  // measure 40
0010
1000
0010
0010
,  // measure 41
0010
0000
1000
1000
,  // measure 42
0100
0001
0100
0100
,  // measure 43
0100
0000
0001
0001
,  // measure 44
0001
0010
0001
0001
,  // measure 45
0001
0000
0010
0010
,  // measure 46
1000
0100
1000
1000
,  // measure 47
2002
0000
0000
3003
,  // measure 48
0100
0001
0000
1000
,  // measure 49
0010
0000
1000
0000
0000
0000
1000
0100
,  // measure 50
0010
1000
0000
0001
,  // measure 51
0100
0000
0001
0000
0000
0000
0001
0010
,  // measure 52
1000
0100
0000
0010
,  // measure 53
0001
0000
0010
0000
0000
0000
0010
1000
,  // measure 54
0001
0010
0000
0100
,  // measure 55
1000
0000
0100
0000
0000
0000
0100
0001
,  // measure 56
0100
0001
0000
1000
,  // measure 57
0010
0000
1000
0000
0000
0000
1000
0100
,  // measure 58
0010
1000
0000
0001
,  // measure 59
0100
0000
0001
0000
0000
0000
0001
0010
,  // measure 60
1000
0100
0000
0010
,  // measure 61
0001
0000
0010
0000
0000
0000
0010
1000
,  // measure 62
0001
0010
0000
0100
,  // measure 63
2002
0000
0000
3003
,  // measure 64
1001
0000
1000
0000
,  // measure 65
0011
0000
1001
0000
,  // measure 66
1001
0000
0001
0000
,  // measure 67
1100
0000
1001
0000
,  // measure 68
0110
0000
0010
0000
,  // measure 69
0101
0000
0110
0000
,  // measure 70
0110
0000
0100
0000
,  // measure 71
1010
0000
0110
0000
,  // measure 72
1001
0000
1000
0000
,  // measure 73
0011
0000
1001
0000
,  // measure 74
1001
0000
0001
0000
,  // measure 75
1100
0000
1001
0000
,  // measure 76
0110
0000
0010
0000
,  // measure 77
0101
0000
0110
0000
,  // measure 78
0110
0000
0100
0000
,  // measure 79
0220
0000
0000
0330
,  // measure 80
1001
0000
1000
0000
,  // measure 81
0011
0000
1001
0000
,  // measure 82
1001
0000
0001
0000
,  // measure 83
1100
0000
1001
0000
,  // measure 84
0110
0000
0010
0000
,  // measure 85
0101
0000
0110
0000
,  // measure 86
0110
0000
0100
0000
,  // measure 87
1010
0000
0110
0000
,  // measure 88
1001
0000
1000
0000
,  // measure 89
0011
0000
1001
0000
,  // measure 90
1001
0000
0001
0000
,  // measure 91
1100
0000
1001
0000
,  // measure 92
0110
0000
0010
0000
,  // measure 93
0101
0000
0110
0000
,  // measure 94
0110
0000
0100
0000
,  // measure 95
0220
0000
0000
0330
,  // measure 96
0010
0000
0000
0000
,  // measure 97
0010
0000
0000
0000
,  // measure 98
0100
0000
0000
0000
,  // measure 99
0100
0000
0000
0000
,  // measure 100
0010
0000
0000
0000
,  // measure 101
0010
0000
0000
0000
,  // measure 102
0100
0000
0000
0000
,  // measure 103
0100
0000
0000
0000
,  // measure 104
0010
0000
0000
0000
,  // measure 105
0010
0000
0000
0000
,  // measure 106
0100
0000
0000
0000
,  // measure 107
0100
0000
0000
0000
,  // measure 108
0010
0000
0000
0000
,  // measure 109
0100
0000
0000
0000
,  // measure 110
0010
0000
0000
0000
,  // measure 111
0220
0000
0000
0330
,  // measure 112
1000
0000
1000
0001
,  // measure 113
1000
0000
0001
1000
,  // measure 114
0001
0000
0001
1000
,  // measure 115
0001
0000
1000
0001
,  // measure 116
0010
0000
0010
0100
,  // measure 117
0010
0000
0100
0010
,  // measure 118
0100
0000
0100
0010
,  // measure 119
0100
0100
0100
0100
,  // measure 120
1000
0000
1000
0001
,  // measure 121
1000
0000
0001
1000
,  // measure 122
0001
0000
0001
1000
,  // measure 123
0001
0000
1000
0001
,  // measure 124
0010
0000
0010
0100
,  // measure 125
0010
0000
0100
0010
,  // measure 126
0100
0000
0100
0010
,  // measure 127
0220
0000
0000
0330
,  // measure 128
0100
0001
0000
1000
,  // measure 129
0010
0000
1000
0000
0000
0000
1000
0100
,  // measure 130
0010
1000
0000
0001
,  // measure 131
0100
0000
0001
0000
0000
0000
0001
0010
,  // measure 132
1000
0100
0000
0010
,  // measure 133
0001
0000
0010
0000
0000
0000
0010
1000
,  // measure 134
0001
0010
0000
0100
,  // measure 135
1000
0000
0100
0000
0000
0000
0100
0001
,  // measure 136
0100
0001
0000
1000
,  // measure 137
0010
0000
1000
0000
0000
0000
1000
0100
,  // measure 138
0010
1000
0000
0001
,  // measure 139
0100
0000
0001
0000
0000
0000
0001
0010
,  // measure 140
1000
0001
1000
0001
,  // measure 141
1000
0001
1000
0001
,  // measure 142
1000
0000
0001
0000
1000
0001
1000
0001
,  // measure 143
2002
0000
0000
3003
,  // measure 144
0010
0100
0010
0000
,  // measure 145
1000
0001
1000
0000
,  // measure 146
0100
0000
0001
0000
,  // measure 147
0100
0001
0100
0001
,  // measure 148
0100
0010
0100
0000
,  // measure 149
0001
1000
0001
0000
,  // measure 150
0010
0000
1000
0000
,  // measure 151
0010
1000
0010
1000
,  // measure 152
0001
1000
0001
0000
,  // measure 153
0010
0100
0010
0000
,  // measure 154
1000
0000
0100
0000
,  // measure 155
1000
0100
1000
0100
,  // measure 156
1000
0001
1000
0000
,  // measure 157
0100
0010
0100
0000
,  // measure 158
0001
0000
0010
0000
,  // measure 159
2002
0000
0000
3003
,  // measure 160
1001
0000
1000
0000
,  // measure 161
0011
0000
1001
0000
,  // measure 162
1001
0000
0001
0000
,  // measure 163
1100
0000
1001
0000
,  // measure 164
0110
0000
0010
0000
,  // measure 165
0101
0000
0110
0000
,  // measure 166
0110
0000
0100
0000
,  // measure 167
1010
0000
0110
0000
,  // measure 168
1001
0000
1000
0000
,  // measure 169
0011
0000
1001
0000
,  // measure 170
1001
0000
0001
0000
,  // measure 171
1100
0000
1001
0000
,  // measure 172
0110
0000
0010
0000
,  // measure 173
0101
0000
0110
0000
,  // measure 174
0110
0000
0100
0000
,  // measure 175
0220
0000
0000
0330
,  // measure 176
1001
0000
1000
0000
,  // measure 177
0011
0000
1001
0000
,  // measure 178
1001
0000
0001
0000
,  // measure 179
1100
0000
1001
0000
,  // measure 180
0110
0000
0010
0000
,  // measure 181
0101
0000
0110
0000
,  // measure 182
0110
0000
0100
0000
,  // measure 183
1010
0000
0110
0000
,  // measure 184
1001
0000
1000
0000
,  // measure 185
0011
0000
1001
0000
,  // measure 186
1001
0000
0001
0000
,  // measure 187
1100
0000
1001
0000
,  // measure 188
0110
0000
0010
0000
,  // measure 189
0101
0000
0110
0000
,  // measure 190
0110
0000
0100
0000
,  // measure 191
0220
0000
0000
0330
,  // measure 192
0100
0001
0000
1000
,  // measure 193
0010
0000
1000
0000
0000
0000
1000
0100
,  // measure 194
0010
1000
0000
0001
,  // measure 195
0100
0000
0001
0000
0000
0000
0001
0010
,  // measure 196
1000
0100
0000
0010
,  // measure 197
0001
0000
0010
0000
0000
0000
0010
1000
,  // measure 198
0001
0010
0000
0100
,  // measure 199
1000
0000
0100
0000
0000
0000
0100
0001
,  // measure 200
0100
0001
0000
1000
,  // measure 201
0010
0000
1000
0000
0000
0000
1000
0100
,  // measure 202
0010
1000
0000
0001
,  // measure 203
0100
0000
0001
0000
0000
0000
0001
0010
,  // measure 204
1000
0100
0000
0010
,  // measure 205
0001
0000
0010
0000
0000
0000
0010
1000
,  // measure 206
0001
0010
0000
0100
,  // measure 207
2002
0000
0000
3003
,  // measure 208
0010
1000
0010
0010
,  // measure 209
0010
0000
1000
1000
,  // measure 210
0100
0001
0100
0100
,  // measure 211
0100
0000
0001
0001
,  // measure 212
0001
0010
0001
0001
,  // measure 213
0001
0000
0010
0010
,  // measure 214
1000
0100
1000
1000
,  // measure 215
1000
0000
0000
0000
0001
1000
0001
0000
,  // measure 216
0010
1000
0010
0010
,  // measure 217
0010
0000
1000
1000
,  // measure 218
0100
0001
0100
0100
,  // measure 219
0100
0000
0001
0001
,  // measure 220
0001
0010
0001
0001
,  // measure 221
0001
0000
0010
0010
,  // measure 222
1000
0100
1000
1000
,  // measure 223
2002
0000
0000
3003
,  // measure 224
0010
1000
0010
0010
,  // measure 225
0010
0000
1000
1000
,  // measure 226
0100
0001
0100
0100
,  // measure 227
0100
0000
0001
0001
,  // measure 228
0001
0010
0001
0001
,  // measure 229
0001
0000
0010
0010
,  // measure 230
1000
0100
1000
1000
,  // measure 231
1000
0000
0000
0000
0001
1000
0001
0000
,  // measure 232
0010
1000
0010
0010
,  // measure 233
0010
0000
1000
1000
,  // measure 234
0100
0001
0100
0100
,  // measure 235
0100
0000
0001
0001
,  // measure 236
0001
0010
0001
0001
,  // measure 237
0001
0000
0010
0010
,  // measure 238
1000
0100
1000
1000
,  // measure 239
2002
0000
0000
3003
,  // measure 240
1000
0001
1000
0000
,  // measure 241
0000
0000
1000
1000
,  // measure 242
0000
0000
0000
0000
,  // measure 243
1001
0000
0000
0000
,  // measure 244
0001
1000
0001
0000
,  // measure 245
0000
0000
0001
0001
,  // measure 246
0000
0000
0000
0000
,  // measure 247
1001
0000
0000
0000
,  // measure 248
0010
0100
0010
0000
,  // measure 249
0000
0000
0010
0010
,  // measure 250
0000
0000
0000
0000
,  // measure 251
0110
0000
0000
0000
,  // measure 252
0100
0010
0100
0000
,  // measure 253
0000
0000
0100
0100
,  // measure 254
0000
0000
0000
0000
,  // measure 255
2002
0000
0000
3003
,  // measure 256
1001
0000
0000
0000
;

//---------------dance-single - Deluxe----------------
#NOTEDATA:;
#CHARTNAME:;
#STEPSTYPE:dance-single;
#DESCRIPTION:Deluxe;
#CHARTSTYLE:;
#DIFFICULTY:Edit;
#METER:8;
#RADARVALUES:0.330419,0.416490,0.382325,0.086769,0.000000,853.000000,712.000000,141.000000,32.000000,0.000000,0.000000,0.000000,0.000000,0.000000,0.330419,0.416490,0.382325,0.086769,0.000000,853.000000,712.000000,141.000000,32.000000,0.000000,0.000000,0.000000,0.000000,0.000000;
#CREDIT:;
#NOTES:
0000
0000
0000
0000
,
0000
0000
0000
0000
,
0000
0000
0000
0000
,
0000
0000
0000
0000
,
0000
0000
0000
0000
,
0000
0000
0000
0000
,
0000
0000
0000
0000
,
0000
0000
0000
0000
,
1000
0001
1000
0010
,
0000
0000
1000
1000
,
0000
0000
0000
0000
,
1001
0000
0000
0000
,
0001
1000
0001
0100
,
0000
0000
0001
0001
,
0000
0000
0000
0000
,
2002
0000
0000
3003
,
1000
0000
1000
0001
,
1000
1000
0001
1000
,
0001
0000
0001
1000
,
0001
0001
1000
0001
,
0010
0000
0010
0100
,
0010
0010
0100
0010
,
0100
0000
0100
0010
,
0100
0100
0100
0100
,
1000
0000
1000
0001
,
1000
1000
0001
1000
,
0001
0000
0001
1000
,
0001
0001
1000
0001
,
0010
0000
0010
0100
,
0010
0010
0100
0010
,
0100
0000
0100
0010
,
0220
0000
0000
0330
,
0010
1000
0010
0010
,
0010
0010
1000
1000
,
0100
0001
0100
0100
,
0100
0100
0001
0001
,
0001
0010
0001
0001
,
0001
0001
0010
0010
,
1000
0100
1000
1000
,
1000
0000
0001
0000
0001
1000
0001
0000
,
0010
1000
0010
0010
,
0010
0010
1000
1000
,
0100
0001
0100
0100
,
0100
0100
0001
0001
,
0001
0010
0001
0001
,
0001
0001
0010
0010
,
1000
0100
1000
1000
,
2002
0000
0000
3003
,
0100
0001
0010
1000
,
0010
0000
1000
0000
0000
0000
1000
0100
,
0010
1000
0100
0001
,
0100
0000
0001
0000
0000
0000
0001
0010
,
1000
0100
0001
0010
,
0001
0000
0010
0000
0000
0000
0010
1000
,
0001
0010
1000
0100
,
1000
0000
0100
0000
0000
0000
0100
0001
,
0100
0001
0010
1000
,
0010
0000
1000
0000
0000
0000
1000
0100
,
0010
1000
0100
0001
,
0100
0000
0001
0000
0000
0000
0001
0010
,
1000
0100
0001
0010
,
0001
0000
0010
0000
0000
0000
0010
1000
,
0001
0010
0000
0100
,
2002
0000
0000
3003
,
1001
0000
1100
0000
,
0011
0000
1001
0000
,
1001
0000
0011
0000
,
1100
0000
1001
0000
,
0110
0000
1010
0000
,
0101
0000
0110
0000
,
0110
0000
0101
0000
,
1010
0000
0110
0000
,
1001
0000
1100
0000
,
0011
0000
1001
0000
,
1001
0000
0011
0000
,
1100
0000
1001
0000
,
0110
0000
1010
0000
,
0101
0000
0110
0000
,
0110
0000
0110
0000
,
0220
0000
0000
0330
,
1001
0000
1100
0000
,
0011
0000
1001
0000
,
1001
0000
0011
0000
,
1100
0000
1001
0000
,
0110
0000
1010
0000
,
0101
0000
0110
0000
,
0110
0000
0101
0000
,
1010
0000
0110
0000
,
1001
0000
1100
0000
,
0011
0000
1001
0000
,
1001
0000
0011
0000
,
1100
0000
1001
0000
,
0110
0000
1010
0000
,
0101
0000
0110
0000
,
0110
0000
0110
0000
,
0220
0000
0000
0330
,
0010
0000
0000
0000
,
0010
0000
0000
0000
,
0100
0000
0000
0000
,
0100
0000
0000
0000
,
0010
0000
0000
0000
,
0010
0000
0000
0000
,
0100
0000
0000
0000
,
0100
0000
0000
0000
,
0010
0000
0000
0000
,
0010
0000
0000
0000
,
0100
0000
0000
0000
,
0100
0000
0000
0000
,
0010
0000
0000
0000
,
0100
0000
0000
0000
,
0010
0000
0000
0000
,
0220
0000
0000
0330
,
1000
0000
1000
0001
,
1000
1000
0001
1000
,
0001
0000
0001
1000
,
0001
0001
1000
0001
,
0010
0000
0010
0100
,
0010
0010
0100
0010
,
0100
0000
0100
0010
,
0100
0100
0100
0100
,
1000
0000
1000
0001
,
1000
1000
0001
1000
,
0001
0000
0001
1000
,
0001
0001
1000
0001
,
0010
0000
0010
0100
,
0010
0010
0100
0010
,
0100
0000
0100
0010
,
0220
0000
0000
0330
,
0100
0001
0010
1000
,
0010
0000
1000
0000
0000
0000
1000
0100
,
0010
1000
0100
0001
,
0100
0000
0001
0000
0000
0000
0001
0010
,
1000
0100
0001
0010
,
0001
0000
0010
0000
0000
0000
0010
1000
,
0001
0010
1000
0100
,
1000
0000
0100
0000
0000
0000
0100
0001
,
0100
0001
0010
1000
,
0010
0000
1000
0000
0000
0000
1000
0100
,
0010
1000
0100
0001
,
0100
0000
0001
0000
0000
0000
0001
0010
,
1000
0001
1000
0001
,
1000
0001
1000
0001
,
1000
0000
0001
0000
1000
0001
1000
0001
,
2002
0000
0000
3003
,
0010
0100
0010
0100
,
1000
0001
1000
0001
,
0100
0000
0001
0000
,
0100
0001
0100
0001
,
0100
0010
0100
0010
,
0001
1000
0001
1000
,
0010
0000
1000
0000
,
0010
1000
0010
1000
,
0001
1000
0001
1000
,
0010
0100
0010
0100
,
1000
0000
0100
0000
,
1000
0100
1000
0100
,
1000
0001
1000
0001
,
0100
0010
0100
0010
,
0001
0000
0010
0000
,
2002
0000
0000
3003
,
1001
0000
1100
0000
,
0011
0000
1001
0000
,
1001
0000
0011
0000
,
1100
0000
1001
0000
,
0110
0000
1010
0000
,
0101
0000
0110
0000
,
0110
0000
0101
0000
,
1010
0000
0110
0000
,
1001
0000
1100
0000
,
0011
0000
1001
0000
,
1001
0000
0011
0000
,
1100
0000
1001
0000
,
0110
0000
1010
0000
,
0101
0000
0110
0000
,
0110
0000
0110
0000
,
0220
0000
0000
0330
,
1001
0000
1100
0000
,
0011
0000
1001
0000
,
1001
0000
0011
0000
,
1100
0000
1001
0000
,
0110
0000
1010
0000
,
0101
0000
0110
0000
,
0110
0000
0101
0000
,
1010
0000
0110
0000
,
1001
0000
1100
0000
,
0011
0000
1001
0000
,
1001
0000
0011
0000
,
1100
0000
1001
0000
,
0110
0000
1010
0000
,
0101
0000
0110
0000
,
0110
0000
0110
0000
,
0220
0000
0000
0330
,
0100
0001
0010
1000
,
0010
0000
1000
0000
0000
0000
1000
0100
,
0010
1000
0100
0001
,
0100
0000
0001
0000
0000
0000
0001
0010
,
1000
0100
0001
0010
,
0001
0000
0010
0000
0000
0000
0010
1000
,
0001
0010
1000
0100
,
1000
0000
0100
0000
0000
0000
0100
0001
,
0100
0001
0010
1000
,
0010
0000
1000
0000
0000
0000
1000
0100
,
0010
1000
0100
0001
,
0100
0000
0001
0000
0000
0000
0001
0010
,
1000
0100
0001
0010
,
0001
0000
0010
0000
0000
0000
0010
1000
,
0001
0010
1000
0100
,
2002
0000
0000
3003
,
0010
1000
0010
0010
,
0010
0010
1000
1000
,
0100
0001
0100
0100
,
0100
0100
0001
0001
,
0001
0010
0001
0001
,
0001
0001
0010
0010
,
1000
0100
1000
1000
,
1000
0000
0001
0000
0001
1000
0001
0000
,
0010
1000
0010
0010
,
0010
0010
1000
1000
,
0100
0001
0100
0100
,
0100
0100
0001
0001
,
0001
0010
0001
0001
,
0001
0001
0010
0010
,
1000
0100
1000
1000
,
2002
0000
0000
3003
,
0010
1000
0010
0010
,
0010
0010
1000
1000
,
0100
0001
0100
0100
,
0100
0100
0001
0001
,
0001
0010
0001
0001
,
0001
0001
0010
0010
,
1000
0100
1000
1000
,
1000
0000
0001
0000
0001
1000
0001
0000
,
0010
1000
0010
0010
,
0010
0010
1000
1000
,
0100
0001
0100
0100
,
0100
0100
0001
0001
,
0001
0010
0001
0001
,
0001
0001
0010
0010
,
1000
0100
1000
1000
,
2002
0000
0000
3003
,
1000
0001
1000
0010
,
0000
0000
1000
1000
,
0000
0000
0000
0000
,
1001
0000
0000
0000
,
0001
1000
0001
0100
,
0000
0000
0001
0001
,
0000
0000
0000
0000
,
1001
0000
0000
0000
,
0010
0100
0010
0001
,
0000
0000
0010
0010
,
0000
0000
0000
0000
,
0110
0000
0000
0000
,
0100
0010
0100
1000
,
0000
0000
0100
0100
,
0000
0000
0000
0000
,
2002
0000
0000
3003
,
1001
0000
0000
0000
;

//---------------dance-single - Enjoy----------------
#NOTEDATA:;
#CHARTNAME:;
#STEPSTYPE:dance-single;
#DESCRIPTION:Enjoy;
#CHARTSTYLE:;
#DIFFICULTY:Edit;
#METER:1;
#RADARVALUES:0.044159,0.104123,0.081346,0.005423,0.000000,114.000000,84.000000,30.000000,2.000000,0.000000,0.000000,0.000000,0.000000,0.000000,0.044159,0.104123,0.081346,0.005423,0.000000,114.000000,84.000000,30.000000,2.000000,0.000000,0.000000,0.000000,0.000000,0.000000;
#CREDIT:;
#NOTES:
0000
0000
0000
0000
,
0000
0000
0000
0000
,
0000
0000
0000
0000
,
0000
0000
0000
0000
,
0000
0000
0000
0000
,
0000
0000
0000
0000
,
0000
0000
0000
0000
,
0000
0000
0000
0000
,
0010
0000
0000
0000
,
0000
0000
0000
0000
,
0000
0000
0000
0000
,
0000
0000
0000
0000
,
0100
0000
0000
0000
,
0000
0000
0000
0000
,
0000
0000
0000
0000
,
0000
0000
0000
0000
,
1000
0000
0000
0000
,
0000
0000
0000
0000
,
1000
0000
0000
0000
,
0000
0000
0000
0000
,
0001
0000
0000
0000
,
0000
0000
0000
0000
,
0001
0000
0000
0000
,
0000
0000
0000
0000
,
0010
0000
0000
0000
,
0000
0000
0000
0000
,
0010
0000
0000
0000
,
0000
0000
0000
0000
,
0100
0000
0000
0000
,
0000
0000
0000
0000
,
0100
0000
0000
0000
,
0000
0000
0000
0000
,
1000
0000
0000
0000
,
0000
0000
0000
0000
,
0001
0000
0000
0000
,
0000
0000
0000
0000
,
0001
0000
0000
0000
,
0000
0000
0000
0000
,
1000
0000
0000
0000
,
0000
0000
0000
0000
,
0100
0000
0000
0000
,
0000
0000
0000
0000
,
0010
0000
0000
0000
,
0000
0000
0000
0000
,
0010
0000
0000
0000
,
0000
0000
0000
0000
,
0100
0000
0000
0000
,
0000
0000
0000
0000
,
1100
0000
0000
0000
,
0000
0000
0000
0000
,
0000
0000
0000
0000
,
0000
0000
0000
0000
,
0011
0000
0000
0000
,
0000
0000
0000
0000
,
0000
0000
0000
0000
,
0000
0000
0000
0000
,
1001
0000
0000
0000
,
0000
0000
0000
0000
,
0000
0000
0000
0000
,
0000
0000
0000
0000
,
0110
0000
0000
0000
,
0000
0000
0000
0000
,
0000
0000
0000
0000
,
0000
0000
0000
0000
,
1010
0000
0000
0000
,
0000
0000
0000
0000
,
0000
0000
0000
0000
,
0000
0000
0000
0000
,
0101
0000
0000
0000
,
0000
0000
0000
0000
,
0000
0000
0000
0000
,
0000
0000
0000
0000
,
1001
0000
0000
0000
,
0000
0000
0000
0000
,
0000
0000
0000
0000
,
0000
0000
0000
0000
,
0110
0000
0000
0000
,
0000
0000
0000
0000
,
0000
0000
0000
0000
,
0000
0000
0000
0000
,
1010
0000
0000
0000
,
0000
0000
0000
0000
,
0000
0000
0000
0000
,
0000
0000
0000
0000
,
0101
0000
0000
0000
,
0000
0000
0000
0000
,
0000
0000
0000
0000
,
0000
0000
0000
0000
,
1001
0000
0000
0000
,
0000
0000
0000
0000
,
0000
0000
0000
0000
,
0000
0000
0000
0000
,
0110
0000
0000
0000
,
0000
0000
0000
0000
,
0000
0000
0000
0000
,
0000
0000
0000
0000
,
2002
0000
0000
0000
,
0000
0000
0000
0000
,
0000
0000
0000
0000
,
0000
0000
0000
0000
,
0000
0000
0000
0000
,
0000
0000
0000
0000
,
0000
0000
0000
0000
,
0000
0000
0000
0000
,
0000
0000
0000
0000
,
0000
0000
0000
0000
,
0000
0000
0000
0000
,
0000
0000
0000
0000
,
0000
0000
0000
0000
,
0000
0000
0000
0000
,
0000
0000
0000
0000
,
3003
0000
0000
0000
,
1000
0000
0000
0000
,
0000
0000
0000
0000
,
1000
0000
0000
0000
,
0000
0000
0000
0000
,
0001
0000
0000
0000
,
0000
0000
0000
0000
,
0001
0000
0000
0000
,
0000
0000
0000
0000
,
0010
0000
0000
0000
,
0000
0000
0000
0000
,
0010
0000
0000
0000
,
0000
0000
0000
0000
,
0100
0000
0000
0000
,
0000
0000
0000
0000
,
0100
0000
0000
0000
,
0000
0000
0000
0000
,
1100
0000
0000
0000
,
0000
0000
0000
0000
,
0000
0000
0000
0000
,
0000
0000
0000
0000
,
0011
0000
0000
0000
,
0000
0000
0000
0000
,
0000
0000
0000
0000
,
0000
0000
0000
0000
,
1001
0000
0000
0000
,
0000
0000
0000
0000
,
0000
0000
0000
0000
,
0000
0000
0000
0000
,
0110
0000
0000
0000
,
0000
0000
0000
0000
,
0000
0000
0000
0000
,
0000
0000
0000
0000
,
1000
0000
0000
0000
,
0000
0000
0000
0000
,
0010
0000
0000
0000
,
0000
0000
0000
0000
,
0001
0000
0000
0000
,
0000
0000
0000
0000
,
0100
0000
0000
0000
,
0000
0000
0000
0000
,
0010
0000
0000
0000
,
0000
0000
0000
0000
,
0001
0000
0000
0000
,
0000
0000
0000
0000
,
0100
0000
0000
0000
,
0000
0000
0000
0000
,
1000
0000
0000
0000
,
0000
0000
0000
0000
,
1010
0000
0000
0000
,
0000
0000
0000
0000
,
0000
0000
0000
0000
,
0000
0000
0000
0000
,
0101
0000
0000
0000
,
0000
0000
0000
0000
,
0000
0000
0000
0000
,
0000
0000
0000
0000
,
1001
0000
0000
0000
,
0000
0000
0000
0000
,
0000
0000
0000
0000
,
0000
0000
0000
0000
,
0110
0000
0000
0000
,
0000
0000
0000
0000
,
0000
0000
0000
0000
,
0000
0000
0000
0000
,
1010
0000
0000
0000
,
0000
0000
0000
0000
,
0000
0000
0000
0000
,
0000
0000
0000
0000
,
0101
0000
0000
0000
,
0000
0000
0000
0000
,
0000
0000
0000
0000
,
0000
0000
0000
0000
,
1001
0000
0000
0000
,
0000
0000
0000
0000
,
0000
0000
0000
0000
,
0000
0000
0000
0000
,
0110
0000
0000
0000
,
0000
0000
0000
0000
,
0000
0000
0000
0000
,
0000
0000
0000
0000
,
1100
0000
0000
0000
,
0000
0000
0000
0000
,
0000
0000
0000
0000
,
0000
0000
0000
0000
,
0011
0000
0000
0000
,
0000
0000
0000
0000
,
0000
0000
0000
0000
,
0000
0000
0000
0000
,
1001
0000
0000
0000
,
0000
0000
0000
0000
,
0000
0000
0000
0000
,
0000
0000
0000
0000
,
0110
0000
0000
0000
,
0000
0000
0000
0000
,
0000
0000
0000
0000
,
0000
0000
0000
0000
,
1000
0000
0000
0000
,
0000
0000
0000
0000
,
0001
0000
0000
0000
,
0000
0000
0000
0000
,
0001
0000
0000
0000
,
0000
0000
0000
0000
,
1000
0000
0000
0000
,
0000
0000
0000
0000
,
0100
0000
0000
0000
,
0000
0000
0000
0000
,
0010
0000
0000
0000
,
0000
0000
0000
0000
,
0010
0000
0000
0000
,
0000
0000
0000
0000
,
0100
0000
0000
0000
,
0000
0000
0000
0000
,
1000
0000
0000
0000
,
0000
0000
0000
0000
,
0001
0000
0000
0000
,
0000
0000
0000
0000
,
0001
0000
0000
0000
,
0000
0000
0000
0000
,
1000
0000
0000
0000
,
0000
0000
0000
0000
,
0100
0000
0000
0000
,
0000
0000
0000
0000
,
0010
0000
0000
0000
,
0000
0000
0000
0000
,
0010
0000
0000
0000
,
0000
0000
0000
0000
,
0100
0000
0000
0000
,
0000
0000
0000
0000
,
0010
0000
0000
0000
,
0000
0000
0000
0000
,
0000
0000
0000
0000
,
0000
0000
0000
0000
,
0100
0000
0000
0000
,
0000
0000
0000
0000
,
0000
0000
0000
0000
,
0000
0000
0000
0000
,
0001
0000
0000
0000
,
0000
0000
0000
0000
,
0000
0000
0000
0000
,
0000
0000
0000
0000
,
1000
0000
0000
0000
,
0000
0000
0000
0000
,
0000
0000
0000
0000
,
0000
0000
0000
0000
,
1001
0000
0000
0000
;
