#VERSION:0.83;
#TITLE:POSSESSION;
#SUBTITLE:(Aoi Q.E.D. RMX);
#ARTIST:Aoi;
#TITLETRANSLIT:;
#SUBTITLETRANSLIT:;
#ARTISTTRANSLIT:;
#GENRE:;
#ORIGIN:;
#CREDIT:;
#BANNER:;
#BACKGROUND:;
#PREVIEWVID:;
#JACKET:;
#CDIMAGE:;
#DISCIMAGE:;
#LYRICSPATH:;
#CDTITLE:;
#MUSIC:POSSESSION (Aoi Q.E.D. RMX).ogg;
#OFFSET:-1.158000;
#SAMPLESTART:28.327810;
#SAMPLELENGTH:15.000000;
#SELECTABLE:YES;
#DISPLAYBPM:*;
#BPMS:0.000=106.000,
16.000=212.000,
80.000=424.000,
144.000=212.000,
176.000=424.000,
240.000=106.000,
256.000=212.000,
288.000=424.000,
352.000=106.000,
356.000=424.000;
#STOPS:;
#DELAYS:;
#WARPS:;
#TIMESIGNATURES:0.000=4=4;
#TICKCOUNTS:0.000=4;
#COMBOS:0.000=1;
#SPEEDS:0.000=1.000=0.000=0;
#SCROLLS:0.000=1.000;
#FAKES:;
#LABELS:0.000=Song Start;
#BGCHANGES:;
#KEYSOUNDS:;
#ATTACKS:
;

//---------------dance-single - ----------------
#NOTEDATA:;
#CHARTNAME:;
#STEPSTYPE:dance-single;
#DESCRIPTION:;
#CHARTSTYLE:;
#DIFFICULTY:Easy;
#METER:22;
#RADARVALUES:1.303842,1.804085,0.726477,0.175357,1.348575,1093.000000,1006.000000,87.000000,21.000000,0.000000,0.000000,0.000000,0.000000,0.000000,1.303842,1.804085,0.726477,0.175357,1.348575,1093.000000,1006.000000,87.000000,21.000000,0.000000,0.000000,0.000000,0.000000,0.000000;
#CREDIT:;
#DISPLAYBPM:*;
#NOTES:
// measure 0
0000
0000
0000
0000
,  // measure 1
0000
0000
0000
0000
,  // measure 2
0000
0000
0000
0000
,  // measure 3
0000
0000
0000
0000
,  // measure 4
1000
0010
0100
0000
0010
0000
0000
0000
0001
0100
0001
0000
0001
0010
0001
0000
,  // measure 5
1000
0000
0100
0000
0001
0000
0000
0000
0001
0010
1000
0010
0001
0010
1000
0010
,  // measure 6
0001
0100
0010
0000
0100
0000
0000
0000
1000
0010
1000
0000
1000
0100
1000
0000
,  // measure 7
0001
0000
0010
0000
1000
0000
0000
0000
1000
0100
0001
0100
1000
0100
0001
0100
,  // measure 8
1000
0001
1000
0001
1000
0001
1000
0001
1000
0001
1000
0001
,  // measure 9
1000
0010
1000
0010
1000
0010
1000
0010
1000
0010
1000
0010
,  // measure 10
0001
0100
0001
0100
0001
0100
0001
0100
0001
0100
0001
0100
0001
0100
0001
0000
,  // measure 11
0110
0000
1100
0000
0110
0000
0101
0000
0110
0000
1010
0000
,  // measure 12
0101
0000
0000
0000
0001
0100
0001
0100
0001
0010
0100
1000
0000
0000
1000
0010
,  // measure 13
1000
0010
1000
0010
0100
1000
0001
0010
1000
0010
1000
0010
0100
0010
0100
0000
,  // measure 14
1010
0000
0000
0000
1000
0010
1000
0010
1000
0100
0010
0001
0000
0000
0001
0100
,  // measure 15
0001
0100
0001
0100
0010
0001
1000
0100
0001
0100
0001
0100
0010
0100
0010
0000
,  // measure 16
1100
0000
0000
0000
0100
1000
0100
1000
0100
0001
1000
0010
0000
0000
0010
0001
,  // measure 17
0010
0001
0010
0001
1000
0010
0100
0001
0010
0001
0010
0001
1000
0001
1000
0000
,  // measure 18
0011
0000
0000
0000
0010
0001
0010
0001
0010
1000
0001
0100
0000
0000
0100
1000
,  // measure 19
0020
0000
0000
0000
0000
0000
0100
0000
0030
0000
0010
0100
0010
0100
0010
0100
,  // measure 20
1000
1000
1000
1000
,  // measure 21
0001
0100
0010
1000
0001
0010
0100
1000
,  // measure 22
0001
0001
0001
0001
,  // measure 23
1000
0010
0100
0001
1000
0100
0010
0001
,  // measure 24
0010
0010
0010
0010
,  // measure 25
0100
1000
0001
0010
0100
0001
1000
0010
,  // measure 26
0100
0100
0100
0100
,  // measure 27
0010
0001
1000
0100
0010
1000
0001
0100
,  // measure 28
1000
1000
1000
1000
,  // measure 29
0001
0100
0010
1000
0001
0010
0100
1000
,  // measure 30
0001
0001
0001
0001
,  // measure 31
1000
0010
0100
0001
1000
0100
0010
0001
,  // measure 32
0010
0010
0010
0010
,  // measure 33
0100
1000
0001
0010
0100
0001
1000
0010
,  // measure 34
0100
0100
0100
0100
,  // measure 35
2002
0000
0000
0000
0000
0000
0000
3003
,  // measure 36
0002
0000
0000
2000
0000
0000
0000
0000
,  // measure 37
0000
0000
0000
0000
,  // measure 38
0000
0000
0000
0000
,  // measure 39
0000
0000
0000
3003
,  // measure 40
1000
0100
0010
1000
0100
1000
0100
0001
0010
0100
1000
0010
,  // measure 41
0001
0010
0100
0001
0010
0001
0010
1000
0100
0010
0001
0100
,  // measure 42
0010
1000
0001
0010
1000
0010
1000
0100
0001
1000
0010
0001
,  // measure 43
0100
0010
0100
0010
0100
0010
0100
0010
0200
0000
0000
0000
0000
0000
0300
0000
,  // measure 44
1010
0000
0100
0000
0010
0000
0001
0000
0010
0000
0100
0000
,  // measure 45
1010
0000
0100
0000
0010
0000
0011
0000
0010
0000
0100
0000
,  // measure 46
0101
0000
0010
0000
0100
0000
1000
0000
0100
0000
0010
0000
,  // measure 47
0101
0000
0010
0000
0100
0000
1100
0000
0100
0000
0010
0000
,  // measure 48
0011
0000
1000
0000
0001
0000
0100
0000
0001
0000
1000
0000
,  // measure 49
0011
0000
1000
0000
0001
0000
0101
0000
0001
0000
1000
0000
,  // measure 50
1100
0000
0001
0000
1000
0000
0010
0000
1000
0000
0001
0000
,  // measure 51
1100
0000
0001
0000
1000
0000
1010
0000
1000
0000
0001
0000
,  // measure 52
1010
0000
0100
0000
0010
0000
0001
0000
0010
0000
0100
0000
,  // measure 53
1010
0000
0100
0000
0010
0000
0011
0000
0010
0000
0100
0000
,  // measure 54
0101
0000
0010
0000
0100
0000
1000
0000
0100
0000
0010
0000
,  // measure 55
0101
0000
0010
0000
0100
0000
1100
0000
0100
0000
0010
0000
,  // measure 56
0011
0000
1000
0000
0001
0000
0100
0000
0001
0000
1000
0000
,  // measure 57
0011
0000
1000
0000
0001
0000
0101
0000
0001
0000
1000
0000
,  // measure 58
1100
0000
0001
0000
1000
0000
0010
0000
1000
0000
0001
0000
,  // measure 59
1100
0000
0000
0000
0001
0000
0000
0000
1000
0000
0000
0000
0001
0000
0000
1000
0000
0000
0001
0000
0000
1000
0000
0000
,  // measure 60
0200
0001
0001
0301
,  // measure 61
0020
1000
1000
1030
,  // measure 62
2000
0001
0001
3001
,  // measure 63
0002
1000
1000
1003
,  // measure 64
1000
0010
1000
0010
1000
0001
1000
0001
,  // measure 65
0010
0001
0010
0001
0010
0100
0010
0100
,  // measure 66
0001
0100
0001
0100
0001
1000
0001
1000
,  // measure 67
0100
1000
0100
1000
0100
0010
0100
0010
,  // measure 68
0100
1000
0100
1000
0100
0010
0100
0010
,  // measure 69
1000
0010
1000
0010
1000
0001
1000
0001
,  // measure 70
0010
0001
0010
0001
0010
0100
0010
0100
,  // measure 71
1100
0000
0011
0000
0101
0000
1010
0000
0100
0000
0100
0010
0100
0010
0100
0010
,  // measure 72
1000
0001
1000
0020
0000
0000
0001
0030
,  // measure 73
0001
1000
0001
0200
0000
0000
1000
0300
,  // measure 74
0010
0100
0010
0002
0000
0000
0100
0003
,  // measure 75
0100
0010
0100
2000
0000
0000
0010
3000
,  // measure 76
1000
0001
1000
0020
0000
0000
0001
0030
,  // measure 77
0001
1000
0001
0200
0000
0000
1000
0300
,  // measure 78
0010
0100
0010
0002
0000
0000
0100
0003
,  // measure 79
0100
0010
0100
2000
0000
0000
0010
3000
,  // measure 80
0010
0001
0100
1000
0100
1000
0010
0001
,  // measure 81
0100
0001
0100
1000
0010
0100
0010
0001
,  // measure 82
0100
1000
0010
0001
0010
0001
0100
1000
,  // measure 83
0010
1000
0010
0001
0100
0010
0100
1000
,  // measure 84
0010
0100
0010
0100
0010
0100
0010
0100
,  // measure 85
0010
0000
0000
0100
0000
0000
0010
0000
0000
0100
0000
0000
0010
0000
0000
0100
0000
0000
0010
0000
0100
0000
0010
0000
,  // measure 86
0200
0000
0000
0000
,  // measure 87
0000
0000
0000
0000
0000
0000
0000
0300
,  // measure 88
2002
0000
0000
0000
0000
0000
0000
3003
,  // measure 89
1000
0001
0010
0100
0010
1000
0001
0000
,  // measure 90
0001
1000
0100
1000
0001
1000
0100
1000
,  // measure 91
0001
1000
0100
0010
0100
0001
1000
0000
,  // measure 92
1000
0001
0010
0001
1000
0001
0010
0001
,  // measure 93
0010
0100
0001
1000
0001
0010
0100
0000
,  // measure 94
0100
0010
1000
0010
0100
0010
1000
0010
,  // measure 95
0100
0010
1000
0001
1000
0100
0010
0000
,  // measure 96
0010
0100
0001
0100
0010
0100
0001
0100
,  // measure 97
1000
0100
1000
0100
1000
0100
1000
0100
,  // measure 98
0001
0010
0001
0010
0001
0010
0001
0010
,  // measure 99
0100
0000
0000
0110
0000
0000
0011
0000
,  // measure 100
1000
0001
1000
0001
1000
0001
1000
0001
,  // measure 101
1000
0001
0010
0100
0010
1000
0001
0000
,  // measure 102
0001
1000
0100
1000
0001
1000
0100
1000
,  // measure 103
0001
1000
0100
0010
0100
0001
1000
0000
,  // measure 104
1000
0001
0010
0001
1000
0001
0010
0001
,  // measure 105
0010
0100
0001
1000
0001
0010
0100
0000
,  // measure 106
0100
0010
1000
0010
0100
0010
1000
0010
,  // measure 107
0100
0010
1000
0001
1000
0100
0010
0000
,  // measure 108
0010
0100
0001
0100
0010
0100
0001
0100
,  // measure 109
0010
0000
1000
0000
0010
0000
0001
0000
0000
0010
0000
0000
1000
0000
0000
0010
0000
0000
0001
0000
0000
0010
0000
0000
,  // measure 110
0100
0000
0001
0000
0100
0000
1000
0000
0000
0100
0000
0000
0001
0000
0000
0100
0000
0000
1000
0000
0000
0100
0000
0000
,  // measure 111
0001
0000
0010
0000
0001
0000
0100
0000
0000
0001
0000
0000
0010
0000
0000
0001
0000
0000
0100
0000
0000
0001
0000
0000
,  // measure 112
1000
0000
0100
0000
1000
0000
0010
0000
0000
1000
0000
0000
0100
0000
0000
1000
0000
0000
0010
0000
0000
1000
0000
0000
,  // measure 113
0010
0000
1000
0000
0010
0000
0001
0000
0000
0010
0000
0000
1000
0000
0000
0010
0000
0000
0001
0000
0000
0010
0000
0000
,  // measure 114
0100
0000
0001
0000
0100
0000
1000
0000
0000
0100
0000
0000
0001
0000
0000
0100
0000
0000
1000
0000
0000
0100
0000
0000
,  // measure 115
0001
0000
0010
0000
0001
0000
0100
0000
0000
0001
0000
0000
0010
0000
0000
0001
0000
0000
0100
0000
0000
0001
0000
0000
,  // measure 116
1000
0000
0100
0000
1000
0000
0010
0000
0000
1000
0000
0000
0100
0000
0000
1000
0000
0000
0010
0000
0000
1000
0000
0000
,  // measure 117
1010
0000
0100
0000
0010
0000
0001
0000
0010
0000
0100
0000
,  // measure 118
1010
0000
0100
0000
0010
0000
0011
0000
0010
0000
0100
0000
,  // measure 119
0101
0000
0010
0000
0100
0000
1000
0000
0100
0000
0010
0000
,  // measure 120
0101
0000
0010
0000
0100
0000
1100
0000
0100
0000
0010
0000
,  // measure 121
0011
0000
1000
0000
0001
0000
0100
0000
0001
0000
1000
0000
,  // measure 122
0011
0000
1000
0000
0001
0000
0101
0000
0001
0000
1000
0000
,  // measure 123
1100
0000
0001
0000
1000
0000
0010
0000
1000
0000
0001
0000
,  // measure 124
1100
0000
0001
0000
1000
0000
1010
0000
1000
0000
0001
0000
,  // measure 125
1010
0000
0100
0000
0010
0000
0001
0000
0010
0000
0100
0000
,  // measure 126
1010
0000
0100
0000
0010
0000
0011
0000
0010
0000
0100
0000
,  // measure 127
0101
0000
0010
0000
0100
0000
1000
0000
0100
0000
0010
0000
,  // measure 128
0101
0000
0010
0000
0100
0000
1100
0000
0100
0000
0010
0000
,  // measure 129
0011
0000
1000
0000
0001
0000
0100
0000
0001
0000
1000
0000
,  // measure 130
0011
0000
1000
0000
0001
0000
0101
0000
0001
0000
1000
0000
,  // measure 131
1100
0000
0001
0000
1000
0000
0010
0000
1000
0000
0001
0000
,  // measure 132
1100
0000
0000
0000
0001
0000
0000
0000
1000
0000
0000
0000
0001
0000
0000
1000
0000
0000
0001
0000
0000
1000
0000
0000
,  // measure 133
0101
0000
0010
0000
0100
0000
1000
0000
0100
0000
0010
0000
,  // measure 134
0101
0000
0010
0000
0100
0000
1100
0000
0100
0000
0010
0000
,  // measure 135
1010
0000
0100
0000
0010
0000
0001
0000
0010
0000
0100
0000
,  // measure 136
1010
0000
0100
0000
0010
0000
0011
0000
0010
0000
0100
0000
,  // measure 137
1100
0000
0001
0000
1000
0000
0010
0000
1000
0000
0001
0000
,  // measure 138
1100
0000
0001
0000
1000
0000
1010
0000
1000
0000
0001
0000
,  // measure 139
0011
0000
1000
0000
0001
0000
0100
0000
0001
0000
1000
0000
,  // measure 140
0011
0000
1000
0000
0001
0000
0101
0000
0001
0000
1000
0000
,  // measure 141
0101
0000
0010
0000
0100
0000
1000
0000
0100
0000
0010
0000
,  // measure 142
0101
0000
0010
0000
0100
0000
1100
0000
0100
0000
0010
0000
,  // measure 143
1010
0000
0100
0000
0010
0000
0001
0000
0010
0000
0100
0000
,  // measure 144
1010
0000
0100
0000
0010
0000
0011
0000
0010
0000
0100
0000
,  // measure 145
1100
0000
0001
0000
1000
0000
0010
0000
1000
0000
0001
0000
,  // measure 146
1100
0000
0001
0000
1000
0000
1010
0000
1000
0000
0001
0000
,  // measure 147
0011
0000
1000
0000
0001
0000
0100
0000
0001
0000
1000
0000
,  // measure 148
0011
0000
1000
0000
0001
0000
1000
0000
0001
1000
0001
1000
,  // measure 149
0001
0000
0000
0000
;

//---------------dance-single - ----------------
#NOTEDATA:;
#CHARTNAME:;
#STEPSTYPE:dance-single;
#DESCRIPTION:;
#CHARTSTYLE:;
#DIFFICULTY:Beginner;
#METER:22;
#RADARVALUES:1.269247,1.804085,0.559471,0.175357,1.269248,1064.000000,997.000000,67.000000,21.000000,0.000000,0.000000,0.000000,0.000000,0.000000,1.269247,1.804085,0.559471,0.175357,1.269248,1064.000000,997.000000,67.000000,21.000000,0.000000,0.000000,0.000000,0.000000,0.000000;
#CREDIT:;
#DISPLAYBPM:*;
#NOTES:
0000
0000
0000
0000
,
0000
0000
0000
0000
,
0000
0000
0000
0000
,
0000
0000
0000
0000
,
1000
0010
0100
0000
0010
0000
0000
0000
0001
0100
0001
0000
0001
0010
0001
0000
,
1000
0000
0100
0000
0001
0000
0000
0000
0001
0010
1000
0010
0001
0010
1000
0010
,
0001
0100
0010
0000
0100
0000
0000
0000
1000
0010
1000
0000
1000
0100
1000
0000
,
0001
0000
0010
0000
1000
0000
0000
0000
1000
0100
0001
0100
1000
0100
0001
0100
,
1000
0001
1000
0001
1000
0001
1000
0001
1000
0001
1000
0001
,
1000
0010
1000
0010
1000
0010
1000
0010
1000
0010
1000
0010
,
0001
0100
0001
0100
0001
0100
0001
0100
0001
0100
0001
0100
0001
0100
0001
0000
,
0110
0000
1100
0000
0110
0000
0101
0000
0110
0000
1010
0000
,
0101
0000
0000
0000
0001
0100
0001
0100
0001
0010
0100
1000
0000
0000
1000
0010
,
1000
0010
1000
0010
0100
1000
0001
0010
1000
0010
1000
0010
0100
0010
0100
0000
,
1010
0000
0000
0000
1000
0010
1000
0010
1000
0100
0010
0001
0000
0000
0001
0100
,
0001
0100
0001
0100
0010
0001
1000
0100
0001
0100
0001
0100
0010
0100
0010
0000
,
1100
0000
0000
0000
0100
1000
0100
1000
0100
0001
1000
0010
0000
0000
0010
0001
,
0010
0001
0010
0001
1000
0010
0100
0001
0010
0001
0010
0001
1000
0001
1000
0000
,
0011
0000
0000
0000
0010
0001
0010
0001
0010
1000
0001
0100
0000
0000
0100
1000
,
0020
0000
0000
0000
0000
0000
0100
0000
0030
0000
0010
0100
0010
0100
0010
0100
,
1000
1000
1000
1000
,
0001
0100
0010
1000
0001
0010
0100
1000
,
0001
0001
0001
0001
,
1000
0010
0100
0001
1000
0100
0010
0001
,
0010
0010
0010
0010
,
0100
1000
0001
0010
0100
0001
1000
0010
,
0100
0100
0100
0100
,
0010
0001
1000
0100
0010
1000
0001
0100
,
1000
1000
1000
1000
,
0001
0100
0010
1000
0001
0010
0100
1000
,
0001
0001
0001
0001
,
1000
0010
0100
0001
1000
0100
0010
0001
,
0010
0010
0010
0010
,
0100
1000
0001
0010
0100
0001
1000
0010
,
0100
0100
0100
0100
,
2002
0000
0000
0000
0000
0000
0000
3003
,
0002
0000
0000
2000
0000
0000
0000
0000
,
0000
0000
0000
0000
,
0000
0000
0000
0000
,
0000
0000
0000
3003
,
1000
0100
0010
1000
0100
1000
0100
0001
0010
0100
1000
0010
,
0001
0010
0100
0001
0010
0001
0010
1000
0100
0010
0001
0100
,
0010
1000
0001
0010
1000
0010
1000
0100
0001
1000
0010
0001
,
0100
0010
0100
0010
0100
0010
0100
0010
0200
0000
0000
0000
0000
0000
0300
0000
,
1010
0000
0100
0000
0010
0000
0001
0000
0010
0000
0100
0000
,
1010
0000
0100
0000
0010
0000
0001
0000
0010
0000
0100
0000
,
0101
0000
0010
0000
0100
0000
1000
0000
0100
0000
0010
0000
,
0101
0000
0010
0000
0100
0000
1000
0000
0100
0000
0010
0000
,
0011
0000
1000
0000
0001
0000
0100
0000
0001
0000
1000
0000
,
0011
0000
1000
0000
0001
0000
0100
0000
0001
0000
1000
0000
,
1100
0000
0001
0000
1000
0000
0010
0000
1000
0000
0001
0000
,
1100
0000
0001
0000
1000
0000
0010
0000
1000
0000
0001
0000
,
1010
0000
0100
0000
0010
0000
0001
0000
0010
0000
0100
0000
,
1010
0000
0100
0000
0010
0000
0001
0000
0010
0000
0100
0000
,
0101
0000
0010
0000
0100
0000
1000
0000
0100
0000
0010
0000
,
0101
0000
0010
0000
0100
0000
1000
0000
0100
0000
0010
0000
,
0011
0000
1000
0000
0001
0000
0100
0000
0001
0000
1000
0000
,
0011
0000
1000
0000
0001
0000
0100
0000
0001
0000
1000
0000
,
1100
0000
0001
0000
1000
0000
0010
0000
1000
0000
0001
0000
,
1100
0000
0000
0000
0001
0000
0000
0000
1000
0000
0000
0000
0001
0000
0000
1000
0000
0000
0001
0000
0000
1000
0000
0000
,
0200
0001
0001
0301
,
0020
1000
1000
1030
,
2000
0001
0001
3001
,
0002
1000
1000
1003
,
1000
0010
1000
0010
1000
0001
1000
0001
,
0010
0001
0010
0001
0010
0100
0010
0100
,
0001
0100
0001
0100
0001
1000
0001
1000
,
0100
1000
0100
1000
0100
0010
0100
0010
,
0100
1000
0100
1000
0100
0010
0100
0010
,
1000
0010
1000
0010
1000
0001
1000
0001
,
0010
0001
0010
0001
0010
0100
0010
0100
,
1100
0000
0011
0000
0101
0000
1010
0000
0100
0000
0100
0010
0100
0010
0100
0010
,
1000
0001
1000
0020
0000
0000
0001
0030
,
0001
1000
0001
0200
0000
0000
1000
0300
,
0010
0100
0010
0002
0000
0000
0100
0003
,
0100
0010
0100
2000
0000
0000
0010
3000
,
1000
0001
1000
0020
0000
0000
0001
0030
,
0001
1000
0001
0200
0000
0000
1000
0300
,
0010
0100
0010
0002
0000
0000
0100
0003
,
0100
0010
0100
2000
0000
0000
0010
3000
,
0010
0001
0100
1000
0100
1000
0010
0001
,
0100
0001
0100
1000
0010
0100
0010
0001
,
0100
1000
0010
0001
0010
0001
0100
1000
,
0010
1000
0010
0001
0100
0010
0100
1000
,
0010
0100
0010
0100
0010
0100
0010
0100
,
0010
0000
0000
0100
0000
0000
0010
0000
0000
0100
0000
0000
0010
0000
0000
0100
0000
0000
0010
0000
0100
0000
0010
0000
,
0200
0000
0000
0000
,
0000
0000
0000
0000
0000
0000
0000
0300
,
2002
0000
0000
0000
0000
0000
0000
3003
,
1000
0001
0010
0100
0010
1000
0001
0000
,
0001
1000
0100
1000
0001
1000
0100
1000
,
0001
1000
0100
0010
0100
0001
1000
0000
,
1000
0001
0010
0001
1000
0001
0010
0001
,
0010
0100
0001
1000
0001
0010
0100
0000
,
0100
0010
1000
0010
0100
0010
1000
0010
,
0100
0010
1000
0001
1000
0100
0010
0000
,
0010
0100
0001
0100
0010
0100
0001
0100
,
1000
0100
1000
0100
1000
0100
1000
0100
,
0001
0010
0001
0010
0001
0010
0001
0010
,
0100
0000
0000
0110
0000
0000
0011
0000
,
1000
0001
1000
0001
1000
0001
1000
0001
,
1000
0001
0010
0100
0010
1000
0001
0000
,
0001
1000
0100
1000
0001
1000
0100
1000
,
0001
1000
0100
0010
0100
0001
1000
0000
,
1000
0001
0010
0001
1000
0001
0010
0001
,
0010
0100
0001
1000
0001
0010
0100
0000
,
0100
0010
1000
0010
0100
0010
1000
0010
,
0100
0010
1000
0001
1000
0100
0010
0000
,
0010
0100
0001
0100
0010
0100
0001
0100
,
1000
0010
0001
0010
1000
0010
0001
0010
,
0001
0100
1000
0100
0001
0100
1000
0100
,
0010
0001
0100
0001
0010
0001
0100
0001
,
0100
1000
0010
1000
0100
1000
0010
1000
,
0100
0010
0001
0010
1000
0010
0001
0010
,
0001
0100
1000
0100
0001
0100
1000
0100
,
0010
0001
0100
0001
0010
0001
0100
0001
,
0100
1000
0010
1000
0100
1000
0010
1000
,
1010
0000
0100
0000
0010
0000
0001
0000
0010
0000
0100
0000
,
1010
0000
0100
0000
0010
0000
0001
0000
0010
0000
0100
0000
,
0101
0000
0010
0000
0100
0000
1000
0000
0100
0000
0010
0000
,
0101
0000
0010
0000
0100
0000
1000
0000
0100
0000
0010
0000
,
0011
0000
1000
0000
0001
0000
0100
0000
0001
0000
1000
0000
,
0011
0000
1000
0000
0001
0000
0100
0000
0001
0000
1000
0000
,
1100
0000
0001
0000
1000
0000
0010
0000
1000
0000
0001
0000
,
1100
0000
0001
0000
1000
0000
0010
0000
1000
0000
0001
0000
,
1010
0000
0100
0000
0010
0000
0001
0000
0010
0000
0100
0000
,
1010
0000
0100
0000
0010
0000
0001
0000
0010
0000
0100
0000
,
0101
0000
0010
0000
0100
0000
1000
0000
0100
0000
0010
0000
,
0101
0000
0010
0000
0100
0000
1000
0000
0100
0000
0010
0000
,
0011
0000
1000
0000
0001
0000
0100
0000
0001
0000
1000
0000
,
0011
0000
1000
0000
0001
0000
0100
0000
0001
0000
1000
0000
,
1100
0000
0001
0000
1000
0000
0010
0000
1000
0000
0001
0000
,
1100
0000
0000
0000
0001
0000
0000
0000
1000
0000
0000
0000
0001
0000
0000
1000
0000
0000
0001
0000
0000
1000
0000
0000
,
0101
0000
0010
0000
0100
0000
1000
0000
0100
0000
0010
0000
,
0101
0000
0010
0000
0100
0000
1000
0000
0100
0000
0010
0000
,
1010
0000
0100
0000
0010
0000
0001
0000
0010
0000
0100
0000
,
1010
0000
0100
0000
0010
0000
0001
0000
0010
0000
0100
0000
,
1100
0000
0001
0000
1000
0000
0010
0000
1000
0000
0001
0000
,
1100
0000
0001
0000
1000
0000
0010
0000
1000
0000
0001
0000
,
0011
0000
1000
0000
0001
0000
0100
0000
0001
0000
1000
0000
,
0011
0000
1000
0000
0001
0000
0100
0000
0001
0000
1000
0000
,
0101
0000
0010
0000
0100
0000
1000
0000
0100
0000
0010
0000
,
0101
0000
0010
0000
0100
0000
1000
0000
0100
0000
0010
0000
,
1010
0000
0100
0000
0010
0000
0001
0000
0010
0000
0100
0000
,
1010
0000
0100
0000
0010
0000
0001
0000
0010
0000
0100
0000
,
1100
0000
0001
0000
1000
0000
0010
0000
1000
0000
0001
0000
,
1100
0000
0001
0000
1000
0000
1010
0000
1000
0000
0001
0000
,
0011
0000
1000
0000
0001
0000
0100
0000
0001
0000
1000
0000
,
0011
0000
0000
0000
1000
0000
0000
0000
0001
0000
0000
0000
1000
0000
0000
0001
0000
0000
1000
0000
0000
0001
0000
0000
,
1000
0000
0000
0000
;

//---------------dance-single - ----------------
#NOTEDATA:;
#CHARTNAME:;
#STEPSTYPE:dance-single;
#DESCRIPTION:;
#CHARTSTYLE:;
#DIFFICULTY:Medium;
#METER:23;
#RADARVALUES:1.388538,2.052924,0.926885,0.175357,1.452954,1164.000000,1053.000000,111.000000,21.000000,0.000000,0.000000,0.000000,0.000000,0.000000,1.388538,2.052924,0.926885,0.175357,1.452954,1164.000000,1053.000000,111.000000,21.000000,0.000000,0.000000,0.000000,0.000000,0.000000;
#CREDIT:;
#DISPLAYBPM:*;
#NOTES:
0000
0000
0000
0000
,
0000
0000
0000
0000
,
0000
0000
0000
0000
,
0000
0000
0000
0000
,
1000
0010
0100
0000
0010
0000
0010
0000
0001
0100
0001
0000
0001
0010
0001
0000
,
1000
0100
0010
0000
0001
0000
0000
0000
0001
0010
1000
0010
0001
0010
1000
0010
,
0001
0100
0010
0000
0100
0000
0100
0000
1000
0010
1000
0000
1000
0100
1000
0000
,
0001
0010
0100
0000
1000
0000
0000
0000
1000
0100
0001
0100
1000
0100
0001
0100
,
1000
0001
1000
0001
1000
0001
1000
0001
1000
0001
1000
0001
,
1000
0010
1000
0010
1000
0010
1000
0010
1000
0010
1000
0010
1000
0010
1000
0010
,
0001
0100
0001
0100
0001
0100
0001
0100
0001
0100
0001
0100
0001
0100
0001
0000
,
0110
0000
1100
0000
0110
0000
0101
0000
0110
0000
1010
0000
,
0101
0000
0000
0000
0001
0100
0001
0100
0001
0010
0100
1000
0000
0000
1000
0010
,
1000
0010
1000
0010
0100
1000
0001
0010
1000
0010
1000
0010
0100
0010
0100
0000
,
1010
0000
0000
0000
1000
0010
1000
0010
1000
0100
0010
0001
0000
0000
0001
0100
,
0001
0100
0001
0100
0010
0001
1000
0100
0001
0100
0001
0100
0010
0100
0010
0000
,
1100
0000
0000
0000
0100
1000
0100
1000
0100
0001
1000
0010
0000
0000
0010
0001
,
0010
0001
0010
0001
1000
0010
0100
0001
0010
0001
0010
0001
1000
0001
1000
0000
,
0011
0000
0000
0000
0010
0001
0010
0001
0010
1000
0001
0100
0000
0000
0100
1000
,
0020
0000
0000
0000
0000
0000
0100
0000
0130
0000
0010
0100
0010
0100
0010
0100
,
1000
0001
1000
0000
1000
0000
1000
0000
,
0001
0100
0010
1000
0001
0010
0100
1000
,
0001
1000
0001
0000
0001
0000
0001
0000
,
1000
0010
0100
0001
1000
0100
0010
0001
,
0010
0100
0010
0000
0010
0000
0010
0000
,
0100
1000
0001
0010
0100
0001
1000
0010
,
0100
0010
0100
0000
0100
0000
0100
0000
,
0010
0001
1000
0100
0010
1000
0001
0100
,
1000
0001
1000
0000
1000
0000
1000
0000
,
0001
0100
0010
1000
0001
0010
0100
1000
,
0001
1000
0001
0000
0001
0000
0001
0000
,
1000
0010
0100
0001
1000
0100
0010
0001
,
0010
0100
0010
0000
0010
0000
0010
0000
,
0100
1000
0001
0010
0100
0001
1000
0010
,
0100
0010
0100
0000
0100
0000
0100
0000
,
2002
0000
0000
0000
0000
0000
0000
3003
,
0002
0000
0000
2000
0000
0000
0000
0000
,
0000
0000
0000
0000
,
0000
0000
0000
0000
,
0000
0000
0000
3003
,
1000
0100
0010
1000
0100
1000
0100
0001
0010
0100
1000
0010
,
0001
0010
0100
0001
0010
0001
0010
1000
0100
0010
0001
0100
,
0010
1000
0001
0010
1000
0010
1000
0100
0001
1000
0010
0001
,
0100
0010
0100
0010
0100
0010
0100
0010
0200
0000
0000
0000
0010
0000
0300
0000
,
1010
0000
0100
0000
0010
0000
0101
0000
0010
0000
0100
0000
,
1010
0000
0100
0000
0010
0000
0011
0000
0010
0000
0100
0000
,
0101
0000
0010
0000
0100
0000
1010
0000
0100
0000
0010
0000
,
0101
0000
0010
0000
0100
0000
1100
0000
0100
0000
0010
0000
,
0011
0000
1000
0000
0001
0000
1100
0000
0001
0000
1000
0000
,
0011
0000
1000
0000
0001
0000
0101
0000
0001
0000
1000
0000
,
1100
0000
0001
0000
1000
0000
0011
0000
1000
0000
0001
0000
,
1100
0000
0001
0000
1000
0000
1010
0000
1000
0000
0001
0000
,
1010
0000
0100
0000
0010
0000
0101
0000
0010
0000
0100
0000
,
1010
0000
0100
0000
0010
0000
0011
0000
0010
0000
0100
0000
,
0101
0000
0010
0000
0100
0000
1010
0000
0100
0000
0010
0000
,
0101
0000
0010
0000
0100
0000
1100
0000
0100
0000
0010
0000
,
0011
0000
1000
0000
0001
0000
1100
0000
0001
0000
1000
0000
,
0011
0000
1000
0000
0001
0000
0101
0000
0001
0000
1000
0000
,
1100
0000
0001
0000
1000
0000
0011
0000
1000
0000
0001
0000
,
1100
0000
0001
0000
1000
0000
0001
1000
0001
1000
0001
1000
,
0200
0001
0001
0301
,
0020
1000
1000
1030
,
2000
0001
0001
3001
,
0002
1000
1000
1003
,
1000
0010
1000
0010
1000
0001
1000
0001
,
0010
0001
0010
0001
0010
0100
0010
0100
,
0001
0100
0001
0100
0001
1000
0001
1000
,
0100
1000
0100
1000
0100
0010
0100
0010
,
0100
1000
0100
1000
0100
0010
0100
0010
,
1000
0010
1000
0010
1000
0001
1000
0001
,
0010
0001
0010
0001
0010
0100
0010
0100
,
1100
0000
0011
0000
0101
0000
1010
0000
0100
0010
0100
0010
0100
0010
0100
0010
,
1000
0001
1000
0020
0001
0000
0001
0030
,
0001
1000
0001
0200
1000
0000
1000
0300
,
0010
0100
0010
0002
0100
0000
0100
0003
,
0100
0010
0100
2000
0010
0000
0010
3000
,
1000
0001
1000
0020
0001
0000
0001
0030
,
0001
1000
0001
0200
1000
0000
1000
0300
,
0010
0100
0010
0002
0100
0000
0100
0003
,
0100
0010
0100
2000
0010
0000
0010
3000
,
0010
0001
0100
1000
0100
1000
0010
0001
,
0100
0001
0100
1000
0010
0100
0010
0001
,
0100
1000
0010
0001
0010
0001
0100
1000
,
0010
1000
0010
0001
0100
0010
0100
1000
,
0010
0100
0010
0100
0010
0100
0010
0100
,
0010
0000
0000
0100
0000
0000
0010
0000
0100
0000
0010
0000
0100
0000
0010
0000
0100
0000
0010
0000
0100
0000
0010
0000
,
0200
0000
0000
0000
,
0000
0000
0000
0000
0000
0000
0000
0300
,
2002
0000
0000
0000
0000
0000
0000
3003
,
1000
0001
0010
0100
0010
1000
0001
1000
,
0001
1000
0100
1000
0001
1000
0100
1000
,
0001
1000
0100
0010
0100
0001
1000
0001
,
1000
0001
0010
0001
1000
0001
0010
0001
,
0010
0100
0001
1000
0001
0010
0100
0010
,
0100
0010
1000
0010
0100
0010
1000
0010
,
0100
0010
1000
0001
1000
0100
0010
0100
,
0010
0100
0001
0100
0010
0100
0001
0100
,
1000
0100
1000
0100
1000
0100
1000
0100
,
0001
0010
0001
0010
0001
0010
0001
0010
,
0100
0000
0000
0110
0000
0000
0011
0000
,
1000
0001
1000
0001
1000
0001
1000
0001
,
1000
0001
0010
0100
0010
1000
0001
1000
,
0001
1000
0100
1000
0001
1000
0100
1000
,
0001
1000
0100
0010
0100
0001
1000
0001
,
1000
0001
0010
0001
1000
0001
0010
0001
,
0010
0100
0001
1000
0001
0010
0100
0010
,
0100
0010
1000
0010
0100
0010
1000
0010
,
0100
0010
1000
0001
1000
0100
0010
0100
,
0010
0100
0001
0100
0010
0100
0001
0100
,
0010
0000
1000
0000
0010
0000
0001
0000
0000
0010
0000
0000
1000
0000
0000
0010
0000
0000
0001
0000
0000
0010
0000
0000
,
0100
0000
0001
0000
0100
0000
1000
0000
0000
0100
0000
0000
0001
0000
0000
0100
0000
0000
1000
0000
0000
0100
0000
0000
,
0001
0000
0010
0000
0001
0000
0100
0000
0000
0001
0000
0000
0010
0000
0000
0001
0000
0000
0100
0000
0000
0001
0000
0000
,
1000
0000
0100
0000
1000
0000
0010
0000
0000
1000
0000
0000
0100
0000
0000
1000
0000
0000
0010
0000
0000
1000
0000
0000
,
0010
0000
1000
0000
0010
0000
0001
0000
0000
0010
0000
0000
1000
0000
0100
0000
0010
0000
0001
0000
0000
0010
0000
0000
,
0100
0000
0001
0000
0100
0000
1000
0000
0000
0100
0000
0000
0001
0000
0010
0000
0100
0000
1000
0000
0000
0100
0000
0000
,
0001
0000
0010
0000
0001
0000
0100
0000
0000
0001
0000
0000
0010
0000
1000
0000
0001
0000
0100
0000
0000
0001
0000
0000
,
1000
0000
0100
0000
1000
0000
0010
0000
0000
1000
0000
0000
0100
0000
0001
0000
1000
0000
0010
0000
0000
1000
0000
0000
,
1010
0000
0100
0000
0010
0000
0101
0000
0010
0000
0100
0000
,
1010
0000
0100
0000
0010
0000
0011
0000
0010
0000
0100
0000
,
0101
0000
0010
0000
0100
0000
1010
0000
0100
0000
0010
0000
,
0101
0000
0010
0000
0100
0000
1100
0000
0100
0000
0010
0000
,
0011
0000
1000
0000
0001
0000
1100
0000
0001
0000
1000
0000
,
0011
0000
1000
0000
0001
0000
0101
0000
0001
0000
1000
0000
,
1100
0000
0001
0000
1000
0000
0011
0000
1000
0000
0001
0000
,
1100
0000
0001
0000
1000
0000
1010
0000
1000
0000
0001
0000
,
1010
0000
0100
0000
0010
0000
0101
0000
0010
0000
0100
0000
,
1010
0000
0100
0000
0010
0000
0011
0000
0010
0000
0100
0000
,
0101
0000
0010
0000
0100
0000
1010
0000
0100
0000
0010
0000
,
0101
0000
0010
0000
0100
0000
1100
0000
0100
0000
0010
0000
,
0011
0000
1000
0000
0001
0000
1100
0000
0001
0000
1000
0000
,
0011
0000
1000
0000
0001
0000
0101
0000
0001
0000
1000
0000
,
1100
0000
0001
0000
1000
0000
0011
0000
1000
0000
0001
0000
,
1100
0000
0001
0000
1000
0000
0001
1000
0001
1000
0001
1000
,
0101
0000
0010
0000
0100
0000
1010
0000
0100
0000
0010
0000
,
0101
0000
0010
0000
0100
0000
1100
0000
0100
0000
0010
0000
,
1010
0000
0100
0000
0010
0000
0101
0000
0010
0000
0100
0000
,
1010
0000
0100
0000
0010
0000
0011
0000
0010
0000
0100
0000
,
1100
0000
0001
0000
1000
0000
0011
0000
1000
0000
0001
0000
,
1100
0000
0001
0000
1000
0000
1010
0000
1000
0000
0001
0000
,
0011
0000
1000
0000
0001
0000
1100
0000
0001
0000
1000
0000
,
0011
0000
1000
0000
0001
0000
0101
0000
0001
0000
1000
0000
,
0101
0000
0010
0000
0100
0000
1010
0000
0100
0000
0010
0000
,
0101
0000
0010
0000
0100
0000
1100
0000
0100
0000
0010
0000
,
1010
0000
0100
0000
0010
0000
0101
0000
0010
0000
0100
0000
,
1010
0000
0100
0000
0010
0000
0011
0000
0010
0000
0100
0000
,
1100
0000
0001
0000
1000
0000
0011
0000
1000
0000
0001
0000
,
1100
0000
0001
0000
1000
0000
1010
0000
1000
0000
0001
0000
,
0011
0000
1000
0000
0001
0000
1100
0000
0001
0000
1000
0000
,
0011
0000
1000
0000
0001
1000
0001
1000
0001
1000
0001
1000
,
0001
0000
0000
0000
;

//---------------dance-single - ----------------
#NOTEDATA:;
#CHARTNAME:;
#STEPSTYPE:dance-single;
#DESCRIPTION:;
#CHARTSTYLE:;
#DIFFICULTY:Hard;
#METER:24;
#RADARVALUES:1.456533,2.052924,0.968636,0.175357,1.653362,1221.000000,1105.000000,116.000000,21.000000,0.000000,0.000000,0.000000,0.000000,0.000000,1.456533,2.052924,0.968636,0.175357,1.653362,1221.000000,1105.000000,116.000000,21.000000,0.000000,0.000000,0.000000,0.000000,0.000000;
#CREDIT:;
#DISPLAYBPM:*;
#NOTES:
0000
0000
0000
0000
,
0000
0000
0000
0000
,
0000
0000
0000
0000
,
0000
0000
0000
0000
,
1000
0010
0100
0000
0010
0001
0010
0000
0001
0100
0001
0000
0001
0010
0001
0000
,
1000
0100
0010
0000
0001
0000
0000
0000
0001
0010
1000
0010
0001
0010
1000
0010
,
0001
0100
0010
0000
0100
1000
0100
0000
1000
0010
1000
0000
1000
0100
1000
0000
,
0001
0010
0100
0000
1000
0000
0000
0000
1000
0100
0001
0100
1000
0100
0001
0100
,
1000
0001
1000
0001
1000
0001
1000
0001
1000
0001
1000
0001
1000
0001
1000
0001
,
1000
0010
1000
0010
1000
0010
1000
0010
1000
0010
1000
0010
1000
0010
1000
0010
,
0001
0100
0001
0100
0001
0100
0001
0100
0001
0100
0001
0100
0001
0100
0001
0000
,
0110
0000
1100
0000
0110
0000
0101
0000
0110
0000
1010
0000
,
0101
0000
0000
0000
0001
0100
0001
0100
0001
0010
0100
1000
0100
0000
1000
0010
,
1000
0010
1000
0010
0100
1000
0001
0010
1000
0010
1000
0010
0100
0010
0100
0000
,
1010
0000
0000
0000
1000
0010
1000
0010
1000
0100
0010
0001
0010
0000
0001
0100
,
0001
0100
0001
0100
0010
0001
1000
0100
0001
0100
0001
0100
0010
0100
0010
0000
,
1100
0000
0000
0000
0100
1000
0100
1000
0100
0001
1000
0010
1000
0000
0010
0001
,
0010
0001
0010
0001
1000
0010
0100
0001
0010
0001
0010
0001
1000
0001
1000
0000
,
0011
0000
0000
0000
0010
0001
0010
0001
0010
1000
0001
0100
0001
0000
0100
1000
,
0020
0000
0000
0000
0000
0000
0100
0000
0130
0000
0010
0100
0010
0100
0010
0100
,
1000
0001
1000
0001
1000
0000
1000
0000
,
0001
0100
0010
1000
0001
0010
0100
1000
,
0001
1000
0001
1000
0001
0000
0001
0000
,
1000
0010
0100
0001
1000
0100
0010
0001
,
0010
0100
0010
0100
0010
0000
0010
0000
,
0100
1000
0001
0010
0100
0001
1000
0010
,
0100
0010
0100
0010
0100
0000
0100
0000
,
0010
0001
1000
0100
0010
1000
0001
0100
,
1000
0001
1000
0001
1000
0000
1000
0000
,
0001
0100
0010
1000
0001
0010
0100
1000
,
0001
1000
0001
1000
0001
0000
0001
0000
,
1000
0010
0100
0001
1000
0100
0010
0001
,
0010
0100
0010
0100
0010
0000
0010
0000
,
0100
1000
0001
0010
0100
0001
1000
0010
,
0100
0010
0100
0010
0100
0000
0100
0000
,
2002
0000
0000
0000
0000
0000
0000
3003
,
0002
0000
0000
2000
0000
0000
0000
0000
,
0000
0000
0000
0000
,
0000
0000
0000
0000
,
0000
0000
0000
3003
,
1001
0100
0010
1000
0100
1000
0100
0001
0010
0100
1000
0010
,
1001
0010
0100
0001
0010
0001
0010
1000
0100
0010
0001
0100
,
0110
1000
0001
0010
1000
0010
1001
0100
0001
1000
0010
0001
,
0100
0010
0100
0010
0100
0010
0100
0010
0200
0000
0000
0000
0010
0000
0300
0000
,
1010
0000
0100
0000
0010
0000
0101
0000
0010
0000
0100
0000
,
1010
0000
0100
0000
0010
0000
0011
0000
0010
0000
0100
0000
,
0101
0000
0010
0000
0100
0000
1010
0000
0100
0000
0010
0000
,
0101
0000
0010
0000
0100
0000
1100
0000
0100
0000
0010
0000
,
0011
0000
1000
0000
0001
0000
1100
0000
0001
0000
1000
0000
,
0011
0000
1000
0000
0001
0000
0101
0000
0001
0000
1000
0000
,
1100
0000
0001
0000
1000
0000
0011
0000
1000
0000
0001
0000
,
1100
0000
0001
0000
1000
0000
1010
0000
1000
0000
0001
0000
,
1010
0000
0100
0000
0010
0000
0101
0000
0010
0000
0100
0000
,
1010
0000
0100
0000
0010
0000
0011
0000
0010
0000
0100
0000
,
0101
0000
0010
0000
0100
0000
1010
0000
0100
0000
0010
0000
,
0101
0000
0010
0000
0100
0000
1100
0000
0100
0000
0010
0000
,
0011
0000
1000
0000
0001
0000
1100
0000
0001
0000
1000
0000
,
0011
0000
1000
0000
0001
0000
0101
0000
0001
0000
1000
0000
,
1100
0000
0001
0000
1000
0000
0011
0000
1000
0000
0001
0000
,
1100
0000
0001
1000
0001
1000
0001
1000
0001
1000
0001
1000
,
0200
0000
0001
0001
0001
0000
0301
0000
,
0020
0000
1000
1000
1000
0000
1030
0000
,
2000
0000
0001
0001
0001
0000
3001
0000
,
0002
0000
1000
1000
1000
0000
1003
0000
,
1000
0010
1000
0010
1000
0000
0010
0000
1000
0000
0001
0000
1000
0000
0001
0000
,
0010
0001
0010
0001
0010
0100
0010
0100
,
0001
0100
0001
0100
0001
0000
0100
0000
0001
0000
1000
0000
0001
0000
1000
0000
,
0100
1000
0100
1000
0100
0010
0100
0010
,
0100
1000
0100
1000
0100
0000
1000
0000
0100
0000
0010
0000
0100
0000
0010
0000
,
1000
0010
1000
0010
1000
0001
1000
0001
,
0010
0001
0010
0001
0010
0000
0001
0000
0010
0000
0100
0000
0010
0000
0100
0000
,
1100
0000
0011
0000
0101
0000
1010
0000
0100
0010
0100
0010
0100
0010
0100
0010
,
1000
0000
0001
0000
1000
0000
0001
0000
0000
0020
0000
0000
0001
0000
0000
0000
0000
0000
0001
0000
0000
0030
0000
0000
,
0001
0000
1000
0000
0001
0000
1000
0000
0000
0200
0000
0000
1000
0000
0000
0000
0000
0000
1000
0000
0000
0300
0000
0000
,
0010
0000
0100
0000
0010
0000
0100
0000
0000
0002
0000
0000
0100
0000
0000
0000
0000
0000
0100
0000
0000
0003
0000
0000
,
0100
0000
0010
0000
0100
0000
0010
0000
0000
2000
0000
0000
0010
0000
0000
0000
0000
0000
0010
0000
0000
3000
0000
0000
,
1000
0000
0001
0000
1000
0000
0001
0000
0000
0020
0000
0000
0001
0000
0000
0000
0000
0000
0001
0000
0000
0030
0000
0000
,
0001
0000
1000
0000
0001
0000
1000
0000
0000
0200
0000
0000
1000
0000
0000
0000
0000
0000
1000
0000
0000
0300
0000
0000
,
0010
0000
0100
0000
0010
0000
0100
0000
0000
0002
0000
0000
0100
0000
0000
0000
0000
0000
0100
0000
0000
0003
0000
0000
,
0100
0000
0010
0000
0100
0000
0010
0000
0000
2000
0000
0000
0010
0000
0000
0000
0000
0000
0010
0000
0000
3000
0000
0000
,
0010
0001
0100
1000
0100
1000
0010
0001
,
0100
0001
0100
1000
0010
0100
0010
0001
,
0100
1000
0010
0001
0010
0001
0100
1000
,
0010
0000
0000
1000
0000
0000
0010
0000
0000
0001
0000
0000
0100
0000
0010
0000
0100
0000
1000
0000
0010
0000
0001
0000
,
0010
0100
0010
0100
0010
0100
0010
0100
,
0010
0000
0000
0100
0000
0000
0010
0000
0100
0000
0010
0000
0100
0000
0010
0000
0100
0000
0010
0000
0100
0000
0010
0000
,
0200
0000
0000
0000
,
0000
0000
0000
0000
0000
0000
0000
0300
,
2002
0000
0000
0000
0000
0000
0000
3003
,
1000
0000
0001
0000
1000
0000
0010
0000
0000
0100
0000
0000
0010
0000
0000
1000
0000
0000
0001
0000
0000
1000
0000
0000
,
0001
1000
0100
1000
0001
1000
0100
1000
,
0001
0000
1000
0000
0001
0000
0100
0000
0000
0010
0000
0000
0100
0000
0000
0001
0000
0000
1000
0000
0000
0001
0000
0000
,
1000
0001
0010
0001
1000
0001
0010
0001
,
0010
0000
0100
0000
0010
0000
0001
0000
0000
1000
0000
0000
0001
0000
0000
0010
0000
0000
0100
0000
0000
0010
0000
0000
,
0100
0010
1000
0010
0100
0010
1000
0010
,
0100
0000
0010
0000
0100
0000
1000
0000
0000
0001
0000
0000
1000
0000
0000
0100
0000
0000
0010
0000
0000
0100
0000
0000
,
0010
0100
0001
0100
0010
0100
0001
0100
,
1000
0100
1000
0100
1000
0100
1000
0100
,
0001
0010
0001
0010
0001
0010
0001
0010
,
1100
0000
0000
0110
0000
0000
0011
0000
,
1000
0001
1000
0001
1000
0001
1000
0001
,
1000
0000
0001
0000
1000
0000
0010
0000
0000
0100
0000
0000
0010
0000
0000
1000
0000
0000
0001
0000
0000
1000
0000
0000
,
0001
1000
0100
1000
0001
1000
0100
1000
,
0001
0000
1000
0000
0001
0000
0100
0000
0000
0010
0000
0000
0100
0000
0000
0001
0000
0000
1000
0000
0000
0001
0000
0000
,
1000
0001
0010
0001
1000
0001
0010
0001
,
0010
0000
0100
0000
0010
0000
0001
0000
0000
1000
0000
0000
0001
0000
0000
0010
0000
0000
0100
0000
0000
0010
0000
0000
,
0100
0010
1000
0010
0100
0010
1000
0010
,
0100
0000
0010
0000
0100
0000
1000
0000
0000
0001
0000
0000
1000
0000
0000
0100
0000
0000
0010
0000
0000
0100
0000
0000
,
0010
0100
0001
0100
0010
0100
0001
0100
,
0010
0000
1000
0000
0010
0000
0001
0000
0000
0010
0000
0000
1000
0000
0000
0010
0000
0000
0001
0000
0000
0010
0000
0000
,
0100
0000
0001
0000
0100
0000
1000
0000
0000
0100
0000
0000
0001
0000
0000
0100
0000
0000
1000
0000
0000
0100
0000
0000
,
0001
0000
0010
0000
0001
0000
0100
0000
0000
0001
0000
0000
0010
0000
0000
0001
0000
0000
0100
0000
0000
0001
0000
0000
,
1000
0000
0100
0000
1000
0000
0010
0000
0000
1000
0000
0000
0100
0000
0000
1000
0000
0000
0010
0000
0000
1000
0000
0000
,
0010
0000
1000
0000
0010
0000
0001
0000
0000
0010
0000
0000
1000
0000
0100
0000
0010
0000
0001
0000
0000
0010
0000
0000
,
0100
0000
0001
0000
0100
0000
1000
0000
0000
0100
0000
0000
0001
0000
0010
0000
0100
0000
1000
0000
0000
0100
0000
0000
,
0001
0000
0010
0000
0001
0000
0100
0000
0000
0001
0000
0000
0010
0000
1000
0000
0001
0000
0100
0000
0000
0001
0000
0000
,
1000
0000
0100
0000
1000
0000
0010
0000
0000
1000
0000
0000
0100
0000
0001
0000
1000
0000
0010
0000
0000
1000
0000
0000
,
1010
0000
0100
0000
0010
0000
0101
0000
0010
0000
0100
0000
,
1010
0000
0100
0000
0010
0000
0011
0000
0010
0000
0100
0000
,
0101
0000
0010
0000
0100
0000
1010
0000
0100
0000
0010
0000
,
0101
0000
0010
0000
0100
0000
1100
0000
0100
0000
0010
0000
,
0011
0000
1000
0000
0001
0000
1100
0000
0001
0000
1000
0000
,
0011
0000
1000
0000
0001
0000
0101
0000
0001
0000
1000
0000
,
1100
0000
0001
0000
1000
0000
0011
0000
1000
0000
0001
0000
,
1100
0000
0001
0000
1000
0000
1010
0000
1000
0000
0001
0000
,
1010
0000
0100
0000
0010
0000
0101
0000
0010
0000
0100
0000
,
1010
0000
0100
0000
0010
0000
0011
0000
0010
0000
0100
0000
,
0101
0000
0010
0000
0100
0000
1010
0000
0100
0000
0010
0000
,
0101
0000
0010
0000
0100
0000
1100
0000
0100
0000
0010
0000
,
0011
0000
1000
0000
0001
0000
1100
0000
0001
0000
1000
0000
,
0011
0000
1000
0000
0001
0000
0101
0000
0001
0000
1000
0000
,
1100
0000
0001
0000
1000
0000
0011
0000
1000
0000
0001
0000
,
1100
0000
0001
1000
0001
1000
0001
1000
0001
1000
0001
1000
,
0101
0000
0010
0000
0100
0000
1010
0000
0100
0000
0010
0000
,
0101
0000
0010
0000
0100
0000
1100
0000
0100
0000
0010
0000
,
1010
0000
0100
0000
0010
0000
0101
0000
0010
0000
0100
0000
,
1010
0000
0100
0000
0010
0000
0011
0000
0010
0000
0100
0000
,
1100
0000
0001
0000
1000
0000
0011
0000
1000
0000
0001
0000
,
1100
0000
0001
0000
1000
0000
1010
0000
1000
0000
0001
0000
,
0011
0000
1000
0000
0001
0000
1100
0000
0001
0000
1000
0000
,
0011
0000
1000
0000
0001
0000
0101
0000
0001
0000
1000
0000
,
0101
0000
0010
0000
0100
0000
1010
0000
0100
0000
0010
0000
,
0101
0000
0010
0000
0100
0000
1100
0000
0100
0000
0010
0000
,
1010
0000
0100
0000
0010
0000
0101
0000
0010
0000
0100
0000
,
1010
0000
0100
0000
0010
0000
0011
0000
0010
0000
0100
0000
,
1100
0000
0001
0000
1000
0000
0011
0000
1000
0000
0001
0000
,
1100
0000
0001
0000
1000
0000
1010
0000
1000
0000
0001
0000
,
0011
0000
1000
0000
0001
0000
1100
0000
0001
0000
1000
0000
,
0011
0000
1000
0000
0001
1000
0001
1000
0001
1000
0001
1000
,
0001
0000
0000
0000
;

//---------------dance-single - ----------------
#NOTEDATA:;
#CHARTNAME:;
#STEPSTYPE:dance-single;
#DESCRIPTION:;
#CHARTSTYLE:;
#DIFFICULTY:Challenge;
#METER:25;
#RADARVALUES:1.498285,2.052924,0.968636,0.183707,1.736865,1256.000000,1140.000000,116.000000,22.000000,0.000000,0.000000,0.000000,0.000000,0.000000,1.498285,2.052924,0.968636,0.183707,1.736865,1256.000000,1140.000000,116.000000,22.000000,0.000000,0.000000,0.000000,0.000000,0.000000;
#CREDIT:;
#DISPLAYBPM:*;
#NOTES:
0000
0000
0000
0000
,
0000
0000
0000
0000
,
0000
0000
0000
0000
,
0000
0000
0000
0000
,
1000
0010
0100
0000
0010
0001
0010
0000
0001
0100
0001
0000
0001
0010
0001
0000
,
1000
0100
0010
0000
0001
0000
0000
0000
0001
0010
1000
0010
0001
0010
1000
0010
,
0001
0100
0010
0000
0100
1000
0100
0000
1000
0010
1000
0000
1000
0100
1000
0000
,
0001
0010
0100
0000
1000
0000
0000
0000
1000
0100
0001
0100
1000
0100
0001
0100
,
1000
0001
1000
0001
1000
0001
1000
0001
1000
0001
1000
0001
1000
0001
1000
0001
,
1000
0010
1000
0010
1000
0010
1000
0010
1000
0010
1000
0010
1000
0010
1000
0010
,
0001
0100
0001
0100
0001
0100
0001
0100
0001
0100
0001
0100
0001
0100
0001
0000
,
0110
0000
1100
0000
0110
0000
0101
0000
0110
0000
1010
0000
,
0101
0000
0000
0000
0001
0100
0001
0100
0001
0010
0100
1000
0100
0000
1000
0010
,
1000
0010
1000
0010
0100
1000
0001
0010
1000
0010
1000
0010
0100
0010
0100
0000
,
1010
0000
0000
0000
1000
0010
1000
0010
1000
0100
0010
0001
0010
0000
0001
0100
,
0001
0100
0001
0100
0010
0001
1000
0100
0001
0100
0001
0100
0010
0100
0010
0000
,
1100
0000
0000
0000
0100
1000
0100
1000
0100
0001
1000
0010
1000
0000
0010
0001
,
0010
0001
0010
0001
1000
0010
0100
0001
0010
0001
0010
0001
1000
0001
1000
0000
,
0011
0000
0000
0000
0010
0001
0010
0001
0010
1000
0001
0100
0001
0000
0100
1000
,
0020
0000
0000
0000
0000
0000
0100
0000
0130
0000
0010
0100
0010
0100
0010
0100
,
1000
0001
1000
0001
1000
0001
1000
0000
,
0001
0100
0010
1000
0001
0010
0100
1000
,
0001
1000
0001
1000
0001
1000
0001
0000
,
1000
0010
0100
0001
1000
0100
0010
0001
,
0010
0100
0010
0100
0010
0100
0010
0000
,
0100
1000
0001
0010
0100
0001
1000
0010
,
0100
0010
0100
0010
0100
0010
0100
0000
,
0010
0001
1000
0100
0010
1000
0001
0100
,
1000
0001
1000
0001
1000
0001
1000
0000
,
0001
0100
0010
1000
0001
0010
0100
1000
,
0001
1000
0001
1000
0001
1000
0001
0000
,
1000
0010
0100
0001
1000
0100
0010
0001
,
0010
0100
0010
0100
0010
0100
0010
0000
,
0100
1000
0001
0010
0100
0001
1000
0010
,
0100
0010
0100
0010
0100
0010
0100
0000
,
2002
0000
0000
0000
0000
0000
0000
3003
,
0002
0000
0000
2000
0000
0000
0000
0000
,
0000
0000
0000
0000
,
0000
0000
0000
0000
,
0000
0000
0000
3003
,
1001
0100
0010
1000
0100
1000
0100
0001
0010
0100
1000
0010
,
1001
0010
0100
0001
0010
0001
0010
1000
0100
0010
0001
0100
,
0110
1000
0001
0010
1000
0010
1001
0100
0001
1000
0010
0001
,
0100
0010
0100
0010
0100
0010
0100
0010
0200
0000
0000
0000
0010
0000
0300
0000
,
1010
0000
0100
0000
0010
0000
0101
0000
0010
0000
0100
0000
,
1010
0000
0100
0000
0010
0000
0011
0000
0010
0000
0100
0000
,
0101
0000
0010
0000
0100
0000
1010
0000
0100
0000
0010
0000
,
0101
0000
0010
0000
0100
0000
1100
0000
0100
0000
0010
0000
,
0011
0000
1000
0000
0001
0000
1100
0000
0001
0000
1000
0000
,
0011
0000
1000
0000
0001
0000
0101
0000
0001
0000
1000
0000
,
1100
0000
0001
0000
1000
0000
0011
0000
1000
0000
0001
0000
,
1100
0000
0001
0000
1000
0000
1010
0000
1000
0000
0001
0000
,
1010
0000
0100
0000
0010
0000
0101
0000
0010
0000
0100
0000
,
1010
0000
0100
0000
0010
0000
0011
0000
0010
0000
0100
0000
,
0101
0000
0010
0000
0100
0000
1010
0000
0100
0000
0010
0000
,
0101
0000
0010
0000
0100
0000
1100
0000
0100
0000
0010
0000
,
0011
0000
1000
0000
0001
0000
1100
0000
0001
0000
1000
0000
,
0011
0000
1000
0000
0001
0000
0101
0000
0001
0000
1000
0000
,
1100
0000
0001
0000
1000
0000
0011
0000
1000
0000
0001
0000
,
1100
0000
0001
1000
0001
1000
0001
1000
0001
1000
0001
1000
,
0200
0000
0001
0001
0001
0001
0301
0000
,
0020
0000
1000
1000
1000
1000
1030
0000
,
2000
0000
0001
0001
0001
0001
3001
0000
,
0002
0000
1000
1000
1000
1000
1003
0000
,
1000
0010
1000
0010
1000
0000
0010
0000
1000
0000
0001
0000
1000
0000
0001
0000
,
0010
0000
0001
0000
0010
0000
0001
0000
0010
0100
0010
0100
0010
0000
0100
0000
,
0001
0100
0001
0100
0001
0000
0100
0000
0001
0000
1000
0000
0001
0000
1000
0000
,
0100
0000
1000
0000
0100
0000
1000
0000
0100
0010
0100
0010
0100
0000
0010
0000
,
0100
1000
0100
1000
0100
0000
1000
0000
0100
0000
0010
0000
0100
0000
0010
0000
,
1000
0000
0010
0000
1000
0000
0010
0000
1000
0001
1000
0001
1000
0000
0001
0000
,
0010
0001
0010
0001
0010
0000
0001
0000
0010
0100
0010
0100
0010
0000
0100
0000
,
1100
0000
0011
0000
0101
0000
1010
0000
0100
0010
0100
0010
0100
0010
0100
0010
,
1000
0000
0001
0000
1000
0000
0001
0000
0000
0020
0000
0000
0001
0000
0000
0000
0000
0000
0001
0000
0000
0030
0000
0000
,
0001
0000
1000
0000
0001
0000
1000
0000
0000
0200
0000
0000
1000
0000
0000
0000
0000
0000
1000
0000
0000
0300
0000
0000
,
0010
0000
0100
0000
0010
0000
0100
0000
0000
0002
0000
0000
0100
0000
0000
0000
0000
0000
0100
0000
0000
0003
0000
0000
,
0100
0000
0010
0000
0100
0000
0010
0000
0000
2000
0000
0000
0010
0000
0000
0000
0000
0000
0010
0000
0000
3000
0000
0000
,
1000
0000
0001
0000
1000
0000
0001
0000
0000
0020
0000
0000
0001
0000
0000
0000
0000
0000
0001
0000
0000
0030
0000
0000
,
0001
0000
1000
0000
0001
0000
1000
0000
0000
0200
0000
0000
1000
0000
0000
0000
0000
0000
1000
0000
0000
0300
0000
0000
,
0010
0000
0100
0000
0010
0000
0100
0000
0000
0002
0000
0000
0100
0000
0000
0000
0000
0000
0100
0000
0000
0003
0000
0000
,
0100
0000
0010
0000
0100
0000
0010
0000
0000
2000
0000
0000
0010
0000
0000
0000
0000
0000
0010
0000
0000
3000
0000
0000
,
0010
0001
0100
1000
0100
1000
0010
0001
,
0100
0001
0100
1000
0010
0100
0010
0001
,
0100
1000
0010
0001
0010
0001
0100
1000
,
0010
1000
0010
0001
0100
1000
0100
0010
0100
1000
0010
0001
,
0010
0100
0010
0100
0010
0100
0010
0100
,
0010
0000
0000
0100
0000
0000
0010
0000
0100
0000
0010
0000
0100
0000
0010
0000
0100
0000
0010
0000
0100
0000
0010
0000
,
0200
0000
0000
0000
,
0020
0000
0000
0000
0000
0000
0000
0330
,
2002
0000
0000
0000
0000
0000
0000
3003
,
1000
0000
0001
0000
1000
0000
0010
0000
0000
0100
0000
0000
0010
0000
0000
1000
0000
0000
0001
0000
0000
1000
0000
0000
,
0001
1000
0100
1000
0001
1000
0100
1000
,
0001
0000
1000
0000
0001
0000
0100
0000
0000
0010
0000
0000
0100
0000
0000
0001
0000
0000
1000
0000
0000
0001
0000
0000
,
1000
0001
0010
0001
1000
0001
0010
0001
,
0010
0000
0100
0000
0010
0000
0001
0000
0000
1000
0000
0000
0001
0000
0000
0010
0000
0000
0100
0000
0000
0010
0000
0000
,
0100
0010
1000
0010
0100
0010
1000
0010
,
0100
0000
0010
0000
0100
0000
1000
0000
0000
0001
0000
0000
1000
0000
0000
0100
0000
0000
0010
0000
0000
0100
0000
0000
,
0010
0100
0001
0100
0010
0100
0001
0100
,
1000
0100
1000
0100
1000
0100
1000
0100
,
0001
0010
0001
0010
0001
0010
0001
0010
,
1100
0000
0000
0110
0000
0000
0011
0000
,
1000
0001
1000
0001
1000
0001
1000
0001
,
1000
0000
0001
0000
1000
0000
0010
0000
0000
0100
0000
0000
0010
0000
0000
1000
0000
0000
0001
0000
0000
1000
0000
0000
,
0001
1000
0100
1000
0001
1000
0100
1000
,
0001
0000
1000
0000
0001
0000
0100
0000
0000
0010
0000
0000
0100
0000
0000
0001
0000
0000
1000
0000
0000
0001
0000
0000
,
1000
0001
0010
0001
1000
0001
0010
0001
,
0010
0000
0100
0000
0010
0000
0001
0000
0000
1000
0000
0000
0001
0000
0000
0010
0000
0000
0100
0000
0000
0010
0000
0000
,
0100
0010
1000
0010
0100
0010
1000
0010
,
0100
0000
0010
0000
0100
0000
1000
0000
0000
0001
0000
0000
1000
0000
0000
0100
0000
0000
0010
0000
0000
0100
0000
0000
,
0010
0100
0001
0100
0010
0100
0001
0100
,
0010
0000
1000
0000
0010
0000
0001
0000
0000
0010
0000
0000
1000
0000
0100
0000
0010
0000
0001
0000
0000
0010
0000
0000
,
0100
0000
0001
0000
0100
0000
1000
0000
0000
0100
0000
0000
0001
0000
0010
0000
0100
0000
1000
0000
0000
0100
0000
0000
,
0001
0000
0010
0000
0001
0000
0100
0000
0000
0001
0000
0000
0010
0000
0001
0000
1000
0000
0100
0000
0000
0001
0000
0000
,
1000
0000
0100
0000
1000
0000
0010
0000
0000
1000
0000
0000
0100
0000
1000
0000
0001
0000
0010
0000
0000
1000
0000
0000
,
0010
0000
1000
0000
0010
0000
0001
0000
0000
0010
0000
0000
1000
0000
0100
0000
0010
0000
0001
0000
0000
0010
0000
0000
,
0100
0000
0001
0000
0100
0000
1000
0000
0000
0100
0000
0000
0001
0000
0010
0000
0100
0000
1000
0000
0000
0100
0000
0000
,
0001
0000
0010
0000
0001
0000
0100
0000
0000
0001
0000
0000
0010
0000
1000
0000
0001
0000
0100
0000
0000
0001
0000
0000
,
1000
0000
0100
0000
1000
0000
0010
0000
0000
1000
0000
0000
0100
0000
0001
0000
1000
0000
0010
0000
0000
1000
0000
0000
,
1010
0000
0100
0000
0010
0000
0101
0000
0010
0000
0100
0000
,
1010
0000
0100
0000
0010
0000
0011
0000
0010
0000
0100
0000
,
0101
0000
0010
0000
0100
0000
1010
0000
0100
0000
0010
0000
,
0101
0000
0010
0000
0100
0000
1100
0000
0100
0000
0010
0000
,
0011
0000
1000
0000
0001
0000
1100
0000
0001
0000
1000
0000
,
0011
0000
1000
0000
0001
0000
0101
0000
0001
0000
1000
0000
,
1100
0000
0001
0000
1000
0000
0011
0000
1000
0000
0001
0000
,
1100
0000
0001
0000
1000
0000
1010
0000
1000
0000
0001
0000
,
1010
0000
0100
0000
0010
0000
0101
0000
0010
0000
0100
0000
,
1010
0000
0100
0000
0010
0000
0011
0000
0010
0000
0100
0000
,
0101
0000
0010
0000
0100
0000
1010
0000
0100
0000
0010
0000
,
0101
0000
0010
0000
0100
0000
1100
0000
0100
0000
0010
0000
,
0011
0000
1000
0000
0001
0000
1100
0000
0001
0000
1000
0000
,
0011
0000
1000
0000
0001
0000
0101
0000
0001
0000
1000
0000
,
1100
0000
0001
0000
1000
0000
0011
0000
1000
0000
0001
0000
,
1100
0000
0001
1000
0001
1000
0001
1000
0001
1000
0001
1000
,
0101
0000
0010
0000
0100
0000
1010
0000
0100
0000
0010
0000
,
0101
0000
0010
0000
0100
0000
1100
0000
0100
0000
0010
0000
,
1010
0000
0100
0000
0010
0000
0101
0000
0010
0000
0100
0000
,
1010
0000
0100
0000
0010
0000
0011
0000
0010
0000
0100
0000
,
1100
0000
0001
0000
1000
0000
0011
0000
1000
0000
0001
0000
,
1100
0000
0001
0000
1000
0000
1010
0000
1000
0000
0001
0000
,
0011
0000
1000
0000
0001
0000
1100
0000
0001
0000
1000
0000
,
0011
0000
1000
0000
0001
0000
0101
0000
0001
0000
1000
0000
,
0101
0000
0010
0001
0100
0000
1010
0000
0100
0000
0010
0000
,
0101
0000
0010
0001
0100
0000
1100
0000
0100
0000
0010
0000
,
1010
0000
0100
1000
0010
0000
0101
0000
0010
0000
0100
0000
,
1010
0000
0100
1000
0010
0000
0011
0000
0010
0000
0100
0000
,
1100
0000
0001
0100
1000
0000
0011
0000
1000
0000
0001
0000
,
1100
0000
0001
0100
1000
0000
1010
0000
1000
0000
0001
0000
,
0011
0000
1000
0010
0001
0000
1100
0000
0001
0000
1000
0000
,
0011
0000
1000
0010
0001
1000
0001
1000
0001
1000
0001
1000
,
0001
0000
0000
0000
;
