#TITLE:Pixel Princess;
#SUBTITLE:;
#ARTIST:Lime;
#TITLETRANSLIT:;
#SUBTITLETRANSLIT:;
#ARTISTTRANSLIT:;
#GENRE:EHIME (KAWAIICORE);
#CREDIT:;
#BANNER:;
#BACKGROUND:;
#LYRICSPATH:;
#CDTITLE:;
#MUSIC:Pixel Princess.ogg;
#OFFSET:0.000000;
#SAMPLESTART:17.872339;
#SAMPLELENGTH:15.000000;
#SELECTABLE:YES;
#BPMS:0.000000=188.000000
;
#STOPS:
;
#BGCHANGES:;
#KEYSOUNDS:;
#ATTACKS:;

//---------------dance-single - ----------------
#NOTES:
     dance-single:
     :
     Easy:
     5:
     0.161521,0.273330,0.072477,0.123212,0.000000,156.000000,146.000000,10.000000,17.000000,0.000000,0.000000,0.161521,0.273330,0.072477,0.123212,0.000000,156.000000,146.000000,10.000000,17.000000,0.000000,0.000000:
0000
0000
0000
0000
,
0000
0000
0000
0000
,
0000
0000
0000
0000
,
0000
0000
0000
0000
,
0000
0000
0000
0000
,
0000
0000
0000
0000
,
1000
0000
0000
0000
,
0010
0000
0010
0000
,
0001
0000
0000
0000
,
0100
0000
0100
0000
,
0000
1000
0010
0000
,
1000
0000
0010
0000
,
0100
0000
0001
0000
,
0020
0000
0000
0030
,
1000
0000
1000
0000
,
0100
0000
0100
0000
,
0001
0000
0001
0000
,
0010
0000
0010
0000
,
1000
0000
0100
0000
,
0010
0000
0001
0000
,
1001
0000
0000
0000
,
0110
0000
0000
0000
,
0010
0000
0010
0000
,
1000
0000
1000
0000
,
0100
0000
0100
0000
,
0001
0000
0001
0000
,
0020
0000
0000
0000
,
0000
0000
0000
0030
,
0200
0000
0000
0000
,
0000
0000
0000
0300
,
1000
0000
0100
0000
,
0010
0000
0001
0000
,
1000
0000
0001
0000
,
2002
0000
0000
3003
,
0010
0000
0000
0000
,
0100
0000
0000
0000
,
0010
0000
0000
0000
,
0100
0000
0000
0000
,
0010
0000
0000
0000
,
0100
0000
0000
0000
,
0010
0000
0000
0000
,
1001
0000
0000
0000
,
1000
0000
0100
0000
,
1000
0000
0001
0000
,
0001
0000
0010
0000
,
0001
0000
1000
0000
,
0010
0000
0100
0000
,
0010
0000
0100
0000
,
1001
0000
0000
0100
0000
0000
0010
0000
,
0020
0000
0000
0030
,
1000
0000
0000
0000
,
1000
0000
0000
0000
,
0001
0000
0000
0000
,
0001
0000
0000
0000
,
0010
0000
0000
0000
,
0010
0000
0000
0000
,
0100
0000
0000
0000
,
0100
0000
0000
0000
,
1000
0000
1000
0000
,
0001
0000
0010
0000
,
0001
0000
0001
0000
,
1000
0000
0100
0000
,
0010
0000
0010
0000
,
0100
0000
0001
0000
,
2002
0000
0000
0000
,
0000
0000
0000
3003
,
0220
0000
0000
0000
,
0000
0000
0000
0330
,
1000
0000
1000
0000
,
0100
0000
0100
0000
,
0001
0000
0001
0000
,
0010
0000
0010
0000
,
1000
0000
0100
0000
,
0010
0000
0001
0000
,
1001
0000
0000
0000
,
0110
0000
0000
0000
,
0010
0000
0010
0000
,
1000
0000
1000
0000
,
0100
0000
0100
0000
,
0001
0000
0001
0000
,
0020
0000
0000
0000
,
0000
0000
0000
0030
,
0200
0000
0000
0000
,
0000
0000
0000
0300
,
1000
0000
0100
0000
,
1000
0000
0001
0000
,
0001
0000
0010
0000
,
0001
0000
1000
0000
,
1000
0000
0100
0000
,
0010
0000
0001
0000
,
1000
0000
0001
0000
,
2002
0000
0000
3003
,
1000
0000
0000
0000
,
0010
0000
0010
0000
,
0001
0000
0000
0000
,
0100
0000
0100
0000
,
0000
1000
0010
0000
,
1000
0000
0010
0000
,
0100
0000
0001
0000
,
0020
0000
0000
0030
,
0000
0200
0000
0000
,
0000
0300
0020
0000
,
0000
0000
0000
0000
,
0000
0000
0030
0000
,
0000
0100
0000
0000
,
0000
0000
0000
0000
,
0000
0000
0000
0000
,
0000
0000
0000
0100
;

//---------------dance-single - ----------------
#NOTES:
     dance-single:
     :
     Beginner:
     4:
     0.128389,0.234283,0.072477,0.115964,0.000000,124.000000,114.000000,10.000000,16.000000,0.000000,0.000000,0.128389,0.234283,0.072477,0.115964,0.000000,124.000000,114.000000,10.000000,16.000000,0.000000,0.000000:
0000
0000
0000
0000
,
0000
0000
0000
0000
,
0000
0000
0000
0000
,
0000
0000
0000
0000
,
0000
0000
0000
0000
,
0000
0000
0000
0000
,
1000
0000
0000
0000
,
0010
0000
0000
0000
,
0001
0000
0000
0000
,
0100
0000
0000
0000
,
0000
0010
0000
0000
,
1000
0000
0010
0000
,
0100
0000
0001
0000
,
0020
0000
0000
0030
,
1000
0000
0000
0000
,
0100
0000
0000
0000
,
0001
0000
0000
0000
,
0010
0000
0000
0000
,
1000
0000
0100
0000
,
0010
0000
0001
0000
,
1001
0000
0000
0000
,
0110
0000
0000
0000
,
0010
0000
0000
0000
,
1000
0000
0000
0000
,
0100
0000
0000
0000
,
0001
0000
0000
0000
,
0020
0000
0000
0000
,
0000
0000
0000
0030
,
0200
0000
0000
0000
,
0000
0000
0000
0300
,
1000
0000
0100
0000
,
0010
0000
0001
0000
,
1000
0000
0001
0000
,
2002
0000
0000
3003
,
0010
0000
0000
0000
,
0100
0000
0000
0000
,
0010
0000
0000
0000
,
0100
0000
0000
0000
,
0010
0000
0000
0000
,
0100
0000
0000
0000
,
0010
0000
0000
0000
,
1001
0000
0000
0000
,
1000
0000
0000
0000
,
1000
0000
0001
0000
,
0001
0000
0000
0000
,
0001
0000
1000
0000
,
0010
0000
0000
0000
,
0010
0000
0100
0000
,
1001
0000
0000
0100
0000
0000
0020
0000
,
0000
0000
0000
0030
,
1000
0000
0000
0000
,
1000
0000
0000
0000
,
0001
0000
0000
0000
,
0001
0000
0000
0000
,
0010
0000
0000
0000
,
0010
0000
0000
0000
,
0100
0000
0000
0000
,
0100
0000
0000
0000
,
1000
0000
1000
0000
,
0001
0000
0000
0000
,
0001
0000
0001
0000
,
1000
0000
0000
0000
,
0010
0000
0010
0000
,
0100
0000
0000
0000
,
2002
0000
0000
0000
,
0000
0000
0000
3003
,
0220
0000
0000
0000
,
0000
0000
0000
0330
,
1000
0000
0000
0000
,
0100
0000
0000
0000
,
0001
0000
0000
0000
,
0010
0000
0000
0000
,
1000
0000
0100
0000
,
0010
0000
0001
0000
,
1001
0000
0000
0000
,
0110
0000
0000
0000
,
0010
0000
0000
0000
,
1000
0000
0000
0000
,
0100
0000
0000
0000
,
0001
0000
0000
0000
,
0020
0000
0000
0000
,
0000
0000
0000
0030
,
0200
0000
0000
0000
,
0000
0000
0000
0300
,
1000
0000
0000
0000
,
1000
0000
0001
0000
,
0001
0000
0000
0000
,
0001
0000
1000
0000
,
1000
0000
0100
0000
,
0010
0000
0001
0000
,
1000
0000
0001
0000
,
2002
0000
0000
3003
,
1000
0000
0000
0000
,
0010
0000
0000
0000
,
0001
0000
0000
0000
,
0100
0000
0000
0000
,
0000
0010
0000
0000
,
1000
0000
0010
0000
,
0100
0000
0001
0000
,
0020
0000
0000
0030
,
0000
0200
0000
0000
,
0000
0000
0000
0000
,
0000
0000
0000
0000
,
0000
0000
0300
0000
,
0000
0010
0000
0000
,
0000
0000
0000
0000
,
0000
0000
0000
0000
,
0000
0000
0000
0010
;

//---------------dance-single - ----------------
#NOTES:
     dance-single:
     :
     Medium:
     5:
     0.183264,0.351425,0.079725,0.123212,0.000000,177.000000,166.000000,11.000000,17.000000,0.000000,0.000000,0.183264,0.351425,0.079725,0.123212,0.000000,177.000000,166.000000,11.000000,17.000000,0.000000,0.000000:
0000
0000
0000
0000
,
0000
0000
0000
0000
,
0000
0000
0000
0000
,
0000
0000
0000
0000
,
0000
0000
0000
0000
,
0000
0000
0000
0000
,
1000
0000
0000
0000
,
0010
0000
0010
0000
,
0001
0000
0000
0000
,
0100
0000
0100
0000
,
0000
1000
0010
0000
,
1000
0000
0010
0000
,
0100
0000
0001
1000
,
0020
0000
0000
0030
,
1000
0000
1000
0000
,
0100
0000
0100
0100
,
0001
0000
0001
0000
,
0010
0000
0010
0010
,
1000
0000
0100
0000
,
0010
0000
0001
0000
,
1001
0000
0000
0000
,
0110
0000
0000
0000
,
0010
0000
0010
0000
,
1000
0000
1000
1000
,
0100
0000
0100
0000
,
0001
0000
0001
0001
,
0020
0000
0000
0000
,
0000
0000
0000
0030
,
0200
0000
0000
0000
,
0000
0000
0000
0300
,
1000
0000
0100
0000
,
0010
0000
0001
0000
,
1000
0001
1000
0001
,
2002
0000
0000
3003
,
0010
0000
0000
0000
,
0100
0000
0000
0000
,
0010
0000
0000
0000
,
0100
0000
0000
0000
,
0010
0000
0000
0000
,
0100
0000
0000
0000
,
0010
0000
0000
0000
,
1001
0000
0000
0000
,
1000
0000
0100
0000
,
1000
0000
0001
0000
,
0001
0000
0010
0000
,
0001
0000
1000
0000
,
0010
0000
0100
0000
,
0010
0000
0100
0010
,
1001
0000
0000
0110
0000
0000
0010
0000
,
0020
0000
0000
0030
,
1000
0000
0000
0000
,
1000
0000
0000
0000
,
0001
0000
0000
0000
,
0001
0000
0001
0000
,
0010
0000
0000
0000
,
0010
0000
0000
0000
,
0100
0000
0000
0000
,
0100
0000
0100
0000
,
1000
0000
1000
0000
,
0001
1000
0010
0000
,
0001
0000
0001
0000
,
1000
0001
0100
0000
,
0010
0000
0010
0000
,
0100
0010
0001
0000
,
2002
0000
0000
0000
,
0000
0000
0000
3003
,
0220
0000
0000
0000
,
0000
0000
0000
0330
,
1000
0000
1000
0000
,
0100
0000
0100
0100
,
0001
0000
0001
0000
,
0010
0000
0010
0010
,
1000
0000
0100
0000
,
0010
0000
0001
0000
,
1001
0000
0000
0000
,
0110
0000
0000
0000
,
0010
0000
0010
0000
,
1000
0000
1000
1000
,
0100
0000
0100
0000
,
0001
0000
0001
0001
,
0020
0000
0000
0000
,
0000
0000
0000
0030
,
0200
0000
0000
0000
,
0000
0000
0000
0300
,
1000
0000
0100
0000
,
1000
0000
0001
0000
,
0001
0000
0010
0000
,
0001
0000
1000
0000
,
1000
0000
0100
0000
,
0010
0000
0001
0000
,
1000
0001
1000
0001
,
2002
0000
0000
3003
,
1000
0000
0000
0000
,
0010
0000
0010
0000
,
0001
0000
0000
0000
,
0100
0000
0100
0000
,
0000
1000
0010
0000
,
1000
0000
0010
0000
,
0100
0000
0001
1000
,
0020
0000
0000
0030
,
0000
0200
0000
0000
,
0000
0300
0020
0000
,
0000
0000
0000
0000
,
0000
0000
0030
0000
,
0000
0100
0000
0000
,
0000
0000
0000
0000
,
0000
0000
0000
0000
,
0000
0000
0000
0100
;

//---------------dance-single - ----------------
#NOTES:
     dance-single:
     :
     Hard:
     6:
     0.214326,0.390472,0.094221,0.130459,0.000000,207.000000,194.000000,13.000000,18.000000,0.000000,0.000000,0.214326,0.390472,0.094221,0.130459,0.000000,207.000000,194.000000,13.000000,18.000000,0.000000,0.000000:
0000
0000
0000
0000
,
0000
0000
0000
0000
,
0000
0000
0000
0000
,
0000
0000
0000
0000
,
0000
0000
0000
0000
,
0000
0000
0000
0000
,
1000
0000
1000
0000
,
0010
0000
0010
0000
,
0001
0000
0001
0000
,
0100
0000
0100
0000
,
0000
1000
0010
0001
,
1000
0000
0010
0001
,
0100
0000
0001
1000
,
0020
0000
0000
0030
,
1000
0000
1000
1000
,
0100
0000
0100
0100
,
0001
0000
0001
0001
,
0010
0000
0010
0010
,
1000
0000
0100
0000
,
0010
0000
0001
0000
,
1001
0000
0000
0000
,
0110
0000
0010
0000
,
0010
0000
0010
0010
,
1000
0000
1000
1000
,
0100
0000
0100
0100
,
0001
0000
0001
0001
,
0020
0000
0000
0000
,
0000
0000
0000
0030
,
0200
0000
0000
0000
,
0000
0000
0000
0300
,
1000
0000
0100
0000
,
0010
0000
0001
0000
,
1000
0001
1000
0001
,
2002
0000
0000
3003
,
0010
0000
0000
0000
,
0100
0000
0000
0000
,
0010
0000
0000
0000
,
0100
0000
0000
0000
,
0010
0000
0000
0000
,
0100
0000
0000
0000
,
0010
0000
0000
0000
,
1001
0000
0000
0000
,
1000
0000
0100
0000
,
1000
0000
0001
1000
,
0001
0000
0010
0000
,
0001
0000
1000
0001
,
0010
0000
0100
0000
,
0010
0000
0100
0010
,
1001
0000
0000
0110
0000
0000
1001
0000
,
0020
0000
0000
0030
,
1000
0000
0000
0000
,
1000
0000
1000
0000
,
0001
0000
0000
0000
,
0001
0000
0001
0000
,
0010
0000
0000
0000
,
0010
0000
0010
0000
,
0100
0000
0000
0000
,
0100
0000
0100
0000
,
1000
0001
1000
0000
,
0001
1000
0010
0000
,
0001
1000
0001
0000
,
1000
0001
0100
0000
,
0010
0100
0010
0000
,
0100
0010
0001
0000
,
2002
0000
0000
0000
,
0000
0000
0000
3003
,
0220
0000
0000
0000
,
0000
0000
0000
0330
,
1000
0000
1000
1000
,
0100
0000
0100
0100
,
0001
0000
0001
0001
,
0010
0000
0010
0010
,
1000
0000
0100
0000
,
0010
0000
0001
0000
,
1001
0000
0000
0000
,
0110
0000
0010
0000
,
0010
0000
0010
0010
,
1000
0000
1000
1000
,
0100
0000
0100
0100
,
0001
0000
0001
0001
,
0020
0000
0000
0000
,
0000
0000
0000
0030
,
0200
0000
0000
0000
,
0000
0000
0000
0300
,
1000
0000
0100
0000
,
1000
0000
0001
1000
,
0001
0000
0010
0000
,
0001
0000
1000
0001
,
1000
0000
0100
0000
,
0010
0000
0001
0000
,
1000
0001
1000
0001
,
2002
0000
0000
3003
,
1000
0000
1000
0000
,
0010
0000
0010
0000
,
0001
0000
0001
0000
,
0100
0000
0100
0000
,
0000
1000
0010
0001
,
1000
0000
0010
0001
,
0100
0000
0001
1000
,
0020
0000
0000
0030
,
0020
0230
0000
0000
,
0000
0300
0020
0000
,
0000
0000
0000
0000
,
0000
0000
0030
0000
,
0000
0100
0000
0000
,
0000
0000
0000
0000
,
0000
0000
0000
0000
,
0000
0000
0000
0110
;

//---------------dance-single - ----------------
#NOTES:
     dance-single:
     :
     Challenge:
     6:
     0.238140,0.429519,0.101468,0.152203,0.000000,230.000000,216.000000,14.000000,21.000000,0.000000,0.000000,0.238140,0.429519,0.101468,0.152203,0.000000,230.000000,216.000000,14.000000,21.000000,0.000000,0.000000:
0000
0000
0000
0000
,
0000
0000
0000
0000
,
0000
0000
0000
0000
,
0000
0000
0000
0000
,
0000
0000
0000
0000
,
0000
0000
0000
0000
,
1000
1000
1000
0000
,
0010
0000
0010
0000
,
0001
0001
0001
0000
,
0100
0000
0100
0000
,
0000
1000
0010
0001
,
1000
0000
0010
0001
,
0100
0000
0001
1000
,
0020
0000
0000
0030
,
1000
0000
1000
1000
,
0100
0000
0100
0100
,
0001
0000
0001
0001
,
0010
0000
0010
0010
,
1000
0000
0100
0000
,
0010
0000
0001
0000
,
1001
0000
0100
0000
,
0110
0000
0010
0000
,
0010
0000
0010
0010
,
1000
0000
1000
1000
,
0100
0000
0100
0100
,
0001
0000
0001
0001
,
0020
0000
0000
0200
,
0000
0000
0000
0330
,
0200
0000
0000
0020
,
0000
0000
0000
0330
,
1000
0000
0100
0000
,
0010
0000
0001
0000
,
1000
0001
1000
0001
,
2002
0000
0000
3003
,
0010
0000
0000
0000
,
0100
0000
0000
0000
,
0010
0000
0000
0000
,
0100
0000
0000
0000
,
0010
0000
0000
0000
,
0100
0000
0010
0000
,
0100
0000
0010
0000
,
1001
0000
0000
0000
,
1000
0000
0100
1000
,
1000
0000
0001
1000
,
0001
0000
0010
0001
,
0001
0000
1000
0001
,
0010
0000
0100
0010
,
0010
0000
0100
0010
,
1001
0000
0000
0110
0000
0000
1001
0000
,
0220
0000
0000
0330
,
1000
0000
1000
0000
,
1000
0000
1000
0000
,
0001
0000
0001
0000
,
0001
0000
0001
0000
,
0010
0000
0010
0000
,
0010
0000
0010
0000
,
0100
0000
0100
0000
,
0100
0000
0100
0000
,
1000
0001
1000
0001
,
0001
1000
0010
0000
,
0001
1000
0001
1000
,
1000
0001
0100
0000
,
0010
0100
0010
0100
,
0100
0010
0001
0000
,
2002
0000
0000
0000
,
0000
0000
0000
3003
,
0220
0000
0000
0000
,
0000
0000
0000
0330
,
1000
0000
1000
1000
,
0100
0000
0100
0100
,
0001
0000
0001
0001
,
0010
0000
0010
0010
,
1000
0000
0100
0000
,
0010
0000
0001
0000
,
1001
0000
0100
0000
,
0110
0000
0010
0000
,
0010
0000
0010
0010
,
1000
0000
1000
1000
,
0100
0000
0100
0100
,
0001
0000
0001
0001
,
0020
0000
0000
0000
,
0000
0000
0000
0030
,
0200
0000
0000
0000
,
0000
0000
0000
0300
,
1000
0000
0100
1000
,
1000
0000
0001
1000
,
0001
0000
0010
0001
,
0001
0000
1000
0001
,
1000
0000
0100
0000
,
0010
0000
0001
0000
,
1000
0001
1000
0001
,
2002
0000
0000
3003
,
1000
1000
1000
0000
,
0010
0000
0010
0000
,
0001
0001
0001
0000
,
0100
0000
0100
0000
,
0000
1000
0010
0001
,
1000
0000
0010
0001
,
0100
0000
0001
1000
,
0020
0000
0000
0030
,
0020
0230
0000
0000
,
0000
0300
0020
0000
,
0000
0000
0000
0000
,
0000
0000
0030
0000
,
0000
0100
0000
0000
,
0000
0000
0000
0000
,
0000
0000
0000
0000
,
0000
0000
0000
1001
;

//---------------dance-single - Deluxe----------------
#NOTES:
     dance-single:
     :
     Edit:
     7:
     0.268166,0.429519,0.108716,0.152203,0.000000,259.000000,244.000000,15.000000,21.000000,0.000000,0.000000,0.268166,0.429519,0.108716,0.152203,0.000000,259.000000,244.000000,15.000000,21.000000,0.000000,0.000000:
0000
0000
0000
0000
,
0000
0000
0000
0000
,
0000
0000
0000
0000
,
0000
0000
0000
0000
,
0000
0000
0000
0000
,
0000
0000
0000
0000
,
1000
1000
1000
0000
,
0010
0000
0010
0010
,
0001
0001
0001
0000
,
0100
0000
0100
0100
,
0000
1000
0010
0001
,
1000
0100
0010
0001
,
0100
0010
0001
1000
,
0020
0000
0000
0030
,
1000
0000
1000
1000
,
0100
0010
0100
0100
,
0001
0000
0001
0001
,
0010
0100
0010
0010
,
1000
0000
0100
0000
,
0010
0000
0001
0000
,
1001
0000
0100
0000
,
0110
0000
0010
0000
,
0010
0000
0010
0010
,
1000
0001
1000
1000
,
0100
0000
0100
0100
,
0001
1000
0001
0001
,
0020
0000
0000
0200
,
0000
0000
0000
0330
,
0200
0000
0000
0020
,
0000
0000
0000
0330
,
1000
0000
0001
0000
,
1000
0100
0010
0001
,
1000
0001
1000
0001
,
2002
0000
0000
3003
,
0010
0000
0000
0000
,
0100
0000
0000
0000
,
0010
0000
0000
0000
,
0100
0000
0000
0000
,
0010
0000
0000
0000
,
0100
0000
0010
0000
,
0100
0000
0010
0000
,
1001
0000
0000
0000
,
1000
0001
0100
1000
,
1000
0000
0001
1000
,
0001
1000
0010
0001
,
0001
0000
1000
0001
,
0010
0100
0100
0010
,
0010
0000
0100
0010
,
1001
0000
0000
0110
0000
0000
1001
0000
,
0220
0000
0000
0330
,
1000
0000
1000
0000
,
1000
0000
1000
0000
,
0001
0000
0001
0000
,
0001
0000
0001
0000
,
0010
0000
0010
0000
,
0010
0000
0010
0000
,
0100
0000
0100
0000
,
0100
0000
0100
0000
,
1000
0001
1000
0001
,
0001
1000
0010
0001
,
0001
1000
0001
1000
,
1000
0001
0100
1000
,
0010
0100
0010
0100
,
0100
0010
0001
0100
,
2002
0000
0000
0000
,
0000
0000
0000
3003
,
0220
0000
0000
0000
,
0000
0000
0000
0330
,
1000
0000
1000
1000
,
0100
0010
0100
0100
,
0001
0000
0001
0001
,
0010
0100
0010
0010
,
1000
0000
0100
0000
,
0010
0000
0001
0000
,
1001
0000
0100
0000
,
0110
0000
0010
0000
,
0010
0000
0010
0010
,
1000
0001
1000
1000
,
0100
0000
0100
0100
,
0001
1000
0001
0001
,
0020
0000
0000
0000
,
0000
0000
0000
0030
,
0200
0000
0000
0000
,
0000
0000
0000
0300
,
1000
0001
0100
1000
,
1000
0000
0001
1000
,
0001
1000
0010
0001
,
0001
0000
1000
0001
,
1000
0000
0001
0000
,
1000
0100
0010
0001
,
1000
0001
1000
0001
,
2002
0000
0000
3003
,
1000
1000
1000
0000
,
0010
0000
0010
0010
,
0001
0001
0001
0000
,
0100
0000
0100
0100
,
0000
1000
0010
0001
,
1000
0100
0010
0001
,
0100
0010
0001
1000
,
0020
0000
0000
0030
,
0020
0230
0000
0000
,
0000
0000
0020
0000
,
0000
0000
0000
0000
,
0000
0000
0330
0000
,
0000
0110
0000
0000
,
0000
0000
0000
0000
,
0000
0000
0000
0000
,
0000
0000
0000
1001
;

//---------------dance-single - Casual----------------
#NOTES:
     dance-single:
     :
     Edit:
     3:
     0.108716,0.195236,0.072477,0.115964,0.000000,105.000000,95.000000,10.000000,16.000000,0.000000,0.000000,0.108716,0.195236,0.072477,0.115964,0.000000,105.000000,95.000000,10.000000,16.000000,0.000000,0.000000:
// measure 0
0000
0000
0000
0000
,  // measure 1
0000
0000
0000
0000
,  // measure 2
0000
0000
0000
0000
,  // measure 3
0000
0000
0000
0000
,  // measure 4
0000
0000
0000
0000
,  // measure 5
0000
0000
0000
0000
,  // measure 6
1000
0000
0000
0000
,  // measure 7
0010
0000
0000
0000
,  // measure 8
0001
0000
0000
0000
,  // measure 9
0100
0000
0000
0000
,  // measure 10
0000
0010
0000
0000
,  // measure 11
1000
0000
0000
0000
,  // measure 12
0001
0000
0000
0000
,  // measure 13
0020
0000
0000
0030
,  // measure 14
1000
0000
0000
0000
,  // measure 15
0100
0000
0000
0000
,  // measure 16
0001
0000
0000
0000
,  // measure 17
0010
0000
0000
0000
,  // measure 18
1000
0000
0000
0000
,  // measure 19
0001
0000
0000
0000
,  // measure 20
1001
0000
0000
0000
,  // measure 21
0110
0000
0000
0000
,  // measure 22
0010
0000
0000
0000
,  // measure 23
1000
0000
0000
0000
,  // measure 24
0100
0000
0000
0000
,  // measure 25
0001
0000
0000
0000
,  // measure 26
0020
0000
0000
0000
,  // measure 27
0000
0000
0000
0030
,  // measure 28
0200
0000
0000
0000
,  // measure 29
0000
0000
0000
0300
,  // measure 30
1000
0000
0000
0000
,  // measure 31
0001
0000
0000
0000
,  // measure 32
1000
0000
0001
0000
,  // measure 33
2002
0000
0000
3003
,  // measure 34
0010
0000
0000
0000
,  // measure 35
0100
0000
0000
0000
,  // measure 36
0010
0000
0000
0000
,  // measure 37
0100
0000
0000
0000
,  // measure 38
0010
0000
0000
0000
,  // measure 39
0100
0000
0000
0000
,  // measure 40
0010
0000
0000
0000
,  // measure 41
1001
0000
0000
0000
,  // measure 42
1000
0000
0000
0000
,  // measure 43
1000
0000
0000
0000
,  // measure 44
0001
0000
0000
0000
,  // measure 45
0001
0000
0000
0000
,  // measure 46
0010
0000
0000
0000
,  // measure 47
0010
0000
0000
0000
,  // measure 48
1001
0000
0000
0020
,  // measure 49
0000
0000
0000
0030
,  // measure 50
1000
0000
0000
0000
,  // measure 51
1000
0000
0000
0000
,  // measure 52
0001
0000
0000
0000
,  // measure 53
0001
0000
0000
0000
,  // measure 54
0010
0000
0000
0000
,  // measure 55
0010
0000
0000
0000
,  // measure 56
0100
0000
0000
0000
,  // measure 57
0100
0000
0000
0000
,  // measure 58
1000
0000
1000
0000
,  // measure 59
0001
0000
0000
0000
,  // measure 60
0001
0000
0001
0000
,  // measure 61
1000
0000
0000
0000
,  // measure 62
0010
0000
0000
0000
,  // measure 63
0100
0000
0000
0000
,  // measure 64
2002
0000
0000
0000
,  // measure 65
0000
0000
0000
3003
,  // measure 66
0220
0000
0000
0000
,  // measure 67
0000
0000
0000
0330
,  // measure 68
1000
0000
0000
0000
,  // measure 69
0100
0000
0000
0000
,  // measure 70
0001
0000
0000
0000
,  // measure 71
0010
0000
0000
0000
,  // measure 72
1000
0000
0000
0000
,  // measure 73
0001
0000
0000
0000
,  // measure 74
1001
0000
0000
0000
,  // measure 75
0110
0000
0000
0000
,  // measure 76
0010
0000
0000
0000
,  // measure 77
1000
0000
0000
0000
,  // measure 78
0100
0000
0000
0000
,  // measure 79
0001
0000
0000
0000
,  // measure 80
0020
0000
0000
0000
,  // measure 81
0000
0000
0000
0030
,  // measure 82
0200
0000
0000
0000
,  // measure 83
0000
0000
0000
0300
,  // measure 84
1000
0000
0000
0000
,  // measure 85
1000
0000
0000
0000
,  // measure 86
0001
0000
0000
0000
,  // measure 87
0001
0000
0000
0000
,  // measure 88
1000
0000
0000
0000
,  // measure 89
0001
0000
0000
0000
,  // measure 90
1000
0000
0001
0000
,  // measure 91
2002
0000
0000
3003
,  // measure 92
1000
0000
0000
0000
,  // measure 93
0010
0000
0000
0000
,  // measure 94
0001
0000
0000
0000
,  // measure 95
0100
0000
0000
0000
,  // measure 96
0000
0010
0000
0000
,  // measure 97
1000
0000
0000
0000
,  // measure 98
0001
0000
0000
0000
,  // measure 99
0020
0000
0000
0030
,  // measure 100
0000
0200
0000
0000
,  // measure 101
0000
0000
0000
0000
,  // measure 102
0000
0000
0000
0000
,  // measure 103
0000
0000
0300
0000
,  // measure 104
0000
0010
0000
0000
,  // measure 105
0000
0000
0000
0000
,  // measure 106
0000
0000
0000
0000
,  // measure 107
0000
0000
0000
0010
;

//---------------dance-single - Enjoy----------------
#NOTES:
     dance-single:
     :
     Edit:
     1:
     0.033133,0.117142,0.021743,0.021743,0.000000,32.000000,29.000000,3.000000,3.000000,0.000000,0.000000,0.033133,0.117142,0.021743,0.021743,0.000000,32.000000,29.000000,3.000000,3.000000,0.000000,0.000000:
0000
0000
0000
0000
,
0000
0000
0000
0000
,
0000
0000
0000
0000
,
0000
0000
0000
0000
,
0000
0000
0000
0000
,
0000
0000
0000
0000
,
0010
0000
0000
0000
,
0000
0000
0000
0000
,
0000
0000
0000
0000
,
0000
0000
0000
0000
,
0000
0010
0000
0000
,
0000
0000
0000
0000
,
0000
0000
0000
0000
,
0200
0000
0300
0000
,
1000
0000
0000
0000
,
0000
0000
0000
0000
,
0000
0000
0000
0000
,
0000
0000
0000
0000
,
0001
0000
0000
0000
,
0000
0000
0000
0000
,
0000
0000
0000
0000
,
0000
0000
0000
0000
,
1000
0000
0000
0000
,
0000
0000
0000
0000
,
0000
0000
0000
0000
,
0000
0000
0000
0000
,
0001
0000
0000
0000
,
0000
0000
0000
0000
,
0000
0000
0000
0000
,
0000
0000
0000
0000
,
0010
0000
0000
0000
,
0000
0000
0000
0000
,
0010
0000
0000
0000
,
0000
0000
0000
0000
,
1001
0000
0000
0000
,
0000
0000
0000
0000
,
0000
0000
0000
0000
,
0000
0000
0000
0000
,
0000
0000
0000
0000
,
0000
0000
0000
0000
,
0000
0000
0000
0000
,
0000
0000
0000
0000
,
1000
0000
0000
0000
,
0000
0000
0000
0000
,
0000
0000
0000
0000
,
0000
0000
0000
0000
,
0001
0000
0000
0000
,
0000
0000
0000
0000
,
0000
0000
0000
0000
,
0000
0000
0000
0000
,
0100
0000
0000
0000
,
0000
0000
0000
0000
,
0000
0000
0000
0000
,
0000
0000
0000
0000
,
0100
0000
0000
0000
,
0000
0000
0000
0000
,
0000
0000
0000
0000
,
0000
0000
0000
0000
,
0100
0000
0000
0000
,
0000
0000
0000
0000
,
0000
0000
0000
0000
,
0000
0000
0000
0000
,
0010
0000
0000
0000
,
0000
0000
0000
0000
,
0020
0000
0000
0000
,
0000
0000
0000
0000
,
0000
0000
0000
0000
,
0030
0000
0000
0000
,
1000
0000
0000
0000
,
0000
0000
0000
0000
,
0000
0000
0000
0000
,
0000
0000
0000
0000
,
0001
0000
0000
0000
,
0000
0000
0000
0000
,
0000
0000
0000
0000
,
0000
0000
0000
0000
,
1000
0000
0000
0000
,
0000
0000
0000
0000
,
0000
0000
0000
0000
,
0000
0000
0000
0000
,
0001
0000
0000
0000
,
0000
0000
0000
0000
,
0000
0000
0000
0000
,
0000
0000
0000
0000
,
0010
0000
0000
0000
,
0000
0000
0000
0000
,
0010
0000
0000
0000
,
0000
0000
0000
0000
,
1001
0000
0000
0000
,
0000
0000
0000
0000
,
0000
0000
0000
0000
,
0000
0000
0000
0000
,
0010
0000
0000
0000
,
0000
0000
0000
0000
,
0000
0000
0000
0000
,
0000
0000
0000
0000
,
0000
0010
0000
0000
,
0000
0000
0000
0000
,
0000
0000
0000
0000
,
0200
0000
0300
0000
,
0000
1001
0000
0000
,
0000
0000
0000
0000
,
0000
0000
0000
0000
,
0000
0000
0000
0000
,
0000
0000
0000
0000
,
0000
0000
0000
0000
,
0000
0000
0000
0000
,
0000
0000
0000
0010
;
